osu file format v14

[General]
AudioFilename: no_hardstyle.mp3
AudioLeadIn: 0
PreviewTime: 6788
Countdown: 0
SampleSet: Soft
StackLeniency: 0.3
Mode: 0
LetterboxInBreaks: 0
WidescreenStoryboard: 1

[Editor]
DistanceSpacing: 1.4
BeatDivisor: 4
GridSize: 32
TimelineZoom: 1.399999

[Metadata]
Title:Natsu no Owari (Soleily Remix)
TitleUnicode:夏の終焉り (Soleily Remix)
Artist:Denkishiki Karen Ongaku Shuudan
ArtistUnicode:電気式華憐音楽集団
Creator:Lasse
Version:Hard
Source:終わる世界とバースデイ
Tags:Owaru Sekai to Birthday コットンソフト Cotton Soft eroge visual novel dnb drum and bass denkare
BeatmapID:1409511
BeatmapSetID:665232

[Difficulty]
HPDrainRate:5
CircleSize:3.8
OverallDifficulty:6
ApproachRate:7.5
SliderMultiplier:1.4
SliderTickRate:1

[Events]
//Background and Video events
0,0,"bg.jpg",0,0
//Break Periods
//Storyboard Layer 0 (Background)
//Storyboard Layer 1 (Fail)
//Storyboard Layer 2 (Pass)
//Storyboard Layer 3 (Foreground)
//Storyboard Sound Samples

[TimingPoints]
17,342.857142857143,4,2,22,5,1,0
1388,-200,4,2,22,20,0,0
2759,-200,4,2,22,30,0,0
3445,-200,4,2,22,34,0,0
4131,-200,4,2,22,38,0,0
4817,-200,4,2,22,42,0,0
5502,-200,4,2,22,46,0,0
5845,-200,4,2,22,50,0,0
6188,-200,4,2,22,54,0,0
6359,-200,4,2,22,58,0,0
6531,-200,4,2,99,30,0,0
6874,-200,4,2,22,30,0,0
17845,-200,4,2,22,34,0,0
23331,-200,4,2,22,36,0,0
28474,-200,4,2,22,36,0,0
28645,-200,4,2,99,5,0,0
28817,-100,4,2,1,64,0,0
32159,-100,4,2,1,40,0,0
32245,-100,4,2,1,64,0,0
33617,-100,4,2,1,66,0,0
34302,-100,4,2,22,60,0,0
35331,-125,4,2,22,50,0,0
35588,-125,4,2,99,5,0,0
35674,-90.9090909090909,4,2,1,70,0,1
46302,-90.9090909090909,4,2,1,70,0,0
46645,-90.9090909090909,4,2,1,70,0,1
57617,-90.9090909090909,4,2,1,64,0,0
60359,-100,4,2,1,64,0,0
79559,-125,4,2,22,60,0,0
79902,-125,4,2,22,56,0,0
82302,-125,4,2,34,54,0,0
93274,-111.111111111111,4,2,34,56,0,0
102874,-142.857142857143,4,2,1,60,0,0
102895,-142.857142857143,4,2,22,20,0,0
103217,-142.857142857143,4,2,23,30,0,0
103559,-142.857142857143,4,2,22,50,0,0
103902,-142.857142857143,4,2,22,30,0,0
104159,-142.857142857143,4,2,99,5,0,0
104245,-100,4,2,1,66,0,0
104588,-100,4,2,22,40,0,0
104759,-100,4,2,1,68,0,0
105102,-100,4,2,22,40,0,0
105274,-83.3333333333333,4,2,1,64,0,0
105445,-83.3333333333333,4,2,22,40,0,0
105617,-83.3333333333333,4,2,1,68,0,0
106302,-83.3333333333333,4,2,1,52,0,0
106388,-83.3333333333333,4,2,1,54,0,0
106474,-83.3333333333333,4,2,1,56,0,0
106559,-83.3333333333333,4,2,1,58,0,0
106645,-83.3333333333333,4,2,1,60,0,0
106731,-83.3333333333333,4,2,1,62,0,0
106817,-83.3333333333333,4,2,1,64,0,0
106902,-83.3333333333333,4,2,1,66,0,0
106988,-100,4,2,1,64,0,0
110331,-100,4,2,1,40,0,0
110417,-100,4,2,1,64,0,0
111788,-100,4,2,1,66,0,0
112474,-200,4,2,1,64,0,0
112559,-200,4,2,1,30,0,0
113159,-108.695652173913,4,2,22,40,0,0
113417,-100,4,2,99,5,0,0
113502,-125,4,2,22,50,0,0
113759,-100,4,2,99,5,0,0
113845,-90.9090909090909,4,2,1,70,0,1
124474,-100,4,2,1,70,0,0
124817,-90.9090909090909,4,2,1,70,0,1
130217,-83.3333333333333,4,2,1,70,0,0
130302,-83.3333333333333,4,2,1,70,0,1
131674,-83.3333333333333,4,2,1,70,0,1
132188,-83.3333333333333,4,2,1,70,0,1
132874,-90.9090909090909,4,2,1,70,0,1
135788,-100,4,2,1,64,0,0
156359,-100,4,2,22,68,0,0
156531,-100,4,2,22,66,0,0
156788,-100,4,2,22,64,0,0
157045,-100,4,2,22,62,0,0
157302,-100,4,2,22,60,0,0
157388,-100,4,2,22,58,0,0
157474,-100,4,2,22,56,0,0
157559,-100,4,2,22,54,0,0
157645,-100,4,2,22,52,0,0
157731,-111.111111111111,4,2,1,60,0,0
174188,-111.111111111111,4,2,1,60,0,0
174531,-111.111111111111,4,2,1,60,0,0
175559,-111.111111111111,4,2,1,60,0,0
175902,-111.111111111111,4,2,1,60,0,0
177274,-111.111111111111,4,2,1,60,0,0
179674,-111.111111111111,4,2,99,60,0,0
179759,-111.111111111111,4,2,1,50,0,0

[Colours]
Combo1 : 150,220,130
Combo2 : 250,150,110
Combo3 : 130,170,250
Combo4 : 240,220,120

[HitObjects]
256,192,874,12,6,6531,0:1:0:0:
202,121,6874,6,0,P|150:112|98:117,2,105,2|2|2,0:0|0:0|0:0,0:0:0:0:
310,263,9617,6,0,P|361:271|413:266,2,105,2|2|2,0:0|0:0|0:0,0:0:0:0:
310,121,12359,6,0,P|361:112|413:117,2,105,2|2|2,0:0|0:0|0:0,0:0:0:0:
202,263,15102,6,0,P|150:271|98:266,2,105,2|2|2,0:0|0:0|0:0,0:0:0:0:
310,120,17845,6,0,P|329:73|308:26,1,105,2|2,0:0|0:0,0:0:0:0:
204,26,18874,1,2,0:0:0:0:
201,120,20588,6,0,P|182:73|203:26,1,105,2|2,0:0|0:0,0:0:0:0:
308,26,21617,1,2,0:0:0:0:
310,264,23331,5,2,0:0:0:0:
368,351,23845,1,2,0:0:0:0:
415,258,24359,1,2,0:0:0:0:
202,264,26074,5,2,0:0:0:0:
144,351,26588,1,2,0:0:0:0:
97,258,27102,1,2,0:0:0:0:
256,192,27188,12,0,28474,0:0:0:0:
163,88,28817,6,0,B|235:82|224:125|301:118,1,140,4|2,3:2|3:2,0:0:0:0:
385,69,29331,1,2,0:2:0:0:
385,69,29417,1,0,0:2:0:0:
385,69,29502,2,0,L|370:213,1,140,0|2,3:2|3:2,0:0:0:0:
370,208,30188,6,0,B|298:202|309:245|232:238,1,140,4|2,3:2|3:2,0:0:0:0:
145,271,30702,2,0,L|55:257,1,70,2|0,0:2|3:2,0:0:0:0:
7,189,31045,2,0,L|-2:106,2,70,2|0|2,0:2|3:2|0:2,0:0:0:0:
69,330,31559,6,0,L|76:260,1,70,4|0,3:2|3:2,0:0:0:0:
132,180,31902,1,2,3:2:0:0:
132,180,32074,1,2,3:2:0:0:
222,235,32245,6,0,L|307:229,1,70,4|2,3:2|3:2,0:0:0:0:
383,261,32588,2,0,L|452:256,1,70,2|0,3:2|3:2,0:0:0:0:
291,298,32931,6,0,P|285:264|292:230,1,70,4|0,3:2|3:2,0:0:0:0:
364,167,33274,1,2,3:2:0:0:
364,167,33445,1,2,3:2:0:0:
283,107,33617,6,0,L|276:57,2,35,8|8|8,3:2|0:2|3:2,0:0:0:0:
364,167,33959,2,0,P|396:153|431:148,1,70,8|0,0:2|3:2,0:0:0:0:
434,245,34302,6,0,P|402:259|367:264,1,70,12|8,0:2|2:3,0:0:0:0:
335,292,34559,2,0,P|302:279|274:258,1,70,8|8,2:2|2:3,0:0:0:0:
231,255,34817,2,0,P|216:222|211:187,1,70,8|8,2:2|2:3,0:0:0:0:
183,155,35074,2,0,P|196:122|229:93,1,70,8|8,0:3|0:3,0:0:0:0:
252,89,35331,5,2,0:1:0:0:
252,89,35674,6,0,P|317:100|356:26,1,154.000004699707,4|8,3:2|0:2,0:0:0:0:
405,128,36188,2,0,P|470:117|509:191,1,154.000004699707,2|0,0:0|3:0,0:0:0:0:
499,292,36702,1,10,0:1:0:0:
495,307,36874,1,2,0:1:0:0:
406,236,37045,6,0,B|361:218|361:218|322:235|322:235|248:227,1,154.000004699707,2|8,3:2|0:2,0:0:0:0:
160,272,37559,1,2,0:0:0:0:
160,272,37645,1,0,0:0:0:0:
160,272,37731,2,0,L|159:166,1,77.0000023498536,0|0,0:0|3:0,0:0:0:0:
260,147,38074,1,10,0:1:0:0:
264,130,38245,1,2,0:1:0:0:
192,48,38417,6,0,B|147:45|147:45|111:70|111:70|33:64,1,154.000004699707,2|8,3:2|0:2,0:0:0:0:
13,168,38931,2,0,B|41:148|41:148|27:291,1,154.000004699707,2|0,0:0|3:0,0:0:0:0:
104,345,39445,1,10,0:1:0:0:
93,355,39617,1,2,0:1:0:0:
196,318,39788,6,0,B|240:321|240:321|273:351|273:351|351:355,1,154.000004699707,2|8,3:2|0:2,0:0:0:0:
427,281,40302,2,2,B|430:244|430:244|442:229|442:229|445:161|445:161|414:205,1,154.000004699707,2|0,0:1|3:2,0:1:0:0:
324,210,40817,1,10,0:1:0:0:
319,196,40988,1,2,3:3:0:0:
218,157,41159,6,0,P|278:164|298:68,1,154.000004699707,2|8,3:2|0:2,0:0:0:0:
211,43,41674,2,0,L|47:36,1,154.000004699707,2|0,0:0|3:0,0:0:0:0:
9,132,42188,1,10,0:1:0:0:
3,118,42359,1,2,0:1:0:0:
3,226,42531,6,0,B|105:209|105:209|156:232,1,154.000004699707,2|8,3:2|0:2,0:0:0:0:
193,311,43045,1,2,0:1:0:0:
276,268,43217,2,0,L|286:164,1,77.0000023498536,2|2,0:1|3:0,0:0:0:0:
350,128,43559,1,8,0:0:0:0:
393,231,43731,6,0,B|418:261|418:261|481:174|436:81,1,231.000007049561,4|8,3:2|0:2,0:0:0:0:
75,80,44759,1,0,3:2:0:0:
97,156,44931,1,8,0:2:0:0:
119,230,45102,6,0,B|93:260|93:260|30:173|75:80,1,231.000007049561,4|8,3:2|0:2,0:0:0:0:
176,118,45788,2,0,L|282:107,1,77.0000023498536,0|0,3:0|0:0,0:0:0:0:
282,131,46045,1,8,0:2:0:0:
282,131,46131,1,0,0:2:0:0:
355,82,46302,2,0,L|362:32,3,38.5000011749268,8|8|8|8,0:2|0:2|0:2|0:2,0:0:0:0:
386,29,46645,6,0,P|456:45|459:117,1,154.000004699707,4|8,3:2|0:2,0:0:0:0:
394,203,47159,2,0,P|324:219|321:291,1,154.000004699707,2|0,0:0|3:0,0:0:0:0:
409,354,47674,1,10,0:1:0:0:
417,340,47845,1,2,0:1:0:0:
321,291,48017,6,0,L|157:282,1,154.000004699707,0|8,3:2|0:2,0:0:0:0:
68,326,48531,1,2,0:0:0:0:
68,326,48617,1,0,0:0:0:0:
68,326,48702,2,0,L|67:220,1,77.0000023498536,0|0,0:0|3:0,0:0:0:0:
10,156,49045,1,10,0:1:0:0:
6,171,49217,1,2,0:1:0:0:
63,80,49388,6,0,B|105:66|105:66|132:94|176:97|206:76,1,154.000004699707,2|8,3:2|0:2,0:0:0:0:
263,168,49902,2,0,B|293:147|337:150|363:178|363:178|406:164,1,154.000004699707,2|0,0:2|3:0,0:0:0:0:
489,234,50417,1,10,0:1:0:0:
476,244,50588,1,2,0:1:0:0:
405,164,50759,6,0,B|392:117|392:117|405:78|405:78|390:14,1,154.000004699707,2|8,3:2|0:2,0:0:0:0:
273,69,51274,2,2,B|239:66|239:66|218:58|218:58|196:66|196:66|168:54|168:54|124:53,1,154.000004699707,2|0,0:1|3:3,0:1:0:0:
43,126,51788,1,10,0:1:0:0:
40,111,51959,1,2,3:3:0:0:
0,211,52131,6,0,P|60:218|75:307,1,154.000004699707,2|8,3:2|0:2,0:0:0:0:
173,353,52645,2,0,L|344:349,1,154.000004699707,2|0,0:0|3:0,0:0:0:0:
432,324,53159,1,10,0:1:0:0:
434,309,53331,1,2,0:1:0:0:
510,235,53502,6,0,B|462:264|462:264|345:241,1,154.000004699707,2|8,3:2|0:2,0:0:0:0:
278,277,54017,1,2,0:1:0:0:
194,235,54188,2,0,L|184:130,1,77.0000023498536,2|2,0:1|3:3,0:0:0:0:
117,96,54531,1,8,0:0:0:0:
72,203,54702,6,0,B|25:185|25:185|55:143|97:129|144:133|194:162,1,231.000007049561,4|8,3:2|0:2,0:0:0:0:
445,339,55731,1,0,3:2:0:0:
459,247,55902,1,8,0:2:0:0:
459,247,56245,6,0,B|406:267|406:267|303:251,1,154.000004699707,4|8,3:2|0:2,0:0:0:0:
216,266,56759,1,0,3:0:0:0:
202,279,56845,1,0,3:0:0:0:
188,292,56931,2,0,L|117:286,3,38.5000011749268,10|8|8|8,0:2|0:2|0:2|0:2,0:0:0:0:
114,304,57274,2,0,L|43:298,3,38.5000011749268,10|8|8|8,0:2|0:2|0:2|0:2,0:0:0:0:
41,318,57617,5,4,3:2:0:0:
256,192,57702,12,8,60017,0:2:0:0:
199,127,60359,6,0,P|143:88|76:103,2,140,2|8|0,3:2|0:2|0:0,0:0:0:0:
235,211,61217,1,0,3:0:0:0:
322,235,61388,2,0,L|423:228,1,70,8|0,0:0|0:0,0:0:0:0:
468,279,61731,6,0,B|436:260|436:260|432:145,1,140,2|8,3:2|0:2,0:0:0:0:
504,101,62245,2,0,B|414:113|414:113|373:81,1,140,2|0,0:0|3:0,0:0:0:0:
317,23,62759,1,8,0:0:0:0:
317,23,62931,1,0,3:0:0:0:
266,98,63102,6,0,B|256:145|256:145|266:198|266:198|250:250,2,140,2|8|0,3:2|0:2|0:0,0:0:0:0:
206,28,63959,1,0,3:0:0:0:
122,65,64131,1,8,0:0:0:0:
122,65,64474,6,0,B|112:112|112:112|122:165|122:165|110:201,1,140,2|8,3:2|0:2,0:0:0:0:
66,284,64988,1,2,0:0:0:0:
66,284,65074,1,0,0:0:0:0:
65,284,65159,2,0,P|100:280|135:282,1,70,0|0,0:0|3:0,0:0:0:0:
212,332,65502,2,0,P|246:334|281:330,1,70,8|0,0:0|0:0,0:0:0:0:
344,264,65845,6,0,L|357:94,2,140,2|8|0,3:2|0:2|0:0,0:0:0:0:
281,330,66702,1,0,3:0:0:0:
369,351,66874,2,0,L|446:349,1,70,8|0,0:0|0:0,0:0:0:0:
489,273,67217,6,0,L|502:139,1,105,2|0,3:2|0:0,0:0:0:0:
504,123,67559,2,0,P|474:102|422:102,1,70,8|0,0:2|0:2,0:0:0:0:
354,124,67902,2,0,P|319:118|291:98,1,70,8|0,0:2|3:2,0:0:0:0:
219,42,68245,2,0,P|201:36|162:37,3,35,8|8|8|8,0:2|0:2|0:2|0:2,0:0:0:0:
141,46,68588,6,0,L|125:188,1,140,4|8,3:2|0:0,0:0:0:0:
257,311,69274,2,0,L|273:169,1,140,0|8,3:0|0:0,0:0:0:0:
386,311,69959,6,0,P|321:333|256:310,1,140,2|8,3:2|0:0,0:0:0:0:
185,272,70474,1,2,0:0:0:0:
185,272,70559,1,0,0:0:0:0:
185,272,70645,2,0,P|104:250|49:277,1,140,0|8,3:0|0:0,0:0:0:0:
55,271,71331,6,0,L|47:106,1,140,4|8,3:2|0:0,0:0:0:0:
226,172,72017,2,0,L|232:32,1,140,0|8,3:0|0:0,0:0:0:0:
368,153,72702,6,0,P|440:160|498:109,1,140,2|8,3:2|0:0,0:0:0:0:
465,40,73217,1,2,0:0:0:0:
465,40,73302,1,0,0:0:0:0:
465,40,73388,2,0,P|397:27|339:64,1,140,0|8,3:0|0:0,0:0:0:0:
340,63,74074,6,0,P|282:99|214:86,1,140,4|8,3:2|0:0,0:0:0:0:
141,253,74759,2,0,P|199:217|267:230,1,140,0|8,3:0|0:0,0:0:0:0:
266,229,75445,6,0,L|408:232,1,140,4|8,3:2|0:0,0:0:0:0:
479,291,75959,1,2,0:0:0:0:
479,291,76045,1,0,0:0:0:0:
479,291,76131,2,0,P|446:246|503:169,1,140,0|8,3:0|0:0,0:0:0:0:
479,176,76817,6,0,L|487:99,1,70,4|0,3:2|3:2,0:0:0:0:
389,117,77159,2,0,L|381:40,1,70,8|0,3:2|3:2,0:0:0:0:
285,162,77502,2,0,L|292:92,1,70,4|0,3:2|3:2,0:0:0:0:
195,103,77845,2,0,L|187:33,1,70,8|0,3:2|3:2,0:0:0:0:
108,127,78188,6,0,P|87:120|56:123,3,35,4|0|0|0,3:2|3:2|3:2|3:2,0:0:0:0:
36,138,78531,2,0,P|22:155|17:186,3,35,0|0|0|0,3:2|3:2|3:2|3:2,0:0:0:0:
24,209,78874,2,0,P|35:227|63:241,3,35,0|0|0|0,3:2|3:2|3:2|3:2,0:0:0:0:
87,242,79217,2,0,P|108:236|130:214,3,35,0|0|0|0,3:2|3:2|3:2|3:2,0:0:0:0:
137,192,79559,5,4,0:2:0:0:
137,191,82302,6,0,P|188:174|235:201,1,112,6|8,3:2|0:0,0:0:0:0:
273,271,82817,2,0,P|318:301|370:286,1,112,2|0,1:2|3:2,0:0:0:0:
419,225,83331,1,10,0:0:0:0:
480,64,85045,6,0,P|428:46|381:73,1,112,2|8,3:2|0:0,0:0:0:0:
344,143,85559,2,0,P|298:173|246:158,1,112,2|0,1:2|3:2,0:0:0:0:
198,97,86074,1,10,0:0:0:0:
25,18,87788,6,0,L|33:132,1,112,2|8,3:2|0:0,0:0:0:0:
93,180,88302,2,0,L|85:294,1,112,2|0,1:2|3:2,0:0:0:0:
113,365,88817,1,10,0:0:0:0:
487,366,90531,6,0,L|479:252,1,112,2|8,3:2|0:0,0:0:0:0:
419,204,91045,2,0,L|427:90,1,112,2|0,1:2|3:2,0:0:0:0:
399,19,91559,1,10,0:0:0:0:
116,63,93274,6,0,P|163:92|179:160,1,125.999996154785,6|8,3:2|0:0,0:0:0:0:
229,230,93788,2,0,L|363:225,1,125.999996154785,2|0,1:2|3:2,0:0:0:0:
429,272,94302,1,10,0:0:0:0:
429,272,94645,6,0,L|438:130,1,125.999996154785,0|8,3:2|0:0,0:0:0:0:
403,64,95159,2,0,L|406:28,4,31.4999990386963,0|0|0|0|0,1:2|1:0|1:0|1:0|3:2,0:0:0:0:
331,117,95674,2,0,P|302:103|269:103,1,62.9999980773926,8|0,0:0|0:0,0:0:0:0:
186,127,96017,6,0,L|41:111,1,125.999996154785,2|8,3:2|0:0,0:0:0:0:
22,193,96531,2,0,P|95:218|121:281,1,125.999996154785,2|0,1:2|3:2,0:0:0:0:
127,345,97045,1,10,0:0:0:0:
127,345,97388,6,0,L|268:339,1,125.999996154785,0|8,3:2|0:0,0:0:0:0:
343,382,97902,1,0,1:2:0:0:
343,382,97988,1,0,1:0:0:0:
343,382,98074,2,0,L|352:298,1,62.9999980773926,0|0,1:0|3:2,0:0:0:0:
287,256,98417,2,0,L|278:172,1,62.9999980773926,8|0,0:0|0:0,0:0:0:0:
346,135,98759,6,0,P|406:123|441:73,1,125.999996154785,2|8,3:2|0:0,0:0:0:0:
507,131,99274,2,0,L|500:264,1,125.999996154785,2|0,1:2|3:2,0:0:0:0:
492,344,99788,1,10,0:0:0:0:
492,344,100131,6,0,P|417:323|357:320,1,125.999996154785,0|8,3:2|0:0,0:0:0:0:
287,284,100645,2,0,L|286:238,4,31.4999990386963,0|0|0|0|0,1:2|1:0|1:0|1:0|3:2,0:0:0:0:
220,342,101159,2,0,P|189:344|151:319,1,62.9999980773926,8|0,0:0|0:0,0:0:0:0:
79,295,101502,6,0,P|107:256|96:180,1,125.999996154785,2|8,3:2|0:0,0:0:0:0:
140,104,102017,2,0,L|280:87,1,125.999996154785,2|0,1:2|3:2,0:0:0:0:
334,30,102531,1,10,0:0:0:0:
334,30,102874,6,2,P|368:141|265:89,1,293.999991027832,4|0,3:2|0:0,0:0:0:0:
265,89,104245,6,0,L|100:72,1,140,4|0,3:2|0:2,0:0:0:0:
36,115,104759,2,0,B|56:145|56:145|57:257,1,140,4|0,3:2|0:2,0:0:0:0:
15,360,105274,1,4,3:2:0:0:
15,360,105617,5,4,3:2:0:0:
480,299,106302,2,0,L|488:236,3,41.9999987182618,8|8|8|8,0:2|0:2|0:2|0:2,0:0:0:0:
462,225,106645,2,0,L|470:162,3,41.9999987182618,8|8|8|8,0:2|0:2|0:2|0:2,0:0:0:0:
444,151,106988,6,0,B|376:126|375:170|302:144,1,140,4|2,3:2|3:2,0:0:0:0:
244,82,107502,1,2,0:2:0:0:
244,82,107588,1,0,0:2:0:0:
244,82,107674,2,0,B|263:113|263:113|245:231,1,140,0|2,3:2|3:2,0:0:0:0:
247,215,108359,6,0,B|178:190|177:234|109:209,1,140,4|2,3:2|3:2,0:0:0:0:
57,126,108874,2,0,L|44:56,1,70,2|0,0:2|3:2,0:0:0:0:
149,128,109217,2,0,L|162:58,2,70,2|0|2,0:2|3:2|0:2,0:0:0:0:
42,223,109731,6,0,P|77:210|117:210,1,70,4|0,3:2|3:2,0:0:0:0:
168,287,110074,1,2,3:2:0:0:
168,287,110245,1,2,3:2:0:0:
247,215,110417,6,0,L|260:129,1,70,4|2,3:2|3:2,0:0:0:0:
344,99,110759,2,0,L|331:13,1,70,2|0,3:2|3:2,0:0:0:0:
257,145,111102,6,0,P|224:131|190:127,1,70,4|0,3:2|3:2,0:0:0:0:
109,184,111445,1,2,3:2:0:0:
109,184,111617,1,2,3:2:0:0:
86,81,111788,6,0,L|77:44,2,35,8|8|8,3:2|0:2|3:2,0:0:0:0:
190,127,112131,2,0,L|203:49,1,70,8|0,0:2|3:2,0:0:0:0:
292,21,112474,6,2,P|365:48|357:104,1,140,0|2,3:2|0:2,0:0:0:0:
291,214,113502,5,2,0:1:0:0:
291,214,113845,6,0,L|459:208,1,154.000004699707,4|8,3:2|0:2,0:0:0:0:
495,307,114359,2,0,B|453:288|453:288|329:292,1,154.000004699707,2|0,0:0|3:0,0:0:0:0:
245,333,114874,1,10,0:1:0:0:
260,336,115045,1,2,0:1:0:0:
156,368,115217,6,0,L|149:206,1,154.000004699707,2|8,3:2|0:2,0:0:0:0:
41,212,115731,1,2,0:0:0:0:
41,212,115817,1,0,0:0:0:0:
41,212,115902,2,0,P|59:169|65:118,1,77.0000023498536,0|0,0:0|3:0,0:0:0:0:
54,31,116245,1,10,0:1:0:0:
50,46,116417,1,2,0:1:0:0:
152,79,116588,6,0,B|194:75|194:75|240:96|240:96|311:70,1,154.000004699707,2|8,3:2|0:2,0:0:0:0:
395,23,117102,2,0,B|374:49|374:49|367:171,1,154.000004699707,2|0,0:0|3:0,0:0:0:0:
388,275,117617,1,10,0:1:0:0:
401,268,117788,1,2,0:1:0:0:
481,339,117959,6,0,B|439:335|439:335|393:356|393:356|335:334,1,154.000004699707,2|8,3:2|0:2,0:0:0:0:
213,357,118474,2,2,B|191:334|191:334|194:266|194:266|208:250|208:250|212:197,1,154.000004699707,2|0,0:1|3:0,0:1:0:0:
232,110,118988,1,10,0:1:0:0:
246,104,119159,1,2,3:3:0:0:
320,183,119331,6,0,P|278:241|210:217,1,154.000004699707,2|8,3:2|0:2,0:0:0:0:
132,140,119845,2,0,P|90:81|22:105,1,154.000004699707,2|0,0:0|3:0,0:0:0:0:
3,211,120359,1,10,0:1:0:0:
16,202,120531,1,2,0:1:0:0:
16,310,120702,6,0,P|83:334|125:275,1,154.000004699707,2|8,3:2|0:2,0:0:0:0:
195,216,121217,1,2,0:1:0:0:
282,248,121388,2,0,P|321:242|362:248,1,77.0000023498536,2|2,0:1|3:3,0:0:0:0:
411,321,121731,1,8,0:0:0:0:
488,234,121902,6,0,B|472:192|436:179|436:179|392:223|391:277|417:338,1,231.000007049561,4|8,3:2|0:2,0:0:0:0:
244,28,122931,1,0,3:2:0:0:
164,35,123102,1,8,0:2:0:0:
167,115,123274,6,0,B|183:157|219:170|219:170|263:126|264:72|238:11,1,231.000007049561,4|8,3:2|0:2,0:0:0:0:
141,38,123959,2,0,L|35:27,1,77.0000023498536,0|0,3:0|0:0,0:0:0:0:
49,58,124217,1,8,0:2:0:0:
49,58,124302,1,0,0:2:0:0:
93,143,124474,6,0,P|102:178|96:230,1,70,10|10,0:2|0:2,0:0:0:0:
84,236,124731,1,10,0:2:0:0:
84,236,124817,2,0,L|70:298,3,38.5000011749268,2|2|2|2,3:2|3:2|3:2|3:2,0:0:0:0:
47,310,125159,5,12,0:2:0:0:
138,366,125331,2,0,P|180:322|282:319,1,154.000004699707,2|0,0:2|3:2,0:0:0:0:
363,368,125845,1,10,0:1:0:0:
365,353,126017,1,2,0:1:0:0:
464,310,126188,6,0,P|388:308|332:257,1,154.000004699707,0|8,3:2|0:2,0:0:0:0:
434,208,126702,1,2,0:0:0:0:
434,208,126788,1,0,0:0:0:0:
434,208,126874,2,0,L|441:101,1,77.0000023498536,0|0,0:0|3:0,0:0:0:0:
498,40,127217,1,10,0:1:0:0:
501,55,127388,1,2,0:1:0:0:
393,45,127559,6,0,B|347:34|347:34|294:47|294:47|236:35,1,154.000004699707,2|8,3:2|0:2,0:0:0:0:
160,107,128074,2,0,B|114:96|114:96|61:109|61:109|9:98,1,154.000004699707,2|0,0:0|3:0,0:0:0:0:
46,200,128588,1,10,0:1:0:0:
34,190,128759,1,2,0:1:0:0:
11,295,128931,6,0,B|57:284|57:284|110:297|110:297|161:286,1,154.000004699707,2|8,3:2|0:2,0:0:0:0:
261,333,129445,2,2,B|295:336|295:336|316:344|316:344|338:336|338:336|366:348|366:348|410:349,1,154.000004699707,2|0,0:1|3:0,0:1:0:0:
493,286,129959,1,10,0:1:0:0:
497,301,130131,1,2,3:3:0:0:
413,238,130302,6,0,P|406:196|423:142,1,83.9999974365235,12|0,2:2|3:0,0:0:0:0:
302,191,130645,2,0,P|309:149|292:95,1,83.9999974365235,8|0,0:2|3:0,0:0:0:0:
203,230,130988,2,0,P|196:188|213:134,1,83.9999974365235,8|0,0:2|3:0,0:0:0:0:
99,201,131331,2,0,P|96:175|87:145,2,41.9999987182618,8|0|0,0:2|3:0|3:0,0:0:0:0:
34,324,131674,6,0,P|41:282|24:228,1,83.9999974365235,12|0,2:2|3:0,0:0:0:0:
135,360,132017,2,0,P|127:318|137:278,1,83.9999974365235,8|0,0:2|3:0,0:0:0:0:
241,344,132359,2,0,P|246:328|245:298,2,41.9999987182618,8|0|0,2:2|3:0|3:0,0:0:0:0:
135,360,132702,5,8,0:0:0:0:
34,324,132874,2,0,L|28:64,1,231.000007049561,4|8,3:2|0:2,0:0:0:0:
28,93,133731,6,0,L|121:85,1,77.0000023498536,12|0,0:0|3:2,0:0:0:0:
200,136,134074,2,0,L|293:144,1,77.0000023498536,8|0,0:2|3:0,0:0:0:0:
370,88,134417,6,0,L|380:1,2,77.0000023498536,12|8|8,0:2|0:0|0:2,0:0:0:0:
436,172,134931,1,8,0:0:0:0:
420,182,135017,1,0,3:0:0:0:
404,193,135102,2,0,L|391:263,3,38.5000011749268,12|8|8|8,0:2|0:2|0:2|0:2,0:0:0:0:
410,267,135445,2,0,L|397:337,3,38.5000011749268,10|8|8|8,0:2|0:2|0:2|0:2,0:0:0:0:
420,336,135788,5,4,3:2:0:0:
256,192,135874,12,8,138188,0:2:0:0:
193,268,138531,6,0,B|149:263|149:263|112:236|112:236|43:234,2,140,2|8|0,3:2|0:2|0:0,0:0:0:0:
266,325,139388,1,0,3:0:0:0:
342,275,139559,2,0,L|348:200,1,70,8|0,0:0|0:0,0:0:0:0:
364,115,139902,6,0,B|314:116|314:116|277:143|277:143|233:148,1,140,2|8,3:2|0:2,0:0:0:0:
141,151,140417,2,0,B|55:146|55:146|3:114,1,140,2|0,0:0|3:0,0:0:0:0:
22,27,140931,1,8,0:0:0:0:
22,27,141102,1,0,3:0:0:0:
112,36,141274,6,0,B|161:37|161:37|198:64|198:64|242:69,2,140,2|8|0,3:2|0:2|0:0,0:0:0:0:
21,26,142131,1,0,3:0:0:0:
55,109,142302,1,8,0:0:0:0:
55,109,142645,6,0,B|42:270,1,140,2|8,3:2|0:2,0:0:0:0:
14,338,143159,1,2,0:0:0:0:
14,338,143245,1,0,0:0:0:0:
13,338,143331,2,0,P|48:334|83:336,1,70,0|0,0:0|3:0,0:0:0:0:
170,359,143674,2,0,P|204:361|239:357,1,70,8|0,0:0|0:0,0:0:0:0:
297,286,144017,6,0,B|308:146,2,140,2|8|0,3:2|0:2|0:0,0:0:0:0:
351,359,144874,1,0,3:0:0:0:
436,328,145045,2,0,L|443:246,1,70,8|0,0:0|0:0,0:0:0:0:
487,178,145388,6,0,L|498:43,1,105,2|0,3:2|0:0,0:0:0:0:
457,47,145731,2,0,P|422:41|394:21,1,70,8|0,0:2|0:2,0:0:0:0:
356,104,146074,2,0,P|321:110|293:130,1,70,8|0,0:2|3:2,0:0:0:0:
211,169,146417,2,0,L|155:156,3,35,8|8|8|8,0:2|0:2|0:2|0:2,0:0:0:0:
134,175,146759,6,0,L|121:310,1,105,4|0,3:2|0:0,0:0:0:0:
113,323,147102,2,0,P|75:332|19:312,1,70,8|0,0:0|0:0,0:0:0:0:
22,286,147359,2,0,L|9:151,1,105,8|0,0:0|3:2,0:0:0:0:
51,99,147788,2,0,P|84:88|118:91,1,70,8|0,0:2|3:2,0:0:0:0:
193,144,148131,6,0,L|343:133,1,140,2|8,3:2|0:0,0:0:0:0:
415,94,148645,1,2,0:0:0:0:
415,94,148731,2,0,L|397:204,1,105,8|0,0:0|3:2,0:0:0:0:
403,288,149159,2,0,P|373:276|325:272,1,70,8|0,0:2|0:0,0:0:0:0:
313,312,149417,1,8,0:0:0:0:
313,312,149502,6,0,L|183:302,1,105,4|0,3:2|0:0,0:0:0:0:
164,318,149845,2,0,L|151:222,1,70,8|0,0:0|0:0,0:0:0:0:
191,222,150102,2,0,L|201:92,1,105,8|0,0:0|3:2,0:0:0:0:
156,36,150531,2,0,P|105:28|72:36,1,70,8|0,0:2|3:2,0:0:0:0:
30,102,150874,6,0,L|36:249,1,140,2|8,3:2|0:0,0:0:0:0:
76,330,151388,1,2,0:0:0:0:
76,330,151474,2,0,P|101:304|189:311,1,105,8|0,0:0|3:2,0:0:0:0:
248,337,151902,2,0,L|328:342,1,70,8|0,0:2|0:0,0:0:0:0:
361,353,152159,1,8,0:0:0:0:
361,353,152245,6,0,L|372:231,1,105,4|0,3:2|0:0,0:0:0:0:
406,220,152588,2,0,L|414:127,1,70,8|0,0:0|0:0,0:0:0:0:
392,109,152845,2,0,P|348:80|296:92,1,105,8|0,0:0|3:2,0:0:0:0:
236,156,153274,2,0,L|227:248,1,70,8|0,0:2|3:2,0:0:0:0:
167,292,153617,6,0,P|88:302|50:252,1,140,4|8,3:2|0:0,0:0:0:0:
83,175,154131,1,2,0:0:0:0:
83,175,154217,2,0,L|94:60,1,105,8|0,0:0|3:2,0:0:0:0:
178,41,154645,2,0,P|213:42|248:36,1,70,8|0,0:2|0:0,0:0:0:0:
290,52,154902,1,8,0:0:0:0:
290,52,154988,6,0,L|414:50,1,105,4|0,3:2|0:0,0:0:0:0:
427,82,155331,2,0,P|461:81|496:87,1,70,8|0,0:0|0:0,0:0:0:0:
510,130,155588,1,8,0:2:0:0:
510,130,155674,6,0,L|506:223,1,70,4|0,3:2|3:2,0:0:0:0:
437,259,156017,2,0,L|441:352,1,70,8|0,0:2|3:2,0:0:0:0:
354,358,156359,6,0,P|322:336|286:330,1,70,12|8,0:2|0:3,0:0:0:0:
246,336,156617,2,0,P|229:300|201:277,1,70,8|8,0:2|0:3,0:0:0:0:
163,262,156874,2,0,P|166:223|153:189,1,70,8|8,0:2|0:3,0:0:0:0:
128,156,157131,2,0,L|250:143,1,105,8|8,0:1|0:1,0:0:0:0:
232,144,157731,6,0,B|245:10,2,125.999996154785,4|8|0,3:2|0:0|0:0,0:0:0:0:
281,209,158588,1,0,3:2:0:0:
356,177,158759,2,0,P|392:164|430:174,1,62.9999980773926,8|0,0:0|0:0,0:0:0:0:
483,214,159102,6,0,L|482:346,1,125.999996154785,0|8,3:2|0:0,0:0:0:0:
401,359,159617,1,0,0:0:0:0:
401,359,159702,1,0,0:0:0:0:
401,359,159788,2,0,P|356:339|316:339,1,62.9999980773926,0|0,0:0|3:2,0:0:0:0:
261,347,160131,1,8,0:0:0:0:
261,347,160474,6,0,L|110:332,2,125.999996154785,0|8|0,3:2|0:0|0:0,0:0:0:0:
342,337,161331,1,0,3:2:0:0:
386,268,161502,2,0,L|396:193,1,62.9999980773926,8|0,0:0|0:0,0:0:0:0:
360,130,161845,6,0,P|338:106|230:108,1,125.999996154785,0|8,3:2|0:0,0:0:0:0:
184,145,162359,1,0,0:0:0:0:
184,145,162445,1,0,0:0:0:0:
184,145,162531,2,0,P|137:144|111:138,1,62.9999980773926,0|0,0:0|3:2,0:0:0:0:
58,194,162874,2,0,L|49:261,1,62.9999980773926,8|0,0:0|3:0,0:0:0:0:
116,303,163217,6,0,P|183:304|252:356,2,125.999996154785,0|8|0,3:2|0:0|0:0,0:0:0:0:
41,338,164074,1,0,3:2:0:0:
49,256,164245,2,0,L|45:188,1,62.9999980773926,8|0,0:0|0:0,0:0:0:0:
89,123,164588,6,0,P|151:123|205:93,1,125.999996154785,0|8,3:2|0:0,0:0:0:0:
296,85,165102,1,0,0:0:0:0:
296,85,165188,1,0,0:0:0:0:
296,85,165274,2,0,L|383:93,1,62.9999980773926,0|0,0:0|3:2,0:0:0:0:
437,68,165617,1,8,0:0:0:0:
437,68,165959,6,0,B|443:113|443:113|422:146|422:146|429:197,2,125.999996154785,0|8|0,3:2|0:0|0:0,0:0:0:0:
373,15,166817,1,0,3:2:0:0:
300,53,166988,2,0,L|218:45,1,62.9999980773926,8|0,0:0|0:0,0:0:0:0:
157,76,167331,6,0,P|112:87|74:61,1,94.499997116089,4|0,3:2|0:0,0:0:0:0:
39,83,167674,2,0,L|29:166,1,62.9999980773926,8|0,0:2|3:2,0:0:0:0:
70,217,168017,2,0,L|60:300,1,62.9999980773926,8|0,0:2|3:2,0:0:0:0:
117,339,168359,2,0,P|137:333|159:332,3,31.4999990386963,8|8|8|8,0:2|0:2|0:2|0:2,0:0:0:0:
185,346,168702,6,0,B|316:346,2,125.999996154785,4|8|0,3:2|0:0|0:0,0:0:0:0:
102,350,169559,1,0,3:2:0:0:
62,279,169731,2,0,L|59:217,1,62.9999980773926,8|0,0:0|0:0,0:0:0:0:
12,148,170074,6,0,P|66:154|116:106,1,125.999996154785,0|8,3:2|0:0,0:0:0:0:
188,64,170588,1,0,0:0:0:0:
188,64,170674,1,0,0:0:0:0:
187,64,170759,2,0,P|214:48|245:42,1,62.9999980773926,0|0,0:0|3:2,0:0:0:0:
317,81,171102,1,8,0:0:0:0:
317,81,171445,6,0,L|468:66,2,125.999996154785,0|8|0,3:2|0:0|0:0,0:0:0:0:
246,123,172302,1,0,3:2:0:0:
318,161,172474,2,0,P|330:194|330:236,1,62.9999980773926,8|0,0:0|0:0,0:0:0:0:
265,270,172817,6,0,L|132:256,1,125.999996154785,0|8,3:2|0:0,0:0:0:0:
61,286,173331,1,0,0:0:0:0:
61,286,173417,1,0,0:0:0:0:
61,286,173502,2,0,L|55:193,1,62.9999980773926,0|0,0:0|3:2,0:0:0:0:
15,152,173845,2,0,L|21:59,1,62.9999980773926,8|0,0:0|3:0,0:0:0:0:
85,41,174188,6,0,B|125:39|125:39|162:24|162:24|209:24,2,125.999996154785,4|8|0,3:2|0:0|0:0,0:0:0:0:
19,89,175045,1,0,3:2:0:0:
64,156,175217,2,0,P|69:180|63:224,1,62.9999980773926,8|0,0:0|0:0,0:0:0:0:
20,287,175559,6,0,P|74:256|138:260,1,125.999996154785,4|8,3:2|0:0,0:0:0:0:
196,329,176074,1,0,0:0:0:0:
196,329,176159,1,0,0:0:0:0:
196,329,176245,2,0,L|283:337,1,62.9999980773926,0|0,0:0|3:0,0:0:0:0:
339,350,176588,1,8,0:0:0:0:
339,350,176931,6,0,B|345:305|345:305|324:272|324:272|331:221,1,125.999996154785,4|8,3:2|0:0,0:0:0:0:
330,231,177617,2,0,L|340:157,1,62.9999980773926,4|0,0:2|0:3,0:0:0:0:
403,119,177959,2,0,L|413:45,1,62.9999980773926,8|0,0:2|3:2,0:0:0:0:
313,64,178302,6,0,P|281:59|252:42,1,62.9999980773926,8|0,0:2|3:2,0:0:0:0:
231,129,178645,2,0,P|199:134|170:151,1,62.9999980773926,8|0,0:2|3:2,0:0:0:0:
142,234,178988,1,8,0:2:0:0:
142,234,179159,1,8,0:2:0:0:
61,199,179331,2,0,L|55:166,3,31.4999990386963,8|8|8|8,0:2|0:2|0:2|0:2,0:0:0:0:
16,137,179674,5,6,3:1:0:0:
256,192,179759,12,0,182417,3:3:0:0:
