osu file format v14

[General]
AudioFilename: no_hardstyle.mp3
AudioLeadIn: 0
PreviewTime: 6788
Countdown: 0
SampleSet: Soft
StackLeniency: 0.7
Mode: 0
LetterboxInBreaks: 0
WidescreenStoryboard: 1

[Editor]
DistanceSpacing: 1
BeatDivisor: 4
GridSize: 32
TimelineZoom: 1.399999

[Metadata]
Title:Natsu no Owari (Soleily Remix)
TitleUnicode:夏の終焉り (Soleily Remix)
Artist:Denkishiki Karen Ongaku Shuudan
ArtistUnicode:電気式華憐音楽集団
Creator:Lasse
Version:Easy
Source:終わる世界とバースデイ
Tags:Owaru Sekai to Birthday コットンソフト Cotton Soft eroge visual novel dnb drum and bass denkare
BeatmapID:1411681
BeatmapSetID:665232

[Difficulty]
HPDrainRate:3
CircleSize:3
OverallDifficulty:3
ApproachRate:4
SliderMultiplier:1
SliderTickRate:1

[Events]
//Background and Video events
0,0,"bg.jpg",0,0
//Break Periods
//Storyboard Layer 0 (Background)
//Storyboard Layer 1 (Fail)
//Storyboard Layer 2 (Pass)
//Storyboard Layer 3 (Foreground)
//Storyboard Sound Samples

[TimingPoints]
17,342.857142857143,4,2,22,5,1,0
1388,-142.857142857143,4,2,22,20,0,0
2759,-142.857142857143,4,2,22,30,0,0
3445,-142.857142857143,4,2,22,34,0,0
4131,-142.857142857143,4,2,22,38,0,0
4817,-142.857142857143,4,2,22,42,0,0
5502,-142.857142857143,4,2,22,46,0,0
5845,-142.857142857143,4,2,22,50,0,0
6188,-142.857142857143,4,2,22,54,0,0
6359,-142.857142857143,4,2,22,58,0,0
6531,-142.857142857143,4,2,99,30,0,0
6874,-142.857142857143,4,2,22,30,0,0
17845,-142.857142857143,4,2,22,34,0,0
23331,-142.857142857143,4,2,22,36,0,0
28474,-142.857142857143,4,2,22,36,0,0
28645,-142.857142857143,4,2,99,5,0,0
28817,-111.111111111111,4,2,1,64,0,0
32159,-111.111111111111,4,2,1,40,0,0
32245,-111.111111111111,4,2,1,64,0,0
33617,-111.111111111111,4,2,1,66,0,0
34302,-111.111111111111,4,2,22,60,0,0
35331,-111.111111111111,4,2,22,50,0,0
35588,-111.111111111111,4,2,99,5,0,0
35674,-100,4,2,1,70,0,1
46302,-100,4,2,1,70,0,0
46645,-100,4,2,1,70,0,1
57617,-111.111111111111,4,2,1,64,0,0
60359,-111.111111111111,4,2,1,64,0,0
79559,-125,4,2,22,60,0,0
79902,-142.857142857143,4,2,22,56,0,0
82302,-142.857142857143,4,2,34,54,0,0
93274,-125,4,2,34,56,0,0
102874,-142.857142857143,4,2,1,60,0,0
102895,-142.857142857143,4,2,22,20,0,0
103217,-142.857142857143,4,2,23,30,0,0
103559,-142.857142857143,4,2,22,50,0,0
103902,-142.857142857143,4,2,22,30,0,0
104159,-142.857142857143,4,2,99,5,0,0
104245,-125,4,2,1,66,0,0
104588,-125,4,2,22,40,0,0
104759,-125,4,2,1,68,0,0
105102,-125,4,2,22,40,0,0
105274,-125,4,2,1,64,0,0
105445,-125,4,2,22,40,0,0
105617,-125,4,2,1,68,0,0
106302,-125,4,2,1,52,0,0
106388,-125,4,2,1,54,0,0
106474,-125,4,2,1,56,0,0
106559,-125,4,2,1,58,0,0
106645,-125,4,2,1,60,0,0
106731,-125,4,2,1,62,0,0
106817,-125,4,2,1,64,0,0
106902,-111.111111111111,4,2,1,66,0,0
106988,-111.111111111111,4,2,1,64,0,0
110331,-111.111111111111,4,2,1,40,0,0
110417,-111.111111111111,4,2,1,64,0,0
111788,-111.111111111111,4,2,1,66,0,0
112474,-111.111111111111,4,2,1,64,0,0
112559,-111.111111111111,4,2,1,30,0,0
113159,-111.111111111111,4,2,22,40,0,0
113417,-111.111111111111,4,2,99,5,0,0
113502,-111.111111111111,4,2,22,50,0,0
113759,-111.111111111111,4,2,99,5,0,0
113845,-100,4,2,1,70,0,1
124474,-100,4,2,1,70,0,0
124817,-100,4,2,1,70,0,1
130217,-100,4,2,1,70,0,0
130302,-100,4,2,1,70,0,1
131674,-100,4,2,1,70,0,1
132188,-100,4,2,1,70,0,1
132874,-100,4,2,1,70,0,1
135788,-111.111111111111,4,2,1,64,0,0
156359,-111.111111111111,4,2,22,68,0,0
156531,-111.111111111111,4,2,22,66,0,0
156788,-111.111111111111,4,2,22,64,0,0
157045,-111.111111111111,4,2,22,62,0,0
157302,-111.111111111111,4,2,22,60,0,0
157388,-111.111111111111,4,2,22,58,0,0
157474,-111.111111111111,4,2,22,56,0,0
157559,-111.111111111111,4,2,22,54,0,0
157645,-111.111111111111,4,2,22,52,0,0
157731,-125,4,2,1,60,0,0
174188,-125,4,2,1,60,0,0
174531,-125,4,2,1,60,0,0
175559,-125,4,2,1,60,0,0
175902,-125,4,2,1,60,0,0
177274,-125,4,2,1,60,0,0
179674,-125,4,2,99,60,0,0
179759,-125,4,2,1,50,0,0

[Colours]
Combo1 : 150,220,130
Combo2 : 250,150,110
Combo3 : 130,170,250
Combo4 : 240,220,120

[HitObjects]
146,66,6874,5,2,0:0:0:0:
153,308,9617,5,2,0:0:0:0:
395,266,12359,5,2,0:0:0:0:
315,105,15102,5,2,0:0:0:0:
157,261,17845,6,0,B|121:222|121:222|108:140|177:80,1,209.999993591309,2|2,0:0|0:0,0:0:0:0:
354,261,20588,6,0,B|391:222|391:222|404:140|337:82,1,209.999993591309,2|2,0:0|0:0,0:0:0:0:
128,192,23331,6,0,L|118:74,2,104.999996795654,2|2|2,0:0|0:0|0:0,0:0:0:0:
384,192,26074,6,0,L|394:74,2,104.999996795654,2|2|2,0:0|0:0|0:0,0:0:0:0:
442,338,28817,6,0,P|363:257|218:300,1,269.999991760254,4|2,3:2|3:2,0:0:0:0:
150,345,30188,2,0,P|79:349|34:292,1,134.999995880127,4|2,3:2|0:2,0:0:0:0:
37,215,31045,1,2,0:2:0:0:
123,111,31559,6,0,L|308:103,1,179.999994506836,4|4,3:2|3:2,0:0:0:0:
381,147,32588,1,2,3:2:0:0:
458,100,32931,2,0,L|471:2,2,89.9999972534181,4|2|8,3:2|3:2|3:2,0:0:0:0:
394,268,34302,5,12,0:2:0:0:
22,120,35674,6,0,B|62:132|121:113|121:113|152:193|229:206|229:206|212:228|213:256,1,300,4|10,3:2|0:1,0:0:0:0:
258,342,37045,1,2,3:2:0:0:
342,289,37388,2,0,B|376:251|434:251|478:286|478:286|502:267|516:232,1,200,8|10,0:2|0:1,0:0:0:0:
470,151,38417,6,0,B|450:96|494:50|494:50|500:26|489:-6,2,150,2|2|10,3:2|0:0|0:1,0:0:0:0:
403,226,39788,2,0,B|349:222|321:179|321:179|287:205|287:205|267:202|267:202|246:207|246:207|230:201|230:201|207:208|207:208|191:202|178:186|178:186|155:179|133:187,1,300,2|10,3:2|0:1,0:0:0:0:
85,269,41159,6,0,B|83:165|83:165|66:153|66:153|64:31|64:31|134:29,1,300,2|10,3:2|0:1,0:0:0:0:
198,88,42531,1,2,3:2:0:0:
294,60,42874,2,0,B|343:51|343:51|378:79|378:79|452:68,1,150,8|2,0:2|3:0,0:0:0:0:
511,132,43731,6,0,L|500:297,1,150,4|8,3:2|0:2,0:0:0:0:
373,360,44759,1,0,3:2:0:0:
274,341,45102,2,0,P|184:301|116:308,1,150,4|8,3:2|0:2,0:0:0:0:
0,77,46645,6,0,B|31:38|88:44|88:44|127:104|219:106|219:106|231:84|254:71,1,300,4|10,3:2|0:1,0:0:0:0:
351,50,48017,1,0,3:2:0:0:
439,96,48359,2,0,B|477:130|477:188|442:232|442:232|386:219,1,200,8|10,0:2|0:1,0:0:0:0:
294,206,49388,6,0,B|246:172|190:203|190:203|165:202|137:183,2,150,2|2|10,3:2|0:2|0:1,0:0:0:0:
276,304,50759,2,0,B|225:323|180:296|180:296|170:331|142:339|142:339|118:361|95:342|95:342|59:343|42:309|55:271,1,300,2|10,3:2|0:1,0:0:0:0:
93,189,52131,6,0,B|138:192|182:186|182:186|207:195|230:214|230:214|294:224|348:202|348:202|360:179|372:153,1,300,2|10,3:2|0:1,0:0:0:0:
382,71,53502,1,2,3:2:0:0:
288,35,53845,2,0,B|258:27|239:26|239:26|222:41|204:54|204:54|179:49|130:43,1,150,8|2,0:2|3:3,0:0:0:0:
58,87,54702,6,0,L|41:251,1,150,4|8,3:2|0:2,0:0:0:0:
156,333,55731,1,0,3:2:0:0:
279,248,56245,2,0,B|329:242|329:242|371:252|371:252|440:246,2,150,4|0|10,3:2|3:0|0:2,0:0:0:0:
200,195,57617,5,4,3:2:0:0:
256,192,57788,12,2,60359,3:2:0:0:
96,223,61731,6,0,P|82:117|173:62,1,224.999993133545,2|0,3:2|3:0,0:0:0:0:
295,119,63102,6,0,L|401:125,1,89.9999972534181,2|8,3:2|0:2,0:0:0:0:
499,196,63959,1,0,3:0:0:0:
438,317,64474,2,0,B|379:352|379:352|309:374|239:295,1,224.999993133545,2|0,3:2|3:0,0:0:0:0:
190,173,65845,6,0,L|186:68,1,89.9999972534181,2|8,3:2|0:2,0:0:0:0:
65,23,66702,1,0,3:0:0:0:
2,142,67217,2,0,L|-1:231,1,89.9999972534181,2|8,3:2|0:2,0:0:0:0:
51,305,67902,2,0,P|100:297|154:303,1,89.9999972534181,8|8,0:2|0:2,0:0:0:0:
219,342,68588,6,0,P|287:324|401:352,1,179.999994506836,4|0,3:2|3:0,0:0:0:0:
478,321,69617,1,8,0:0:0:0:
468,231,69959,2,0,P|388:190|299:190,1,179.999994506836,2|0,3:2|3:0,0:0:0:0:
199,340,71331,6,0,P|109:335|32:290,1,179.999994506836,4|0,3:2|3:0,0:0:0:0:
3,204,72359,1,8,0:0:0:0:
40,122,72702,2,0,P|117:77|206:72,1,179.999994506836,2|0,3:2|3:0,0:0:0:0:
256,245,74074,6,0,P|333:289|422:294,1,179.999994506836,4|0,3:2|3:0,0:0:0:0:
474,220,75102,1,8,0:0:0:0:
470,130,75445,2,0,P|392:85|303:80,1,179.999994506836,4|0,3:2|3:0,0:0:0:0:
152,167,76817,6,0,L|48:157,1,89.9999972534181,4|8,3:2|3:2,0:0:0:0:
12,233,77502,2,0,P|3:270|9:325,1,89.9999972534181,4|8,3:2|3:2,0:0:0:0:
96,340,78188,2,0,B|137:319|180:331|180:331|219:338|252:319|252:319|293:298|339:324|339:324|385:348|452:326,1,359.999989013672,4|4,3:2|0:2,0:0:0:0:
175,249,82302,6,0,P|109:172|136:62,1,209.999993591309,6|10,3:2|0:0,0:0:0:0:
337,249,85045,6,0,P|402:172|376:62,1,209.999993591309,2|10,3:2|0:0,0:0:0:0:
128,71,87788,6,0,L|15:57,2,104.999996795654,2|2|10,3:2|1:2|0:0,0:0:0:0:
384,71,90531,6,0,L|497:57,2,104.999996795654,2|2|10,3:2|1:2|0:0,0:0:0:0:
160,347,93274,5,6,3:2:0:0:
150,239,93788,1,2,1:2:0:0:
140,131,94302,1,10,0:0:0:0:
352,347,96017,5,2,3:2:0:0:
362,239,96531,1,2,1:2:0:0:
372,131,97045,1,10,0:0:0:0:
150,239,98759,5,2,3:2:0:0:
140,131,99274,1,2,1:2:0:0:
100,30,99788,1,10,0:0:0:0:
362,239,101502,5,2,3:2:0:0:
372,131,102017,1,2,1:2:0:0:
412,30,102531,2,0,L|497:23,1,80,10|4,0:0|3:2,0:0:0:0:
256,184,104245,6,0,L|256:56,2,120,4|4|4,3:2|3:2|3:2,0:0:0:0:
256,270,105617,1,4,3:2:0:0:
116,348,106302,1,8,0:2:0:0:
21,194,106988,6,0,B|8:126|29:66|29:66|93:35|183:62,1,269.999991760254,4|2,3:2|3:2,0:0:0:0:
223,126,108359,2,0,P|292:140|361:124,1,134.999995880127,4|2,3:2|0:2,0:0:0:0:
433,84,109217,1,2,0:2:0:0:
464,215,109731,6,0,B|468:275|445:328|445:328|409:344|368:319,1,179.999994506836,4|4,3:2|3:2,0:0:0:0:
307,277,110759,1,2,3:2:0:0:
217,284,111102,2,0,L|109:271,2,89.9999972534181,4|2|8,3:2|3:2|3:2,0:0:0:0:
376,368,112474,1,0,3:0:0:0:
500,94,113845,6,0,B|451:85|411:127|411:127|390:79|336:49|286:58|286:58|273:103,1,300,4|10,3:2|0:1,0:0:0:0:
254,201,115217,1,2,3:2:0:0:
209,289,115559,2,0,B|169:321|102:314|74:270|74:270|87:218,1,200,8|10,0:2|0:1,0:0:0:0:
148,146,116588,6,0,B|166:90|120:45|120:45|113:22|123:-10,2,150,2|2|10,3:2|0:0|0:1,0:0:0:0:
194,233,117959,2,0,B|246:236|276:279|276:279|310:254|310:254|330:257|330:257|351:252|351:252|367:258|367:258|388:256|388:256|402:297|442:316,1,300,2|10,3:2|0:1,0:0:0:0:
485,225,119331,6,0,B|475:165|483:116|483:116|409:114|368:37|368:37|351:50|315:56,1,300,2|10,3:2|0:1,0:0:0:0:
229,71,120702,1,2,3:2:0:0:
129,63,121045,2,0,B|80:69|80:69|54:121|54:121|72:175,1,150,8|2,0:2|3:3,0:0:0:0:
156,206,121902,6,0,L|314:199,1,150,4|8,3:2|0:2,0:0:0:0:
429,283,122931,1,0,3:2:0:0:
348,343,123274,2,0,L|198:336,1,150,4|8,3:2|0:2,0:0:0:0:
12,100,124817,5,2,3:2:0:0:
106,66,125159,2,0,B|139:76|158:112|158:112|207:109|240:140|240:140|242:169|248:178,1,200,12|10,0:2|0:1,0:0:0:0:
281,272,126188,1,0,3:2:0:0:
377,245,126531,2,0,B|422:221|437:165|415:114|415:114|359:96,1,200,8|10,0:2|0:1,0:0:0:0:
277,55,127559,6,0,B|229:21|172:52|172:52|148:51|135:41,2,150,2|2|10,3:2|0:0|0:1,0:0:0:0:
268,154,128931,2,0,B|217:173|172:146|172:146|162:181|142:185|142:185|125:184|125:184|114:195|114:195|84:197|84:197|77:214|56:231|56:231|55:252|65:290,1,300,2|10,3:2|0:1,0:0:0:0:
134,340,130302,6,0,B|158:340|158:340|179:329|179:329|209:343|209:343|239:331|239:331|266:344|266:344|289:339|289:339|337:343,1,200,12|8,2:2|0:2,0:0:0:0:
419,367,131331,1,8,0:2:0:0:
478,286,131674,2,0,B|478:262|478:262|489:241|489:241|475:211|475:211|487:181|487:181|474:154|474:154|479:131|479:131|476:97,1,200,12|8,2:2|2:2,0:0:0:0:
332,54,132874,6,0,B|279:43|279:43|232:58|232:58|181:47,1,150,4|8,3:2|0:2,0:0:0:0:
110,113,133731,2,0,L|108:215,1,100,12|8,0:0|0:2,0:0:0:0:
179,283,134417,2,0,B|229:277|229:277|271:287|271:287|340:281,2,150,12|8|10,0:2|0:0|0:2,0:0:0:0:
109,355,135788,5,4,3:2:0:0:
256,192,135959,12,2,138531,3:2:0:0:
100,314,139902,6,0,P|74:259|192:209,1,224.999993133545,2|0,3:2|3:0,0:0:0:0:
303,287,141274,6,0,L|411:278,1,89.9999972534181,2|8,3:2|0:2,0:0:0:0:
490,186,142131,1,0,3:0:0:0:
422,68,142645,2,0,B|372:51|313:79|313:79|253:80|198:46,1,224.999993133545,2|0,3:2|3:0,0:0:0:0:
80,101,144017,6,0,L|69:196,1,89.9999972534181,2|8,3:2|0:2,0:0:0:0:
185,260,144874,1,0,3:0:0:0:
296,183,145388,2,0,P|340:175|388:181,1,89.9999972534181,2|8,3:2|0:2,0:0:0:0:
440,251,146074,2,0,L|448:342,1,89.9999972534181,8|8,0:2|0:2,0:0:0:0:
358,356,146759,6,0,P|290:338|268:336,1,89.9999972534181,4|8,3:2|0:0,0:0:0:0:
93,369,147788,1,8,0:2:0:0:
22,313,148131,2,0,L|17:165,2,134.999995880127,2|2|8,3:2|0:0|0:2,0:0:0:0:
93,369,149502,6,0,P|134:354|180:349,1,89.9999972534181,4|8,3:2|0:0,0:0:0:0:
358,356,150531,1,8,0:2:0:0:
431,304,150874,2,0,L|436:156,2,134.999995880127,2|2|8,3:2|0:0|0:2,0:0:0:0:
357,355,152245,6,0,P|315:342|270:336,1,89.9999972534181,4|8,3:2|0:0,0:0:0:0:
120,236,153274,1,8,0:2:0:0:
159,155,153617,2,0,L|148:18,2,134.999995880127,4|2|8,3:2|0:0|0:2,0:0:0:0:
230,210,154988,6,0,P|285:208|320:190,1,89.9999972534181,4|8,3:2|0:0,0:0:0:0:
387,138,155674,2,0,P|428:120|472:121,1,89.9999972534181,4|8,3:2|0:2,0:0:0:0:
504,205,156359,2,0,B|477:255|436:255|436:255|389:252|357:291|357:291|327:331|265:317,1,269.999991760254,12|8,0:2|0:1,0:0:0:0:
188,305,157731,6,0,B|131:295|74:319|74:319|45:301|43:244,1,200,4|0,3:2|3:2,0:0:0:0:
104,142,159102,2,0,P|149:137|193:138,1,80,0|8,3:2|0:0,0:0:0:0:
289,193,159959,1,0,3:2:0:0:
403,229,160474,6,0,B|451:225|478:198|478:198|485:137|457:84,1,200,0|0,3:2|3:2,0:0:0:0:
346,38,161845,2,0,P|301:33|257:34,1,80,0|8,3:2|0:0,0:0:0:0:
149,62,162702,1,0,3:2:0:0:
56,141,163217,6,0,B|30:212|30:212|31:298|88:309,1,200,0|0,3:2|3:2,0:0:0:0:
202,271,164588,2,0,L|220:187,1,80,0|8,3:2|0:0,0:0:0:0:
290,96,165445,1,0,3:2:0:0:
410,93,165959,6,0,B|476:121|476:121|495:186|462:256,1,200,0|0,3:2|3:2,0:0:0:0:
373,322,167331,2,0,P|328:317|284:318,1,80,4|8,3:2|0:2,0:0:0:0:
214,345,168017,2,0,P|169:340|125:341,1,80,8|8,0:2|0:2,0:0:0:0:
70,286,168702,6,0,B|42:234|56:172|56:172|74:143|131:141,1,200,4|0,3:2|3:2,0:0:0:0:
233,199,170074,2,0,L|322:203,1,80,0|8,3:2|0:0,0:0:0:0:
412,269,170931,1,0,3:2:0:0:
477,168,171445,6,0,B|505:115|487:41|487:41|412:32,1,200,0|0,3:2|3:2,0:0:0:0:
302,66,172817,2,0,L|207:57,1,80,0|8,3:2|0:0,0:0:0:0:
105,87,173674,1,0,3:2:0:0:
124,205,174188,6,0,B|160:264|160:264|292:275,1,200,4|0,3:2|3:2,0:0:0:0:
397,328,175559,2,0,L|481:316,1,80,4|8,3:2|0:0,0:0:0:0:
496,198,176417,1,0,3:2:0:0:
413,110,176931,6,0,B|333:92|334:125|254:109,1,160,4|4,3:2|0:0,0:0:0:0:
180,68,177959,1,8,0:0:0:0:
128,135,178302,2,0,L|113:227,1,80,8|8,0:2|0:2,0:0:0:0:
163,284,178988,2,0,P|208:279|252:280,1,80,8|8,0:2|0:2,0:0:0:0:
308,332,179674,5,6,3:1:0:0:
256,192,179845,12,0,182417,3:0:0:0:
