osu file format v14

[General]
AudioFilename: no_hardstyle.mp3
AudioLeadIn: 0
PreviewTime: 6788
Countdown: 0
SampleSet: Soft
StackLeniency: 0.2
Mode: 0
LetterboxInBreaks: 0
WidescreenStoryboard: 1

[Editor]
DistanceSpacing: 0.6
BeatDivisor: 4
GridSize: 32
TimelineZoom: 2.299999

[Metadata]
Title:Natsu no Owari (Soleily Remix)
TitleUnicode:夏の終焉り (Soleily Remix)
Artist:Denkishiki Karen Ongaku Shuudan
ArtistUnicode:電気式華憐音楽集団
Creator:Lasse
Version:Conclusion
Source:終わる世界とバースデイ
Tags:Owaru Sekai to Birthday コットンソフト Cotton Soft eroge visual novel dnb drum and bass denkare
BeatmapID:1407924
BeatmapSetID:665232

[Difficulty]
HPDrainRate:6
CircleSize:4.3
OverallDifficulty:8.7
ApproachRate:9.2
SliderMultiplier:1.76
SliderTickRate:1

[Events]
//Background and Video events
0,0,"bg.jpg",0,0
//Break Periods
//Storyboard Layer 0 (Background)
//Storyboard Layer 1 (Fail)
//Storyboard Layer 2 (Pass)
//Storyboard Layer 3 (Foreground)
//Storyboard Sound Samples

[TimingPoints]
17,342.857142857143,4,2,22,5,1,0
1388,-200,4,2,22,20,0,0
2759,-200,4,2,22,30,0,0
3445,-200,4,2,22,34,0,0
4131,-200,4,2,22,38,0,0
4817,-200,4,2,22,42,0,0
5502,-200,4,2,22,46,0,0
5845,-200,4,2,22,50,0,0
6188,-200,4,2,22,54,0,0
6359,-200,4,2,22,58,0,0
6531,-200,4,2,99,30,0,0
6874,-200,4,2,22,30,0,0
17845,-200,4,2,22,34,0,0
23331,-200,4,2,22,36,0,0
28645,-200,4,2,99,5,0,0
28817,-100,4,2,1,64,0,0
32159,-100,4,2,1,40,0,0
32245,-100,4,2,1,64,0,0
33617,-100,4,2,1,66,0,0
34302,-100,4,2,22,60,0,0
35331,-125,4,2,22,50,0,0
35588,-125,4,2,99,5,0,0
35674,-83.3333333333333,4,2,1,70,0,1
36702,-62.5,4,2,1,70,0,1
37045,-83.3333333333333,4,2,1,70,0,1
39445,-71.4285714285714,4,2,1,70,0,1
39788,-83.3333333333333,4,2,1,70,0,1
40302,-55.5555555555556,4,2,1,70,0,1
40645,-83.3333333333333,4,2,1,70,0,1
42188,-62.5,4,2,1,70,0,1
42531,-83.3333333333333,4,2,1,70,0,1
43045,-71.4285714285714,4,2,1,70,0,1
43731,-62.5,4,2,1,70,0,1
44074,-83.3333333333333,4,2,1,70,0,1
46302,-100,4,2,1,70,0,0
46645,-83.3333333333333,4,2,1,70,0,1
47674,-62.5,4,2,1,70,0,1
48017,-83.3333333333333,4,2,1,70,0,1
50417,-71.4285714285714,4,2,1,70,0,1
50759,-83.3333333333333,4,2,1,70,0,1
51274,-55.5555555555556,4,2,1,70,0,1
51617,-83.3333333333333,4,2,1,70,0,1
53159,-62.5,4,2,1,70,0,1
53502,-83.3333333333333,4,2,1,70,0,1
54017,-71.4285714285714,4,2,1,70,0,1
54702,-62.5,4,2,1,70,0,1
56588,-83.3333333333333,4,2,1,70,0,1
57617,-100,4,2,1,64,0,0
60359,-100,4,2,1,64,0,0
79559,-100,4,2,22,60,0,0
79902,-100,4,2,22,56,0,0
82302,-125,4,2,34,54,0,0
93274,-111.111111111111,4,2,34,56,0,0
102874,-142.857142857143,4,2,1,60,0,0
102895,-142.857142857143,4,2,22,20,0,0
103217,-142.857142857143,4,2,23,30,0,0
103559,-142.857142857143,4,2,22,50,0,0
103902,-142.857142857143,4,2,23,70,0,0
104159,-142.857142857143,4,2,99,5,0,0
104245,-55.5555555555556,4,2,1,66,0,0
104588,-55.5555555555556,4,2,22,40,0,0
104759,-50,4,2,1,68,0,0
105102,-50,4,2,22,40,0,0
105274,-62.5,4,2,1,64,0,0
105445,-62.5,4,2,22,40,0,0
105617,-62.5,4,2,1,68,0,0
106302,-62.5,4,2,1,52,0,0
106388,-62.5,4,2,1,54,0,0
106474,-62.5,4,2,1,56,0,0
106559,-62.5,4,2,1,58,0,0
106645,-62.5,4,2,1,60,0,0
106731,-62.5,4,2,1,62,0,0
106817,-62.5,4,2,1,64,0,0
106902,-62.5,4,2,1,66,0,0
106988,-100,4,2,1,64,0,0
110331,-100,4,2,1,40,0,0
110417,-100,4,2,1,64,0,0
111788,-100,4,2,1,66,0,0
112474,-285.714285714286,4,2,1,64,0,0
112559,-285.714285714286,4,2,1,30,0,0
113074,-100,4,2,99,5,0,0
113159,-100,4,2,22,40,0,0
113417,-100,4,2,99,5,0,0
113502,-125,4,2,22,50,0,0
113759,-100,4,2,99,5,0,0
113845,-83.3333333333333,4,2,1,70,0,1
114874,-62.5,4,2,1,70,0,1
115217,-83.3333333333333,4,2,1,70,0,1
117617,-71.4285714285714,4,2,1,70,0,1
117959,-83.3333333333333,4,2,1,70,0,1
118474,-55.5555555555556,4,2,1,70,0,1
118817,-83.3333333333333,4,2,1,70,0,1
120359,-62.5,4,2,1,70,0,1
120702,-83.3333333333333,4,2,1,70,0,1
121217,-71.4285714285714,4,2,1,70,0,1
121902,-62.5,4,2,1,70,0,1
122245,-83.3333333333333,4,2,1,70,0,1
124474,-100,4,2,1,70,0,0
124817,-83.3333333333333,4,2,1,70,0,1
125159,-62.5,4,2,1,70,0,1
125331,-83.3333333333333,4,2,1,70,0,1
125845,-62.5,4,2,1,70,0,1
126188,-83.3333333333333,4,2,1,70,0,1
128588,-71.4285714285714,4,2,1,70,0,1
128931,-83.3333333333333,4,2,1,70,0,1
129445,-55.5555555555556,4,2,1,70,0,1
129788,-83.3333333333333,4,2,1,70,0,1
130217,-83.3333333333333,4,2,1,70,0,0
130302,-83.3333333333333,4,2,1,70,0,1
131331,-62.5,4,2,1,70,0,1
131674,-83.3333333333333,4,2,1,70,0,1
132188,-71.4285714285714,4,2,1,70,0,1
132874,-62.5,4,2,1,70,0,1
133731,-76.9230769230769,4,2,1,70,0,1
135788,-100,4,2,1,64,0,0
156359,-100,4,2,22,68,0,0
156531,-100,4,2,22,66,0,0
156788,-100,4,2,22,64,0,0
157045,-100,4,2,22,62,0,0
157302,-100,4,2,22,60,0,0
157388,-100,4,2,22,58,0,0
157474,-100,4,2,22,56,0,0
157559,-100,4,2,22,54,0,0
157645,-100,4,2,22,52,0,0
157731,-111.111111111111,4,2,1,60,0,0
174188,-83.3333333333333,4,2,1,60,0,0
174531,-111.111111111111,4,2,1,60,0,0
175559,-83.3333333333333,4,2,1,60,0,0
175902,-111.111111111111,4,2,1,60,0,0
176931,-83.3333333333333,4,2,1,60,0,0
177274,-111.111111111111,4,2,1,60,0,0
179674,-111.111111111111,4,2,99,60,0,0
179759,-111.111111111111,4,2,1,50,0,0

[Colours]
Combo1 : 150,220,130
Combo2 : 250,150,110
Combo3 : 130,170,250
Combo4 : 240,220,120

[HitObjects]
256,192,874,12,6,6531,0:1:0:0:
200,96,6874,6,0,L|56:85,2,132,2|2|2,0:0|0:0|0:0,0:0:0:0:
312,96,9617,6,0,L|456:85,2,132,2|2|2,0:0|0:0|0:0,0:0:0:0:
200,288,12359,6,0,L|56:299,2,132,2|2|2,0:0|0:0|0:0,0:0:0:0:
312,288,15102,6,0,L|456:299,2,132,2|2|2,0:0|0:0|0:0,0:0:0:0:
192,192,17845,6,0,L|48:192,1,132,2|2,0:0|0:0,0:0:0:0:
60,192,18874,1,2,0:0:0:0:
320,192,20588,6,0,L|464:192,1,132,2|2,0:0|0:0,0:0:0:0:
452,192,21617,1,2,0:0:0:0:
136,25,23331,5,2,0:0:0:0:
199,71,23845,1,2,0:0:0:0:
213,148,24359,1,2,0:0:0:0:
376,25,26074,5,2,0:0:0:0:
313,71,26588,1,2,0:0:0:0:
299,148,27102,1,2,0:0:0:0:
256,192,27188,12,0,28645,0:0:0:0:
389,364,28817,6,0,B|423:317|403:252|403:252|347:268,1,176,4|2,3:2|3:2,0:0:0:0:
235,201,29331,1,2,0:2:0:0:
253,206,29417,1,0,0:2:0:0:
271,211,29502,1,0,3:2:0:0:
360,181,29674,1,0,0:2:0:0:
348,268,29845,2,0,L|359:180,1,88,2|0,3:2|0:2,0:0:0:0:
510,61,30188,6,0,B|482:73|482:73|372:56,1,132,4|0,3:2|0:2,0:0:0:0:
321,110,30531,1,2,3:2:0:0:
242,29,30702,1,2,0:2:0:0:
257,37,30788,1,0,0:2:0:0:
268,50,30874,1,0,3:2:0:0:
261,163,31045,5,2,0:2:0:0:
381,57,31217,1,0,3:2:0:0:
374,170,31388,1,2,0:2:0:0:
268,50,31559,5,4,3:2:0:0:
268,50,31731,1,0,3:2:0:0:
374,170,31902,1,2,3:2:0:0:
261,163,32074,1,2,3:2:0:0:
381,57,32245,5,4,3:2:0:0:
487,177,32417,1,2,3:2:0:0:
494,64,32588,1,2,3:2:0:0:
494,64,32759,1,0,3:2:0:0:
374,170,32931,5,4,3:2:0:0:
374,170,33102,1,0,3:2:0:0:
480,290,33274,1,2,3:2:0:0:
487,177,33445,1,2,3:2:0:0:
367,283,33617,5,8,3:2:0:0:
370,226,33702,1,8,0:2:0:0:
374,170,33788,1,8,3:2:0:0:
480,290,33959,5,8,0:2:0:0:
487,177,34131,1,0,3:2:0:0:
254,276,34302,5,12,0:2:0:0:
261,163,34474,1,8,2:3:0:0:
260,189,34559,1,8,2:2:0:0:
141,269,34731,1,8,2:3:0:0:
142,243,34817,1,8,2:2:0:0:
147,155,34988,5,8,2:3:0:0:
147,155,35074,2,0,L|142:243,1,88,8|8,0:3|0:3,0:0:0:0:
65,281,35331,6,0,B|69:211|69:211|42:234,1,105.6,2|0,0:1|0:2,0:0:0:0:
42,127,35674,6,0,B|130:111|115:169|191:157,1,158.399995166016,4|0,3:2|0:0,0:0:0:0:
190,31,36017,2,0,P|178:54|174:80,1,52.7999983886719,8|0,0:2|0:0,0:0:0:0:
267,248,36188,1,2,0:0:0:0:
253,231,36274,1,0,0:0:0:0:
236,217,36359,2,0,P|180:201|114:203,1,105.599996777344,0|0,0:0|3:0,0:0:0:0:
11,289,36702,6,0,P|28:253|56:228,1,70.4,10|0,0:1|0:0,0:0:0:0:
261,162,36874,2,0,P|227:153|192:156,1,70.4,2|0,0:1|0:0,0:0:0:0:
101,335,37045,6,0,P|148:273|226:259,1,158.399995166016,2|0,3:2|0:2,0:0:0:0:
249,266,37388,1,8,0:0:0:0:
380,365,37559,1,2,0:0:0:0:
380,365,37645,1,0,0:0:0:0:
380,365,37731,2,0,L|390:241,1,105.599996777344,0|0,0:0|3:0,0:0:0:0:
505,219,38074,6,0,P|475:217|433:229,1,52.7999983886719,10|0,0:1|0:0,0:0:0:0:
281,196,38245,2,0,P|310:201|347:224,1,52.7999983886719,2|0,0:1|0:0,0:0:0:0:
409,13,38417,6,0,L|397:171,1,158.399995166016,2|0,3:2|0:0,0:0:0:0:
388,259,38759,2,0,L|384:314,1,52.7999983886719,8|0,0:2|0:0,0:0:0:0:
285,364,38931,5,2,0:0:0:0:
263,330,39017,1,0,0:0:0:0:
230,310,39102,1,0,0:0:0:0:
191,305,39188,1,0,0:0:0:0:
154,317,39274,2,0,L|144:248,1,52.7999983886719,0|0,3:0|0:0,0:0:0:0:
34,199,39445,6,0,P|64:194|95:200,1,61.5999981201172,10|0,0:1|0:0,0:0:0:0:
233,177,39617,2,0,P|202:176|174:187,1,61.5999981201172,2|0,0:1|0:0,0:0:0:0:
146,264,39788,6,0,L|124:108,1,158.399995166016,2|0,3:2|0:0,0:0:0:0:
107,32,40131,1,8,0:2:0:0:
307,93,40302,6,2,B|341:76|341:76|182:60|182:60|216:84,1,237.599992749024,2|0,0:1|0:0,0:1:0:0:
248,197,40645,6,0,L|253:127,1,52.7999983886719,0|0,3:2|0:0,0:0:0:0:
334,162,40817,2,0,L|381:137,1,52.7999983886719,10|0,0:1|0:0,0:0:0:0:
167,138,40988,2,0,L|124:108,1,52.7999983886719,2|0,3:3|0:0,0:0:0:0:
144,319,41159,6,0,B|171:212|171:212|192:272,1,158.399995166016,2|0,3:2|0:0,0:0:0:0:
272,326,41502,2,0,P|248:330|220:324,1,52.7999983886719,8|0,0:2|0:0,0:0:0:0:
84,250,41674,1,2,0:0:0:0:
84,250,41759,1,0,0:0:0:0:
84,250,41845,2,0,P|137:244|187:257,1,105.599996777344,0|0,0:0|3:0,0:0:0:0:
318,378,42188,6,0,P|291:354|271:325,1,70.4,10|0,0:1|0:0,0:0:0:0:
187,257,42359,2,0,P|194:222|208:190,1,70.4,2|0,0:1|0:0,0:0:0:0:
391,207,42531,6,0,L|233:192,1,158.399995166016,2|0,3:2|0:2,0:0:0:0:
207,190,42874,1,8,0:0:0:0:
399,131,43045,6,0,L|429:77,1,61.5999981201172,2|0,0:1|0:0,0:0:0:0:
235,116,43217,2,0,L|216:58,1,61.5999981201172,2|0,0:1|0:0,0:0:0:0:
319,93,43388,6,0,L|324:32,1,61.5999981201172,2|0,3:0|0:0,0:0:0:0:
312,200,43559,1,8,0:0:0:0:
112,133,43731,6,0,B|142:78|142:78|194:229|194:229|138:207,1,281.6,4|0,3:2|0:0,0:0:0:0:
138,207,44245,1,8,0:2:0:0:
435,82,44759,5,0,3:2:0:0:
372,281,44931,1,8,0:2:0:0:
286,53,45102,6,0,B|310:63|310:63|324:141,2,105.599996777344,4|0|0,3:2|0:0|0:0,0:0:0:0:
372,281,45617,1,8,0:2:0:0:
435,82,45788,6,0,B|411:92|411:92|396:172,1,105.599996777344,0|0,3:0|0:0,0:0:0:0:
333,213,46045,1,8,0:2:0:0:
313,218,46131,1,0,0:2:0:0:
297,0,46302,1,8,0:2:0:0:
289,39,46387,1,8,0:2:0:0:
282,78,46474,1,8,0:2:0:0:
274,117,46559,1,8,0:2:0:0:
266,155,46645,6,0,L|80:139,1,158.399995166016,4|0,3:2|0:0,0:0:0:0:
34,157,46988,2,0,P|32:130|41:106,1,52.7999983886719,8|0,0:2|0:0,0:0:0:0:
215,32,47159,1,2,0:0:0:0:
212,53,47245,1,0,0:0:0:0:
209,74,47331,2,0,L|104:65,1,105.599996777344,0|0,0:0|3:0,0:0:0:0:
42,269,47674,6,0,P|56:238|81:214,1,70.4,10|0,0:1|0:1,0:1:0:0:
257,167,47845,2,0,P|223:157|188:162,1,70.4,2|0,0:1|0:1,0:1:0:0:
173,345,48017,6,0,L|186:187,1,158.399995166016,0|0,3:2|0:2,0:0:0:0:
189,161,48359,1,8,0:0:0:0:
353,280,48531,1,2,0:0:0:0:
353,280,48617,1,0,0:0:0:0:
353,280,48702,2,0,P|298:290|245:256,1,105.599996777344,0|0,0:0|3:0,0:0:0:0:
438,364,49045,6,0,L|419:315,1,52.7999983886719,10|0,0:1|0:1,0:1:0:0:
427,187,49217,2,0,L|415:238,1,52.7999983886719,2|0,0:1|0:1,0:1:0:0:
511,279,49388,6,0,L|353:280,1,158.399995166016,2|0,3:2|0:0,0:0:0:0:
263,319,49731,2,0,P|256:297|257:255,1,52.7999983886719,8|0,0:2|0:0,0:0:0:0:
367,140,49902,5,2,0:2:0:0:
337,167,49988,1,0,0:2:0:0:
299,177,50074,1,0,0:2:0:0:
260,172,50159,1,0,0:2:0:0:
226,152,50245,2,0,L|166:141,1,52.7999983886719,0|0,3:0|0:0,0:0:0:0:
293,98,50417,6,0,L|289:37,1,61.5999981201172,10|0,0:1|0:0,0:0:0:0:
448,181,50588,2,0,L|452:119,1,61.5999981201172,2|0,0:1|0:0,0:0:0:0:
306,256,50759,6,0,L|292:82,1,158.399995166016,2|0,3:2|0:0,0:0:0:0:
225,76,51102,1,8,0:2:0:0:
127,257,51274,6,2,B|139:196|139:196|130:169|130:169|145:86|145:86|177:148,1,237.599992749024,2|0,0:1|0:0,0:1:0:0:
58,206,51617,6,0,L|-11:192,1,52.7999983886719,0|0,3:3|0:0,0:0:0:0:
210,235,51788,2,0,L|279:249,1,52.7999983886719,10|0,0:1|0:0,0:0:0:0:
116,308,51959,2,0,L|130:239,1,52.7999983886719,2|0,3:3|2:3,2:3:0:0:
171,66,52131,6,0,B|144:176|144:176|136:125,1,158.399995166016,2|0,3:2|0:0,0:0:0:0:
41,67,52474,2,0,P|69:63|93:69,1,52.7999983886719,8|0,0:2|0:0,0:0:0:0:
269,51,52645,1,2,0:0:0:0:
269,51,52731,1,0,0:0:0:0:
269,51,52817,2,0,P|222:74|171:66,1,105.599996777344,0|0,0:0|3:0,0:0:0:0:
208,221,53159,6,0,P|210:186|229:156,1,70.4,10|0,0:1|0:0,0:0:0:0:
268,51,53331,2,0,P|299:33|334:33,1,70.4,2|0,0:1|0:0,0:0:0:0:
406,156,53502,6,0,B|322:128|329:187|252:165,1,158.399995166016,2|0,3:2|0:2,0:0:0:0:
228,156,53845,1,8,0:0:0:0:
365,291,54017,6,0,L|370:225,1,61.5999981201172,2|0,0:1|0:0,0:0:0:0:
228,353,54188,2,0,L|220:289,1,61.5999981201172,2|0,0:1|0:0,0:0:0:0:
287,252,54359,6,0,L|292:191,1,61.5999981201172,2|0,3:3|0:0,0:0:0:0:
310,367,54531,1,8,0:0:0:0:
424,185,54702,6,0,B|382:103|382:103|365:291,1,281.6,4|0,3:2|0:0,0:0:0:0:
365,291,55217,1,8,0:2:0:0:
96,93,55731,5,0,3:2:0:0:
131,336,55902,1,8,0:2:0:0:
327,131,56245,6,0,B|304:45|304:45|250:229,1,281.6,4|8,3:2|0:2,0:0:0:0:
452,303,56759,1,0,3:0:0:0:
452,303,56845,1,0,3:0:0:0:
452,303,56931,5,10,0:2:0:0:
420,260,57017,1,8,0:2:0:0:
372,245,57102,1,8,0:2:0:0:
322,263,57188,1,8,0:2:0:0:
295,307,57274,1,10,0:2:0:0:
240,314,57359,1,8,0:2:0:0:
192,289,57445,1,8,0:2:0:0:
169,238,57531,1,8,0:2:0:0:
180,193,57617,1,4,3:2:0:0:
256,192,57702,12,8,60017,0:2:0:0:
102,264,60359,6,0,B|144:262|144:262|188:278|188:278|231:275,1,132,2|0,3:2|0:0,0:0:0:0:
304,329,60702,2,0,L|311:206,1,88,8|0,0:2|0:0,0:0:0:0:
309,241,60959,1,0,0:0:0:0:
309,241,61045,1,0,0:0:0:0:
405,336,61217,1,0,3:0:0:0:
480,172,61388,2,0,B|463:198|463:198|459:254,1,88,8|0,0:0|0:0,0:0:0:0:
304,153,61731,6,0,L|503:174,1,176,2|8,3:2|0:2,0:0:0:0:
406,67,62245,1,2,0:0:0:0:
406,67,62331,1,0,0:0:0:0:
406,67,62417,1,0,0:0:0:0:
304,153,62588,1,0,3:0:0:0:
239,27,62759,1,8,0:0:0:0:
188,178,62931,1,0,3:0:0:0:
51,18,63102,6,0,B|73:50|73:50|78:147,1,132,2|0,3:2|0:0,0:0:0:0:
31,217,63445,2,0,L|119:215,1,88,8|0,0:2|0:0,0:0:0:0:
119,215,63702,1,0,0:0:0:0:
119,215,63788,1,0,0:0:0:0:
18,293,63959,1,0,3:0:0:0:
77,143,64131,2,0,L|74:53,1,88,8|0,0:0|0:0,0:0:0:0:
249,163,64474,6,0,B|202:142|202:142|77:143,1,176,2|8,3:2|0:2,0:0:0:0:
114,284,64988,1,2,0:0:0:0:
117,251,65074,1,0,0:0:0:0:
140,228,65159,1,0,0:0:0:0:
172,222,65245,1,0,0:0:0:0:
201,236,65331,1,0,3:0:0:0:
146,360,65502,1,8,0:0:0:0:
114,284,65674,1,0,0:0:0:0:
245,292,65845,6,0,B|98:283,1,132,2|0,3:2|0:0,0:0:0:0:
39,337,66188,2,0,L|33:245,1,88,8|0,0:2|0:0,0:0:0:0:
33,249,66445,1,0,0:0:0:0:
33,249,66531,1,0,0:0:0:0:
148,363,66702,1,0,3:0:0:0:
272,213,66874,2,0,B|249:236|249:236|244:294,1,88,8|0,0:0|0:0,0:0:0:0:
452,289,67217,6,0,B|405:271|405:271|297:277,1,132,2|0,3:2|0:0,0:0:0:0:
244,291,67559,5,8,0:2:0:0:
356,198,67731,1,0,0:2:0:0:
136,163,67902,5,8,0:2:0:0:
272,213,68074,1,0,3:2:0:0:
194,10,68245,5,8,0:2:0:0:
199,44,68331,1,8,0:2:0:0:
205,78,68417,1,8,0:2:0:0:
209,113,68502,1,8,0:2:0:0:
217,148,68588,6,0,B|241:117|241:117|345:108,1,132,4|0,3:2|0:0,0:0:0:0:
403,158,68931,2,0,L|414:64,1,88,8|0,0:0|0:0,0:0:0:0:
423,235,69274,2,0,B|402:238|402:238|380:236,1,44,0|0,3:0|0:0,0:0:0:0:
403,158,69445,2,0,B|424:155|424:155|446:157,1,44,0|0,0:0|0:0,0:0:0:0:
434,322,69617,2,0,L|423:228,1,88,8|0,0:0|0:0,0:0:0:0:
333,108,69959,6,0,B|277:104|277:104|219:125|219:125|161:121,1,176,2|8,3:2|0:0,0:0:0:0:
15,71,70474,1,2,0:0:0:0:
15,71,70559,1,0,0:0:0:0:
15,71,70645,2,0,B|37:88|37:88|47:171,1,88,0|0,3:0|0:0,0:0:0:0:
191,44,70988,2,0,B|169:61|169:61|161:120,1,88,8|0,0:0|0:0,0:0:0:0:
292,138,71331,6,0,B|160:121,1,132,4|0,3:2|0:0,0:0:0:0:
132,198,71674,2,0,B|154:181|154:181|161:121,1,88,8|0,0:0|0:0,0:0:0:0:
64,237,72017,2,0,B|56:216|56:216|56:194,1,44,0|0,3:0|0:0,0:0:0:0:
132,198,72188,2,0,B|140:219|140:219|140:241,1,44,0|0,0:0|0:0,0:0:0:0:
93,314,72359,2,0,B|71:297|71:297|64:237,1,88,8|0,0:0|0:0,0:0:0:0:
307,224,72702,6,0,B|256:254|256:254|129:239,1,176,2|8,3:2|0:0,0:0:0:0:
226,143,73217,1,2,0:0:0:0:
226,143,73302,1,0,0:0:0:0:
226,143,73388,2,0,L|230:79,1,44,0|0,3:0|0:0,0:0:0:0:
100,85,73559,2,0,L|97:41,1,44,0|0,0:0|0:0,0:0:0:0:
58,178,73731,2,0,B|85:160|85:160|140:160,1,88,8|0,0:0|0:0,0:0:0:0:
61,310,74074,6,0,B|58:166,1,132,4|0,3:2|0:0,0:0:0:0:
139,239,74417,2,0,B|183:251|183:251|221:235,1,88,8|0,0:0|0:0,0:0:0:0:
380,178,74759,2,0,B|382:156|382:156|379:135,1,44,0|0,3:0|0:0,0:0:0:0:
284,136,74931,2,0,B|282:158|282:158|285:179,1,44
378,265,75102,2,0,B|334:250|334:250|294:263,1,88,8|0,0:0|0:0,0:0:0:0:
102,354,75445,6,0,L|277:347,1,176,4|8,3:2|0:0,0:0:0:0:
418,379,75959,1,2,0:0:0:0:
418,379,76045,1,0,0:0:0:0:
418,379,76131,2,0,L|422:315,1,44,0|0,3:0|0:0,0:0:0:0:
490,265,76302,2,0,L|487:221,1,44,0|0,0:0|0:0,0:0:0:0:
422,149,76474,2,0,B|398:160|398:160|318:149,1,88,8|0,0:0|0:0,0:0:0:0:
209,49,76817,5,4,3:2:0:0:
274,199,76988,1,0,3:2:0:0:
124,264,77159,1,8,3:2:0:0:
58,114,77331,1,0,3:2:0:0:
272,110,77502,5,4,3:2:0:0:
119,49,77674,1,0,3:2:0:0:
60,202,77845,1,8,3:2:0:0:
212,262,78017,1,0,3:2:0:0:
208,49,78188,5,4,3:2:0:0:
189,80,78274,1,0,3:2:0:0:
184,116,78359,1,0,3:2:0:0:
195,152,78445,1,0,3:2:0:0:
219,180,78531,1,0,3:2:0:0:
252,195,78617,1,0,3:2:0:0:
289,196,78702,1,0,3:2:0:0:
323,182,78788,1,0,3:2:0:0:
348,155,78874,1,0,3:2:0:0:
373,128,78959,1,0,3:2:0:0:
407,114,79045,1,0,3:2:0:0:
444,115,79131,1,0,3:2:0:0:
477,130,79217,1,0,3:2:0:0:
501,158,79302,1,0,3:2:0:0:
512,194,79388,1,0,3:2:0:0:
507,230,79474,1,0,3:2:0:0:
488,262,79559,5,4,0:2:0:0:
272,110,79902,1,8,0:1:0:0:
222,311,80159,1,8,0:3:0:0:
188,185,80331,1,8,0:3:0:0:
193,208,80417,1,8,0:3:0:0:
298,234,80588,1,8,0:1:0:0:
212,41,80845,1,8,0:3:0:0:
207,64,80931,5,8,0:3:0:0:
119,140,81102,1,8,0:3:0:0:
98,26,81274,1,8,0:1:0:0:
340,172,81531,1,8,0:3:0:0:
334,147,81617,5,8,0:3:0:0:
403,75,81788,1,8,0:3:0:0:
432,235,81959,1,12,0:3:0:0:
68,322,82302,6,0,B|143:307|126:359|205:345,1,140.8,6|8,3:2|0:0,0:0:0:0:
200,200,82817,1,2,1:2:0:0:
200,200,82902,1,0,1:0:0:0:
200,200,82988,2,0,P|187:232|182:267,1,70.4,0|0,1:0|3:2,0:0:0:0:
68,322,83331,2,0,P|65:286|54:253,1,70.4,10|0,0:0|2:0,2:0:0:0:
0,147,83674,6,0,P|66:159|128:118,1,140.8,0|8,3:2|0:0,0:0:0:0:
196,29,84188,1,0,1:2:0:0:
196,29,84274,1,0,1:0:0:0:
196,29,84359,2,0,P|187:58|187:85,1,35.2,0|0,1:0|1:0,0:0:0:0:
263,100,84531,1,0,3:2:0:0:
389,46,84702,2,0,P|358:37|315:45,1,70.4,8|0,0:0|0:0,0:0:0:0:
378,186,85045,6,0,L|389:43,1,140.8,2|8,3:2|0:0,0:0:0:0:
493,130,85559,1,2,1:2:0:0:
493,130,85645,1,0,1:0:0:0:
493,130,85731,2,0,P|455:117|414:120,1,70.4,0|0,1:0|3:2,0:0:0:0:
378,186,86074,2,0,P|410:198|445:198,1,70.4,10|0,0:0|0:0,0:0:0:0:
463,58,86417,6,0,L|445:198,1,140.8,0|8,3:2|0:0,0:0:0:0:
369,270,86931,1,0,1:2:0:0:
385,264,87017,1,0,1:0:0:0:
402,264,87102,1,0,1:0:0:0:
416,273,87188,1,0,1:0:0:0:
426,287,87274,1,0,3:2:0:0:
346,346,87445,2,0,L|244:339,1,70.4,8|0,0:0|0:0,0:0:0:0:
140,319,87788,6,0,B|210:304|196:349|275:341,1,140.8,2|8,3:2|0:0,0:0:0:0:
369,270,88302,1,2,1:2:0:0:
369,270,88388,1,0,1:0:0:0:
369,270,88474,2,0,P|353:239|352:202,1,70.4,0|0,1:0|3:2,0:0:0:0:
435,117,88817,2,0,P|451:85|452:48,1,70.4,10|0,0:0|0:0,0:0:0:0:
260,94,89159,6,0,P|324:113|374:66,1,140.8,0|8,3:2|0:0,0:0:0:0:
272,19,89674,1,0,1:2:0:0:
272,19,89759,1,0,1:0:0:0:
272,19,89845,2,0,P|243:18|206:21,1,35.2,0|0,1:0|1:0,0:0:0:0:
185,120,90017,1,0,3:2:0:0:
92,47,90188,2,0,P|126:38|161:44,1,70.4,8|0,0:0|0:0,0:0:0:0:
92,177,90531,6,0,B|70:142|70:142|67:87|91:46,1,140.8,2|8,3:2|0:0,0:0:0:0:
192,127,91045,1,2,1:2:0:0:
192,127,91131,1,0,1:0:0:0:
192,127,91217,2,0,P|226:132|260:123,1,70.4,0|0,1:0|3:2,0:0:0:0:
92,177,91559,2,0,P|58:172|24:181,1,70.4,10|0,0:0|0:0,0:0:0:0:
91,308,91902,6,0,B|113:273|113:273|116:218|92:177,1,140.8,0|8,3:2|0:0,0:0:0:0:
191,281,92417,1,0,1:2:0:0:
199,265,92502,1,0,1:0:0:0:
210,251,92588,1,0,1:0:0:0:
224,240,92674,1,0,1:0:0:0:
240,232,92759,2,0,L|319:237,1,70.4,0|8,3:2|0:0,0:0:0:0:
467,301,93102,1,0,1:0:0:0:
462,284,93188,1,0,1:0:0:0:
452,269,93274,6,0,B|410:243|365:267|365:267|321:268|306:228,1,158.399995166016,6|8,3:2|0:0,0:0:0:0:
346,109,93788,1,2,1:2:0:0:
346,109,93874,1,0,1:0:0:0:
346,109,93959,2,0,P|362:141|358:199,1,79.1999975830079,0|0,1:0|3:2,0:0:0:0:
295,312,94302,2,0,P|295:272|311:237,1,79.1999975830079,10|0,0:0|0:0,0:0:0:0:
436,205,94645,6,0,P|383:259|311:237,1,158.399995166016,0|8,3:2|0:0,0:0:0:0:
234,142,95159,1,0,1:2:0:0:
234,142,95245,1,0,1:0:0:0:
234,142,95331,2,0,P|241:160|245:179,1,39.5999987915039,0|0,1:0|1:0,0:0:0:0:
189,243,95502,1,0,3:2:0:0:
47,190,95674,2,0,P|85:179|124:185,1,79.1999975830079,8|0,0:0|0:0,0:0:0:0:
30,326,96017,6,0,P|5:254|47:191,1,158.399995166016,2|8,3:2|0:0,0:0:0:0:
168,131,96531,1,2,1:2:0:0:
168,131,96617,1,0,1:0:0:0:
168,131,96702,2,0,P|128:130|93:114,1,79.1999975830079,0|0,1:0|3:2,0:0:0:0:
245,179,97045,2,0,P|280:162|319:162,1,79.1999975830079,10|0,0:0|0:0,0:0:0:0:
411,59,97388,6,0,P|340:88|320:162,1,158.399995166016,0|8,3:2|0:0,0:0:0:0:
389,222,97902,1,0,1:2:0:0:
407,215,97988,1,0,1:0:0:0:
427,215,98074,1,0,1:0:0:0:
443,225,98159,1,0,1:0:0:0:
455,241,98245,1,0,3:2:0:0:
370,305,98417,2,0,L|269:295,1,79.1999975830079,8|0,0:0|0:0,0:0:0:0:
144,312,98759,6,0,B|188:290|230:319|230:319|274:324|297:288,1,158.399995166016,2|8,3:2|0:0,0:0:0:0:
180,224,99274,1,2,1:2:0:0:
180,224,99359,1,0,1:0:0:0:
180,224,99445,2,0,P|167:187|171:148,1,79.1999975830079,0|0,1:0|3:2,0:0:0:0:
314,128,99788,2,0,P|281:105|243:98,1,79.1999975830079,10|0,0:0|0:0,0:0:0:0:
98,114,100131,6,0,P|162:133|250:90,1,158.399995166016,0|8,3:2|0:0,0:0:0:0:
317,14,100645,1,0,1:2:0:0:
317,14,100731,1,0,1:0:0:0:
317,14,100817,2,0,P|305:42|305:66,1,39.5999987915039,0|0,1:0|1:0,0:0:0:0:
314,128,100988,1,0,3:2:0:0:
451,75,101159,2,0,P|413:67|375:79,1,79.1999975830079,8|0,0:0|0:0,0:0:0:0:
498,206,101502,6,0,P|505:130|451:75,1,158.399995166016,2|8,3:2|0:0,0:0:0:0:
434,248,102017,1,2,1:2:0:0:
434,248,102102,1,0,1:0:0:0:
434,248,102188,2,0,P|471:235|497:206,1,79.1999975830079,0|0,1:0|3:2,0:0:0:0:
451,75,102531,2,0,P|413:67|375:79,1,79.1999975830079,10|0,0:0|0:0,0:0:0:0:
256,352,102874,6,2,B|256:45|256:45|179:88|179:88|179:183,1,461.999985900879,4|0,3:2|0:0,2:2:0:0:
131,217,104245,6,0,B|250:104|427:124,1,316.799990332032,4|0,3:2|0:2,0:0:0:0:
512,256,104759,6,0,B|378:125|185:174,1,352,4|0,3:2|0:2,0:0:0:0:
65,231,105274,6,0,B|141:234|186:174,1,140.8,4|0,3:2|0:2,0:0:0:0:
256,32,105617,5,4,3:2:0:0:
256,32,106302,5,8,0:2:0:0:
215,63,106388,1,8,0:2:0:0:
200,113,106474,1,8,0:2:0:0:
216,162,106559,1,8,0:2:0:0:
256,194,106645,1,8,0:2:0:0:
296,162,106731,1,8,0:2:0:0:
312,113,106817,1,8,0:2:0:0:
297,63,106902,1,8,0:2:0:0:
256,32,106988,6,0,B|188:24|188:24|151:45|151:45|82:37,1,176,4|2,3:2|3:2,0:0:0:0:
114,161,107502,1,2,0:2:0:0:
117,142,107588,1,0,0:2:0:0:
121,124,107674,1,0,3:2:0:0:
87,37,107845,1,0,0:2:0:0:
1,36,108017,2,0,B|30:45|30:45|87:37,1,88,2|0,3:2|0:2,0:0:0:0:
243,158,108359,6,0,B|214:134|214:134|113:123,1,132,4|0,3:2|0:2,0:0:0:0:
44,148,108702,1,2,3:2:0:0:
78,252,108874,1,2,0:2:0:0:
83,233,108959,1,0,0:2:0:0:
88,214,109045,1,0,3:2:0:0:
243,158,109217,5,2,0:2:0:0:
381,266,109388,1,0,3:2:0:0:
366,143,109559,1,2,0:2:0:0:
258,281,109731,5,4,3:2:0:0:
258,281,109902,1,0,3:2:0:0:
366,143,110074,1,2,3:2:0:0:
381,266,110245,1,2,3:2:0:0:
243,158,110417,5,4,3:2:0:0:
135,296,110588,1,2,3:2:0:0:
120,173,110759,1,2,3:2:0:0:
120,173,110931,1,0,3:2:0:0:
258,281,111102,5,4,3:2:0:0:
258,281,111274,1,0,3:2:0:0:
366,143,111445,1,2,3:2:0:0:
243,158,111617,1,2,3:2:0:0:
381,266,111788,5,8,3:2:0:0:
374,205,111874,1,8,0:2:0:0:
366,143,111959,1,8,3:2:0:0:
258,281,112131,5,8,0:2:0:0:
120,173,112302,1,0,3:2:0:0:
228,35,112474,6,2,B|201:60|201:60|126:52,1,107.799996710205,0|0,3:2|0:2,2:2:0:0:
130,52,113159,6,2,L|272:68,1,132,0|0,0:2|0:2,0:1:0:0:
337,79,113502,6,0,B|363:49|345:7|345:7|324:33,1,105.6,2|0,0:1|0:2,0:0:0:0:
240,163,113845,6,0,B|225:130|232:95|261:67|261:67|259:100|273:122,1,158.399995166016,4|0,3:2|0:0,0:0:0:0:
389,89,114188,2,0,P|359:81|306:82,1,52.7999983886719,8|0,0:2|0:0,0:0:0:0:
134,120,114359,1,2,0:0:0:0:
148,105,114445,1,0,0:0:0:0:
167,98,114531,2,0,L|270:118,1,105.599996777344,0|0,0:0|3:0,0:0:0:0:
408,260,114874,6,0,B|397:228|397:228|366:207,1,70.4,10|0,0:1|0:1,0:1:0:0:
147,218,115045,2,0,B|166:191|166:191|202:181,1,70.4,2|0,0:1|0:1,0:1:0:0:
329,310,115217,6,0,B|318:279|318:279|273:260|273:260|225:264|225:264|207:286,1,158.399995166016,2|0,3:2|0:2,0:0:0:0:
196,312,115559,1,8,0:0:0:0:
32,353,115731,1,2,0:0:0:0:
32,353,115817,1,0,0:0:0:0:
32,353,115902,2,0,B|28:241,1,105.599996777344,0|0,0:0|3:0,0:0:0:0:
20,36,116245,6,0,B|23:89,1,52.7999983886719,10|0,0:1|0:1,0:1:0:0:
28,247,116417,2,0,B|26:194,1,52.7999983886719,2|0,0:1|0:1,0:1:0:0:
235,133,116588,6,0,B|76:138,1,158.399995166016,2|0,3:2|0:0,0:0:0:0:
23,89,116931,2,0,B|21:37,1,52.7999983886719,8|0,0:2|0:0,0:0:0:0:
133,189,117102,5,0,0:0:0:0:
114,154,117187,1,0,0:0:0:0:
77,138,117273,1,0,0:0:0:0:
41,157,117359,1,0,0:0:0:0:
26,194,117445,2,0,B|28:247,1,52.7999983886719,0|0,3:0|0:0,0:0:0:0:
102,287,117617,6,0,P|131:279|161:284,1,61.5999981201172,10|0,0:1|0:0,0:0:0:0:
302,300,117788,2,0,P|273:288|243:288,1,61.5999981201172,2|0,0:1|0:0,0:0:0:0:
197,364,117959,6,0,L|208:204,1,158.399995166016,2|0,3:2|0:0,0:0:0:0:
216,130,118302,1,8,0:2:0:0:
466,196,118474,6,2,B|447:153|447:153|304:136|304:136|276:173,1,237.599992749024,2|0,0:1|0:0,0:1:0:0:
363,271,118817,6,0,L|368:217,1,52.7999983886719,0|0,3:0|0:0,0:0:0:0:
288,225,118988,2,0,L|276:174,1,52.7999983886719,10|0,0:1|0:0,0:0:0:0:
444,243,119159,2,0,L|467:195,1,52.7999983886719,2|0,3:3|0:0,0:0:0:0:
415,67,119331,6,0,B|390:31|390:31|378:144,1,158.399995166016,2|0,3:2|0:0,0:0:0:0:
367,218,119674,2,0,L|363:271,1,52.7999983886719,8|0,0:2|0:0,0:0:0:0:
481,152,119845,1,2,0:0:0:0:
481,152,119931,1,0,0:0:0:0:
481,152,120017,2,0,B|445:145|445:145|415:151|415:151|377:145,1,105.599996777344,0|0,0:0|3:0,0:0:0:0:
218,28,120359,6,0,B|231:58|231:58|230:95,1,70.4,10|0,0:1|0:0,0:0:0:0:
85,153,120531,2,0,B|84:190|84:190|98:221,1,70.4,2|0,0:1|0:0,0:0:0:0:
230,95,120702,6,0,B|192:81|153:101|153:101|126:68|79:70,1,158.399995166016,2|0,3:2|0:2,0:0:0:0:
57,75,121045,1,8,0:0:0:0:
21,263,121217,6,0,L|5:200,1,61.5999981201172,2|0,0:1|0:0,0:0:0:0:
175,265,121388,2,0,L|188:204,1,61.5999981201172,2|0,0:1|0:0,0:0:0:0:
97,220,121559,6,0,L|96:158,1,61.5999981201172,2|0,3:3|0:0,0:0:0:0:
98,311,121731,1,8,0:0:0:0:
323,221,121902,6,0,B|284:172|284:172|249:328|249:328|305:303,1,281.6,4|0,3:2|0:0,0:0:0:0:
303,304,122417,1,8,0:2:0:0:
152,22,122931,5,0,3:2:0:0:
97,220,123102,1,8,0:2:0:0:
14,18,123274,6,0,B|42:35|42:35|53:108,2,105.599996777344,4|0|0,3:2|0:0|0:0,0:0:0:0:
97,220,123788,1,8,0:2:0:0:
250,58,123959,6,0,B|222:75|222:75|211:148,1,105.599996777344,0|0,3:0|0:0,0:0:0:0:
241,220,124217,1,8,0:2:0:0:
246,240,124302,1,0,0:2:0:0:
427,113,124474,5,10,0:2:0:0:
250,58,124645,1,10,0:2:0:0:
277,62,124731,1,10,0:2:0:0:
303,68,124817,5,2,3:2:0:0:
306,78,124902,1,2,3:2:0:0:
309,88,124988,1,2,3:2:0:0:
312,98,125074,1,2,3:2:0:0:
315,108,125159,6,0,B|316:138|316:138|310:157|310:157|311:177,1,70.4,12|0,0:2|0:2,0:0:0:0:
367,230,125331,2,0,B|417:217|417:217|467:238,2,105.599996777344,2|0|0,0:2|0:2|3:2,0:0:0:0:
409,362,125845,6,0,B|413:282,1,70.4,10|0,0:1|0:0,0:0:0:0:
424,109,126017,2,0,B|419:188,1,70.4,2|0,0:1|0:0,0:0:0:0:
237,235,126188,6,0,B|212:221|212:221|340:228,1,158.399995166016,0|0,3:2|0:2,0:0:0:0:
367,230,126531,1,8,0:0:0:0:
222,327,126702,1,2,0:0:0:0:
222,327,126788,1,0,0:0:0:0:
222,327,126874,2,0,L|212:221,1,105.599996777344,0|0,0:0|3:0,0:0:0:0:
107,146,127217,6,0,L|158:154,1,52.7999983886719,10|0,0:1|0:0,0:0:0:0:
303,129,127388,2,0,L|253:146,1,52.7999983886719,2|0,0:1|0:0,0:0:0:0:
198,64,127559,6,0,L|212:222,1,158.399995166016,2|0,3:2|0:0,0:0:0:0:
159,279,127902,2,0,L|106:291,1,52.7999983886719,8|0,0:2|0:0,0:0:0:0:
0,384,128074,5,2,0:0:0:0:
26,353,128159,1,0,0:0:0:0:
36,315,128245,1,0,0:0:0:0:
31,276,128331,1,0,0:0:0:0:
11,242,128417,2,0,L|8:181,1,52.7999983886719,0|0,3:0|0:0,0:0:0:0:
139,76,128588,6,0,P|169:75|198:64,1,61.5999981201172,10|0,0:1|0:0,0:0:0:0:
302,129,128759,2,0,P|332:129|361:139,1,61.5999981201172,2|0,0:1|0:0,0:0:0:0:
307,287,128931,6,0,L|302:126,1,158.399995166016,2|0,3:2|0:0,0:0:0:0:
275,54,129274,1,8,0:2:0:0:
493,174,129445,6,2,B|473:123|473:123|402:111|402:111|361:140|361:140|302:129,1,237.599992749024,2|0,0:1|0:0,0:1:0:0:
219,223,129788,6,0,L|216:156,1,52.7999983886719,0|0,3:0|0:0,0:0:0:0:
409,243,129959,2,0,L|424:178,1,52.7999983886719,10|0,0:1|0:0,0:0:0:0:
307,287,130131,2,0,L|313:223,1,52.7999983886719,2|0,3:3|2:0,2:0:0:0:
275,54,130302,5,12,2:2:0:0:
219,223,130474,1,0,3:0:0:0:
139,49,130645,5,8,0:2:0:0:
144,245,130817,1,0,3:0:0:0:
7,80,130988,5,8,0:2:0:0:
78,286,131159,1,0,3:0:0:0:
274,131,131331,5,8,0:2:0:0:
244,112,131417,1,0,3:0:0:0:
209,113,131502,1,0,3:0:0:0:
180,131,131588,1,0,3:0:0:0:
165,162,131674,5,12,2:2:0:0:
60,22,131845,1,0,3:0:0:0:
78,286,132017,5,8,0:2:0:0:
7,80,132188,1,0,3:0:0:0:
17,239,132359,5,8,2:2:0:0:
54,214,132445,1,0,3:0:0:0:
100,214,132531,1,0,3:0:0:0:
137,240,132617,1,0,3:0:0:0:
153,282,132702,5,8,0:0:0:0:
278,112,132874,2,0,B|286:32|286:32|208:67|208:67|198:205,1,281.6,4|0,3:2|0:0,0:0:0:0:
200,183,133388,1,8,0:2:0:0:
384,124,133731,5,12,0:0:0:0:
264,291,133902,1,0,3:2:0:0:
278,112,134074,5,8,0:2:0:0:
368,302,134245,1,0,3:0:0:0:
384,124,134417,6,0,L|401:69,1,57.1999973815919,12|0,0:2|0:0,0:0:0:0:
368,302,134588,2,0,L|373:358,1,57.1999973815919,8|0,0:0|0:0,0:0:0:0:
278,112,134759,6,0,L|272:55,1,57.1999973815919,8|0,0:2|0:0,0:0:0:0:
264,291,134931,2,0,L|246:345,1,57.1999973815919,8|0,0:0|3:0,0:0:0:0:
500,224,135102,5,12,0:2:0:0:
443,218,135188,1,8,0:2:0:0:
386,212,135274,1,8,0:2:0:0:
329,206,135359,1,8,0:2:0:0:
272,200,135445,1,10,0:2:0:0:
215,194,135531,1,8,0:2:0:0:
159,188,135617,1,8,0:2:0:0:
102,182,135702,1,8,0:2:0:0:
45,176,135788,1,4,3:2:0:0:
256,192,135874,12,8,138188,0:2:0:0:
418,32,138531,6,0,B|396:54|396:54|383:166,1,132,2|0,3:2|0:0,0:0:0:0:
418,237,138874,2,0,L|331:226,1,88,8|0,0:2|0:0,0:0:0:0:
331,226,139131,1,0,0:0:0:0:
331,226,139217,1,0,0:0:0:0:
265,310,139388,1,0,3:0:0:0:
176,144,139559,2,0,B|197:172|197:172|200:224,1,88,8|0,0:0|0:0,0:0:0:0:
0,152,139902,6,0,L|175:144,1,176,2|8,3:2|0:2,0:0:0:0:
335,75,140417,1,2,0:0:0:0:
335,75,140502,1,0,0:0:0:0:
335,75,140588,1,0,0:0:0:0:
331,226,140759,1,0,3:0:0:0:
232,63,140931,1,8,0:0:0:0:
199,224,141102,1,0,3:0:0:0:
52,31,141274,6,0,B|83:56|83:56|88:153,1,132,2|0,3:2|0:0,0:0:0:0:
0,153,141617,2,0,L|103:148,1,88,8|0,0:2|0:0,0:0:0:0:
87,148,141874,1,0,0:0:0:0:
87,148,141959,1,0,0:0:0:0:
199,224,142131,1,0,3:0:0:0:
232,63,142302,2,0,B|211:103|211:103|186:67,1,88,8|0,0:0|0:0,0:0:0:0:
0,153,142645,6,0,B|45:145|45:145|93:154|93:154|72:194|72:194|67:242,1,176,2|8,3:2|0:2,0:0:0:0:
152,314,143159,1,2,0:0:0:0:
135,284,143245,1,0,0:0:0:0:
139,252,143331,1,0,0:0:0:0:
162,228,143417,1,0,0:0:0:0:
193,223,143502,1,0,3:0:0:0:
218,359,143674,1,8,0:0:0:0:
152,314,143845,1,0,0:0:0:0:
284,316,144017,6,0,B|137:314,1,132,2|0,3:2|0:0,0:0:0:0:
64,372,144359,2,0,L|58:280,1,88,8|0,0:2|0:0,0:0:0:0:
58,284,144617,1,0,0:0:0:0:
58,284,144702,1,0,0:0:0:0:
152,314,144874,1,0,3:0:0:0:
158,159,145045,2,0,B|135:182|135:182|130:237,1,88,8|0,0:0|0:0,0:0:0:0:
287,163,145388,6,0,B|241:157|241:157|205:168|205:168|158:159,1,132,2|0,3:2|0:0,0:0:0:0:
198,86,145731,5,8,0:2:0:0:
246,237,145902,1,0,0:2:0:0:
287,163,146074,5,8,0:2:0:0:
130,237,146245,1,0,3:2:0:0:
227,346,146417,5,8,0:2:0:0:
204,318,146502,1,8,0:2:0:0:
200,282,146588,1,8,0:2:0:0:
213,249,146674,1,8,0:2:0:0:
246,237,146759,6,0,B|389:242,1,132,4|0,3:2|0:0,0:0:0:0:
451,293,147102,2,0,L|459:198,1,88,8|0,0:0|0:0,0:0:0:0:
496,143,147359,2,0,L|499:99,1,44,8|0,0:0|0:0,0:0:0:0:
382,158,147617,1,0,3:2:0:0:
423,38,147788,1,8,0:2:0:0:
285,75,147959,5,0,3:2:0:0:
285,75,148045,1,8,0:0:0:0:
285,75,148131,2,0,L|95:57,1,176,2|8,3:2|0:0,0:0:0:0:
30,173,148645,1,2,0:0:0:0:
15,162,148731,2,0,L|10:103,1,44,8|0,0:0|0:0,0:0:0:0:
106,215,148988,1,0,3:2:0:0:
269,153,149159,2,0,L|146:141,1,88,8|0,0:2|0:0,0:0:0:0:
222,221,149417,1,8,0:0:0:0:
230,236,149502,6,0,B|240:275|240:275|224:322|224:322|232:368,1,132,4|0,3:2|0:0,0:0:0:0:
309,329,149845,2,0,L|396:320,1,88,8|0,0:0|0:0,0:0:0:0:
478,347,150102,2,0,L|486:290,1,44,8|0,0:0|0:0,0:0:0:0:
394,243,150359,1,0,3:2:0:0:
502,206,150531,1,8,0:2:0:0:
372,150,150702,5,0,3:2:0:0:
372,150,150788,1,8,0:0:0:0:
372,150,150874,2,0,B|405:115|405:115|393:247,1,176,2|8,3:2|0:0,0:0:0:0:
309,329,151388,1,2,0:0:0:0:
298,343,151474,2,0,L|290:286,1,44,8|0,0:0|0:0,0:0:0:0:
212,203,151731,1,0,3:2:0:0:
142,306,151902,2,0,L|54:300,1,88,8|0,0:2|0:0,0:0:0:0:
20,227,152159,1,8,0:0:0:0:
18,209,152245,6,0,L|10:55,1,132,4|0,3:2|0:0,0:0:0:0:
77,33,152588,2,0,B|106:48|106:48|160:40,1,88,8|0,0:0|0:0,0:0:0:0:
238,25,152845,2,0,L|291:33,1,44,8|0,0:0|0:0,0:0:0:0:
400,95,153102,1,0,3:2:0:0:
319,178,153274,1,8,0:2:0:0:
369,25,153445,5,0,3:2:0:0:
369,25,153531,1,8,0:0:0:0:
369,25,153617,2,0,B|329:50|329:50|319:183,1,176,4|8,3:2|0:0,0:0:0:0:
430,307,154131,1,2,0:0:0:0:
442,294,154217,2,0,L|450:239,1,44,8|0,0:0|0:0,0:0:0:0:
318,358,154474,1,0,3:2:0:0:
278,266,154645,2,0,B|320:253|320:253|366:269,1,88,8|0,0:2|0:0,0:0:0:0:
448,250,154902,1,8,0:0:0:0:
454,233,154988,6,0,B|459:195|459:195|439:150|439:150|446:106,1,132,4|0,3:2|0:0,0:0:0:0:
503,44,155331,2,0,L|411:28,1,88,8|0,0:0|0:0,0:0:0:0:
323,64,155588,1,8,0:2:0:0:
310,89,155674,5,4,3:2:0:0:
145,22,155845,1,0,3:2:0:0:
170,199,156017,1,8,0:2:0:0:
238,32,156188,1,0,3:2:0:0:
223,73,156274,1,8,0:2:0:0:
226,116,156359,5,12,0:2:0:0:
322,184,156531,1,8,0:3:0:0:
291,167,156617,1,8,0:2:0:0:
170,199,156788,1,8,0:3:0:0:
193,186,156874,1,8,0:2:0:0:
259,258,157045,1,8,0:3:0:0:
255,242,157131,1,8,0:1:0:0:
166,311,157302,1,8,0:3:0:0:
165,302,157388,1,8,0:1:0:0:
167,294,157474,1,8,0:3:0:0:
171,286,157559,1,8,0:3:0:0:
177,280,157645,1,8,0:3:0:0:
184,276,157731,6,0,L|362:284,1,158.399995166016,4|8,3:2|0:0,0:0:0:0:
438,338,158245,1,0,0:0:0:0:
438,338,158331,1,0,0:0:0:0:
438,338,158417,2,0,L|448:228,1,79.1999975830079,0|0,0:0|3:2,0:0:0:0:
363,184,158759,2,0,L|353:74,1,79.1999975830079,8|0,0:0|0:0,0:0:0:0:
215,76,159102,6,0,P|269:98|321:72,1,118.799996374512,0|0,3:2|0:0,0:0:0:0:
355,105,159445,2,0,P|362:66|346:31,1,79.1999975830079,8|0,0:0|0:0,0:0:0:0:
346,31,159702,1,0,0:0:0:0:
346,31,159788,1,0,0:0:0:0:
275,138,159959,1,0,3:2:0:0:
215,76,160131,2,0,L|130:69,1,79.1999975830079,8|0,0:0|0:0,0:0:0:0:
4,121,160474,6,0,B|86:103|77:163|154:151,1,158.399995166016,0|8,3:2|0:0,0:0:0:0:
222,83,160988,1,0,0:0:0:0:
222,83,161074,1,0,0:0:0:0:
222,83,161159,1,0,0:0:0:0:
154,151,161331,1,0,3:2:0:0:
222,83,161502,2,0,L|235:3,1,79.1999975830079,8|0,0:0|0:0,0:0:0:0:
331,114,161845,6,0,B|307:90|307:90|222:83,1,118.799996374512,0|0,3:2|0:0,0:0:0:0:
212,4,162188,2,0,L|222:81,1,79.1999975830079,8|0,0:0|0:0,0:0:0:0:
222,82,162445,1,0,0:0:0:0:
222,82,162531,1,0,0:0:0:0:
237,194,162702,1,0,3:2:0:0:
331,114,162874,1,8,0:0:0:0:
376,235,163045,1,0,3:0:0:0:
475,144,163217,6,0,B|428:117|382:143|382:143|350:136|330:113,1,158.399995166016,0|8,3:2|0:0,0:0:0:0:
237,194,163731,1,0,0:0:0:0:
255,200,163817,1,0,0:0:0:0:
270,213,163902,1,0,0:0:0:0:
281,229,163988,1,0,0:0:0:0:
285,249,164074,1,0,3:2:0:0:
209,322,164245,2,0,L|118:316,1,79.1999975830079,8|0,0:0|0:0,0:0:0:0:
285,249,164588,6,0,L|403:256,1,118.799996374512,0|0,3:2|0:0,0:0:0:0:
428,297,164931,2,0,P|445:261|435:223,1,79.1999975830079,8|0,0:0|0:0,0:0:0:0:
435,223,165188,1,0,0:0:0:0:
435,223,165274,1,0,0:0:0:0:
337,345,165445,1,0,3:2:0:0:
252,280,165617,2,0,P|242:242|259:207,1,79.1999975830079,8|0,0:0|0:0,0:0:0:0:
476,152,165959,6,0,B|400:127|397:188|320:160,1,158.399995166016,0|8,3:2|0:0,0:0:0:0:
349,16,166474,1,0,0:0:0:0:
349,16,166559,1,0,0:0:0:0:
349,16,166645,2,0,P|364:52|357:91,1,79.1999975830079,0|0,0:0|3:2,0:0:0:0:
258,207,166988,2,0,P|242:170|250:132,1,79.1999975830079,8|0,0:0|0:0,0:0:0:0:
376,215,167331,6,0,B|248:206,1,118.799996374512,4|0,3:2|0:0,0:0:0:0:
210,264,167674,5,8,0:2:0:0:
250,132,167845,1,0,3:2:0:0:
258,207,168017,5,8,0:2:0:0:
191,84,168188,1,0,3:2:0:0:
250,132,168359,5,8,0:2:0:0:
213,156,168445,1,8,0:2:0:0:
169,155,168531,1,8,0:2:0:0:
133,130,168617,1,8,0:2:0:0:
117,89,168702,6,0,B|148:17|148:17|193:86,1,158.399995166016,4|8,3:2|0:0,0:0:0:0:
45,148,169217,1,0,0:0:0:0:
45,148,169302,1,0,0:0:0:0:
45,148,169388,2,0,L|29:37,1,79.1999975830079,0|0,0:0|3:2,0:0:0:0:
45,236,169731,2,0,L|29:347,1,79.1999975830079,8|0,0:0|0:0,0:0:0:0:
116,192,170074,6,0,P|170:170|222:196,1,118.799996374512,0|0,3:2|0:0,0:0:0:0:
247,236,170417,2,0,P|263:201|256:163,1,79.1999975830079,8|0,0:0|0:0,0:0:0:0:
255,162,170674,1,0,0:0:0:0:
255,162,170759,1,0,0:0:0:0:
323,86,170931,1,0,3:2:0:0:
401,154,171102,2,0,L|486:147,1,79.1999975830079,8|0,0:0|0:0,0:0:0:0:
423,297,171445,6,0,B|392:271|392:271|401:153,1,158.399995166016,0|8,3:2|0:0,0:0:0:0:
429,54,171959,1,0,0:0:0:0:
429,54,172045,1,0,0:0:0:0:
429,54,172131,1,0,0:0:0:0:
401,153,172302,1,0,3:2:0:0:
323,86,172474,2,0,L|238:79,1,79.1999975830079,8|0,0:0|0:0,0:0:0:0:
135,48,172817,6,0,B|159:72|159:72|244:79,1,118.799996374512,0|0,3:2|0:0,0:0:0:0:
245,158,173159,2,0,L|243:79,1,79.1999975830079,8|0,0:0|0:0,0:0:0:0:
243,78,173417,1,0,0:0:0:0:
243,78,173502,1,0,0:0:0:0:
323,8,173674,1,0,3:2:0:0:
401,153,173845,1,8,0:0:0:0:
429,54,174017,1,0,3:0:0:0:
512,169,174188,6,0,P|419:177|395:273,1,211.199993554688,4|8,3:2|0:0,0:0:0:0:
297,348,174702,1,0,0:0:0:0:
297,328,174788,1,0,0:0:0:0:
295,308,174874,2,0,P|288:284|276:267,1,39.5999987915039,0|0,0:0|0:0,0:0:0:0:
209,240,175045,1,0,3:2:0:0:
133,305,175217,2,0,L|42:299,1,79.1999975830079,8|0,0:0|0:0,0:0:0:0:
0,174,175559,6,0,P|73:158|96:86,1,158.399995166016,4|0,3:2|0:0,0:0:0:0:
149,81,175902,2,0,P|126:49|89:38,1,79.1999975830079,8|0,0:0|0:0,0:0:0:0:
88,37,176159,1,0,0:0:0:0:
88,37,176245,1,0,0:0:0:0:
21,99,176417,1,0,3:2:0:0:
97,164,176588,2,0,L|199:174,1,79.1999975830079,8|0,0:0|0:0,0:0:0:0:
330,10,176931,6,0,P|256:26|232:98,1,158.399995166016,4|0,3:2|0:0,0:0:0:0:
179,102,177274,2,0,P|201:133|239:144,1,79.1999975830079,8|0,0:0|0:0,0:0:0:0:
439,114,177617,5,4,0:2:0:0:
280,214,177788,1,0,0:3:0:0:
309,85,177959,1,8,0:2:0:0:
409,243,178131,1,0,3:2:0:0:
201,264,178302,5,8,0:2:0:0:
359,164,178474,1,0,3:2:0:0:
122,314,178645,5,8,0:2:0:0:
280,214,178817,1,0,3:2:0:0:
118,220,178988,5,8,0:2:0:0:
362,257,179159,1,8,0:2:0:0:
299,20,179331,5,8,0:2:0:0:
293,68,179417,1,8,0:2:0:0:
288,116,179502,1,8,0:2:0:0:
283,166,179588,1,8,0:2:0:0:
280,214,179674,1,6,3:1:0:0:
256,192,179759,12,0,182417,3:3:0:0:
