osu file format v14

[General]
AudioFilename: audio.mp3
AudioLeadIn: 0
PreviewTime: 51191
Countdown: 0
SampleSet: Drum
StackLeniency: 0.3
Mode: 0
LetterboxInBreaks: 0
WidescreenStoryboard: 1

[Editor]
DistanceSpacing: 0.7
BeatDivisor: 4
GridSize: 32
TimelineZoom: 1.9

[Metadata]
Title:Lily Toxicity (Short Ver.)
TitleUnicode:Lily Toxicity (Short Ver.)
Artist:Denkishiki Karen Ongaku Shuudan
ArtistUnicode:電気式華憐音楽集団
Creator:LMT
Version:emu's Insane
Source:真愛の百合は赤く染まる
Tags:Manakashi no Yuri wa Akaku Somaru eroge bug system denkare yousei teikoku metal kirylln hey lululu asaiga hikan emu1337
BeatmapID:2236439
BeatmapSetID:1066325

[Difficulty]
HPDrainRate:5
CircleSize:3.8
OverallDifficulty:8
ApproachRate:9
SliderMultiplier:1.5
SliderTickRate:1

[Events]
//Background and Video events
0,0,"lilytoxicity_bg.jpg",0,0
//Break Periods
//Storyboard Layer 0 (Background)
//Storyboard Layer 1 (Fail)
//Storyboard Layer 2 (Pass)
//Storyboard Layer 3 (Foreground)
//Storyboard Layer 4 (Overlay)
//Storyboard Sound Samples

[TimingPoints]
456,352.941176470588,4,3,1,30,1,0
11750,-55.5555555555556,4,3,1,60,0,0
12103,-76.9230769230769,4,3,1,60,0,0
16250,-66.6666666666667,4,3,1,60,0,0
16514,-58.8235294117647,4,3,1,60,0,0
16691,-66.6666666666667,4,3,1,60,0,0
17397,-58.8235294117647,4,3,1,60,0,0
17750,-76.9230769230769,4,3,1,60,0,0
21897,-66.6666666666667,4,3,1,60,0,0
22161,-58.8235294117647,4,3,1,60,0,0
22338,-66.6666666666667,4,3,1,60,0,0
23044,-52.6315789473684,4,3,1,60,0,0
23308,-111.111111111111,4,3,1,60,0,0
23750,-52.6315789473684,4,3,1,60,0,0
24014,-111.111111111111,4,3,1,60,0,0
24455,-52.6315789473684,4,3,1,60,0,0
24720,-111.111111111111,4,3,1,60,0,0
25867,-52.6315789473684,4,3,1,60,0,0
26132,-111.111111111111,4,3,1,60,0,0
26573,-52.6315789473684,4,3,1,60,0,0
26838,-111.111111111111,4,3,1,60,0,0
27279,-434.782608695652,4,3,1,60,0,0
28691,-100,4,3,1,45,0,0
36720,-83.3333333333333,4,3,1,45,0,0
36985,-71.4285714285714,4,3,1,45,0,0
37161,-100,4,3,1,45,0,0
39985,-90.9090909090909,4,3,1,45,0,0
44220,-71.4285714285714,4,3,1,45,0,0
45632,-83.3333333333333,4,3,1,45,0,0
50573,-200,4,3,1,45,0,0
51279,-66.6666666666667,4,3,1,65,0,0
62573,-66.6666666666667,4,3,1,55,0,0
71044,-55.5555555555556,4,3,1,65,0,0
71308,-50,4,3,1,65,0,0
71573,-47.6190476190476,4,3,1,65,0,0
73867,-55.5555555555556,4,3,1,65,0,0
74220,-71.4285714285714,4,3,1,65,0,0
78367,-62.5,4,3,1,65,0,0
78632,-55.5555555555556,4,3,1,65,0,0
80926,-71.4285714285714,4,3,1,65,0,0
84014,-62.5,4,3,1,65,0,0
84279,-55.5555555555556,4,3,1,65,0,0
84455,-55.5555555555556,4,3,1,75,0,0
84985,-55.5555555555556,4,3,1,85,0,0
85161,-55.5555555555556,4,3,1,5,0,0

[Colours]
Combo1 : 255,102,179
Combo2 : 174,174,215
Combo3 : 119,119,255
Combo4 : 255,157,255

[HitObjects]
73,349,456,5,2,0:2:0:0:
161,246,808,2,0,L|155:219,1,18.75,2|2,0:2|0:2,0:0:0:0:
114,166,1161,2,0,L|108:139,1,18.75,2|2,0:2|0:2,0:0:0:0:
286,303,1867,2,0,L|292:276,1,18.75,2|2,0:2|0:2,0:0:0:0:
333,223,2220,2,0,L|339:196,1,18.75,2|2,0:2|0:2,0:0:0:0:
480,68,3279,1,2,0:2:0:0:
434,131,3632,1,0,0:2:0:0:
459,202,3985,1,0,0:2:0:0:
480,68,4338,1,2,0:2:0:0:
73,349,6103,5,2,0:2:0:0:
140,156,6455,2,0,L|146:129,1,18.75,2|2,0:2|0:2,0:0:0:0:
268,131,6808,2,0,L|274:104,1,18.75,2|2,0:2|0:2,0:0:0:0:
185,260,7514,2,0,L|179:233,1,18.75,2|2,0:2|0:2,0:0:0:0:
58,233,7867,2,0,L|52:206,1,18.75,2|2,0:2|0:2,0:0:0:0:
406,37,8926,1,2,0:2:0:0:
337,133,9279,1,0,0:0:0:0:
201,150,9632,1,0,0:0:0:0:
112,39,9985,1,2,0:2:0:0:
112,39,11750,6,0,P|151:79|254:81,1,134.999995880127,4|4,0:1|0:3,0:0:0:0:
366,63,12103,2,0,L|382:-12,2,48.7499977684022,4|4|4,0:3|0:3|0:3,0:0:0:0:
284,28,12455,1,8,0:2:0:0:
345,148,12632,1,4,0:3:0:0:
429,125,12808,1,4,0:3:0:0:
445,128,12897,1,0,0:0:0:0:
461,131,12985,1,4,0:3:0:0:
404,298,13161,6,0,L|502:311,1,97.4999955368044,4|4,0:2|0:3,0:0:0:0:
311,331,13514,2,0,L|213:344,1,97.4999955368044,4|4,0:3|0:3,0:0:0:0:
334,236,13867,1,8,0:2:0:0:
334,236,14044,1,4,0:3:0:0:
251,167,14220,6,0,L|255:207,1,24.3749988842011,8|0,0:0|0:0,0:0:0:0:
214,343,14397,2,0,L|210:303,1,24.3749988842011,8|0,0:0|0:0,0:0:0:0:
0,160,14573,6,0,P|0:202|86:219,1,146.249993305207,2|0,0:1|0:0,0:0:0:0:
100,205,14926,2,0,L|107:154,2,48.7499977684022,4|4|4,0:3|0:3|0:3,0:0:0:0:
44,84,15279,1,8,0:2:0:0:
40,59,15367,1,0,0:0:0:0:
37,35,15455,1,4,0:3:0:0:
194,136,15632,1,4,0:3:0:0:
197,111,15720,1,4,0:3:0:0:
200,87,15808,1,4,0:3:0:0:
339,13,15985,6,0,L|349:118,1,97.4999955368044,2|0,0:1|0:0,0:0:0:0:
367,208,16250,2,0,L|378:90,1,112.500004291535,4|0,0:2|0:0,0:0:0:0:
321,0,16514,2,0,L|329:91,1,63.7500012159348,4|0,0:3|0:0,0:0:0:0:
463,118,16691,6,0,P|495:109|524:76,1,56.2500021457673,12|0,0:2|0:0,0:0:0:0:
367,208,16867,1,0,0:0:0:0:
364,226,16955,1,0,0:1:0:0:
361,245,17044,5,4,0:3:0:0:
308,240,17132,1,4,0:3:0:0:
267,209,17220,1,4,0:3:0:0:
158,98,17397,6,0,L|174:238,1,127.50000243187,6|4,0:1|0:3,0:0:0:0:
5,208,17750,2,0,L|-2:145,2,48.7499977684022,4|4|4,0:3|0:3|0:3,0:0:0:0:
87,179,18103,1,8,0:2:0:0:
115,328,18279,1,4,0:3:0:0:
176,261,18455,1,4,0:3:0:0:
174,243,18544,1,0,0:0:0:0:
172,224,18632,1,4,0:3:0:0:
278,121,18808,6,0,P|318:147|392:136,1,97.4999955368044,4|4,0:2|0:3,0:0:0:0:
226,37,19161,2,0,P|183:58|156:128,1,97.4999955368044,4|4,0:3|0:3,0:0:0:0:
349,51,19514,1,8,0:2:0:0:
349,51,19691,1,4,0:3:0:0:
439,67,19867,6,0,L|478:75,1,24.3749988842011,8|0,0:0|0:0,0:0:0:0:
278,121,20044,2,0,L|239:129,1,24.3749988842011,8|0,0:0|0:0,0:0:0:0:
450,273,20220,6,0,B|459:290|461:307|461:307|491:249|466:197,1,146.249993305207,2|0,0:1|0:0,0:0:0:0:
447,183,20573,2,0,P|416:185|394:174,2,48.7499977684022,4|4|4,0:3|0:3|0:3,0:0:0:0:
325,322,20926,1,8,0:2:0:0:
348,325,21014,1,0,0:0:0:0:
371,317,21102,1,4,0:3:0:0:
213,237,21279,1,4,0:3:0:0:
189,234,21367,1,4,0:3:0:0:
167,242,21455,1,4,0:3:0:0:
78,343,21632,6,0,B|55:297|55:297|65:242,1,97.4999955368044,2|0,0:1|0:0,0:0:0:0:
50,167,21897,2,0,L|25:276,1,112.500004291535,4|0,0:2|0:0,0:0:0:0:
108,356,22161,2,0,L|81:296,1,63.7500012159348,4|0,0:3|0:0,0:0:0:0:
110,98,22338,6,0,P|129:123|138:166,1,56.2500021457673,12|0,0:2|0:0,0:0:0:0:
213,237,22514,1,0,0:0:0:0:
231,250,22603,1,0,0:1:0:0:
248,282,22691,5,4,0:3:0:0:
300,250,22779,1,4,0:3:0:0:
318,193,22867,1,4,0:3:0:0:
326,30,23044,6,0,B|295:7|261:-3|261:-3|235:23|220:63,1,142.49999619484,4|0,0:1|0:0,0:0:0:0:
300,127,23308,2,0,L|318:196,1,67.4999979400635,4|0,0:3|0:0,0:0:0:0:
318,193,23750,6,0,B|360:194|381:147|381:147|417:138|453:169,1,142.49999619484,4|0,0:1|0:0,0:0:0:0:
504,246,24014,2,0,P|515:278|510:319,1,67.4999979400635,4|0,0:3|0:0,0:0:0:0:
512,311,24455,6,0,B|467:303|439:304|439:304|405:320|378:346,1,142.49999619484,4|0,0:1|0:0,0:0:0:0:
283,368,24720,2,0,B|250:371|250:371|210:354,1,67.4999979400635,4|0,0:3|0:0,0:0:0:0:
218,357,25161,5,8,0:0:0:0:
223,331,25250,1,4,0:3:0:0:
213,301,25338,1,4,0:3:0:0:
160,277,25426,5,8,0:0:0:0:
133,244,25514,1,4,0:3:0:0:
138,202,25603,1,4,0:3:0:0:
177,154,25691,5,8,0:0:0:0:
195,161,25779,1,8,0:0:0:0:
199,176,25867,6,0,B|235:189|253:219|253:219|276:191|317:182,1,142.49999619484,4|0,0:1|0:0,0:0:0:0:
264,85,26132,2,0,L|267:15,1,67.4999979400635,4|0,0:3|0:0,0:0:0:0:
266,17,26573,6,0,B|171:23|171:23|127:59,1,142.49999619484,4|0,0:1|0:0,0:0:0:0:
69,125,26838,2,0,P|36:114|3:114,1,67.4999979400635,4|0,0:3|0:0,0:0:0:0:
3,114,27279,6,0,B|38:169|-29:177|16:227,1,120.749995946503,4|0,0:2|0:0,0:0:0:0:
94,307,28691,6,0,L|204:317,1,75,2|4,0:1|0:3,0:0:0:0:
267,236,29044,1,4,0:3:0:0:
249,157,29220,1,4,0:3:0:0:
242,263,29397,2,0,P|276:282|326:273,1,75,8|4,0:2|0:3,0:0:0:0:
402,192,29750,1,4,0:3:0:0:
384,113,29926,1,4,0:3:0:0:
377,219,30103,5,4,0:3:0:0:
391,230,30191,1,4,0:3:0:0:
409,237,30279,1,4,0:3:0:0:
495,207,30455,1,4,0:3:0:0:
476,114,30632,1,4,0:3:0:0:
384,113,30808,6,0,B|401:76|401:76|399:26,1,75,8|4,0:2|0:3,0:0:0:0:
253,86,31161,2,0,B|251:51|251:51|268:14,1,75,4|4,0:3|0:3,0:0:0:0:
183,189,31514,6,0,L|193:271,1,75,2|4,0:1|0:3,0:0:0:0:
80,355,31867,1,4,0:3:0:0:
2,310,32044,1,4,0:3:0:0:
98,338,32220,2,0,P|103:303|82:254,1,75,8|4,0:2|0:3,0:0:0:0:
73,176,32573,1,4,0:3:0:0:
8,112,32750,1,4,0:3:0:0:
96,162,32926,5,4,0:2:0:0:
201,22,33191,1,8,0:0:0:0:
378,81,33455,1,4,0:3:0:0:
362,93,33544,1,2,0:2:0:0:
345,97,33632,5,8,0:2:0:0:
45,23,33985,5,4,0:3:0:0:
121,319,34338,6,0,L|147:232,1,75,2|4,0:1|0:3,0:0:0:0:
313,188,34691,1,0,0:0:0:0:
313,188,34867,1,4,0:3:0:0:
237,251,35044,2,0,L|211:164,1,75,8|0,0:2|0:0,0:0:0:0:
42,131,35397,1,4,0:3:0:0:
42,131,35573,1,0,0:0:0:0:
118,194,35750,5,4,0:3:0:0:
140,108,35926,1,0,0:0:0:0:
220,72,36103,1,0,0:0:0:0:
298,112,36279,1,4,0:3:0:0:
236,55,36455,6,0,B|267:32|267:32|303:31,1,75,8|0,0:2|0:0,0:0:0:0:
337,36,36720,2,0,B|371:64|371:64|417:64,1,89.9999972534181,8|0,0:0|0:0,0:0:0:0:
440,46,36985,2,0,L|510:48,1,52.4999983978272,4|0,0:3|0:0,0:0:0:0:
460,199,37161,6,0,L|441:292,1,75,2|4,0:1|0:3,0:0:0:0:
321,183,37514,1,4,0:3:0:0:
369,244,37691,1,4,0:3:0:0:
311,298,37867,2,0,P|278:319|217:320,1,75,8|4,0:2|0:3,0:0:0:0:
241,119,38220,1,4,0:3:0:0:
193,180,38397,1,4,0:3:0:0:
251,234,38573,5,4,0:3:0:0:
94,368,38838,1,8,0:0:0:0:
6,183,39103,1,4,0:3:0:0:
6,183,39279,5,8,0:2:0:0:
210,339,39544,1,8,0:0:0:0:
353,141,39808,1,4,0:3:0:0:
353,141,39985,6,0,L|371:269,1,123.75000377655,2|8,0:1|0:0,0:0:0:0:
374,281,40338,1,0,0:0:0:0:
447,216,40514,1,4,0:3:0:0:
281,208,40691,1,8,0:2:0:0:
343,12,41044,1,0,0:0:0:0:
144,162,41397,6,0,B|107:110|107:110|126:34,1,123.75000377655,4|8,0:3|0:0,0:0:0:0:
129,31,41750,1,0,0:0:0:0:
35,61,41926,1,4,0:3:0:0:
198,92,42103,1,8,0:2:0:0:
78,273,42456,1,4,0:3:0:0:
353,364,42808,6,0,P|398:369|454:343,1,82.5000025177003,2|4,0:1|0:3,0:0:0:0:
448,347,43073,1,4,0:3:0:0:
458,333,43161,1,0,0:0:0:0:
384,280,43338,1,4,0:3:0:0:
492,220,43514,1,8,0:2:0:0:
505,143,43691,1,0,0:0:0:0:
328,150,43867,1,4,0:3:0:0:
297,67,44044,1,0,0:0:0:0:
437,22,44220,6,0,P|421:67|429:192,2,157.499995193482,4|8|4,0:3|0:0|0:3,0:0:0:0:
437,22,44926,1,8,0:0:0:0:
318,237,45191,1,8,0:0:0:0:
124,85,45455,1,4,0:3:0:0:
124,85,45632,6,0,L|100:142,1,44.999998626709,2|0,0:1|0:0,0:0:0:0:
70,198,45808,1,4,0:3:0:0:
61,218,45896,1,4,0:3:0:0:
52,239,45984,1,4,0:3:0:0:
13,317,46161,1,4,0:3:0:0:
234,265,46338,5,8,0:0:0:0:
212,271,46426,1,8,0:0:0:0:
123,296,46603,1,4,0:3:0:0:
101,302,46691,1,4,0:3:0:0:
13,317,46867,1,4,0:3:0:0:
254,368,47044,6,0,P|275:361|297:338,1,44.999998626709,4|0,0:2|0:0,0:0:0:0:
355,281,47220,1,4,0:3:0:0:
365,261,47308,1,4,0:3:0:0:
369,239,47396,1,4,0:3:0:0:
361,146,47573,1,4,0:3:0:0:
158,151,47750,5,8,0:0:0:0:
177,161,47838,1,8,0:0:0:0:
261,187,48015,1,4,0:3:0:0:
283,186,48103,1,4,0:3:0:0:
361,146,48279,1,4,0:3:0:0:
476,0,48455,6,0,L|490:55,1,44.999998626709,2|0,0:1|0:0,0:0:0:0:
509,119,48632,1,4,0:3:0:0:
426,223,48808,1,4,0:3:0:0:
361,146,48985,1,4,0:3:0:0:
283,186,49161,1,8,0:0:0:0:
261,187,49250,1,8,0:0:0:0:
177,161,49426,1,4,0:3:0:0:
158,151,49514,1,4,0:3:0:0:
122,72,49691,1,4,0:3:0:0:
13,57,49867,5,4,0:3:0:0:
23,65,49955,1,4,0:3:0:0:
32,80,50044,1,0,0:0:0:0:
39,105,50132,1,4,0:3:0:0:
39,137,50220,1,8,0:0:0:0:
31,172,50308,1,8,0:0:0:0:
28,221,50397,1,4,0:3:0:0:
55,262,50485,1,4,0:3:0:0:
106,285,50573,6,0,P|63:285|33:265,1,75,4|4,0:3|0:1,0:0:0:0:
309,373,51279,6,0,L|323:244,1,112.500004291535,2|8,0:1|0:2,0:0:0:0:
328,233,51544,2,0,P|369:271|427:272,1,112.500004291535,4|4,0:3|0:3,0:0:0:0:
448,264,51808,1,8,0:2:0:0:
416,78,51985,2,0,B|427:132|427:132|396:192,1,112.500004291535,4|8,0:3|0:2,0:0:0:0:
219,366,52338,2,0,L|163:358,2,56.2500021457673,4|4|8,0:3|0:3|0:2,0:0:0:0:
512,324,52691,5,4,0:3:0:0:
328,233,52867,1,8,0:2:0:0:
255,274,53044,1,0,0:0:0:0:
244,248,53132,1,4,0:3:0:0:
242,220,53220,1,8,0:2:0:0:
296,153,53397,5,4,0:3:0:0:
114,49,53573,1,8,0:2:0:0:
31,26,53750,1,4,0:3:0:0:
27,53,53838,1,0,0:0:0:0:
33,80,53926,1,8,0:2:0:0:
138,229,54103,5,2,0:1:0:0:
138,229,54279,2,0,L|21:253,1,112.500004291535,8|4,0:2|0:3,0:0:0:0:
212,296,54632,2,0,P|234:254|223:176,1,112.500004291535,8|4,0:2|0:3,0:0:0:0:
397,1,54985,2,0,P|391:56|415:106,1,112.500004291535,8|4,0:2|0:3,0:0:0:0:
512,171,55338,1,8,0:2:0:0:
512,171,55514,5,4,0:2:0:0:
314,253,55691,1,8,0:2:0:0:
263,323,55867,1,0,0:0:0:0:
268,350,55955,1,4,0:3:0:0:
273,378,56043,1,8,0:2:0:0:
120,242,56220,5,8,0:2:0:0:
93,191,56308,1,8,0:2:0:0:
103,136,56396,1,4,0:3:0:0:
126,125,56485,1,4,0:3:0:0:
152,131,56573,5,8,0:2:0:0:
200,155,56661,1,8,0:2:0:0:
252,137,56749,1,8,0:2:0:0:
274,87,56837,1,8,0:2:0:0:
254,37,56926,6,0,B|221:20|221:20|117:34,1,112.500004291535,2|8,0:1|0:2,0:0:0:0:
122,46,57191,2,0,L|4:42,1,112.500004291535,4|4,0:3|0:3,0:0:0:0:
1,70,57455,1,8,0:2:0:0:
64,234,57632,2,0,B|80:161|80:161|62:104,1,112.500004291535,4|8,0:3|0:2,0:0:0:0:
344,54,57985,2,0,L|357:126,2,56.2500021457673,4|4|8,0:3|0:3|0:2,0:0:0:0:
243,294,58338,5,4,0:3:0:0:
497,241,58514,1,8,0:2:0:0:
449,168,58691,1,0,0:0:0:0:
427,185,58779,1,4,0:3:0:0:
416,211,58867,1,8,0:2:0:0:
431,294,59044,1,4,0:3:0:0:
262,143,59220,1,8,0:2:0:0:
310,70,59397,1,4,0:3:0:0:
332,87,59485,1,0,0:0:0:0:
343,113,59573,1,8,0:2:0:0:
512,36,59750,5,2,0:1:0:0:
512,36,59926,2,0,B|458:37|458:37|405:92,1,112.500004291535,8|4,0:2|0:3,0:0:0:0:
336,203,60279,2,0,B|390:202|390:202|431:160,1,112.500004291535,8|4,0:2|0:3,0:0:0:0:
204,82,60632,1,8,0:2:0:0:
343,113,60808,1,4,0:3:0:0:
242,222,60985,1,8,0:2:0:0:
106,179,61161,5,2,0:1:0:0:
131,384,61338,1,8,0:2:0:0:
204,334,61514,1,4,0:3:0:0:
177,285,61602,1,4,0:3:0:0:
127,262,61690,1,8,0:2:0:0:
73,273,61778,1,8,0:2:0:0:
45,310,61867,5,4,0:3:0:0:
39,282,61955,1,4,0:3:0:0:
34,254,62043,1,4,0:3:0:0:
29,227,62131,1,4,0:3:0:0:
24,199,62219,1,8,0:2:0:0:
92,120,62397,5,8,0:2:0:0:
98,87,62485,1,8,0:2:0:0:
103,53,62573,6,0,P|140:88|230:64,1,112.500004291535,4|8,0:2|0:2,0:0:0:0:
321,25,62926,1,4,0:3:0:0:
297,25,63014,1,4,0:3:0:0:
275,40,63103,1,8,0:2:0:0:
346,226,63279,1,4,0:3:0:0:
357,136,63455,1,8,0:2:0:0:
246,293,63632,1,4,0:3:0:0:
258,316,63720,1,4,0:3:0:0:
280,329,63808,1,8,0:2:0:0:
495,260,63985,6,0,P|490:317|445:366,1,112.500004291535,2|8,0:1|0:2,0:0:0:0:
386,206,64338,1,4,0:3:0:0:
404,189,64426,1,4,0:3:0:0:
427,184,64514,1,8,0:2:0:0:
354,325,64691,1,4,0:3:0:0:
276,280,64867,1,8,0:2:0:0:
295,114,65044,1,4,0:3:0:0:
307,135,65132,1,4,0:3:0:0:
311,162,65220,1,8,0:2:0:0:
112,260,65397,6,0,L|-10:273,1,112.500004291535,4|8,0:2|0:2,0:0:0:0:
177,185,65750,1,4,0:3:0:0:
200,191,65838,1,4,0:3:0:0:
223,197,65926,1,8,0:2:0:0:
112,121,66103,1,4,0:3:0:0:
25,137,66279,1,8,0:2:0:0:
173,53,66455,1,4,0:3:0:0:
196,59,66543,1,4,0:3:0:0:
219,65,66631,1,8,0:2:0:0:
368,13,66808,6,0,L|385:141,1,112.500004291535,2|8,0:1|0:2,0:0:0:0:
403,266,67161,1,4,0:3:0:0:
406,293,67249,1,4,0:3:0:0:
410,321,67337,1,8,0:2:0:0:
277,204,67514,5,4,0:2:0:0:
295,192,67603,2,0,L|287:266,1,56.2500021457673,0|4,0:0|0:3,0:0:0:0:
187,268,67779,1,2,0:1:0:0:
196,248,67867,2,0,L|226:316,1,56.2500021457673,0|4,0:0|0:3,0:0:0:0:
132,366,68044,1,4,1:2:0:0:
129,344,68132,1,4,0:3:0:0:
150,352,68220,6,0,L|59:285,1,112.500004291535,4|8,0:2|0:2,0:0:0:0:
24,73,68573,1,4,0:3:0:0:
38,181,68750,1,8,0:2:0:0:
132,23,68926,1,4,0:3:0:0:
46,170,69103,1,8,0:2:0:0:
178,113,69279,1,4,0:3:0:0:
162,140,69367,1,4,0:3:0:0:
148,168,69455,1,8,0:2:0:0:
275,165,69632,6,0,B|333:161|333:161|391:186,1,112.500004291535,2|8,0:1|0:2,0:0:0:0:
329,355,69985,1,4,0:3:0:0:
325,327,70073,1,4,0:3:0:0:
321,299,70161,1,8,0:2:0:0:
480,224,70338,2,0,L|461:80,1,112.500004291535,4|8,0:3|0:2,0:0:0:0:
447,2,70691,1,8,0:0:0:0:
407,16,70779,1,8,0:0:0:0:
376,44,70867,1,4,0:3:0:0:
358,81,70955,1,4,0:3:0:0:
355,123,71044,6,0,P|291:155|237:104,1,134.999995880127,2|4,0:1|0:3,0:0:0:0:
221,50,71308,2,0,P|165:33|141:122,1,150,8|4,0:2|0:3,0:0:0:0:
75,158,71573,2,0,P|62:199|27:223,1,78.7499975967408,8|0,0:2|0:0,0:0:0:0:
131,334,71750,5,4,0:2:0:0:
181,329,71838,1,0,0:0:0:0:
213,292,71926,1,4,0:3:0:0:
211,246,72014,5,8,0:2:0:0:
242,203,72103,1,0,0:0:0:0:
294,194,72191,1,4,0:3:0:0:
315,204,72279,5,8,0:2:0:0:
326,217,72367,1,0,0:0:0:0:
331,231,72455,6,0,B|355:269|338:325|338:325|351:303|393:270,1,157.499995193482,2|8,0:1|0:2,0:0:0:0:
483,208,72808,1,4,0:3:0:0:
495,154,72897,1,4,0:3:0:0:
467,104,72985,1,8,0:2:0:0:
415,81,73073,1,8,0:2:0:0:
367,96,73162,5,8,0:2:0:0:
349,108,73250,1,8,0:2:0:0:
327,114,73338,1,4,0:3:0:0:
218,75,73514,5,8,0:2:0:0:
238,132,73603,1,8,0:2:0:0:
213,187,73691,1,8,0:2:0:0:
154,198,73779,1,8,0:2:0:0:
105,166,73867,6,0,P|75:100|82:22,1,134.999995880127,6|8,0:1|0:2,0:0:0:0:
6,177,74220,1,4,0:3:0:0:
3,203,74308,1,4,0:3:0:0:
1,229,74396,1,8,0:2:0:0:
49,301,74573,1,4,0:3:0:0:
178,235,74750,1,8,0:2:0:0:
134,308,74926,1,4,0:3:0:0:
137,334,75014,1,4,0:3:0:0:
139,360,75102,1,8,0:2:0:0:
261,289,75279,6,0,L|390:312,1,104.999996795654,4|8,0:3|0:2,0:0:0:0:
512,202,75632,2,0,L|383:225,1,104.999996795654,0|8,0:0|0:2,0:0:0:0:
318,150,75985,1,4,0:2:0:0:
374,66,76161,1,8,0:2:0:0:
381,82,76250,1,4,0:3:0:0:
475,49,76426,1,4,0:3:0:0:
472,74,76514,1,8,0:2:0:0:
318,150,76691,6,0,P|250:147|201:66,1,157.499995193482,2|0,0:1|0:0,0:0:0:0:
211,57,77044,1,4,0:3:0:0:
228,37,77132,1,4,0:3:0:0:
251,25,77220,1,8,0:2:0:0:
127,124,77397,1,4,0:3:0:0:
101,119,77485,1,0,0:0:0:0:
79,105,77573,1,8,0:2:0:0:
224,170,77750,1,4,0:3:0:0:
232,195,77838,1,4,0:3:0:0:
231,221,77926,1,8,0:2:0:0:
46,292,78103,6,0,L|164:311,1,104.999996795654,2|4,0:1|0:3,0:0:0:0:
286,314,78367,2,0,L|168:333,1,120,8|4,0:2|0:3,0:0:0:0:
24,269,78632,2,0,L|142:288,1,67.4999979400635,8|0,0:2|0:0,0:0:0:0:
297,378,78808,6,0,P|296:337|253:284,1,67.4999979400635,4|0,0:2|0:0,0:0:0:0:
183,202,78985,1,4,0:3:0:0:
164,207,79073,2,0,P|200:226|267:215,1,67.4999979400635,8|0,0:2|0:0,0:0:0:0:
365,199,79250,1,4,0:3:0:0:
369,181,79338,2,0,P|333:202|309:266,1,67.4999979400635,8|0,0:2|0:0,0:0:0:0:
502,328,79514,6,0,B|512:279|512:279|492:182,1,134.999995880127,2|8,0:1|0:2,0:0:0:0:
411,89,79867,1,4,0:3:0:0:
377,84,79955,1,4,0:3:0:0:
344,79,80043,1,8,0:2:0:0:
280,138,80220,1,4,0:3:0:0:
293,7,80398,1,8,0:2:0:0:
228,65,80574,1,4,0:3:0:0:
195,60,80662,1,4,0:3:0:0:
162,56,80750,1,8,0:2:0:0:
62,16,80926,6,0,P|55:70|83:119,1,104.999996795654,4|8,0:3|0:2,0:0:0:0:
20,267,81279,2,0,P|27:213|-1:164,1,104.999996795654,4|8,0:3|0:2,0:0:0:0:
167,135,81632,1,4,0:2:0:0:
216,208,81809,1,8,0:2:0:0:
233,222,81897,1,4,0:3:0:0:
129,218,82073,1,4,0:3:0:0:
115,233,82161,1,8,0:2:0:0:
311,145,82338,6,0,P|349:89|283:37,1,157.499995193482,2|0,0:1|0:0,0:0:0:0:
274,46,82691,1,4,0:3:0:0:
248,48,82779,1,4,0:3:0:0:
223,40,82867,1,8,0:2:0:0:
378,83,83044,1,4,0:3:0:0:
404,85,83132,1,0,0:0:0:0:
429,77,83220,1,8,0:2:0:0:
293,155,83397,1,4,0:3:0:0:
267,157,83485,1,0,0:0:0:0:
242,149,83573,1,8,0:2:0:0:
463,180,83750,6,0,B|477:231|477:231|441:290,1,104.999996795654,2|4,0:1|0:3,0:0:0:0:
366,380,84014,2,0,L|435:264,1,120,8|4,0:2|0:3,0:0:0:0:
481,154,84279,2,0,L|506:241,1,67.4999979400635,8|0,0:2|0:0,0:0:0:0:
275,303,84455,6,0,P|251:279|245:231,1,67.4999979400635,4|0,0:2|0:0,0:0:0:0:
146,236,84632,1,4,0:3:0:0:
132,215,84720,2,0,P|140:182|179:153,1,67.4999979400635,8|0,0:2|0:0,0:0:0:0:
133,69,84897,1,4,0:3:0:0:
144,46,84985,2,0,P|175:37|292:73,1,134.999995880127,8|0,0:2|0:0,0:0:0:0:
