osu file format v14

[General]
AudioFilename: audio.mp3
AudioLeadIn: 0
PreviewTime: 51191
Countdown: 0
SampleSet: Drum
StackLeniency: 0.2
Mode: 0
LetterboxInBreaks: 0
WidescreenStoryboard: 0

[Editor]
DistanceSpacing: 2.3
BeatDivisor: 4
GridSize: 32
TimelineZoom: 1.9

[Metadata]
Title:Lily Toxicity (Short Ver.)
TitleUnicode:Lily Toxicity (Short Ver.)
Artist:Denkishiki Karen Ongaku Shuudan
ArtistUnicode:電気式華憐音楽集団
Creator:LMT
Version:A Little Piece of Heaven
Source:真愛の百合は赤く染まる
Tags:Manakashi no Yuri wa Akaku Somaru eroge bug system denkare yousei teikoku metal kirylln hey lululu asaiga hikan emu1337
BeatmapID:2232812
BeatmapSetID:1066325

[Difficulty]
HPDrainRate:5
CircleSize:4
OverallDifficulty:9
ApproachRate:9.6
SliderMultiplier:2
SliderTickRate:1

[Events]
//Background and Video events
0,0,"lilytoxicity_bg.jpg",0,0
//Break Periods
//Storyboard Layer 0 (Background)
//Storyboard Layer 1 (Fail)
//Storyboard Layer 2 (Pass)
//Storyboard Layer 3 (Foreground)
//Storyboard Layer 4 (Overlay)
//Storyboard Sound Samples

[TimingPoints]
456,352.941176470588,4,3,1,30,1,0
11750,-66.6666666666667,4,3,1,60,0,0
14220,-500,4,3,1,60,0,0
14573,-66.6666666666667,4,3,1,60,0,0
19867,-500,4,3,1,60,0,0
20220,-66.6666666666667,4,3,1,60,0,0
23044,-50,4,3,1,60,0,0
23308,-500,4,3,1,60,0,0
23750,-50,4,3,1,60,0,0
24014,-500,4,3,1,60,0,0
24455,-50,4,3,1,60,0,0
24720,-500,4,3,1,60,0,0
25161,-50,4,3,1,60,0,0
26132,-500,4,3,1,60,0,0
26573,-50,4,3,1,60,0,0
26838,-500,4,3,1,60,0,0
28691,-100,4,3,1,45,0,0
51279,-50,4,3,1,65,0,1
62573,-57.1428571428571,4,3,1,55,0,0
71044,-50,4,3,1,65,0,1
84455,-40,4,3,1,75,0,1
84985,-40,4,3,1,85,0,0

[Colours]
Combo1 : 255,102,179
Combo2 : 174,174,215
Combo3 : 119,119,255
Combo4 : 255,157,255

[HitObjects]
57,358,456,5,2,0:2:0:0:
174,189,808,5,2,0:2:0:0:
172,183,853,1,2,0:2:0:0:
130,114,1161,5,2,0:2:0:0:
128,108,1206,1,2,0:2:0:0:
308,265,1867,5,2,0:2:0:0:
310,259,1912,1,2,0:2:0:0:
352,190,2220,5,2,0:2:0:0:
354,184,2265,1,2,0:2:0:0:
499,36,3279,5,2,0:2:0:0:
442,115,3632,1,0,0:2:0:0:
473,204,3985,1,0,0:2:0:0:
499,36,4338,1,2,0:2:0:0:
57,358,6103,5,2,0:2:0:0:
134,105,6455,5,2,0:2:0:0:
136,99,6500,1,2,0:2:0:0:
288,78,6808,5,2,0:2:0:0:
290,72,6853,1,2,0:2:0:0:
186,213,7514,5,2,0:2:0:0:
184,207,7559,1,2,0:2:0:0:
32,186,7867,5,2,0:2:0:0:
30,180,7912,1,2,0:2:0:0:
494,31,8926,5,2,0:2:0:0:
385,186,9279,1,0,0:0:0:0:
167,213,9632,1,0,0:0:0:0:
24,35,9985,1,2,0:2:0:0:
54,36,11750,6,0,B|38:39|35:94|62:105|86:88,1,75.0000028610231,4|0,0:1|0:0,0:0:0:0:
268,27,11926,2,0,B|255:59|205:79|130:66|126:40,1,150.000005722046,4|4,0:3|0:3,0:0:0:0:
238,135,12191,1,4,0:3:0:0:
247,135,12279,1,4,0:3:0:0:
252,144,12367,1,4,0:3:0:0:
76,226,12455,6,0,B|54:205|62:167|127:147|174:163|200:195,1,150.000005722046,8|4,0:2|0:3,0:0:0:0:
177,184,12720,1,4,0:3:0:0:
128,311,12808,2,0,P|157:293|158:242,1,75.0000028610231,4|0,0:3|0:0,0:0:0:0:
312,181,12985,2,0,P|279:189|281:254,1,75.0000028610231,4|0,0:3|0:0,0:0:0:0:
356,332,13161,6,0,B|358:359|271:376|236:304,1,150.000005722046,4|4,0:2|0:3,0:0:0:0:
244,296,13426,1,4,0:3:0:0:
357,253,13514,2,0,P|352:287|346:342,1,75.0000028610231,4|0,0:3|0:0,0:0:0:0:
435,373,13691,2,0,P|440:336|444:299,1,75.0000028610231,4|0,0:3|0:0,0:0:0:0:
393,21,13867,6,0,L|383:112,1,75.0000028610231,8|0,0:2|0:0,0:0:0:0:
402,99,14044,2,0,L|392:190,1,75.0000028610231,4|0,0:3|0:0,0:0:0:0:
69,106,14220,6,0,L|71:121,1,10,8|0,0:0|0:0,0:0:0:0:
103,336,14397,2,0,L|105:350,1,10,8|0,0:0|0:0,0:0:0:0:
168,77,14573,6,0,B|188:84|205:109|209:139|184:166,1,75.0000028610231,2|0,0:1|0:0,0:0:0:0:
130,198,14750,2,0,B|143:166|193:146|268:159|272:185,1,150.000005722046,4|4,0:3|0:3,0:0:0:0:
215,267,15014,1,4,0:3:0:0:
215,277,15103,1,4,0:3:0:0:
206,282,15191,1,4,0:3:0:0:
402,206,15279,6,0,B|422:221|420:255|354:281|294:273|278:251,1,150.000005722046,8|4,0:2|0:3,0:0:0:0:
296,251,15544,1,4,0:3:0:0:
298,241,15632,1,4,0:3:0:0:
307,240,15720,1,4,0:3:0:0:
311,249,15808,2,0,P|302:286|294:341,1,75.0000028610231,4|0,0:3|0:0,0:0:0:0:
109,357,15985,6,0,P|125:256|149:178,1,150.000005722046,2|0,0:1|0:0,0:0:0:0:
21,209,16250,2,0,P|106:163|79:124,1,150.000005722046,4|0,0:2|0:0,0:0:0:0:
41,0,16514,2,0,P|22:55|12:92,1,75.0000028610231,4|0,0:3|0:0,0:0:0:0:
291,109,16691,6,0,P|306:39|400:49,1,150.000005722046,12|0,0:2|0:0,0:0:0:0:
463,36,16955,2,0,P|442:73|424:133,1,75.0000028610231,2|0,0:1|0:3,0:0:0:0:
329,276,17132,1,4,0:3:0:0:
362,151,17220,2,0,P|378:184|388:243,1,75.0000028610231,4|0,0:3|0:0,0:0:0:0:
273,359,17397,6,0,P|269:366|207:339,1,75.0000028610231,6|0,0:1|0:0,0:0:0:0:
214,288,17573,2,0,P|157:216|71:241,1,150.000005722046,4|4,0:3|0:3,0:0:0:0:
207,147,17838,1,4,0:3:0:0:
210,157,17926,1,4,0:3:0:0:
215,163,18014,1,4,0:3:0:0:
52,131,18103,6,0,B|41:147|15:122|47:79|106:71|165:103,1,150.000005722046,8|4,0:2|0:3,0:0:0:0:
147,105,18367,1,4,0:3:0:0:
246,8,18455,2,0,P|241:45|238:82,1,75.0000028610231,4|0,0:3|0:0,0:0:0:0:
280,239,18632,2,0,P|285:201|292:164,1,75.0000028610231,4|0,0:3|0:0,0:0:0:0:
484,61,18808,6,0,P|419:120|342:82,1,150.000005722046,4|4,0:2|0:3,0:0:0:0:
362,116,19073,1,4,0:3:0:0:
480,256,19161,2,0,P|487:225|495:158,1,75.0000028610231,4|0,0:3|0:0,0:0:0:0:
378,201,19338,2,0,P|389:236|400:272,1,75.0000028610231,4|0,0:3|0:0,0:0:0:0:
231,358,19514,6,0,L|311:350,1,75.0000028610231,8|0,0:2|0:0,0:0:0:0:
303,363,19691,2,0,L|388:353,1,75.0000028610231,4|0,0:3|0:0,0:0:0:0:
148,329,19867,6,0,L|159:327,1,10,8|0,0:0|0:0,0:0:0:0:
452,358,20044,2,0,L|463:356,1,10,8|0,0:0|0:0,0:0:0:0:
119,251,20220,6,0,P|102:247|112:187,1,75.0000028610231,2|0,0:1|0:0,0:0:0:0:
139,134,20397,2,0,P|68:188|18:137,1,150.000005722046,4|4,0:3|0:3,0:0:0:0:
279,123,20661,1,4,0:3:0:0:
283,112,20750,1,4,0:3:0:0:
291,106,20838,1,4,0:3:0:0:
182,229,20926,2,0,P|190:150|206:35,1,150.000005722046,8|4,0:2|0:3,0:0:0:0:
198,68,21191,1,4,0:3:0:0:
203,60,21279,1,4,0:3:0:0:
209,53,21367,1,4,0:3:0:0:
215,46,21455,2,0,P|211:85|207:155,1,75.0000028610231,4|0,0:3|0:0,0:0:0:0:
306,310,21632,6,0,P|315:224|325:118,1,150.000005722046,2|0,0:1|0:0,0:0:0:0:
512,116,21897,2,0,P|460:172|408:121,1,150.000005722046,4|0,0:2|0:0,0:0:0:0:
306,22,22161,2,0,P|343:28|351:89,1,75.0000028610231,4|0,0:3|0:0,0:0:0:0:
8,273,22338,6,0,P|51:199|121:213,1,150.000005722046,12|0,0:2|0:0,0:0:0:0:
131,375,22603,2,0,P|106:358|104:299,1,75.0000028610231,2|0,0:1|0:0,0:0:0:0:
173,253,22779,1,4,0:3:0:0:
229,375,22867,2,0,P|250:326|227:291,1,75.0000028610231,4|0,0:3|0:0,0:0:0:0:
231,9,23044,6,0,L|244:240,1,200,4|0,0:1|0:0,0:0:0:0:
325,235,23308,2,0,L|323:191,1,40,4|0,0:3|0:0,0:0:0:0:
339,110,23750,6,0,B|311:102|311:102|162:134|162:134|123:118,1,200,4|0,0:1|0:0,0:0:0:0:
111,45,24014,2,0,L|156:51,1,40,4|0,0:3|0:0,0:0:0:0:
226,207,24455,6,0,B|215:180|215:180|235:127|235:127|228:119|228:119|255:43|255:43|290:29,1,200,4|0,0:1|0:0,0:0:0:0:
363,0,24720,2,0,B|368:5|368:5|361:30|361:30|354:34,1,40,4|0,0:3|0:0,0:0:0:0:
423,70,25161,5,8,0:0:0:0:
399,112,25250,1,4,0:3:0:0:
399,157,25338,1,4,0:3:0:0:
328,170,25426,5,8,0:0:0:0:
352,239,25514,1,4,0:3:0:0:
316,309,25603,1,4,0:3:0:0:
242,344,25691,5,8,0:0:0:0:
227,332,25779,1,8,0:0:0:0:
242,329,25867,6,0,P|200:357|80:277,1,200,4|0,0:1|0:0,0:0:0:0:
119,222,26132,2,0,P|144:234|144:250,1,40,4|0,0:3|0:0,0:0:0:0:
55,178,26573,6,0,B|42:179|34:192|34:192|50:213|103:231|177:203|206:147,1,200,4|0,0:1|0:0,0:0:0:0:
237,110,26838,2,0,B|231:101|231:101|210:94|210:94|198:102,1,40,4|0,0:3|0:0,0:0:0:0:
195,97,27279,5,4,0:2:0:0:
256,192,27367,12,2,28691,0:1:0:0:
238,212,28867,5,4,0:3:0:0:
178,140,29044,1,4,0:3:0:0:
87,172,29220,1,4,0:3:0:0:
356,164,29397,5,8,0:2:0:0:
78,184,29573,1,4,0:3:0:0:
240,222,29750,1,4,0:3:0:0:
172,150,29926,1,4,0:3:0:0:
147,255,30103,5,4,0:3:0:0:
151,282,30191,1,4,0:3:0:0:
153,309,30279,1,4,0:3:0:0:
247,353,30455,1,4,0:3:0:0:
370,305,30632,1,4,0:3:0:0:
310,180,30808,5,8,0:2:0:0:
315,184,30985,2,0,L|327:247,1,50,4|0,0:3|0:0,0:0:0:0:
430,134,31161,2,0,L|419:198,1,50,4|0,0:3|0:0,0:0:0:0:
336,11,31338,2,0,L|354:127,1,100,4|2,0:3|0:1,0:0:0:0:
229,120,31691,5,4,0:3:0:0:
136,145,31867,1,4,0:3:0:0:
51,102,32044,1,4,0:3:0:0:
228,129,32220,5,8,0:2:0:0:
47,111,32397,1,4,0:3:0:0:
136,155,32573,1,4,0:3:0:0:
139,0,32750,1,4,0:3:0:0:
143,301,32926,6,0,L|13:277,1,100,4|0,0:2|0:0,0:0:0:0:
14,304,33191,1,8,0:0:0:0:
238,260,33455,2,0,L|313:275,1,50,4|2,0:3|0:2,0:0:0:0:
319,249,33632,2,0,B|456:273|456:273|481:368,1,200,8|4,0:2|0:3,0:0:0:0:
472,182,34338,5,2,0:1:0:0:
393,118,34514,2,0,P|395:74|449:36,1,100,4|0,0:3|0:0,0:0:0:0:
188,116,34867,5,4,0:3:0:0:
286,105,35044,2,0,P|275:37|229:11,1,100,8|0,0:2|0:0,0:0:0:0:
138,196,35397,2,0,P|98:175|60:95,1,100,4|0,0:3|0:0,0:0:0:0:
331,181,35750,6,0,B|337:215|337:215|295:342|295:342|298:378,1,200,4|0,0:3|0:0,0:0:0:0:
232,270,36279,2,0,B|247:229|247:229|242:201,1,50,4|2,0:3|0:2,0:0:0:0:
429,198,36455,2,0,L|378:350,2,150,8|8|4,0:2|0:0|0:3,0:0:0:0:
508,153,37161,1,2,0:1:0:0:
415,33,37338,5,4,0:3:0:0:
288,98,37514,1,4,0:3:0:0:
175,28,37691,1,4,0:3:0:0:
415,41,37867,5,8,0:2:0:0:
288,106,38044,1,4,0:3:0:0:
175,36,38220,1,4,0:3:0:0:
63,103,38397,1,4,0:3:0:0:
215,222,38573,6,0,L|199:341,1,100,4|0,0:3|0:0,0:0:0:0:
164,341,38838,1,8,0:0:0:0:
355,194,39103,2,0,L|344:262,1,50,4|2,0:3|0:2,0:0:0:0:
419,302,39279,6,0,L|440:161,1,100,8|0,0:2|0:0,0:0:0:0:
463,180,39544,1,8,0:0:0:0:
278,362,39808,2,0,L|290:285,1,50,4|0,0:3|0:0,0:0:0:0:
270,151,39985,6,0,B|236:146|236:146|210:154|210:154|150:143,1,100,2|0,0:1|0:0,0:0:0:0:
52,202,40250,2,0,P|84:190|128:243,1,100,8|0,0:0|0:0,0:0:0:0:
214,241,40514,2,0,L|195:311,1,50,4|0,0:3|0:0,0:0:0:0:
0,311,40691,2,0,B|116:271|97:356|204:294,1,200,8|0,0:2|0:0,0:0:0:0:
491,111,41397,6,0,P|451:101|400:141,1,100,4|0,0:3|0:0,0:0:0:0:
271,141,41661,2,0,P|293:152|375:203,1,100,8|0,0:0|0:0,0:0:0:0:
461,186,41926,2,0,P|456:208|434:199,1,50,4|0,0:3|0:0,0:0:0:0:
298,267,42103,2,0,B|422:240|372:314|517:276,2,200,8|4|2,0:2|0:3|0:1,0:0:0:0:
166,137,42985,5,4,0:3:0:0:
171,152,43073,2,0,P|159:218|73:213,1,150,4|4,0:3|0:3,0:0:0:0:
275,48,43514,2,0,P|263:79|253:163,1,100,8|0,0:2|0:0,0:0:0:0:
33,41,43867,2,0,P|67:80|101:168,1,100,4|0,0:3|0:0,0:0:0:0:
489,191,44220,6,0,B|413:165|433:225|331:180,2,150,4|8|4,0:3|0:0|0:3,0:0:0:0:
503,295,44926,1,8,0:0:0:0:
385,365,45191,1,8,0:0:0:0:
268,303,45455,1,4,0:3:0:0:
196,371,45632,5,2,0:1:0:0:
110,309,45808,1,4,0:3:0:0:
73,300,45896,1,4,0:3:0:0:
37,293,45984,1,4,0:3:0:0:
184,238,46161,1,4,0:3:0:0:
113,166,46338,1,8,0:0:0:0:
77,159,46426,1,8,0:0:0:0:
182,89,46603,1,4,0:3:0:0:
146,82,46691,1,4,0:3:0:0:
49,57,46867,1,4,0:3:0:0:
433,10,47044,5,4,0:2:0:0:
312,79,47220,1,4,0:3:0:0:
349,88,47308,1,4,0:3:0:0:
385,95,47396,1,4,0:3:0:0:
477,119,47573,1,4,0:3:0:0:
368,186,47750,1,8,0:0:0:0:
404,193,47838,1,8,0:0:0:0:
300,264,48015,1,4,0:3:0:0:
336,271,48103,1,4,0:3:0:0:
430,290,48279,1,4,0:3:0:0:
33,345,48455,5,2,0:1:0:0:
243,342,48632,5,4,0:3:0:0:
103,275,48808,1,4,0:3:0:0:
83,117,48985,1,4,0:3:0:0:
178,52,49161,5,8,0:0:0:0:
172,79,49250,1,8,0:0:0:0:
392,16,49426,5,4,0:3:0:0:
382,44,49514,1,4,0:3:0:0:
496,192,49691,5,4,0:3:0:0:
251,292,49867,5,4,0:3:0:0:
240,257,49955,2,0,P|227:227|203:191,1,50,4|0,0:3|0:0,0:0:0:0:
316,244,50132,1,4,0:3:0:0:
323,205,50220,1,8,0:0:0:0:
347,159,50308,1,8,0:0:0:0:
395,129,50397,2,0,P|422:114|460:107,1,50,4|4,0:3|0:3,0:0:0:0:
512,82,50573,1,4,0:3:0:0:
7,30,50926,5,4,0:1:0:0:
199,211,51279,6,0,B|83:247|105:169|5:203,1,200,2|8,0:1|0:2,0:0:0:0:
139,133,51544,2,0,B|185:147|173:111|236:130,1,100,4|0,0:3|0:0,0:0:0:0:
354,249,51720,1,4,0:3:0:0:
268,297,51808,2,0,P|276:247|287:199,1,100,8|0,0:2|0:0,0:0:0:0:
415,362,51985,6,0,P|426:303|436:228,1,100,4|0,0:3|0:0,0:0:0:0:
508,168,52161,2,0,P|464:186|379:83,1,200,8|4,0:2|0:3,0:0:0:0:
442,42,52426,1,4,0:3:0:0:
266,0,52514,2,0,P|287:40|301:145,1,100,8|0,0:2|0:0,0:0:0:0:
103,181,52691,6,0,B|84:178|84:178|152:150|193:156|160:188|229:194|255:172,1,200,4|8,0:3|0:2,0:0:0:0:
261,268,52955,2,0,B|208:287|207:243|130:272,1,100,4|0,0:3|0:0,0:0:0:0:
30,320,53131,1,4,0:3:0:0:
112,355,53220,2,0,B|165:374|166:330|243:359,1,100,8|0,0:2|0:0,0:0:0:0:
452,373,53397,6,0,P|459:323|467:274,1,100,4|0,0:3|0:0,0:0:0:0:
359,269,53573,2,0,P|350:318|342:367,1,100,8|0,0:2|0:0,0:0:0:0:
477,145,53750,2,0,B|493:142|493:142|496:110|424:94|379:130|363:160|348:219,2,200,4|8|2,0:3|0:2|0:1,0:0:0:0:
469,150,54279,6,0,B|445:148|397:113|441:15|514:5,1,200,8|4,0:2|0:3,0:0:0:0:
257,24,54544,1,4,3:0:0:0:
366,2,54632,2,0,P|351:34|315:115,1,100,8|0,0:2|0:0,0:0:0:0:
214,199,54808,6,0,P|195:210|159:147,1,100,4|0,0:3|0:0,0:0:0:0:
228,116,54985,2,0,B|119:87|144:175|8:108,1,200,8|4,0:2|0:3,0:0:0:0:
0,199,55250,1,4,0:3:0:0:
56,317,55338,2,0,P|63:290|97:177,1,100,8|0,0:2|0:0,0:0:0:0:
349,236,55514,6,0,P|263:281|227:373,1,200,4|8,0:2|0:2,0:0:0:0:
308,372,55778,2,0,P|354:360|370:315,1,100,4|0,0:3|0:0,0:0:0:0:
252,257,55955,1,4,0:3:0:0:
150,307,56044,2,0,P|158:246|186:182,1,100,8|0,0:2|0:0,0:0:0:0:
142,78,56220,5,8,0:2:0:0:
211,47,56308,1,8,0:2:0:0:
285,61,56397,1,4,0:3:0:0:
291,70,56485,1,4,0:3:0:0:
282,75,56573,5,8,0:2:0:0:
356,45,56661,1,8,0:2:0:0:
419,77,56750,1,8,0:2:0:0:
474,11,56838,1,8,0:2:0:0:
510,103,56926,6,0,P|496:160|458:317,1,200,2|8,0:1|0:2,0:0:0:0:
387,267,57191,2,0,P|385:217|381:168,1,100,4|0,0:3|0:0,0:0:0:0:
218,267,57367,1,4,0:3:0:0:
271,375,57455,2,0,P|286:328|300:280,1,100,8|0,0:2|0:0,0:0:0:0:
260,183,57632,6,0,P|214:168|147:161,1,100,4|0,0:3|0:0,0:0:0:0:
8,289,57808,2,0,P|83:325|121:230,1,200,8|4,0:2|0:3,0:0:0:0:
0,183,58073,1,4,0:3:0:0:
66,69,58161,2,0,P|73:108|87:202,1,100,8|0,0:2|0:0,0:0:0:0:
281,209,58338,6,0,B|393:262|378:187|476:222,1,200,4|8,0:3|0:2,0:0:0:0:
201,367,58603,2,0,P|210:318|218:269,1,100,4|0,0:3|0:0,0:0:0:0:
209,170,58779,1,4,0:3:0:0:
295,322,58867,2,0,B|367:313|341:363|424:333,1,100,8|0,0:2|0:0,0:0:0:0:
499,118,59044,6,0,P|508:57|514:3,1,100,4|0,0:3|0:0,0:0:0:0:
295,99,59220,2,0,P|297:51|292:0,1,100,8|0,0:2|0:0,0:0:0:0:
138,206,59397,2,0,B|127:160|87:104|15:99|15:99|35:137,2,200,4|8|2,0:3|0:2|0:1,0:0:0:0:
132,223,59926,6,0,B|164:188|227:160|292:191|292:191|255:214,1,200,8|4,0:2|0:3,0:0:0:0:
188,147,60191,1,4,0:3:0:0:
212,276,60279,2,0,P|213:165|216:48,1,200,8|4,0:2|0:3,0:0:0:0:
315,384,60632,6,0,B|303:380|303:380|341:350|395:355|379:379|429:389|496:360,1,200,8|4,0:2|0:3,0:0:0:0:
425,212,60897,1,4,0:3:0:0:
504,283,60985,2,0,B|446:274|469:311|394:290,1,100,8|0,0:2|0:0,0:0:0:0:
292,24,61161,6,0,P|296:61|305:153,1,100,2|0,0:1|0:0,0:0:0:0:
162,370,61338,2,0,P|186:264|216:137,1,200,8|4,0:2|0:3,0:0:0:0:
207,303,61603,1,4,0:3:0:0:
163,236,61691,1,8,0:2:0:0:
125,167,61779,1,8,0:2:0:0:
95,88,61867,1,4,0:3:0:0:
102,82,61955,1,4,0:3:0:0:
103,89,62044,1,4,0:3:0:0:
94,80,62132,1,4,0:3:0:0:
99,92,62220,5,8,0:2:0:0:
166,53,62308,1,8,0:2:0:0:
234,81,62397,1,8,0:2:0:0:
287,14,62485,1,8,0:2:0:0:
320,115,62573,6,0,L|337:233,1,87.500000834465,4|0,0:2|0:0,0:0:0:0:
211,298,62750,2,0,B|320:273|298:330|388:298,1,175.00000166893,8|4,0:2|0:3,0:0:0:0:
458,358,63014,1,4,0:3:0:0:
456,345,63103,2,0,P|461:318|516:317,1,87.500000834465,8|0,0:2|0:0,0:0:0:0:
512,220,63279,2,0,P|455:220|415:111,2,175.00000166893,4|8|4,0:3|0:2|0:3,0:0:0:0:
507,40,63720,1,4,0:3:0:0:
500,54,63808,2,0,L|485:161,1,87.500000834465,8|0,0:2|0:0,0:0:0:0:
199,185,63985,6,0,P|228:193|219:130,1,87.500000834465,2|0,0:1|0:0,0:0:0:0:
321,113,64161,2,0,B|222:79|249:157|121:92,1,175.00000166893,8|4,0:2|0:3,0:0:0:0:
50,83,64426,1,4,0:3:0:0:
59,72,64514,2,0,P|67:109|81:191,1,87.500000834465,8|0,0:2|0:0,0:0:0:0:
155,332,64691,2,0,P|113:238|29:280,2,175.00000166893,4|8|4,0:3|0:2|0:3,0:0:0:0:
262,340,65132,1,4,0:3:0:0:
252,347,65220,2,0,P|241:308|228:207,1,87.500000834465,8|0,0:2|0:0,0:0:0:0:
375,22,65397,6,0,P|371:64|364:126,1,87.500000834465,4|0,0:2|0:0,0:0:0:0:
413,278,65573,2,0,P|426:223|459:92,1,175.00000166893,8|4,0:2|0:3,0:0:0:0:
297,155,65838,1,4,0:3:0:0:
300,168,65926,2,0,P|309:204|332:299,1,87.500000834465,8|0,0:2|0:0,0:0:0:0:
195,178,66103,6,0,P|206:114|214:58,1,87.500000834465,4|0,0:3|0:0,0:0:0:0:
71,301,66279,2,0,P|56:214|28:95,1,175.00000166893,8|4,0:2|0:3,0:0:0:0:
139,28,66544,1,4,0:3:0:0:
137,41,66632,2,0,P|126:81|114:163,1,87.500000834465,8|0,0:2|0:0,0:0:0:0:
239,362,66808,6,0,B|350:325|322:392|440:340,2,175.00000166893,2|8|4,0:1|0:2|0:3,0:0:0:0:
147,347,67250,1,4,0:3:0:0:
151,339,67338,2,0,P|138:309|73:332,1,87.500000834465,8|0,0:2|0:0,0:0:0:0:
431,265,67514,6,0,P|450:255|530:230,1,87.500000834465,4|0,0:2|0:0,0:0:0:0:
356,167,67691,1,4,0:3:0:0:
377,96,67779,2,0,P|400:44|425:-16,1,87.500000834465,2|0,0:1|0:0,0:0:0:0:
251,132,67955,1,4,0:3:0:0:
162,101,68044,1,4,1:2:0:0:
116,14,68132,1,4,0:3:0:0:
258,144,68220,6,0,P|264:178|274:262,1,87.500000834465,4|0,0:2|0:0,0:0:0:0:
178,219,68397,2,0,P|128:181|-27:166,1,175.00000166893,8|4,0:2|0:3,0:0:0:0:
27,235,68661,1,4,0:3:0:0:
28,244,68750,2,0,P|55:262|120:273,1,87.500000834465,8|0,0:2|0:0,0:0:0:0:
208,376,68926,6,0,P|213:331|224:246,1,87.500000834465,4|0,0:3|0:0,0:0:0:0:
445,254,69103,2,0,P|350:277|299:337,1,175.00000166893,8|4,0:2|0:3,0:0:0:0:
369,375,69367,1,4,0:3:0:0:
379,374,69455,2,0,P|407:362|465:319,1,87.500000834465,8|0,0:2|0:0,0:0:0:0:
390,131,69632,6,0,B|306:101|314:168|205:111,2,175.00000166893,2|8|4,0:1|0:2|0:3,0:0:0:0:
478,68,70073,1,4,0:3:0:0:
477,82,70161,2,0,P|476:115|472:199,1,87.500000834465,8|0,0:2|0:0,0:0:0:0:
125,304,70338,6,0,P|120:261|96:180,1,87.500000834465,4|0,0:3|0:0,0:0:0:0:
206,346,70514,2,0,P|216:292|235:230,1,87.500000834465,8|0,0:2|0:0,0:0:0:0:
0,71,70691,5,8,0:0:0:0:
73,60,70779,1,8,0:0:0:0:
96,131,70867,1,4,0:3:0:0:
89,135,70955,1,4,0:3:0:0:
157,49,71044,6,0,B|197:17|277:5|327:18|327:18|305:40|282:42,1,200,2|4,0:1|0:3,0:0:0:0:
236,121,71308,2,0,P|268:118|363:166,1,100,8|0,0:2|0:0,0:0:0:0:
411,165,71485,1,4,0:3:0:0:
457,42,71573,2,0,B|467:37|467:37|442:29|404:47|392:98,1,100,8|0,0:2|0:0,0:0:0:0:
430,338,71750,6,0,B|340:312|361:383|257:336|257:336|262:321|280:316,1,200,4|4,0:2|0:3,0:0:0:0:
324,227,72014,2,0,B|338:232|338:232|315:252|278:253|226:219,1,100,8|0,0:2|0:0,0:0:0:0:
170,198,72191,1,4,0:3:0:0:
163,376,72279,2,0,P|174:330|193:248,1,100,8|0,0:2|0:0,0:0:0:0:
5,8,72455,6,0,P|13:59|23:154,1,100,2|0,0:1|0:0,0:0:0:0:
83,243,72632,2,0,P|104:99|115:-36,1,200,8|4,0:2|0:3,0:0:0:0:
56,167,72897,1,4,0:3:0:0:
121,126,72985,1,8,0:2:0:0:
200,115,73073,1,8,0:2:0:0:
276,135,73161,1,8,0:2:0:0:
356,138,73250,1,8,0:2:0:0:
425,97,73338,1,4,0:3:0:0:
418,94,73426,1,4,0:3:0:0:
423,104,73514,5,8,0:2:0:0:
361,146,73603,1,8,0:2:0:0:
279,157,73691,1,8,0:2:0:0:
203,98,73779,1,8,0:2:0:0:
160,193,73867,6,0,L|168:311,1,100,6|0,0:1|0:0,0:0:0:0:
9,129,74044,2,0,P|34:25|133:52,1,200,8|4,0:2|0:3,0:0:0:0:
0,206,74308,1,4,0:3:0:0:
89,136,74397,2,0,P|79:185|70:234,1,100,8|0,0:2|0:0,0:0:0:0:
239,253,74573,6,0,B|339:221|326:280|451:247,1,200,4|8,0:3|0:2,0:0:0:0:
486,192,74838,1,4,0:3:0:0:
493,120,74926,1,4,0:3:0:0:
446,62,75014,1,4,0:3:0:0:
374,32,75103,2,0,P|364:73|348:172,1,100,8|0,0:2|0:0,0:0:0:0:
162,237,75279,6,0,P|162:168|282:152,1,200,4|8,0:3|0:2,0:0:0:0:
85,100,75544,2,0,P|77:149|71:199,1,100,4|0,0:3|0:0,0:0:0:0:
176,321,75720,1,4,0:3:0:0:
78,372,75808,2,0,P|89:300|102:227,1,100,8|0,0:2|0:2,0:2:0:0:
11,60,75985,6,0,B|-6:64|-6:64|22:92|71:80|132:73|153:2,1,200,4|8,0:2|0:2,0:0:0:0:
297,13,76250,2,0,P|266:15|214:90,1,100,4|0,0:3|0:0,0:0:0:0:
171,218,76426,1,4,0:3:0:0:
140,143,76514,2,0,B|206:124|178:164|272:135,1,100,8|0,0:2|0:0,0:0:0:0:
426,24,76691,6,0,P|386:62|426:90,1,100,2|0,0:1|0:0,0:0:0:0:
509,121,76867,2,0,B|399:88|429:158|308:110,1,200,8|4,0:2|0:3,0:0:0:0:
376,155,77132,1,4,0:3:0:0:
393,234,77220,1,8,0:2:0:0:
355,301,77308,1,4,0:3:0:0:
289,340,77397,6,0,B|276:332|264:333|264:333|280:297|343:300|404:324|441:387,1,200,4|8,0:3|0:2,0:0:0:0:
348,297,77661,1,4,0:3:0:0:
397,241,77750,1,4,0:3:0:0:
470,246,77838,1,4,0:3:0:0:
501,312,77926,2,0,P|507:257|520:165,1,100,8|0,0:2|0:0,0:0:0:0:
263,227,78103,6,0,B|243:248|150:268|97:226|97:226|93:198|138:202,1,200,2|4,0:1|0:3,0:0:0:0:
166,339,78367,2,0,P|121:334|44:292,1,100,8|0,0:2|0:0,0:0:0:0:
10,228,78544,1,4,0:3:0:0:
189,156,78632,2,0,P|222:150|318:156,1,100,8|0,0:2|0:0,0:0:0:0:
497,64,78808,6,0,B|473:99|400:120|338:69|338:69|361:57|388:60,1,200,4|4,0:2|0:3,0:0:0:0:
494,187,79073,2,0,P|432:200|354:186,1,100,8|0,0:2|0:0,0:0:0:0:
290,158,79250,1,4,0:3:0:0:
304,336,79338,2,0,P|312:285|331:206,1,100,8|0,0:2|0:0,0:0:0:0:
156,45,79514,6,0,P|196:55|274:73,1,100,2|0,0:1|0:0,0:0:0:0:
97,258,79691,2,0,P|166:256|153:125,1,200,8|4,0:2|0:3,0:0:0:0:
4,154,79955,1,4,0:3:0:0:
80,79,80044,2,0,P|88:116|105:213,1,100,8|0,0:2|0:0,0:0:0:0:
201,355,80220,6,0,B|325:316|287:387|396:352,1,200,4|8,0:3|0:2,0:0:0:0:
452,303,80485,1,4,0:3:0:0:
362,177,80573,2,0,P|370:223|383:306,1,100,4|4,0:3|0:3,0:0:0:0:
472,57,80750,2,0,P|459:102|448:190,1,100,8|0,0:2|0:0,0:0:0:0:
320,12,80926,6,0,P|302:90|176:60,1,200,4|8,0:3|0:2,0:0:0:0:
138,47,81191,1,4,0:3:0:0:
59,59,81279,1,4,0:3:0:0:
11,117,81367,1,4,0:3:0:0:
20,188,81455,1,8,0:2:0:0:
68,243,81544,1,4,0:3:0:0:
143,268,81632,6,0,B|163:258|163:258|112:226|37:252|-1:303,1,200,4|8,0:2|0:2,0:0:0:0:
110,356,81897,2,0,P|147:357|236:323,1,100,4|0,0:3|0:0,0:0:0:0:
307,326,82073,1,4,0:3:0:0:
265,164,82161,2,0,P|251:215|241:302,1,100,8|0,0:2|0:0,0:0:0:0:
414,378,82338,6,0,P|452:349|461:289,1,100,2|0,0:1|0:0,0:0:0:0:
507,235,82514,2,0,B|529:229|529:229|510:199|433:197|465:229|386:242|348:201,1,200,8|4,0:2|0:3,0:0:0:0:
334,143,82779,1,4,0:3:0:0:
335,65,82867,1,8,0:2:0:0:
389,12,82955,1,4,0:3:0:0:
458,36,83044,6,0,P|378:37|205:24,1,200,4|8,0:3|0:2,0:0:0:0:
139,160,83308,1,4,0:3:0:0:
232,157,83397,2,0,P|232:112|187:94,1,100,4|0,0:3|0:0,0:0:0:0:
44,228,83573,2,0,P|48:184|64:100,1,100,8|0,0:2|0:0,0:0:0:0:
390,244,83750,6,0,B|410:251|410:251|418:303|277:347|256:296,1,200,2|4,0:1|0:3,0:0:0:0:
111,281,84014,2,0,P|132:249|198:255,1,100,8|0,0:2|0:0,0:0:0:0:
275,223,84191,1,4,0:3:0:0:
178,351,84279,2,0,P|141:371|46:329,1,100,8|0,0:2|0:0,0:0:0:0:
452,346,84455,6,0,B|472:359|472:359|429:388|342:351|379:308|309:300|225:311,1,250,4|4,0:2|0:3,0:0:0:0:
68,259,84720,2,0,B|148:218|120:277|222:236,1,125,8|0,0:2|0:0,0:0:0:0:
275,223,84897,1,4,0:3:0:0:
118,115,84985,5,8,0:2:0:0:
