osu file format v14

[General]
AudioFilename: audio.mp3
AudioLeadIn: 0
PreviewTime: 12594
Countdown: 0
SampleSet: Normal
StackLeniency: 0.7
Mode: 1
LetterboxInBreaks: 0
WidescreenStoryboard: 0

[Editor]
Bookmarks: 12423,29364,40658
DistanceSpacing: 0.7
BeatDivisor: 4
GridSize: 32
TimelineZoom: 1.4

[Metadata]
Title:Lily Toxicity
TitleUnicode:Lily Toxicity
Artist:Denkishiki Karen Ongaku Shuudan
ArtistUnicode:電気式華憐音楽集団
Creator:[R]
Version:Muzukashii
Source:真愛の百合は赤く染まる
Tags:ron DenKare Manakashi no Yuri wa Akaku Somaru まなかし Bug System Visual Novel Eroge video game japanese 華憐
BeatmapID:2415417
BeatmapSetID:1077974

[Difficulty]
HPDrainRate:6
CircleSize:5
OverallDifficulty:4
ApproachRate:5
SliderMultiplier:1.4
SliderTickRate:1

[Events]
//Background and Video events
0,0,"BG.png",0,50
//Break Periods
//Storyboard Layer 0 (Background)
//Storyboard Layer 1 (Fail)
//Storyboard Layer 2 (Pass)
//Storyboard Layer 3 (Foreground)
//Storyboard Layer 4 (Overlay)
//Storyboard Sound Samples

[TimingPoints]
1389,352.941176470588,4,1,0,70,1,0
12594,-100,4,1,0,90,0,0
28124,-100,4,1,0,70,0,0
29536,-100,4,1,0,90,0,0
52212,-100,4,1,0,100,0,1
74800,-100,4,1,0,90,0,0

[HitObjects]
256,192,1389,5,0,0:0:0:0:
256,192,1741,1,8,0:0:0:0:
256,192,2094,1,8,0:0:0:0:
256,192,2800,1,0,0:0:0:0:
256,192,3153,1,0,0:0:0:0:
256,192,4212,1,8,0:0:0:0:
256,192,4565,1,0,0:0:0:0:
256,192,4918,1,0,0:0:0:0:
256,192,5271,1,8,0:0:0:0:
256,192,7036,1,0,0:0:0:0:
256,192,7388,1,8,0:0:0:0:
256,192,7741,1,8,0:0:0:0:
256,192,8447,1,0,0:0:0:0:
256,192,8800,1,0,0:0:0:0:
256,192,9859,1,8,0:0:0:0:
256,192,10212,1,0,0:0:0:0:
256,192,10565,1,8,0:0:0:0:
256,192,10918,1,8,0:0:0:0:
256,192,12683,1,4,0:0:0:0:
256,192,12859,1,8,0:0:0:0:
256,192,13036,1,8,0:0:0:0:
256,192,13212,1,0,0:0:0:0:
256,192,13388,1,8,0:0:0:0:
256,192,13741,1,8,0:0:0:0:
256,192,13918,1,0,0:0:0:0:
256,192,14094,1,8,0:0:0:0:
256,192,14271,1,0,0:0:0:0:
256,192,14447,1,8,0:0:0:0:
256,192,14800,1,8,0:0:0:0:
256,192,14977,1,0,0:0:0:0:
256,192,15065,1,0,0:0:0:0:
256,192,15153,1,0,0:0:0:0:
256,192,15330,1,8,0:0:0:0:
256,192,15506,1,4,0:0:0:0:
256,192,15683,1,8,0:0:0:0:
256,192,15859,1,8,0:0:0:0:
256,192,16212,1,8,0:0:0:0:
256,192,16388,1,0,0:0:0:0:
256,192,16565,1,8,0:0:0:0:
256,192,16918,1,8,0:0:0:0:
256,192,17447,1,0,0:0:0:0:
256,192,17624,1,8,0:0:0:0:
256,192,17977,1,8,0:0:0:0:
256,192,18153,1,8,0:0:0:0:
256,192,18330,1,4,0:0:0:0:
256,192,18506,1,8,0:0:0:0:
256,192,18683,1,8,0:0:0:0:
256,192,18859,1,0,0:0:0:0:
256,192,19036,1,8,0:0:0:0:
256,192,19388,1,8,0:0:0:0:
256,192,19565,1,0,0:0:0:0:
256,192,19741,1,8,0:0:0:0:
256,192,19918,1,0,0:0:0:0:
256,192,20094,1,8,0:0:0:0:
256,192,20447,1,8,0:0:0:0:
256,192,20624,1,0,0:0:0:0:
256,192,20712,1,0,0:0:0:0:
256,192,20800,1,0,0:0:0:0:
256,192,20977,1,8,0:0:0:0:
256,192,21153,1,4,0:0:0:0:
256,192,21330,1,8,0:0:0:0:
256,192,21506,1,8,0:0:0:0:
256,192,21859,1,8,0:0:0:0:
256,192,22036,1,0,0:0:0:0:
256,192,22212,1,8,0:0:0:0:
256,192,22565,1,8,0:0:0:0:
256,192,23094,1,0,0:0:0:0:
256,192,23271,1,8,0:0:0:0:
256,192,23624,1,0,0:0:0:0:
256,192,23800,1,0,0:0:0:0:
256,192,23977,1,12,0:0:0:0:
256,192,24241,1,12,0:0:0:0:
256,192,24683,1,12,0:0:0:0:
256,192,24947,1,12,0:0:0:0:
256,192,25388,1,12,0:0:0:0:
256,192,25653,1,12,0:0:0:0:
256,192,26094,1,0,0:0:0:0:
256,192,26271,1,8,0:0:0:0:
256,192,26447,1,0,0:0:0:0:
256,192,26536,1,0,0:0:0:0:
256,192,26624,1,0,0:0:0:0:
256,192,26800,1,12,0:0:0:0:
256,192,27065,1,12,0:0:0:0:
256,192,27506,1,12,0:0:0:0:
256,192,27771,1,12,0:0:0:0:
256,192,28212,1,4,0:0:0:0:
256,192,28388,8,0,29447,0:0:0:0:
256,192,29624,5,4,0:0:0:0:
256,192,29800,1,8,0:0:0:0:
256,192,29977,1,0,0:0:0:0:
256,192,30153,1,0,0:0:0:0:
256,192,30330,1,8,0:0:0:0:
256,192,30683,1,8,0:0:0:0:
256,192,31036,1,0,0:0:0:0:
256,192,31124,1,0,0:0:0:0:
256,192,31212,1,0,0:0:0:0:
256,192,31388,1,8,0:0:0:0:
256,192,31565,1,0,0:0:0:0:
256,192,31741,1,8,0:0:0:0:
256,192,32094,1,8,0:0:0:0:
256,192,32271,1,8,0:0:0:0:
256,192,32447,1,0,0:0:0:0:
256,192,32624,1,8,0:0:0:0:
256,192,32800,1,0,0:0:0:0:
256,192,32977,1,0,0:0:0:0:
256,192,33153,1,8,0:0:0:0:
256,192,33506,1,0,0:0:0:0:
256,192,33683,1,8,0:0:0:0:
256,192,33859,1,0,0:0:0:0:
256,192,34124,1,0,0:0:0:0:
256,192,34388,1,0,0:0:0:0:
256,192,34565,1,8,0:0:0:0:
256,192,35271,1,4,0:0:0:0:
256,192,35447,1,8,0:0:0:0:
256,192,35800,1,8,0:0:0:0:
256,192,35977,1,8,0:0:0:0:
256,192,36153,1,0,0:0:0:0:
256,192,36330,1,8,0:0:0:0:
256,192,36506,1,8,0:0:0:0:
256,192,36683,1,0,0:0:0:0:
256,192,37036,1,8,0:0:0:0:
256,192,37212,1,0,0:0:0:0:
256,192,37300,1,0,0:0:0:0:
256,192,37388,1,0,0:0:0:0:
256,192,37565,1,0,0:0:0:0:
256,192,37741,1,8,0:0:0:0:
256,192,37918,1,8,0:0:0:0:
256,192,38094,1,0,0:0:0:0:
256,192,38447,1,0,0:0:0:0:
256,192,38624,1,0,0:0:0:0:
256,192,38800,1,8,0:0:0:0:
256,192,39153,1,0,0:0:0:0:
256,192,39330,1,8,0:0:0:0:
256,192,39506,1,0,0:0:0:0:
256,192,39771,1,0,0:0:0:0:
256,192,40036,1,0,0:0:0:0:
256,192,40212,1,8,0:0:0:0:
256,192,40477,1,8,0:0:0:0:
256,192,40741,1,8,0:0:0:0:
256,192,40918,1,4,0:0:0:0:
256,192,41183,1,0,0:0:0:0:
256,192,41447,1,0,0:0:0:0:
256,192,41624,1,8,0:0:0:0:
256,192,42330,1,0,0:0:0:0:
256,192,42594,1,0,0:0:0:0:
256,192,42859,1,0,0:0:0:0:
256,192,43036,1,8,0:0:0:0:
256,192,43741,1,4,0:0:0:0:
256,192,44006,1,0,0:0:0:0:
256,192,44271,1,0,0:0:0:0:
256,192,44447,1,8,0:0:0:0:
256,192,45153,1,0,0:0:0:0:
256,192,45418,1,0,0:0:0:0:
256,192,45683,1,0,0:0:0:0:
256,192,45859,1,8,0:0:0:0:
256,192,46124,1,8,0:0:0:0:
256,192,46388,1,8,0:0:0:0:
256,192,46565,1,4,0:0:0:0:
256,192,46741,1,8,0:0:0:0:
256,192,46918,1,0,0:0:0:0:
256,192,47006,1,0,0:0:0:0:
256,192,47094,1,0,0:0:0:0:
256,192,47271,1,8,0:0:0:0:
256,192,47447,1,0,0:0:0:0:
256,192,47624,1,8,0:0:0:0:
256,192,47977,1,4,0:0:0:0:
256,192,48153,1,8,0:0:0:0:
256,192,48241,1,8,0:0:0:0:
256,192,48330,1,8,0:0:0:0:
256,192,48506,1,0,0:0:0:0:
256,192,48683,1,8,0:0:0:0:
256,192,48859,1,0,0:0:0:0:
256,192,49036,1,8,0:0:0:0:
256,192,49388,1,4,0:0:0:0:
256,192,49565,1,8,0:0:0:0:
256,192,49741,1,0,0:0:0:0:
256,192,49830,1,0,0:0:0:0:
256,192,49918,1,0,0:0:0:0:
256,192,50094,1,8,0:0:0:0:
256,192,50271,1,0,0:0:0:0:
256,192,50447,1,8,0:0:0:0:
256,192,50800,1,0,0:0:0:0:
256,192,50888,1,0,0:0:0:0:
256,192,50977,1,0,0:0:0:0:
256,192,51153,1,8,0:0:0:0:
256,192,51330,1,0,0:0:0:0:
256,192,51506,1,8,0:0:0:0:
256,192,52212,1,4,0:0:0:0:
256,192,52388,1,8,0:0:0:0:
256,192,52477,1,8,0:0:0:0:
256,192,52741,1,8,0:0:0:0:
256,192,52918,1,8,0:0:0:0:
256,192,53094,1,0,0:0:0:0:
256,192,53271,1,8,0:0:0:0:
256,192,53624,1,8,0:0:0:0:
256,192,53800,1,0,0:0:0:0:
256,192,53888,1,0,0:0:0:0:
256,192,54153,1,0,0:0:0:0:
256,192,54330,1,8,0:0:0:0:
256,192,55036,1,0,0:0:0:0:
256,192,55212,1,8,0:0:0:0:
256,192,55300,1,8,0:0:0:0:
256,192,55388,1,8,0:0:0:0:
256,192,55565,1,0,0:0:0:0:
256,192,55741,1,0,0:0:0:0:
256,192,55918,1,8,0:0:0:0:
256,192,56271,1,0,0:0:0:0:
256,192,56447,1,8,0:0:0:0:
256,192,56712,1,0,0:0:0:0:
256,192,56977,1,8,0:0:0:0:
256,192,57153,1,0,0:0:0:0:
256,192,57241,1,0,0:0:0:0:
256,192,57330,1,0,0:0:0:0:
256,192,57506,1,8,0:0:0:0:
256,192,57859,1,0,0:0:0:0:
256,192,58036,1,8,0:0:0:0:
256,192,58124,1,8,0:0:0:0:
256,192,58388,1,8,0:0:0:0:
256,192,58565,1,8,0:0:0:0:
256,192,58741,1,0,0:0:0:0:
256,192,58918,1,8,0:0:0:0:
256,192,59271,1,8,0:0:0:0:
256,192,59447,1,0,0:0:0:0:
256,192,59536,1,0,0:0:0:0:
256,192,59800,1,0,0:0:0:0:
256,192,59977,1,8,0:0:0:0:
256,192,60683,1,0,0:0:0:0:
256,192,60859,1,8,0:0:0:0:
256,192,61036,1,0,0:0:0:0:
256,192,61212,1,8,0:0:0:0:
256,192,61565,1,8,0:0:0:0:
256,192,61741,1,8,0:0:0:0:
256,192,61918,1,0,0:0:0:0:
256,192,62094,1,8,0:0:0:0:
256,192,62271,1,0,0:0:0:0:
256,192,62359,1,0,0:0:0:0:
256,192,62447,1,0,0:0:0:0:
256,192,62624,1,8,0:0:0:0:
256,192,62800,1,0,0:0:0:0:
256,192,63330,1,8,0:0:0:0:
256,192,63506,1,0,0:0:0:0:
256,192,63859,1,8,0:0:0:0:
256,192,64036,1,0,0:0:0:0:
256,192,64212,1,8,0:0:0:0:
256,192,64388,1,0,0:0:0:0:
256,192,64565,1,8,0:0:0:0:
256,192,64653,1,8,0:0:0:0:
256,192,64741,1,8,0:0:0:0:
256,192,64918,1,0,0:0:0:0:
256,192,65271,1,0,0:0:0:0:
256,192,65447,1,8,0:0:0:0:
256,192,65624,1,0,0:0:0:0:
256,192,65800,1,8,0:0:0:0:
256,192,65977,1,0,0:0:0:0:
256,192,66065,1,0,0:0:0:0:
256,192,66153,1,0,0:0:0:0:
256,192,66330,1,0,0:0:0:0:
256,192,66506,1,8,0:0:0:0:
256,192,66683,1,0,0:0:0:0:
256,192,67036,1,0,0:0:0:0:
256,192,67212,1,8,0:0:0:0:
256,192,67388,1,8,0:0:0:0:
256,192,67477,1,8,0:0:0:0:
256,192,67565,1,8,0:0:0:0:
256,192,67741,1,0,0:0:0:0:
256,192,68271,1,0,0:0:0:0:
256,192,68359,1,0,0:0:0:0:
256,192,68447,1,0,0:0:0:0:
256,192,68624,1,8,0:0:0:0:
256,192,68800,1,8,0:0:0:0:
256,192,68888,1,8,0:0:0:0:
256,192,68977,1,8,0:0:0:0:
256,192,69153,1,0,0:0:0:0:
256,192,69506,1,0,0:0:0:0:
256,192,69683,1,8,0:0:0:0:
256,192,69859,1,8,0:0:0:0:
256,192,69947,1,8,0:0:0:0:
256,192,70036,1,8,0:0:0:0:
256,192,70212,1,0,0:0:0:0:
256,192,70388,1,8,0:0:0:0:
256,192,70565,1,0,0:0:0:0:
256,192,71094,1,0,0:0:0:0:
256,192,71271,1,8,0:0:0:0:
256,192,71624,1,0,0:0:0:0:
256,192,71977,1,8,0:0:0:0:
256,192,72152,1,0,0:0:0:0:
256,192,72241,1,0,0:0:0:0:
256,192,72506,1,8,0:0:0:0:
256,192,72683,1,8,0:0:0:0:
256,192,72858,1,0,0:0:0:0:
256,192,72947,1,0,0:0:0:0:
256,192,73212,1,8,0:0:0:0:
256,192,73388,1,4,0:0:0:0:
256,192,73741,1,8,0:0:0:0:
256,192,73918,1,8,0:0:0:0:
256,192,74094,1,0,0:0:0:0:
256,192,74447,1,8,0:0:0:0:
256,192,74800,1,4,0:0:0:0:
256,192,74977,1,8,0:0:0:0:
256,192,75153,1,0,0:0:0:0:
256,192,75506,1,0,0:0:0:0:
256,192,75683,1,8,0:0:0:0:
256,192,75859,1,8,0:0:0:0:
256,192,75947,1,8,0:0:0:0:
256,192,76036,1,8,0:0:0:0:
256,192,76212,1,0,0:0:0:0:
256,192,76388,1,8,0:0:0:0:
256,192,76565,1,0,0:0:0:0:
256,192,76918,1,8,0:0:0:0:
256,192,77624,1,0,0:0:0:0:
256,192,77800,1,8,0:0:0:0:
256,192,77977,1,0,0:0:0:0:
256,192,78330,1,8,0:0:0:0:
256,192,78506,1,0,0:0:0:0:
256,192,78683,1,0,0:0:0:0:
256,192,78771,1,0,0:0:0:0:
256,192,78859,1,0,0:0:0:0:
256,192,79036,1,12,0:0:0:0:
256,192,79300,1,0,0:0:0:0:
256,192,79565,1,0,0:0:0:0:
256,192,79741,1,12,0:0:0:0:
256,192,80006,1,8,0:0:0:0:
256,192,80271,1,8,0:0:0:0:
256,192,80447,1,4,0:0:0:0:
256,192,80624,1,8,0:0:0:0:
256,192,80800,1,0,0:0:0:0:
256,192,81153,1,0,0:0:0:0:
256,192,81330,1,8,0:0:0:0:
256,192,81506,1,8,0:0:0:0:
256,192,81594,1,8,0:0:0:0:
256,192,81683,1,8,0:0:0:0:
256,192,81859,1,0,0:0:0:0:
256,192,82036,1,8,0:0:0:0:
256,192,82212,1,0,0:0:0:0:
256,192,82565,1,8,0:0:0:0:
256,192,83271,1,0,0:0:0:0:
256,192,83447,1,8,0:0:0:0:
256,192,83624,1,0,0:0:0:0:
256,192,83977,1,8,0:0:0:0:
256,192,84153,1,0,0:0:0:0:
256,192,84330,1,0,0:0:0:0:
256,192,84418,1,0,0:0:0:0:
256,192,84506,1,0,0:0:0:0:
256,192,84683,1,12,0:0:0:0:
256,192,84947,1,0,0:0:0:0:
256,192,85212,1,0,0:0:0:0:
256,192,85388,1,12,0:0:0:0:
256,192,85653,1,8,0:0:0:0:
256,192,85918,1,8,0:0:0:0:
