osu file format v14

[General]
AudioFilename: audio.mp3
AudioLeadIn: 0
PreviewTime: 12594
Countdown: 0
SampleSet: Normal
StackLeniency: 0.7
Mode: 1
LetterboxInBreaks: 0
WidescreenStoryboard: 0

[Editor]
Bookmarks: 12423,29364,40658
DistanceSpacing: 0.7
BeatDivisor: 4
GridSize: 32
TimelineZoom: 2.3

[Metadata]
Title:Lily Toxicity
TitleUnicode:Lily Toxicity
Artist:Denkishiki Karen Ongaku Shuudan
ArtistUnicode:電気式華憐音楽集団
Creator:[R]
Version:Inner Oni
Source:真愛の百合は赤く染まる
Tags:ron DenKare Manakashi no Yuri wa Akaku Somaru まなかし Bug System Visual Novel Eroge video game japanese 華憐
BeatmapID:2255684
BeatmapSetID:1077974

[Difficulty]
HPDrainRate:5.5
CircleSize:5
OverallDifficulty:6
ApproachRate:5
SliderMultiplier:1.4
SliderTickRate:1

[Events]
//Background and Video events
0,0,"BG.png",0,50
//Break Periods
//Storyboard Layer 0 (Background)
//Storyboard Layer 1 (Fail)
//Storyboard Layer 2 (Pass)
//Storyboard Layer 3 (Foreground)
//Storyboard Layer 4 (Overlay)
//Storyboard Sound Samples

[TimingPoints]
1389,352.941176470588,4,1,0,70,1,0
12594,-100,4,1,0,90,0,0
28124,-100,4,1,0,70,0,0
29536,-100,4,1,0,90,0,0
52212,-100,4,1,0,100,0,1
74800,-100,4,1,0,90,0,0

[HitObjects]
256,192,1389,5,0,0:0:0:0:
256,192,1741,1,8,0:0:0:0:
256,192,2094,1,8,0:0:0:0:
256,192,2800,1,0,0:0:0:0:
256,192,3153,1,0,0:0:0:0:
256,192,4212,1,8,0:0:0:0:
256,192,4565,1,0,0:0:0:0:
256,192,4918,1,0,0:0:0:0:
256,192,5271,1,8,0:0:0:0:
256,192,7036,1,0,0:0:0:0:
256,192,7388,1,8,0:0:0:0:
256,192,7741,1,8,0:0:0:0:
256,192,8447,1,0,0:0:0:0:
256,192,8800,1,0,0:0:0:0:
256,192,9859,1,8,0:0:0:0:
256,192,10212,1,0,0:0:0:0:
256,192,10565,1,8,0:0:0:0:
256,192,10918,1,8,0:0:0:0:
256,192,12683,1,4,0:0:0:0:
256,192,12859,1,8,0:0:0:0:
256,192,13036,1,8,0:0:0:0:
256,192,13124,1,8,0:0:0:0:
256,192,13212,1,0,0:0:0:0:
256,192,13300,1,0,0:0:0:0:
256,192,13388,1,8,0:0:0:0:
256,192,13565,1,0,0:0:0:0:
256,192,13741,1,8,0:0:0:0:
256,192,13830,1,8,0:0:0:0:
256,192,13918,1,0,0:0:0:0:
256,192,14094,1,8,0:0:0:0:
256,192,14271,1,0,0:0:0:0:
256,192,14359,1,0,0:0:0:0:
256,192,14447,1,8,0:0:0:0:
256,192,14624,1,0,0:0:0:0:
256,192,14800,1,8,0:0:0:0:
256,192,14888,1,0,0:0:0:0:
256,192,14977,1,8,0:0:0:0:
256,192,15065,1,8,0:0:0:0:
256,192,15153,1,0,0:0:0:0:
256,192,15241,1,0,0:0:0:0:
256,192,15330,1,8,0:0:0:0:
256,192,15506,1,4,0:0:0:0:
256,192,15683,1,8,0:0:0:0:
256,192,15859,1,8,0:0:0:0:
256,192,15947,1,8,0:0:0:0:
256,192,16036,1,0,0:0:0:0:
256,192,16212,1,8,0:0:0:0:
256,192,16388,1,0,0:0:0:0:
256,192,16477,1,0,0:0:0:0:
256,192,16565,1,8,0:0:0:0:
256,192,16653,1,8,0:0:0:0:
256,192,16741,1,0,0:0:0:0:
256,192,16918,1,8,0:0:0:0:
256,192,17094,1,0,0:0:0:0:
256,192,17271,1,0,0:0:0:0:
256,192,17359,1,8,0:0:0:0:
256,192,17447,1,0,0:0:0:0:
256,192,17624,1,8,0:0:0:0:
256,192,17800,1,0,0:0:0:0:
256,192,17888,1,0,0:0:0:0:
256,192,17977,1,8,0:0:0:0:
256,192,18065,1,0,0:0:0:0:
256,192,18153,1,8,0:0:0:0:
256,192,18330,1,4,0:0:0:0:
256,192,18506,1,8,0:0:0:0:
256,192,18683,1,8,0:0:0:0:
256,192,18771,1,8,0:0:0:0:
256,192,18859,1,0,0:0:0:0:
256,192,18947,1,0,0:0:0:0:
256,192,19036,1,8,0:0:0:0:
256,192,19212,1,0,0:0:0:0:
256,192,19388,1,8,0:0:0:0:
256,192,19477,1,8,0:0:0:0:
256,192,19565,1,0,0:0:0:0:
256,192,19741,1,8,0:0:0:0:
256,192,19918,1,0,0:0:0:0:
256,192,20006,1,0,0:0:0:0:
256,192,20094,1,8,0:0:0:0:
256,192,20271,1,0,0:0:0:0:
256,192,20447,1,8,0:0:0:0:
256,192,20536,1,0,0:0:0:0:
256,192,20624,1,8,0:0:0:0:
256,192,20712,1,8,0:0:0:0:
256,192,20800,1,0,0:0:0:0:
256,192,20888,1,0,0:0:0:0:
256,192,20977,1,8,0:0:0:0:
256,192,21153,1,4,0:0:0:0:
256,192,21330,1,8,0:0:0:0:
256,192,21506,1,8,0:0:0:0:
256,192,21594,1,8,0:0:0:0:
256,192,21683,1,0,0:0:0:0:
256,192,21859,1,8,0:0:0:0:
256,192,22036,1,0,0:0:0:0:
256,192,22124,1,0,0:0:0:0:
256,192,22212,1,8,0:0:0:0:
256,192,22300,1,8,0:0:0:0:
256,192,22388,1,0,0:0:0:0:
256,192,22565,1,8,0:0:0:0:
256,192,22741,1,0,0:0:0:0:
256,192,22918,1,0,0:0:0:0:
256,192,23006,1,8,0:0:0:0:
256,192,23094,1,0,0:0:0:0:
256,192,23183,1,0,0:0:0:0:
256,192,23271,1,8,0:0:0:0:
256,192,23447,1,0,0:0:0:0:
256,192,23624,1,0,0:0:0:0:
256,192,23712,1,0,0:0:0:0:
256,192,23800,1,0,0:0:0:0:
256,192,23977,1,12,0:0:0:0:
256,192,24241,1,12,0:0:0:0:
256,192,24683,1,12,0:0:0:0:
256,192,24947,1,12,0:0:0:0:
256,192,25388,1,12,0:0:0:0:
256,192,25653,1,12,0:0:0:0:
256,192,26094,1,0,0:0:0:0:
256,192,26183,1,0,0:0:0:0:
256,192,26271,1,8,0:0:0:0:
256,192,26359,1,8,0:0:0:0:
256,192,26447,1,0,0:0:0:0:
256,192,26536,1,0,0:0:0:0:
256,192,26624,1,0,0:0:0:0:
256,192,26800,1,12,0:0:0:0:
256,192,27065,1,12,0:0:0:0:
256,192,27506,1,12,0:0:0:0:
256,192,27771,1,12,0:0:0:0:
256,192,28212,1,4,0:0:0:0:
256,192,28388,8,0,29447,0:0:0:0:
256,192,29624,5,4,0:0:0:0:
256,192,29800,1,8,0:0:0:0:
256,192,29888,1,8,0:0:0:0:
256,192,29977,1,0,0:0:0:0:
256,192,30153,1,0,0:0:0:0:
256,192,30330,1,8,0:0:0:0:
256,192,30506,1,0,0:0:0:0:
256,192,30594,1,0,0:0:0:0:
256,192,30683,1,8,0:0:0:0:
256,192,30859,1,8,0:0:0:0:
256,192,31036,1,0,0:0:0:0:
256,192,31124,1,0,0:0:0:0:
256,192,31212,1,0,0:0:0:0:
256,192,31388,1,8,0:0:0:0:
256,192,31565,1,0,0:0:0:0:
256,192,31653,1,0,0:0:0:0:
256,192,31741,1,8,0:0:0:0:
256,192,31918,1,0,0:0:0:0:
256,192,32094,1,8,0:0:0:0:
256,192,32271,1,8,0:0:0:0:
256,192,32447,1,0,0:0:0:0:
256,192,32624,1,8,0:0:0:0:
256,192,32712,1,0,0:0:0:0:
256,192,32800,1,0,0:0:0:0:
256,192,32977,1,0,0:0:0:0:
256,192,33153,1,8,0:0:0:0:
256,192,33330,1,8,0:0:0:0:
256,192,33418,1,8,0:0:0:0:
256,192,33506,1,0,0:0:0:0:
256,192,33683,1,8,0:0:0:0:
256,192,33859,1,0,0:0:0:0:
256,192,34124,1,0,0:0:0:0:
256,192,34388,1,0,0:0:0:0:
256,192,34477,1,0,0:0:0:0:
256,192,34565,1,8,0:0:0:0:
256,192,34741,1,8,0:0:0:0:
256,192,34918,1,0,0:0:0:0:
256,192,35271,1,4,0:0:0:0:
256,192,35447,1,8,0:0:0:0:
256,192,35536,1,8,0:0:0:0:
256,192,35624,1,0,0:0:0:0:
256,192,35800,1,0,0:0:0:0:
256,192,35977,1,8,0:0:0:0:
256,192,36153,1,0,0:0:0:0:
256,192,36241,1,0,0:0:0:0:
256,192,36330,1,8,0:0:0:0:
256,192,36506,1,8,0:0:0:0:
256,192,36683,1,0,0:0:0:0:
256,192,36771,1,0,0:0:0:0:
256,192,36859,1,0,0:0:0:0:
256,192,37036,1,8,0:0:0:0:
256,192,37212,1,0,0:0:0:0:
256,192,37300,1,0,0:0:0:0:
256,192,37388,1,8,0:0:0:0:
256,192,37565,1,0,0:0:0:0:
256,192,37741,1,8,0:0:0:0:
256,192,37918,1,8,0:0:0:0:
256,192,38094,1,0,0:0:0:0:
256,192,38271,1,8,0:0:0:0:
256,192,38359,1,0,0:0:0:0:
256,192,38447,1,0,0:0:0:0:
256,192,38624,1,0,0:0:0:0:
256,192,38800,1,8,0:0:0:0:
256,192,38977,1,8,0:0:0:0:
256,192,39065,1,8,0:0:0:0:
256,192,39153,1,0,0:0:0:0:
256,192,39330,1,8,0:0:0:0:
256,192,39506,1,0,0:0:0:0:
256,192,39771,1,0,0:0:0:0:
256,192,40036,1,0,0:0:0:0:
256,192,40124,1,0,0:0:0:0:
256,192,40212,1,8,0:0:0:0:
256,192,40477,1,8,0:0:0:0:
256,192,40741,1,8,0:0:0:0:
256,192,40918,1,4,0:0:0:0:
256,192,41183,1,0,0:0:0:0:
256,192,41447,1,0,0:0:0:0:
256,192,41624,1,8,0:0:0:0:
256,192,41800,1,0,0:0:0:0:
256,192,41977,1,0,0:0:0:0:
256,192,42153,1,8,0:0:0:0:
256,192,42330,1,0,0:0:0:0:
256,192,42594,1,0,0:0:0:0:
256,192,42859,1,0,0:0:0:0:
256,192,43036,1,8,0:0:0:0:
256,192,43212,1,0,0:0:0:0:
256,192,43388,1,8,0:0:0:0:
256,192,43565,1,8,0:0:0:0:
256,192,43741,1,4,0:0:0:0:
256,192,44006,1,0,0:0:0:0:
256,192,44271,1,0,0:0:0:0:
256,192,44447,1,8,0:0:0:0:
256,192,44624,1,0,0:0:0:0:
256,192,44800,1,0,0:0:0:0:
256,192,44977,1,8,0:0:0:0:
256,192,45153,1,0,0:0:0:0:
256,192,45418,1,0,0:0:0:0:
256,192,45683,1,0,0:0:0:0:
256,192,45859,1,8,0:0:0:0:
256,192,46124,1,8,0:0:0:0:
256,192,46388,1,8,0:0:0:0:
256,192,46565,1,4,0:0:0:0:
256,192,46741,1,8,0:0:0:0:
256,192,46918,1,0,0:0:0:0:
256,192,47006,1,0,0:0:0:0:
256,192,47094,1,8,0:0:0:0:
256,192,47271,1,8,0:0:0:0:
256,192,47359,1,0,0:0:0:0:
256,192,47447,1,8,0:0:0:0:
256,192,47536,1,8,0:0:0:0:
256,192,47624,1,0,0:0:0:0:
256,192,47800,1,8,0:0:0:0:
256,192,47977,1,4,0:0:0:0:
256,192,48153,1,8,0:0:0:0:
256,192,48241,1,8,0:0:0:0:
256,192,48330,1,0,0:0:0:0:
256,192,48506,1,8,0:0:0:0:
256,192,48683,1,0,0:0:0:0:
256,192,48771,1,8,0:0:0:0:
256,192,48859,1,0,0:0:0:0:
256,192,48947,1,0,0:0:0:0:
256,192,49036,1,8,0:0:0:0:
256,192,49212,1,8,0:0:0:0:
256,192,49388,1,4,0:0:0:0:
256,192,49565,1,8,0:0:0:0:
256,192,49653,1,8,0:0:0:0:
256,192,49741,1,0,0:0:0:0:
256,192,49918,1,8,0:0:0:0:
256,192,50094,1,0,0:0:0:0:
256,192,50183,1,0,0:0:0:0:
256,192,50271,1,8,0:0:0:0:
256,192,50359,1,8,0:0:0:0:
256,192,50447,1,0,0:0:0:0:
256,192,50624,1,8,0:0:0:0:
256,192,50800,1,0,0:0:0:0:
256,192,50888,1,0,0:0:0:0:
256,192,50977,1,0,0:0:0:0:
256,192,51065,1,0,0:0:0:0:
256,192,51153,1,8,0:0:0:0:
256,192,51330,1,0,0:0:0:0:
256,192,51506,1,8,0:0:0:0:
256,192,51859,1,0,0:0:0:0:
256,192,52212,1,4,0:0:0:0:
256,192,52388,1,8,0:0:0:0:
256,192,52477,1,0,0:0:0:0:
256,192,52653,1,0,0:0:0:0:
256,192,52741,1,8,0:0:0:0:
256,192,52830,1,8,0:0:0:0:
256,192,52918,1,0,0:0:0:0:
256,192,53094,1,8,0:0:0:0:
256,192,53271,1,8,0:0:0:0:
256,192,53359,1,8,0:0:0:0:
256,192,53447,1,0,0:0:0:0:
256,192,53624,1,8,0:0:0:0:
256,192,53800,1,0,0:0:0:0:
256,192,53888,1,8,0:0:0:0:
256,192,54065,1,8,0:0:0:0:
256,192,54153,1,8,0:0:0:0:
256,192,54241,1,0,0:0:0:0:
256,192,54330,1,8,0:0:0:0:
256,192,54506,1,8,0:0:0:0:
256,192,54594,1,8,0:0:0:0:
256,192,54683,1,0,0:0:0:0:
256,192,54771,1,0,0:0:0:0:
256,192,54859,1,8,0:0:0:0:
256,192,55036,1,0,0:0:0:0:
256,192,55212,1,8,0:0:0:0:
256,192,55300,1,8,0:0:0:0:
256,192,55388,1,0,0:0:0:0:
256,192,55565,1,8,0:0:0:0:
256,192,55741,1,0,0:0:0:0:
256,192,55830,1,0,0:0:0:0:
256,192,55918,1,8,0:0:0:0:
256,192,56006,1,8,0:0:0:0:
256,192,56094,1,8,0:0:0:0:
256,192,56271,1,0,0:0:0:0:
256,192,56447,1,8,0:0:0:0:
256,192,56624,1,0,0:0:0:0:
256,192,56712,1,8,0:0:0:0:
256,192,56800,1,0,0:0:0:0:
256,192,56977,1,8,0:0:0:0:
256,192,57153,1,0,0:0:0:0:
256,192,57241,1,8,0:0:0:0:
256,192,57330,1,0,0:0:0:0:
256,192,57418,1,0,0:0:0:0:
256,192,57506,1,8,0:0:0:0:
256,192,57594,1,8,0:0:0:0:
256,192,57683,1,8,0:0:0:0:
256,192,57771,1,8,0:0:0:0:
256,192,57859,1,0,0:0:0:0:
256,192,58036,1,8,0:0:0:0:
256,192,58124,1,0,0:0:0:0:
256,192,58300,1,0,0:0:0:0:
256,192,58388,1,8,0:0:0:0:
256,192,58477,1,8,0:0:0:0:
256,192,58565,1,0,0:0:0:0:
256,192,58741,1,8,0:0:0:0:
256,192,58918,1,8,0:0:0:0:
256,192,59006,1,8,0:0:0:0:
256,192,59094,1,0,0:0:0:0:
256,192,59271,1,8,0:0:0:0:
256,192,59447,1,0,0:0:0:0:
256,192,59536,1,8,0:0:0:0:
256,192,59712,1,8,0:0:0:0:
256,192,59800,1,8,0:0:0:0:
256,192,59888,1,0,0:0:0:0:
256,192,59977,1,8,0:0:0:0:
256,192,60153,1,8,0:0:0:0:
256,192,60241,1,8,0:0:0:0:
256,192,60330,1,0,0:0:0:0:
256,192,60418,1,0,0:0:0:0:
256,192,60506,1,8,0:0:0:0:
256,192,60683,1,0,0:0:0:0:
256,192,60859,1,8,0:0:0:0:
256,192,60947,1,8,0:0:0:0:
256,192,61036,1,0,0:0:0:0:
256,192,61212,1,8,0:0:0:0:
256,192,61388,1,0,0:0:0:0:
256,192,61477,1,0,0:0:0:0:
256,192,61565,1,8,0:0:0:0:
256,192,61653,1,0,0:0:0:0:
256,192,61741,1,8,0:0:0:0:
256,192,61918,1,0,0:0:0:0:
256,192,62094,1,8,0:0:0:0:
256,192,62271,1,0,0:0:0:0:
256,192,62359,1,8,0:0:0:0:
256,192,62447,1,0,0:0:0:0:
256,192,62536,1,0,0:0:0:0:
256,192,62624,1,8,0:0:0:0:
256,192,62712,1,8,0:0:0:0:
256,192,62800,1,0,0:0:0:0:
256,192,62888,1,0,0:0:0:0:
256,192,62977,1,0,0:0:0:0:
256,192,63065,1,0,0:0:0:0:
256,192,63153,1,8,0:0:0:0:
256,192,63330,1,8,0:0:0:0:
256,192,63418,1,8,0:0:0:0:
256,192,63506,1,0,0:0:0:0:
256,192,63683,1,8,0:0:0:0:
256,192,63859,1,0,0:0:0:0:
256,192,63947,1,0,0:0:0:0:
256,192,64036,1,8,0:0:0:0:
256,192,64124,1,8,0:0:0:0:
256,192,64212,1,0,0:0:0:0:
256,192,64388,1,8,0:0:0:0:
256,192,64565,1,8,0:0:0:0:
256,192,64653,1,8,0:0:0:0:
256,192,64741,1,8,0:0:0:0:
256,192,64830,1,8,0:0:0:0:
256,192,64918,1,0,0:0:0:0:
256,192,65094,1,8,0:0:0:0:
256,192,65271,1,8,0:0:0:0:
256,192,65359,1,0,0:0:0:0:
256,192,65447,1,8,0:0:0:0:
256,192,65624,1,0,0:0:0:0:
256,192,65800,1,8,0:0:0:0:
256,192,65888,1,0,0:0:0:0:
256,192,65977,1,8,0:0:0:0:
256,192,66065,1,8,0:0:0:0:
256,192,66153,1,8,0:0:0:0:
256,192,66330,1,0,0:0:0:0:
256,192,66506,1,8,0:0:0:0:
256,192,66594,1,8,0:0:0:0:
256,192,66683,1,0,0:0:0:0:
256,192,66771,1,0,0:0:0:0:
256,192,66859,1,8,0:0:0:0:
256,192,67036,1,0,0:0:0:0:
256,192,67212,1,8,0:0:0:0:
256,192,67388,1,8,0:0:0:0:
256,192,67477,1,0,0:0:0:0:
256,192,67565,1,8,0:0:0:0:
256,192,67653,1,8,0:0:0:0:
256,192,67741,1,0,0:0:0:0:
256,192,67918,1,8,0:0:0:0:
256,192,68094,1,0,0:0:0:0:
256,192,68271,1,8,0:0:0:0:
256,192,68359,1,8,0:0:0:0:
256,192,68447,1,0,0:0:0:0:
256,192,68536,1,0,0:0:0:0:
256,192,68624,1,8,0:0:0:0:
256,192,68712,1,8,0:0:0:0:
256,192,68800,1,0,0:0:0:0:
256,192,68888,1,8,0:0:0:0:
256,192,68977,1,8,0:0:0:0:
256,192,69065,1,8,0:0:0:0:
256,192,69153,1,0,0:0:0:0:
256,192,69330,1,8,0:0:0:0:
256,192,69506,1,0,0:0:0:0:
256,192,69594,1,0,0:0:0:0:
256,192,69683,1,8,0:0:0:0:
256,192,69859,1,8,0:0:0:0:
256,192,69947,1,0,0:0:0:0:
256,192,70036,1,8,0:0:0:0:
256,192,70212,1,0,0:0:0:0:
256,192,70388,1,8,0:0:0:0:
256,192,70477,1,8,0:0:0:0:
256,192,70565,1,0,0:0:0:0:
256,192,70741,1,8,0:0:0:0:
256,192,70918,1,0,0:0:0:0:
256,192,71006,1,0,0:0:0:0:
256,192,71094,1,8,0:0:0:0:
256,192,71183,1,0,0:0:0:0:
256,192,71271,1,8,0:0:0:0:
256,192,71447,1,0,0:0:0:0:
256,192,71624,1,8,0:0:0:0:
256,192,71712,1,0,0:0:0:0:
256,192,71800,1,0,0:0:0:0:
256,192,71888,1,0,0:0:0:0:
256,192,71977,1,8,0:0:0:0:
256,192,72065,1,0,0:0:0:0:
256,192,72153,1,0,0:0:0:0:
256,192,72241,1,8,0:0:0:0:
256,192,72330,1,0,0:0:0:0:
256,192,72418,1,0,0:0:0:0:
256,192,72506,1,8,0:0:0:0:
256,192,72594,1,0,0:0:0:0:
256,192,72683,1,8,0:0:0:0:
256,192,72771,1,8,0:0:0:0:
256,192,72859,1,0,0:0:0:0:
256,192,72947,1,8,0:0:0:0:
256,192,73036,1,8,0:0:0:0:
256,192,73124,1,0,0:0:0:0:
256,192,73212,1,8,0:0:0:0:
256,192,73388,1,4,0:0:0:0:
256,192,73565,1,8,0:0:0:0:
256,192,73741,1,8,0:0:0:0:
256,192,73830,1,0,0:0:0:0:
256,192,73918,1,8,0:0:0:0:
256,192,74006,1,8,0:0:0:0:
256,192,74094,1,0,0:0:0:0:
256,192,74183,1,8,0:0:0:0:
256,192,74271,1,0,0:0:0:0:
256,192,74359,1,0,0:0:0:0:
256,192,74447,1,8,0:0:0:0:
256,192,74536,1,8,0:0:0:0:
256,192,74624,1,8,0:0:0:0:
256,192,74800,1,4,0:0:0:0:
256,192,74977,1,8,0:0:0:0:
256,192,75153,1,0,0:0:0:0:
256,192,75241,1,0,0:0:0:0:
256,192,75330,1,8,0:0:0:0:
256,192,75418,1,8,0:0:0:0:
256,192,75506,1,0,0:0:0:0:
256,192,75683,1,8,0:0:0:0:
256,192,75859,1,8,0:0:0:0:
256,192,75947,1,0,0:0:0:0:
256,192,76036,1,8,0:0:0:0:
256,192,76212,1,0,0:0:0:0:
256,192,76388,1,8,0:0:0:0:
256,192,76477,1,8,0:0:0:0:
256,192,76565,1,0,0:0:0:0:
256,192,76653,1,0,0:0:0:0:
256,192,76741,1,8,0:0:0:0:
256,192,76918,1,0,0:0:0:0:
256,192,77094,1,8,0:0:0:0:
256,192,77183,1,0,0:0:0:0:
256,192,77359,1,0,0:0:0:0:
256,192,77447,1,8,0:0:0:0:
256,192,77536,1,8,0:0:0:0:
256,192,77624,1,0,0:0:0:0:
256,192,77800,1,8,0:0:0:0:
256,192,77977,1,8,0:0:0:0:
256,192,78065,1,8,0:0:0:0:
256,192,78153,1,0,0:0:0:0:
256,192,78330,1,8,0:0:0:0:
256,192,78506,1,0,0:0:0:0:
256,192,78594,1,0,0:0:0:0:
256,192,78683,1,8,0:0:0:0:
256,192,78771,1,8,0:0:0:0:
256,192,78859,1,0,0:0:0:0:
256,192,79036,1,12,0:0:0:0:
256,192,79212,1,0,0:0:0:0:
256,192,79300,1,0,0:0:0:0:
256,192,79477,1,8,0:0:0:0:
256,192,79565,1,0,0:0:0:0:
256,192,79741,1,12,0:0:0:0:
256,192,79918,1,8,0:0:0:0:
256,192,80006,1,8,0:0:0:0:
256,192,80183,1,0,0:0:0:0:
256,192,80271,1,8,0:0:0:0:
256,192,80447,1,4,0:0:0:0:
256,192,80624,1,8,0:0:0:0:
256,192,80800,1,0,0:0:0:0:
256,192,80888,1,0,0:0:0:0:
256,192,80977,1,8,0:0:0:0:
256,192,81065,1,8,0:0:0:0:
256,192,81153,1,0,0:0:0:0:
256,192,81330,1,8,0:0:0:0:
256,192,81506,1,8,0:0:0:0:
256,192,81594,1,0,0:0:0:0:
256,192,81683,1,8,0:0:0:0:
256,192,81859,1,0,0:0:0:0:
256,192,82036,1,8,0:0:0:0:
256,192,82124,1,8,0:0:0:0:
256,192,82212,1,0,0:0:0:0:
256,192,82300,1,0,0:0:0:0:
256,192,82388,1,8,0:0:0:0:
256,192,82565,1,0,0:0:0:0:
256,192,82741,1,8,0:0:0:0:
256,192,82830,1,0,0:0:0:0:
256,192,83006,1,0,0:0:0:0:
256,192,83094,1,8,0:0:0:0:
256,192,83183,1,8,0:0:0:0:
256,192,83271,1,0,0:0:0:0:
256,192,83447,1,8,0:0:0:0:
256,192,83624,1,8,0:0:0:0:
256,192,83712,1,8,0:0:0:0:
256,192,83800,1,0,0:0:0:0:
256,192,83977,1,8,0:0:0:0:
256,192,84153,1,0,0:0:0:0:
256,192,84241,1,0,0:0:0:0:
256,192,84330,1,8,0:0:0:0:
256,192,84418,1,8,0:0:0:0:
256,192,84506,1,0,0:0:0:0:
256,192,84683,1,12,0:0:0:0:
256,192,84859,1,0,0:0:0:0:
256,192,84947,1,0,0:0:0:0:
256,192,85124,1,8,0:0:0:0:
256,192,85212,1,0,0:0:0:0:
256,192,85388,1,12,0:0:0:0:
256,192,85565,1,8,0:0:0:0:
256,192,85653,1,8,0:0:0:0:
256,192,85830,1,0,0:0:0:0:
256,192,85918,1,8,0:0:0:0:
