osu file format v14

[General]
AudioFilename: 04 .mp3
AudioLeadIn: 0
PreviewTime: 58773
Countdown: 0
SampleSet: None
StackLeniency: 0.7
Mode: 0
LetterboxInBreaks: 1
WidescreenStoryboard: 1

[Editor]
Bookmarks: 425,5758,16424,17758,28424,39091,53491,58939,80273,84272,100272,113872,119583,124916,135583,149983,155437,160770,166103,187436,195436,198116
DistanceSpacing: 4.8
BeatDivisor: 4
GridSize: 4
TimelineZoom: 1.4

[Metadata]
Title:Kakuyaku no Fushichou
TitleUnicode:赫奕の不死鳥
Artist:Denkishiki Karen Ongaku Shuudan
ArtistUnicode:電気式華憐音楽集団
Creator:Cryptic
Version:Extreme
Source:
Tags:Carnaval The Abyss DenKare
BeatmapID:1527860
BeatmapSetID:723711

[Difficulty]
HPDrainRate:6.5
CircleSize:3.5
OverallDifficulty:9.5
ApproachRate:9.5
SliderMultiplier:1.8
SliderTickRate:1

[Events]
//Background and Video events
0,0,"phoenixadjust.jpg",0,0
//Break Periods
//Storyboard Layer 0 (Background)
//Storyboard Layer 1 (Fail)
//Storyboard Layer 2 (Pass)
//Storyboard Layer 3 (Foreground)
//Storyboard Sound Samples

[TimingPoints]
425,333.333333333333,4,3,0,65,1,0
425,-80,4,3,0,65,0,0
674,-80,4,3,0,5,0,0
758,-200,4,3,0,65,0,0
2924,-80,4,3,0,65,0,0
3258,-80,4,3,0,5,0,0
3341,-80,4,3,0,65,0,0
3508,-80,4,3,0,5,0,0
3591,-80,4,3,0,65,0,0
5758,-66.6666666666667,4,3,0,65,0,0
17758,-100,4,3,0,65,0,0
28424,-80,4,3,0,65,0,0
39091,400,4,3,0,65,1,0
39091,-200,4,3,0,65,0,0
40691,-100,4,3,0,65,0,0
47791,-100,4,3,0,5,0,0
47891,-100,4,3,0,65,0,0
52891,342.857142857143,4,3,0,65,1,0
53491,352.941176470588,4,3,0,65,1,0
54902,342.857142857143,4,3,0,65,1,0
56273,333.333333333333,4,3,0,65,1,0
58939,-50,4,3,0,65,0,1
80272,-66.6666666666667,4,3,0,65,0,1
84272,-133.333333333333,4,3,0,65,0,0
86272,-400,4,3,0,65,0,0
86522,-400,4,3,0,5,0,0
86606,-133.333333333333,4,3,0,65,0,0
89606,-100,4,3,0,65,0,0
90772,-100,4,3,0,5,0,0
90856,-100,4,3,0,65,0,0
91606,-151.515151515152,4,3,0,65,0,0
91856,-151.515151515152,4,3,0,5,0,0
91939,-100,4,3,0,65,0,0
93439,-100,4,3,0,5,0,0
93522,-100,4,3,0,65,0,0
96106,-100,4,3,0,5,0,0
96189,-100,4,3,0,65,0,0
96939,-151.515151515152,4,3,0,65,0,0
97189,-151.515151515152,4,3,0,5,0,0
97272,-100,4,3,0,65,0,0
98772,-100,4,3,0,5,0,0
98856,-100,4,3,0,65,0,0
100189,-100,4,3,0,5,0,0
100272,400,4,3,0,65,1,0
100272,-66.6666666666667,4,3,0,65,0,0
100622,-66.6666666666667,4,3,0,5,0,0
100672,-57.1428571428571,4,3,0,65,0,0
100972,-57.1428571428571,4,3,0,5,0,0
101072,400,4,3,0,65,1,0
101072,-57.1428571428571,4,3,0,65,0,1
103772,-57.1428571428571,4,3,0,5,0,1
103872,-57.1428571428571,4,3,0,65,0,1
105372,-57.1428571428571,4,3,0,5,0,1
105472,-57.1428571428571,4,3,0,65,0,1
105672,-57.1428571428571,4,3,0,5,0,1
105772,-57.1428571428571,4,3,0,65,0,1
113872,400,3,3,0,65,1,0
114472,387.096774193548,3,3,0,65,1,0
115052,375,3,3,0,65,1,0
115614,363.636363636364,3,3,0,65,1,0
116159,375,3,3,0,65,1,0
116721,352.941176470588,3,3,0,65,1,0
117250,342.857142857143,3,3,0,65,1,0
118278,333.333333333333,4,3,0,65,1,0
119278,324.324324324324,4,3,0,65,1,0
119583,333.333333333333,4,3,0,65,1,0
119583,-100,4,3,0,65,0,0
122249,-66.6666666666667,4,3,0,65,0,0
122666,-66.6666666666667,4,3,0,5,0,0
122749,-66.6666666666667,4,3,0,65,0,0
122833,-66.6666666666667,4,3,0,5,0,0
122916,-66.6666666666667,4,3,0,65,0,0
124416,-66.6666666666667,4,3,0,5,0,0
124499,-66.6666666666667,4,3,0,65,0,0
124666,-66.6666666666667,4,3,0,5,0,0
124749,-66.6666666666667,4,3,0,65,0,0
124833,-66.6666666666667,4,3,0,5,0,0
124916,-66.6666666666667,4,3,0,65,0,0
135583,400,4,3,0,65,1,0
135583,-200,4,3,0,65,0,0
137183,-100,4,3,0,65,0,0
144283,-100,4,3,0,5,0,0
144383,-100,4,3,0,65,0,0
149983,352.941176470588,4,3,0,65,1,0
151394,348.837209302326,4,3,0,65,1,0
152789,340.909090909091,4,3,0,65,1,0
153470,327.868852459016,4,3,0,65,1,0
154125,327.868852459016,4,3,0,65,1,0
155437,333.333333333333,4,3,0,65,1,0
166103,-100,4,3,0,65,0,1
195437,352.941176470588,4,3,0,65,1,0
196495,324.324324324324,4,3,0,65,1,0

[Colours]
Combo1 : 94,31,243
Combo2 : 202,0,95
Combo3 : 0,145,145
Combo4 : 234,76,0

[HitObjects]
126,51,425,6,0,B|139:104|139:104|107:222,1,168.75,0|0,0:3|0:3,0:3:0:0:
86,299,758,5,0,0:0:0:0:
175,277,924,1,0,0:0:0:0:
23,235,1091,2,0,L|-12:225,3,22.5
47,147,1424,2,0,L|12:137,3,22.5
175,277,1758,6,0,L|220:265,1,45
239,271,2008,1,0,0:0:0:0:
239,271,2091,1,0,0:0:0:0:
172,371,2258,2,0,L|217:359,1,45
237,365,2508,1,0,0:0:0:0:
237,365,2591,1,0,0:0:0:0:
175,277,2758,1,0,0:0:0:0:
349,300,2924,5,0,0:0:0:0:
360,259,3007,1,0,0:0:0:0:
371,218,3091,2,0,L|260:248,1,112.5
311,48,3341,2,0,L|392:129,1,112.5
194,186,3591,2,0,B|238:23|238:23|75:67,1,337.5
349,300,4424,6,0,L|364:245,1,56.25
479,189,4591,5,0,0:0:0:0:
425,204,4674,1,0,0:0:0:0:
371,218,4757,1,0,0:0:0:0:
316,233,4840,1,0,0:0:0:0:
262,247,4924,1,0,0:0:0:0:
208,261,5008,1,0,0:0:0:0:
127,239,5091,6,0,L|111:185,1,56.25
2,40,5258,5,0,0:0:0:0:
69,57,5341,1,0,0:0:0:0:
137,75,5424,1,0,0:0:0:0:
205,93,5507,1,0,0:0:0:0:
214,103,5591,1,0,0:0:0:0:
76,315,5758,6,0,L|111:185,1,135.000005149842
95,175,6008,5,0,0:0:0:0:
208,261,6091,1,0,0:0:0:0:
277,0,6258,5,0,0:0:0:0:
204,274,6424,1,0,0:0:0:0:
350,244,6591,1,0,0:0:0:0:
496,274,6758,2,0,L|458:134,1,135.000005149842
477,134,7008,5,0,0:0:0:0:
330,103,7091,1,0,0:0:0:0:
369,384,7258,5,0,0:0:0:0:
418,51,7424,1,0,0:0:0:0:
106,176,7591,1,0,0:3:0:0:
350,244,7758,5,0,0:0:0:0:
340,173,7841,1,0,0:0:0:0:
330,103,7924,1,0,0:0:0:0:
320,32,8008,1,0,0:0:0:0:
226,70,8091,5,0,0:0:0:0:
230,105,8174,1,0,0:0:0:0:
235,140,8257,1,0,0:0:0:0:
240,176,8341,1,0,0:0:0:0:
245,211,8424,6,0,L|210:341,1,135.000005149842
226,351,8674,5,0,0:0:0:0:
113,265,8757,1,0,0:0:0:0:
373,195,8924,5,0,0:0:0:0:
98,268,9091,1,0,0:0:0:0:
168,134,9258,1,0,0:3:0:0:
97,0,9425,5,0,0:0:0:0:
106,32,9508,1,0,0:0:0:0:
115,65,9591,1,0,0:0:0:0:
124,97,9675,1,0,0:0:0:0:
50,138,9758,1,0,0:0:0:0:
41,171,9841,1,0,0:0:0:0:
32,203,9924,5,0,0:0:0:0:
18,251,10007,1,0,0:0:0:0:
62,324,10091,1,0,0:0:0:0:
110,310,10174,1,0,0:0:0:0:
159,297,10257,1,0,0:0:0:0:
208,284,10341,1,0,0:0:0:0:
282,325,10424,6,0,L|200:303,1,67.5000025749208
418,51,10591,1,0,0:0:0:0:
418,51,10674,2,0,L|439:132,1,67.5000025749208
113,71,10841,1,0,0:0:0:0:
113,71,10924,2,0,L|172:11,1,67.5000025749208
509,384,11424,5,0,0:0:0:0:
476,375,11507,1,0,0:0:0:0:
443,366,11590,1,0,0:0:0:0:
411,357,11674,1,0,0:0:0:0:
282,325,11757,5,0,0:0:0:0:
466,245,11924,1,0,0:0:0:0:
307,223,12091,2,0,L|269:83,1,135.000005149842
288,83,12341,5,0,0:0:0:0:
128,88,12424,1,0,0:0:0:0:
282,325,12591,5,0,0:0:0:0:
365,0,12758,1,0,0:0:0:0:
43,91,12924,1,0,0:0:0:0:
238,232,13091,5,0,0:3:0:0:
253,160,13174,1,0,0:3:0:0:
271,92,13257,1,0,0:3:0:0:
288,23,13341,1,0,0:3:0:0:
187,17,13424,5,0,0:0:0:0:
178,49,13507,1,0,0:0:0:0:
169,82,13590,1,0,0:0:0:0:
160,114,13674,1,0,0:0:0:0:
152,147,13758,6,0,L|-3:191,1,135.000005149842,0|0,0:3|0:3,0:3:0:0:
21,199,14008,5,0,0:0:0:0:
58,62,14091,1,0,0:0:0:0:
127,322,14258,5,0,0:0:0:0:
54,49,14424,1,0,0:0:0:0:
195,25,14591,1,0,0:0:0:0:
286,135,14758,5,0,0:0:0:0:
318,143,14841,1,0,0:0:0:0:
351,152,14924,1,0,0:0:0:0:
383,161,15008,1,0,0:0:0:0:
425,234,15090,1,0,0:0:0:0:
417,266,15174,1,0,0:0:0:0:
409,298,15258,5,0,0:0:0:0:
395,346,15341,1,0,0:0:0:0:
319,384,15424,1,0,0:0:0:0:
270,370,15507,1,0,0:0:0:0:
221,357,15590,1,0,0:0:0:0:
172,344,15674,1,0,0:0:0:0:
96,382,15758,6,0,L|171:361,1,67.5000025749208
54,49,15924,1,0,0:0:0:0:
54,49,16008,2,0,L|33:124,1,67.5000025749208
364,180,16174,1,0,0:0:0:0:
364,180,16258,2,0,L|308:124,1,67.5000025749208
109,302,16424,6,0,L|240:337,1,135.000005149842,0|0,0:3|0:3,0:3:0:0:
116,101,16674,1,0,0:0:0:0:
116,101,16758,2,0,L|20:196,1,135.000005149842,0|0,0:3|0:3,0:3:0:0:
287,208,17008,1,0,0:0:0:0:
287,208,17091,2,0,L|252:77,1,135.000005149842,0|0,0:3|0:3,0:3:0:0:
171,203,17341,1,0,0:0:0:0:
171,203,17424,1,0,0:0:0:0:
365,284,17592,5,0,0:0:0:0:
376,244,17675,1,0,0:0:0:0:
387,203,17758,2,0,L|373:151,2,45
452,114,18008,2,0,L|465:62,2,45
340,28,18258,2,0,L|353:79,1,45
496,214,18424,6,0,L|482:265,3,45
490,279,18758,1,0,0:0:0:0:
495,300,18841,1,0,0:0:0:0:
500,321,18924,2,0,L|486:372,1,45
343,365,19091,6,0,L|292:351,3,45
278,359,19425,1,0,0:0:0:0:
257,364,19508,1,0,0:0:0:0:
236,369,19591,2,0,L|185:355,1,45
192,212,19758,6,0,L|206:161,3,45
198,147,20092,1,0,0:0:0:0:
193,126,20175,1,0,0:0:0:0:
188,105,20258,2,0,L|239:119,1,45
387,203,20424,6,0,L|373:151,2,45
452,114,20674,2,0,L|465:62,2,45
340,28,20924,2,0,L|353:79,1,45
496,214,21091,6,0,L|482:265,3,45
490,279,21425,1,0,0:0:0:0:
495,300,21508,1,0,0:0:0:0:
500,321,21591,2,0,L|486:372,1,45
452,114,21758,6,0,L|400:100,1,45
256,237,21924,2,0,L|307:223,1,45
449,103,22091,6,0,L|397:89,1,45
253,248,22258,2,0,L|304:234,1,45
111,38,22424,6,0,L|95:96,1,45
376,200,22591,2,0,L|360:141,1,45
100,41,22758,6,0,L|86:92,1,45
387,203,22924,2,0,L|371:144,1,45
64,172,23091,6,0,L|50:224,2,45
129,261,23341,2,0,L|142:313,2,45
17,347,23591,2,0,L|30:296,1,45
174,161,23758,6,0,L|220:148,3,45,0|0|0|0,0:3|0:3|0:3|0:3,0:3:0:0:
222,127,24092,1,0,0:0:0:0:
228,105,24175,1,0,0:0:0:0:
234,83,24258,2,0,L|176:97,1,45
386,62,24424,6,0,L|373:108,3,45,0|0|0|0,0:3|0:3|0:3|0:3,0:3:0:0:
392,120,24758,1,0,0:3:0:0:
408,137,24841,1,0,0:3:0:0:
424,153,24924,2,0,L|440:96,1,45,0|0,0:3|0:3,0:3:0:0:
366,295,25091,6,0,L|332:261,3,45,0|0|0|0,0:3|0:3|0:3|0:3,0:3:0:0:
313,270,25425,1,0,0:0:0:0:
292,276,25508,1,0,0:0:0:0:
270,282,25591,2,0,L|228:239,1,45
64,172,25758,6,0,L|50:224,2,45
129,261,26008,2,0,L|142:313,2,45
17,347,26258,2,0,L|30:296,1,45
174,161,26424,6,0,L|220:148,3,45,0|0|0|0,0:3|0:3|0:3|0:3,0:3:0:0:
222,127,26758,1,0,0:0:0:0:
228,105,26841,1,0,0:0:0:0:
234,83,26924,2,0,L|176:97,1,45
313,270,27091,6,0,L|329:212,1,45
48,108,27258,2,0,L|64:167,1,45
324,267,27425,6,0,L|338:216,1,45
37,105,27591,2,0,L|53:164,1,45
366,115,27758,5,0,0:0:0:0:
311,129,27842,1,0,0:0:0:0:
257,144,27925,1,0,0:0:0:0:
203,158,28008,1,0,0:0:0:0:
148,173,28091,5,0,0:0:0:0:
224,193,28174,1,0,0:0:0:0:
300,213,28257,1,0,0:0:0:0:
376,234,28340,1,0,0:0:0:0:
452,254,28424,6,0,L|482:367,1,112.5
454,240,28674,2,0,L|483:132,1,112.5
452,10,28924,1,0,0:0:0:0:
452,254,29091,5,0,0:0:0:0:
438,257,29174,1,0,0:0:0:0:
424,261,29257,1,0,0:0:0:0:
411,264,29340,1,0,0:0:0:0:
397,268,29424,1,0,0:0:0:0:
342,253,29508,1,0,0:0:0:0:
288,238,29591,1,0,0:0:0:0:
274,241,29675,1,0,0:0:0:0:
260,245,29758,6,0,L|379:277,1,112.5
389,355,30008,1,0,0:0:0:0:
375,359,30092,1,0,0:0:0:0:
320,344,30174,1,0,0:0:0:0:
266,329,30258,2,0,L|146:361,1,112.5
170,271,30508,1,0,0:0:0:0:
184,267,30591,2,0,L|162:347,1,56.25,0|0,0:3|0:3,0:3:0:0:
2,245,30758,1,0,0:0:0:0:
57,230,30842,1,0,0:0:0:0:
111,215,30924,2,0,L|128:149,1,56.25
0,12,31091,6,0,L|29:120,1,112.5
89,19,31341,2,0,L|118:127,1,112.5
178,26,31591,1,0,0:0:0:0:
57,230,31758,5,0,0:0:0:0:
71,233,31841,1,0,0:0:0:0:
85,237,31924,1,0,0:0:0:0:
98,240,32007,1,0,0:0:0:0:
112,244,32091,1,0,0:0:0:0:
167,229,32175,1,0,0:0:0:0:
221,214,32258,1,0,0:0:0:0:
235,217,32342,1,0,0:0:0:0:
249,221,32424,6,0,L|173:241,1,56.25
267,33,32591,2,0,L|322:88,1,56.25
96,112,32758,1,0,0:0:0:0:
110,57,32841,1,0,0:0:0:0:
124,2,32924,2,0,L|66:17,1,56.25
18,283,33091,5,0,0:0:0:0:
85,264,33174,1,0,0:0:0:0:
153,246,33257,1,0,0:0:0:0:
221,228,33341,1,0,0:0:0:0:
289,210,33425,5,0,0:0:0:0:
329,221,33508,1,0,0:0:0:0:
370,232,33591,1,0,0:0:0:0:
411,243,33675,1,0,0:0:0:0:
452,254,33758,6,0,L|482:367,1,112.5
454,240,34008,2,0,L|483:132,1,112.5
452,10,34258,1,0,0:0:0:0:
452,254,34425,5,0,0:0:0:0:
438,257,34508,1,0,0:0:0:0:
424,261,34591,1,0,0:0:0:0:
411,264,34674,1,0,0:0:0:0:
397,268,34758,1,0,0:0:0:0:
342,253,34842,1,0,0:0:0:0:
288,238,34925,1,0,0:0:0:0:
274,241,35009,1,0,0:0:0:0:
260,245,35092,6,0,L|379:277,1,112.5
389,355,35342,1,0,0:0:0:0:
375,359,35424,1,0,0:0:0:0:
320,344,35508,1,0,0:0:0:0:
266,329,35592,2,0,L|146:361,1,112.5
170,271,35842,1,0,0:0:0:0:
184,267,35925,2,0,L|162:347,1,56.25,0|0,0:3|0:3,0:3:0:0:
2,245,36092,1,0,0:0:0:0:
57,230,36174,1,0,0:0:0:0:
111,215,36258,2,0,L|128:149,1,56.25
0,12,36425,6,0,L|29:120,1,112.5
89,19,36675,2,0,L|118:127,1,112.5
178,26,36925,1,0,0:0:0:0:
57,230,37092,5,0,0:0:0:0:
71,233,37175,1,0,0:0:0:0:
85,237,37258,1,0,0:0:0:0:
98,240,37341,1,0,0:0:0:0:
112,244,37425,1,0,0:0:0:0:
167,229,37509,1,0,0:0:0:0:
221,214,37592,1,0,0:0:0:0:
235,217,37674,1,0,0:0:0:0:
249,221,37758,5,0,0:0:0:0:
194,235,37841,1,0,0:0:0:0:
140,250,37924,1,0,0:0:0:0:
86,264,38008,1,0,0:0:0:0:
31,279,38091,1,0,0:0:0:0:
46,224,38174,1,0,0:0:0:0:
60,170,38257,1,0,0:0:0:0:
75,116,38341,1,0,0:0:0:0:
89,61,38424,6,0,L|161:42,1,56.25
215,316,38591,1,0,0:0:0:0:
282,334,38674,1,0,0:0:0:0:
350,352,38758,5,0,0:0:0:0:
342,324,38841,1,0,0:0:0:0:
335,297,38924,1,0,0:0:0:0:
328,270,39008,1,0,0:0:0:0:
331,256,39091,6,0,L|358:358,1,90
482,296,39891,2,0,L|416:278,2,67.5
485,310,40691,5,0,0:0:0:0:
30,188,40991,1,0,0:0:0:0:
485,66,41291,1,0,0:0:0:0:
354,343,41491,5,0,0:0:0:0:
331,255,41591,1,0,0:0:0:0:
308,168,41691,1,0,0:0:0:0:
285,80,41791,1,0,0:0:0:0:
291,57,41991,5,0,0:0:0:0:
245,232,42091,1,0,0:3:0:0:
396,191,42291,5,0,0:0:0:0:
308,168,42391,1,0,0:0:0:0:
221,145,42491,1,0,0:0:0:0:
133,122,42591,1,0,0:0:0:0:
45,145,42691,1,0,0:0:0:0:
24,151,42891,1,0,0:0:0:0:
285,80,43091,5,0,0:0:0:0:
245,232,43291,5,0,0:3:0:0:
199,57,43391,1,0,0:0:0:0:
157,209,43591,5,0,0:3:0:0:
111,34,43691,1,0,0:0:0:0:
23,255,43891,5,0,0:0:0:0:
478,133,44191,1,0,0:0:0:0:
23,11,44491,1,0,0:0:0:0:
134,297,44691,5,0,0:0:0:0:
157,209,44791,1,0,0:0:0:0:
180,122,44891,1,0,0:0:0:0:
203,34,44991,1,0,0:0:0:0:
197,10,45191,5,0,0:0:0:0:
243,185,45291,1,0,0:0:0:0:
92,145,45491,5,0,0:0:0:0:
180,122,45591,1,0,0:0:0:0:
267,99,45691,1,0,0:0:0:0:
355,76,45791,1,0,0:0:0:0:
443,99,45891,1,0,0:0:0:0:
464,105,46091,1,0,0:0:0:0:
203,34,46291,5,0,0:0:0:0:
243,185,46491,5,0,0:0:0:0:
289,10,46591,1,0,0:0:0:0:
309,251,46791,5,0,0:0:0:0:
355,76,46891,1,0,0:0:0:0:
375,317,47091,5,0,0:0:0:0:
157,209,47224,5,0,0:0:0:0:
461,293,47357,5,0,0:0:0:0:
35,363,47491,6,0,L|71:233,1,135,0|0,0:3|0:3,0:3:0:0:
71,232,47891,5,0,0:0:0:0:
157,209,47991,1,0,0:0:0:0:
243,185,48091,1,0,0:0:0:0:
331,163,48191,1,0,0:0:0:0:
354,168,48391,5,0,0:0:0:0:
180,122,48491,1,0,0:0:0:0:
221,273,48691,5,0,0:0:0:0:
243,185,48791,1,0,0:0:0:0:
267,99,48891,1,0,0:0:0:0:
289,10,48991,1,0,0:0:0:0:
355,76,49091,1,0,0:0:0:0:
378,81,49291,1,0,0:0:0:0:
115,15,49491,5,0,0:0:0:0:
157,209,49691,5,0,0:0:0:0:
203,35,49791,1,0,0:0:0:0:
243,185,49991,5,0,0:0:0:0:
289,11,50091,1,0,0:0:0:0:
51,77,50291,5,0,0:0:0:0:
506,199,50591,1,0,0:0:0:0:
51,321,50891,1,0,0:0:0:0:
203,35,51091,5,0,0:0:0:0:
226,121,51191,1,0,0:0:0:0:
250,207,51291,1,0,0:0:0:0:
272,295,51391,1,0,0:0:0:0:
267,318,51591,5,0,0:0:0:0:
313,144,51691,1,0,0:0:0:0:
162,185,51891,5,0,0:0:0:0:
250,207,51991,1,0,0:0:0:0:
336,231,52091,1,0,0:0:0:0:
425,253,52191,1,0,0:0:0:0:
359,319,52291,1,0,0:0:0:0:
354,342,52491,1,0,0:0:0:0:
441,16,52691,5,0,0:0:0:0:
399,168,52891,5,0,0:0:0:0:
369,175,52976,1,0,0:0:0:0:
339,183,53062,1,0,0:0:0:0:
310,191,53148,1,0,0:0:0:0:
280,198,53233,1,0,0:0:0:0:
250,207,53319,1,0,0:0:0:0:
139,98,53491,5,0,0:0:0:0:
101,249,53667,1,0,0:0:0:0:
106,227,53755,2,0,L|164:211,1,45,0|0,0:3|0:3,0:3:0:0:
216,312,53932,1,0,0:0:0:0:
173,301,54020,1,0,0:0:0:0:
12,258,54196,5,0,0:0:0:0:
209,219,54373,1,0,0:0:0:0:
193,203,54461,2,0,L|149:214,1,45,0|0,0:3|0:3,0:3:0:0:
162,344,54638,1,0,0:0:0:0:
173,301,54726,1,0,0:0:0:0:
139,98,54902,5,0,0:0:0:0:
101,249,55073,1,0,0:0:0:0:
106,227,55159,2,0,L|164:211,1,45,0|0,0:3|0:3,0:3:0:0:
216,312,55330,1,0,0:0:0:0:
173,301,55416,1,0,0:0:0:0:
12,258,55587,5,0,0:0:0:0:
209,219,55759,1,0,0:0:0:0:
193,203,55844,2,0,L|149:214,1,45,0|0,0:3|0:3,0:3:0:0:
162,344,56016,1,0,0:0:0:0:
173,301,56102,1,0,0:0:0:0:
139,98,56273,5,0,0:0:0:0:
101,249,56439,1,0,0:0:0:0:
106,227,56523,2,0,L|164:211,1,45,0|0,0:3|0:3,0:3:0:0:
216,312,56689,1,0,0:0:0:0:
173,301,56773,1,0,0:0:0:0:
12,258,56939,5,0,0:0:0:0:
20,225,57022,1,0,0:0:0:0:
29,192,57105,1,0,0:0:0:0:
38,160,57189,1,0,0:0:0:0:
14,73,57273,5,0,0:0:0:0:
19,51,57356,1,0,0:0:0:0:
25,29,57439,1,0,0:0:0:0:
31,7,57523,1,0,0:0:0:0:
101,95,57606,5,0,0:0:0:0:
101,95,58606,5,0,0:0:0:0:
101,95,58690,1,0,0:0:0:0:
123,90,58773,1,0,0:0:0:0:
12,258,58939,6,0,B|98:281|98:281|71:183,1,180
28,340,59189,1,0,0:0:0:0:
37,343,59273,2,0,B|168:378|168:378|221:365,1,180
217,127,59606,2,0,L|170:300,1,180
275,278,59856,1,0,0:0:0:0:
267,271,59939,2,0,B|204:208|204:208|181:296,1,180,0|0,0:3|0:0,0:0:0:0:
408,306,60272,6,0,B|281:179,1,180,0|0,0:3|0:3,0:3:0:0:
153,51,60606,1,0,0:0:0:0:
37,343,60772,2,0,B|168:378|168:378|211:367,1,180
59,190,61106,2,0,B|83:278|83:278|172:301,1,180,0|0,0:3|0:3,0:3:0:0:
326,26,61439,6,0,B|282:15|282:15|151:50,1,180
37,343,61772,2,0,B|168:378|168:378|211:367,1,180
299,186,62106,1,0,0:0:0:0:
289,188,62189,1,0,0:0:0:0:
280,190,62272,2,0,B|192:214|192:214|169:303,1,180,0|0,0:3|0:3,0:3:0:0:
430,230,62606,1,0,0:0:0:0:
151,50,62772,1,0,0:0:0:0:
256,278,62939,6,0,L|310:74,1,180
42,174,63272,1,0,0:0:0:0:
245,279,63439,2,0,B|268:190|268:190|202:126,1,180,0|0,0:3|0:3,0:3:0:0:
37,343,63772,2,0,B|168:378|168:378|211:367,1,180
384,320,64106,5,0,0:0:0:0:
372,276,64189,1,0,0:0:0:0:
360,233,64272,1,0,0:0:0:0:
313,58,64439,1,0,0:0:0:0:
486,105,64606,1,0,0:0:0:0:
269,164,64772,1,0,0:3:0:0:
499,101,64939,5,0,0:0:0:0:
309,45,65106,1,0,0:0:0:0:
364,30,65189,1,0,0:0:0:0:
418,15,65272,1,0,0:0:0:0:
360,233,65439,1,0,0:0:0:0:
512,97,65606,5,0,0:0:0:0:
304,31,65772,1,0,0:0:0:0:
363,16,65855,1,0,0:0:0:0:
422,2,65939,1,0,0:0:0:0:
357,247,66106,1,0,0:0:0:0:
471,218,66272,5,0,0:3:0:0:
269,164,66439,1,0,0:0:0:0:
324,366,66606,1,0,0:3:0:0:
390,128,66772,1,0,0:0:0:0:
445,330,66939,5,0,0:0:0:0:
243,276,67106,1,0,0:0:0:0:
471,218,67272,1,0,0:0:0:0:
269,164,67439,1,0,0:0:0:0:
484,222,67606,5,0,0:0:0:0:
239,289,67772,1,0,0:0:0:0:
282,327,67855,1,0,0:0:0:0:
324,366,67939,1,0,0:0:0:0:
269,164,68106,1,0,0:0:0:0:
497,226,68272,5,0,0:0:0:0:
235,302,68439,1,0,0:0:0:0:
278,340,68522,1,0,0:0:0:0:
320,379,68606,1,0,0:0:0:0:
265,151,68772,1,0,0:0:0:0:
422,2,68939,5,0,0:0:0:0:
354,261,69106,1,0,0:0:0:0:
163,72,69273,1,0,0:0:0:0:
119,84,69356,1,0,0:0:0:0:
76,96,69439,1,0,0:0:0:0:
235,302,69606,6,0,B|212:213|212:213|123:189,1,180,0|0,0:3|0:3,0:3:0:0:
79,337,69856,1,0,0:0:0:0:
88,339,69939,2,0,B|174:362|174:362|147:264,1,180
79,10,70272,2,0,B|68:53|68:53|103:184,1,180
189,128,70522,1,0,0:0:0:0:
178,125,70605,2,0,B|91:101|91:101|116:189,1,180,0|0,0:3|0:0,0:0:0:0:
325,86,70939,6,0,L|151:39,1,180,0|0,0:3|0:3,0:3:0:0:
10,146,71272,1,0,0:0:0:0:
261,146,71439,2,0,B|130:111|130:111|87:122,1,180
235,302,71773,2,0,B|211:214|211:214|121:188,1,180,0|0,0:3|0:3,0:3:0:0:
405,278,72106,6,0,B|416:235|416:235|381:104,1,180
79,10,72439,2,0,B|68:53|68:53|103:184,1,180
241,321,72772,1,0,0:0:0:0:
238,311,72856,1,0,0:0:0:0:
235,302,72939,2,0,B|211:214|211:214|124:189,1,180,0|0,0:3|0:3,0:3:0:0:
178,384,73272,1,0,0:0:0:0:
236,59,73439,1,0,0:0:0:0:
15,150,73606,6,0,L|64:334,1,180,0|0,0:3|0:3,0:3:0:0:
321,253,73939,1,0,0:0:0:0:
95,98,74106,2,0,B|30:162|30:162|52:250,1,180,0|0,0:3|0:3,0:3:0:0:
235,302,74439,2,0,B|211:214|211:214|124:189,1,180,0|0,0:3|0:3,0:3:0:0:
384,320,74772,5,0,0:0:0:0:
372,276,74855,1,0,0:0:0:0:
360,233,74938,1,0,0:0:0:0:
313,58,75105,1,0,0:0:0:0:
486,105,75272,1,0,0:0:0:0:
269,164,75438,1,0,0:3:0:0:
499,101,75605,5,0,0:0:0:0:
309,45,75772,1,0,0:0:0:0:
364,30,75856,1,0,0:0:0:0:
418,15,75938,1,0,0:0:0:0:
360,233,76105,1,0,0:0:0:0:
512,97,76272,5,0,0:0:0:0:
304,31,76439,1,0,0:0:0:0:
363,16,76522,1,0,0:0:0:0:
422,2,76605,1,0,0:0:0:0:
357,247,76772,1,0,0:0:0:0:
471,218,76938,5,0,0:3:0:0:
269,164,77105,1,0,0:0:0:0:
324,366,77272,1,0,0:3:0:0:
390,128,77438,1,0,0:0:0:0:
445,330,77605,5,0,0:0:0:0:
243,276,77772,1,0,0:0:0:0:
471,218,77938,1,0,0:0:0:0:
269,164,78105,1,0,0:0:0:0:
484,222,78272,5,0,0:0:0:0:
239,289,78439,1,0,0:0:0:0:
282,327,78522,1,0,0:0:0:0:
324,366,78605,1,0,0:0:0:0:
269,164,78772,1,0,0:0:0:0:
497,226,78938,5,0,0:0:0:0:
235,302,79106,1,0,0:0:0:0:
304,31,79272,1,0,0:0:0:0:
357,247,79439,1,0,0:0:0:0:
148,200,79606,5,0,0:0:0:0:
422,2,79772,1,0,0:0:0:0:
445,330,79939,1,0,0:0:0:0:
269,164,80106,5,0,0:0:0:0:
312,152,80189,1,0,0:0:0:0:
355,140,80272,2,0,L|428:159,1,67.5000025749208
235,302,80439,1,0,0:0:0:0:
239,285,80522,1,0,0:0:0:0:
243,269,80605,1,0,0:0:0:0:
248,253,80688,1,0,0:0:0:0:
280,244,80772,6,0,L|259:320,1,67.5000025749208,0|0,0:3|0:3,0:3:0:0:
463,151,80939,1,0,0:0:0:0:
430,142,81023,1,0,0:0:0:0:
397,133,81106,1,0,0:0:0:0:
365,124,81189,1,0,0:0:0:0:
332,116,81272,6,0,L|263:134,1,67.5000025749208
477,383,81439,1,0,0:0:0:0:
465,337,81522,1,0,0:0:0:0:
452,292,81605,1,0,0:0:0:0:
440,246,81688,1,0,0:0:0:0:
394,234,81772,6,0,L|410:299,1,67.5000025749208
259,119,81939,1,0,0:0:0:0:
314,104,82022,1,0,0:0:0:0:
369,89,82105,1,0,0:0:0:0:
425,74,82188,1,0,0:0:0:0:
480,59,82272,6,0,L|397:37,1,67.5000025749208
153,111,82439,1,0,0:0:0:0:
136,106,82523,1,0,0:0:0:0:
120,102,82606,6,0,L|203:80,1,67.5000025749208
446,156,82773,1,0,0:0:0:0:
463,151,82857,1,0,0:0:0:0:
479,147,82940,5,0,0:0:0:0:
1,321,83272,5,0,0:0:0:0:
28,327,83355,1,0,0:0:0:0:
54,334,83438,1,0,0:0:0:0:
80,341,83521,1,0,0:0:0:0:
106,348,83606,5,0,0:0:0:0:
125,343,83689,1,0,0:0:0:0:
145,338,83772,1,0,0:0:0:0:
165,333,83855,1,0,0:0:0:0:
184,328,83939,5,0,0:0:0:0:
197,331,84022,1,0,0:0:0:0:
210,334,84105,1,0,0:0:0:0:
223,338,84188,1,0,0:0:0:0:
236,341,84272,6,0,L|251:400,3,33.7500012874604,0|0|0|0,0:3|0:3|0:3|0:3,0:3:0:0:
244,374,84772,2,0,L|283:232,1,135.000005149842
279,243,85272,1,0,0:0:0:0:
198,211,85606,2,0,L|190:169,5,33.7500012874604
274,135,86272,6,0,L|281:101,1,33.75
281,102,86606,6,0,L|326:111,7,33.7500012874604
314,108,87439,2,0,L|172:147,1,135.000005149842
183,143,87939,2,0,L|222:1,1,135.000005149842
444,72,88439,5,0,0:0:0:0:
457,120,88522,1,0,0:0:0:0:
470,167,88606,1,0,0:0:0:0:
437,159,88689,1,0,0:0:0:0:
404,150,88772,1,0,0:0:0:0:
388,154,88855,1,0,0:0:0:0:
371,158,88939,1,0,0:0:0:0:
338,150,89023,1,0,0:0:0:0:
305,141,89106,1,0,0:0:0:0:
289,145,89189,1,0,0:0:0:0:
272,149,89273,1,0,0:0:0:0:
259,197,89356,1,0,0:0:0:0:
246,244,89440,1,0,0:0:0:0:
314,108,89606,5,0,0:0:0:0:
259,122,89689,1,0,0:0:0:0:
205,137,89772,1,0,0:0:0:0:
151,151,89856,2,0,L|168:89,1,45
145,174,90106,5,0,0:0:0:0:
191,0,90272,1,0,0:0:0:0:
139,196,90439,1,0,0:0:0:0:
399,126,90606,2,0,L|487:149,1,90
492,172,90856,2,0,L|435:156,1,45
334,149,91106,5,0,0:0:0:0:
388,163,91189,1,0,0:0:0:0:
442,178,91272,1,0,0:0:0:0:
497,193,91355,1,0,0:0:0:0:
35,70,91606,6,0,L|63:176,1,89.0999997280884,0|0,3:3|3:3,3:3:0:0:
64,179,91939,1,0,0:0:0:0:
35,287,92106,1,0,0:0:0:0:
224,177,92273,5,0,0:0:0:0:
279,190,92356,1,0,0:0:0:0:
333,204,92439,1,0,0:0:0:0:
387,217,92523,2,0,L|368:155,1,45
394,240,92773,5,0,0:0:0:0:
345,66,92939,1,0,0:0:0:0:
400,261,93106,1,0,0:0:0:0:
139,196,93273,2,0,L|51:220,1,90
45,243,93522,1,0,0:0:0:0:
115,282,93606,5,0,0:0:0:0:
136,277,93689,1,0,0:0:0:0:
158,271,93772,1,0,0:0:0:0:
180,265,93855,1,0,0:0:0:0:
202,271,93939,5,0,0:0:0:0:
249,97,94106,1,0,0:0:0:0:
179,362,94272,5,0,0:0:0:0:
353,315,94439,1,0,0:0:0:0:
265,335,94606,5,0,0:0:0:0:
259,313,94772,5,0,0:0:0:0:
241,248,94856,1,0,0:0:0:0:
225,183,94940,1,0,0:0:0:0:
280,169,95023,1,0,0:0:0:0:
334,154,95106,1,0,0:0:0:0:
388,140,95190,2,0,L|371:202,1,45
394,117,95440,5,0,0:0:0:0:
348,291,95606,1,0,0:0:0:0:
400,95,95773,1,0,0:0:0:0:
140,165,95940,2,0,L|52:142,1,90
47,119,96190,2,0,L|104:135,1,45
205,142,96440,5,0,0:0:0:0:
151,128,96523,1,0,0:0:0:0:
97,113,96606,1,0,0:0:0:0:
42,98,96689,1,0,0:0:0:0:
504,221,96939,6,0,L|476:115,1,89.0999997280884,0|0,3:3|3:3,3:3:0:0:
475,112,97272,1,0,0:0:0:0:
504,4,97439,1,0,0:0:0:0:
315,114,97606,5,0,0:0:0:0:
260,101,97689,1,0,0:0:0:0:
206,87,97772,1,0,0:0:0:0:
152,74,97856,2,0,L|171:136,1,45
145,51,98106,5,0,0:0:0:0:
194,225,98272,1,0,0:0:0:0:
139,30,98439,1,0,0:0:0:0:
400,95,98606,2,0,L|488:71,1,90
494,48,98856,2,0,L|431:64,1,45
257,163,99106,5,0,0:0:0:0:
270,211,99189,1,0,0:0:0:0:
283,258,99273,1,0,0:0:0:0:
250,250,99356,1,0,0:0:0:0:
217,241,99439,1,0,0:0:0:0:
201,245,99522,1,0,0:0:0:0:
184,249,99606,1,0,0:0:0:0:
151,241,99690,1,0,0:0:0:0:
118,232,99773,1,0,0:0:0:0:
102,236,99856,1,0,0:0:0:0:
85,240,99940,1,0,0:0:0:0:
72,288,100023,1,0,0:0:0:0:
59,335,100106,2,0,L|125:317,1,45,0|0,0:3|0:3,0:3:0:0:
0,277,100272,6,0,B|196:330|196:330|181:281,1,236.250009012223
186,298,100672,2,0,B|194:330|194:330|275:354|275:354|316:342|316:342|397:364,1,236.250002253056
465,382,101072,6,0,B|389:361|389:361|369:284|369:284|416:108,1,315.000003004074,0|0,0:3|0:3,0:3:0:0:
459,364,101672,1,0,0:0:0:0:
484,112,101872,2,0,B|408:132|408:132|333:111|333:111|256:132|256:132|236:213,1,315.000003004074
439,17,102472,5,0,0:0:0:0:
401,27,102572,1,0,0:0:0:0:
324,6,102672,5,0,0:0:0:0:
304,82,102772,1,0,0:0:0:0:
380,103,102872,1,0,0:0:0:0:
401,27,102972,1,0,0:0:0:0:
223,102,103072,5,0,0:0:0:0:
243,178,103172,1,0,0:0:0:0:
325,158,103272,1,0,0:0:0:0:
304,82,103372,1,0,0:0:0:0:
91,222,103472,6,0,B|243:263|243:263|320:244,1,236.250002253056,0|0,0:3|0:3,0:3:0:0:
453,319,103872,5,0,0:0:0:0:
395,303,103972,1,0,0:0:0:0:
337,319,104072,1,0,0:0:0:0:
279,335,104172,1,0,0:0:0:0:
290,250,104272,5,0,0:0:0:0:
243,263,104372,1,0,0:0:0:0:
195,249,104472,1,0,0:0:0:0:
146,234,104572,1,0,0:0:0:0:
135,319,104672,5,0,0:0:0:0:
97,330,104772,1,0,0:0:0:0:
59,320,104872,1,0,0:0:0:0:
22,311,104972,1,0,0:0:0:0:
16,202,105072,6,0,B|166:157|166:157|141:250,1,236.250002253056
142,221,105472,2,0,L|182:374,1,157.500001502037,0|0,0:3|0:3,0:3:0:0:
82,19,105872,5,0,0:0:0:0:
92,57,105972,1,0,0:0:0:0:
102,95,106072,1,0,0:0:0:0:
112,133,106172,1,0,0:0:0:0:
164,34,106272,5,0,0:0:0:0:
179,91,106372,1,0,0:0:0:0:
194,148,106472,1,0,0:0:0:0:
209,205,106572,1,0,0:0:0:0:
246,49,106672,5,0,0:3:0:0:
266,125,106772,1,0,0:3:0:0:
286,201,106872,1,0,0:3:0:0:
307,277,106972,1,0,0:3:0:0:
328,64,107072,6,0,L|492:21,1,157.500001502037
328,353,107472,6,0,L|404:373,1,78.7500007510185,0|0,0:3|0:3,0:3:0:0:
500,98,107672,1,0,0:0:0:0:
423,116,107772,2,0,L|347:136,2,78.7500007510185
61,281,108072,6,0,L|222:324,1,157.500001502037
480,24,108472,6,0,L|389:48,1,78.7500007510185
327,62,108672,1,0,0:0:0:0:
38,194,108872,5,0,0:0:0:0:
114,211,108972,1,0,0:0:0:0:
190,230,109072,1,0,0:0:0:0:
255,86,109272,6,0,L|164:110,1,78.7500007510185
102,126,109472,2,0,L|11:150,1,78.7500007510185
494,313,109672,5,0,0:0:0:0:
190,233,109872,1,0,0:0:0:0:
328,353,110072,6,0,L|404:373,1,78.7500007510185,0|0,0:3|0:3,0:3:0:0:
255,86,110272,2,0,L|295:238,1,157.500001502037
371,258,110572,5,0,0:0:0:0:
374,259,110622,1,0,0:0:0:0:
378,260,110672,1,0,0:0:0:0:
363,202,110772,1,0,0:0:0:0:
348,145,110872,1,0,0:0:0:0:
332,87,110972,1,0,0:0:0:0:
348,28,111072,5,0,0:0:0:0:
360,31,111138,1,0,0:0:0:0:
373,34,111205,2,0,L|356:99,1,52.500000500679
255,86,111338,5,0,0:0:0:0:
252,98,111404,1,0,0:0:0:0:
249,111,111472,2,0,L|270:193,1,78.7500007510185
458,218,111672,5,0,0:0:0:0:
461,230,111738,1,0,0:0:0:0:
464,243,111805,1,0,0:0:0:0:
468,256,111872,2,0,L|451:321,1,52.500000500679
429,380,112005,5,0,0:0:0:0:
416,376,112071,1,0,0:0:0:0:
404,373,112138,1,0,0:0:0:0:
391,369,112205,1,0,0:0:0:0:
378,366,112272,6,0,L|361:305,1,52.500000500679
337,213,112405,1,0,0:0:0:0:
350,216,112472,1,0,0:0:0:0:
281,269,112572,5,0,0:0:0:0:
278,270,112622,1,0,0:0:0:0:
274,271,112672,1,0,0:0:0:0:
217,255,112772,1,0,0:0:0:0:
160,239,112872,5,0,0:0:0:0:
163,252,112938,1,0,0:0:0:0:
166,265,113005,1,0,0:0:0:0:
170,277,113072,5,0,0:0:0:0:
208,288,113172,1,0,0:0:0:0:
246,298,113272,1,0,0:0:0:0:
284,308,113372,1,0,0:0:0:0:
357,289,113472,5,0,0:0:0:0:
97,361,113872,5,0,0:0:0:0:
88,328,113972,1,0,0:0:0:0:
79,295,114072,1,0,0:0:0:0:
70,263,114172,1,0,0:0:0:0:
59,260,114272,1,0,0:0:0:0:
48,257,114372,1,0,0:0:0:0:
37,253,114472,1,0,0:0:0:0:
31,232,114568,1,0,0:0:0:0:
25,210,114665,1,0,0:0:0:0:
19,188,114762,1,0,0:0:0:0:
7,184,114859,2,0,L|25:245,1,45
136,152,115052,5,0,0:0:0:0:
145,119,115145,1,0,0:0:0:0:
154,86,115239,1,0,0:0:0:0:
163,54,115333,1,0,0:0:0:0:
174,51,115427,1,0,0:0:0:0:
185,48,115520,1,0,0:0:0:0:
196,44,115614,1,0,0:0:0:0:
184,87,115704,1,0,0:0:0:0:
172,130,115795,1,0,0:0:0:0:
161,174,115886,1,0,0:0:0:0:
152,168,115977,1,0,0:3:0:0:
144,160,116068,1,0,0:3:0:0:
136,152,116159,5,0,0:3:0:0:
145,119,116252,1,0,0:0:0:0:
154,86,116346,1,0,0:0:0:0:
163,54,116440,1,0,0:0:0:0:
174,51,116534,1,0,0:0:0:0:
185,48,116627,1,0,0:0:0:0:
196,44,116721,1,0,0:0:0:0:
184,87,116809,1,0,0:0:0:0:
172,130,116897,1,0,0:0:0:0:
161,174,116985,1,0,0:0:0:0:
152,168,117073,2,0,L|166:114,1,45
326,9,117250,5,0,0:0:0:0:
337,52,117335,1,0,0:0:0:0:
349,95,117421,1,0,0:0:0:0:
360,139,117507,1,0,0:0:0:0:
371,142,117592,1,0,0:0:0:0:
382,145,117678,1,0,0:0:0:0:
393,149,117764,1,0,0:0:0:0:
401,181,117850,1,0,0:0:0:0:
410,214,117935,1,0,0:0:0:0:
419,246,118021,1,0,0:0:0:0:
429,248,118107,2,0,L|415:195,1,45
273,115,118278,5,0,0:0:0:0:
261,158,118361,1,0,0:0:0:0:
249,201,118444,1,0,0:0:0:0:
238,245,118528,1,0,0:0:0:0:
0,0,118778,5,0,0:0:0:0:
14,54,118861,1,0,0:0:0:0:
29,108,118944,1,0,0:0:0:0:
43,162,119028,1,0,0:0:0:0:
273,115,119278,5,0,0:0:0:0:
261,158,119359,1,0,0:0:0:0:
249,201,119440,1,0,0:0:0:0:
238,245,119521,1,0,0:0:0:0:
227,289,119583,5,0,0:0:0:0:
248,283,119916,1,0,0:0:0:0:
270,277,120249,1,0,0:0:0:0:
292,271,120582,1,0,0:0:0:0:
359,138,120917,5,0,0:0:0:0:
381,144,121249,1,0,0:0:0:0:
403,149,121582,1,0,0:0:0:0:
425,155,121916,1,0,0:0:0:0:
465,317,122249,5,0,0:0:0:0:
402,54,122416,1,0,0:0:0:0:
359,138,122499,2,0,B|424:155|424:155|481:109,1,135.000005149842,0|0,0:3|0:3,0:3:0:0:
442,220,122749,2,0,L|425:155,1,67.5000025749208,0|0,0:3|0:0,0:0:0:0:
398,39,122916,5,0,0:0:0:0:
369,287,123083,1,0,0:0:0:0:
168,137,123249,5,0,0:0:0:0:
119,150,123332,1,0,0:0:0:0:
70,163,123415,1,0,0:0:0:0:
107,239,123500,5,0,0:0:0:0:
139,230,123583,1,0,0:0:0:0:
172,221,123666,1,0,0:0:0:0:
129,128,123749,5,0,0:0:0:0:
112,132,123832,1,0,0:0:0:0:
96,136,123916,2,0,L|18:115,1,67.5000025749208
283,45,124083,5,0,0:0:0:0:
265,110,124166,1,0,0:0:0:0:
248,175,124249,2,0,L|287:322,1,135.000005149842
334,156,124499,2,0,L|373:303,1,135.000005149842
420,137,124749,2,0,L|445:231,1,67.5000025749208
472,332,124916,6,0,L|437:201,1,135.000005149842
453,192,125166,5,0,0:0:0:0:
340,278,125249,1,0,0:0:0:0:
271,17,125416,5,0,0:0:0:0:
344,291,125582,1,0,0:0:0:0:
198,261,125749,1,0,0:0:0:0:
52,291,125916,2,0,L|90:151,1,135.000005149842
71,151,126166,5,0,0:0:0:0:
218,120,126249,1,0,0:0:0:0:
77,384,126416,5,0,0:0:0:0:
164,58,126583,1,0,0:0:0:0:
402,296,126749,1,0,0:0:0:0:
113,273,126916,5,0,0:3:0:0:
98,201,126999,1,0,0:3:0:0:
80,133,127082,1,0,0:3:0:0:
63,64,127166,1,0,0:3:0:0:
164,58,127249,5,0,0:0:0:0:
173,90,127332,1,0,0:0:0:0:
182,123,127415,1,0,0:0:0:0:
191,155,127499,1,0,0:0:0:0:
199,188,127583,6,0,L|354:232,1,135.000005149842,0|0,0:3|0:3,0:3:0:0:
330,240,127833,5,0,0:0:0:0:
293,103,127916,1,0,0:0:0:0:
224,363,128083,5,0,0:0:0:0:
297,90,128249,1,0,0:0:0:0:
156,66,128416,1,0,0:0:0:0:
65,176,128583,5,0,0:0:0:0:
56,208,128666,1,0,0:0:0:0:
47,241,128749,1,0,0:0:0:0:
38,273,128833,1,0,0:0:0:0:
97,331,128916,1,0,0:0:0:0:
130,322,128999,1,0,0:0:0:0:
162,314,129082,5,0,0:0:0:0:
211,302,129165,1,0,0:0:0:0:
270,360,129249,1,0,0:0:0:0:
318,346,129332,1,0,0:0:0:0:
367,333,129415,1,0,0:0:0:0:
416,320,129499,1,0,0:0:0:0:
490,361,129582,6,0,L|408:339,1,67.5000025749208
494,31,129748,1,0,0:0:0:0:
494,31,129832,2,0,L|515:106,1,67.5000025749208
206,192,129998,1,0,0:0:0:0:
206,192,130082,2,0,L|260:136,1,67.5000025749208
3,0,130582,5,0,0:0:0:0:
36,9,130665,1,0,0:0:0:0:
69,18,130748,1,0,0:0:0:0:
101,27,130832,1,0,0:0:0:0:
230,59,130915,5,0,0:0:0:0:
46,139,131082,1,0,0:0:0:0:
205,161,131249,2,0,L|243:301,1,135.000005149842
224,301,131499,5,0,0:0:0:0:
384,296,131582,1,0,0:0:0:0:
230,59,131749,5,0,0:0:0:0:
147,384,131916,1,0,0:0:0:0:
469,293,132082,1,0,0:0:0:0:
274,152,132249,5,0,0:3:0:0:
259,224,132332,1,0,0:3:0:0:
241,292,132415,1,0,0:3:0:0:
224,361,132499,1,0,0:3:0:0:
325,367,132582,5,0,0:0:0:0:
334,335,132665,1,0,0:0:0:0:
343,302,132748,1,0,0:0:0:0:
352,270,132832,1,0,0:0:0:0:
360,237,132916,6,0,L|515:193,1,135.000005149842,0|0,0:3|0:3,0:3:0:0:
491,185,133166,5,0,0:0:0:0:
454,322,133249,1,0,0:0:0:0:
385,62,133416,5,0,0:0:0:0:
458,335,133582,1,0,0:0:0:0:
317,359,133749,1,0,0:0:0:0:
226,249,133916,5,0,0:0:0:0:
194,241,133999,1,0,0:0:0:0:
161,232,134082,1,0,0:0:0:0:
129,223,134166,1,0,0:0:0:0:
87,150,134248,1,0,0:0:0:0:
95,118,134332,1,0,0:0:0:0:
103,86,134416,5,0,0:0:0:0:
117,38,134499,1,0,0:0:0:0:
193,0,134582,1,0,0:0:0:0:
242,14,134665,1,0,0:0:0:0:
291,27,134748,1,0,0:0:0:0:
340,40,134832,1,0,0:0:0:0:
416,2,134916,6,0,L|341:23,1,67.5000025749208
458,335,135082,1,0,0:0:0:0:
458,335,135166,2,0,L|479:260,1,67.5000025749208
148,204,135332,1,0,0:0:0:0:
148,204,135416,2,0,L|204:260,1,67.5000025749208
206,262,135583,6,0,L|104:289,1,90
0,346,136383,2,0,L|18:280,1,67.5
28,236,136783,2,0,L|17:280,1,45
4,286,137183,5,0,0:0:0:0:
459,164,137483,1,0,0:0:0:0:
4,42,137783,1,0,0:0:0:0:
135,319,137983,5,0,0:0:0:0:
158,231,138083,1,0,0:0:0:0:
181,144,138183,1,0,0:0:0:0:
204,56,138283,1,0,0:0:0:0:
198,33,138483,5,0,0:0:0:0:
244,208,138583,1,0,0:3:0:0:
93,167,138783,5,0,0:0:0:0:
181,144,138883,1,0,0:0:0:0:
268,121,138983,1,0,0:0:0:0:
356,98,139083,1,0,0:0:0:0:
332,185,139183,1,0,0:0:0:0:
338,206,139383,1,0,0:0:0:0:
118,79,139583,5,0,0:0:0:0:
158,231,139783,5,0,0:3:0:0:
204,56,139883,1,0,0:0:0:0:
244,208,140083,5,0,0:3:0:0:
290,33,140183,1,0,0:0:0:0:
460,312,140383,5,0,0:0:0:0:
5,190,140683,1,0,0:0:0:0:
460,68,140983,1,0,0:0:0:0:
