osu file format v14

[General]
AudioFilename: audio.mp3
AudioLeadIn: 0
PreviewTime: 277402
Countdown: 0
SampleSet: None
StackLeniency: 0.2
Mode: 0
LetterboxInBreaks: 0
WidescreenStoryboard: 1

[Editor]
Bookmarks: 1070,71068,93985,105735,148402,169735,212402,233735,255068,277735,282735,288402,293735,299068,304402,309735
DistanceSpacing: 3.5
BeatDivisor: 4
GridSize: 4
TimelineZoom: 3.999999

[Metadata]
Title:I pray
TitleUnicode:I pray
Artist:Denkishiki Karen Ongaku Shuudan
ArtistUnicode:電気式華憐音楽集団
Creator:Hysteria
Version:Saigo no Inori
Source:獄淫の尖塔
Tags:Shūdan Shudan Gokuin no Sentō Sento Sentou Opening OP Full Version Original Soundtrack 電気式音楽集II Ongakushū Ongakushu Ongakushuu Shuu II 2 電気 Denki Enki 弐式 Nishiki Shiki 華憐 Karen 音 On Gaku SYU Dang 紫煉 Shiren BLACK Cyc Visual Novel VN Eroge Doujin Darkwave Gothic Heavy Metal Rock Instrumental Japanese nayarii
BeatmapID:1700408
BeatmapSetID:810466

[Difficulty]
HPDrainRate:6
CircleSize:3.5
OverallDifficulty:9.2
ApproachRate:9.6
SliderMultiplier:2.1
SliderTickRate:1

[Events]
//Background and Video events
0,0,"BG_Pray_Collab_Fixed_2.jpg",0,0
//Break Periods
2,28528,30111
//Storyboard Layer 0 (Background)
//Storyboard Layer 1 (Fail)
//Storyboard Layer 2 (Pass)
//Storyboard Layer 3 (Foreground)
//Storyboard Sound Samples

[TimingPoints]
432,666.666666666667,4,2,1,20,1,0
432,-100,4,2,1,20,0,0
1069,666.666666666667,4,2,1,20,1,0
1069,-200,4,2,1,20,0,0
1402,-200,4,2,1,20,0,0
6402,-100,4,2,1,20,0,0
7069,-200,4,2,1,20,0,0
7735,-100,4,2,1,20,0,0
8402,-166.666666666667,4,2,1,20,0,0
9069,-100,4,2,1,20,0,0
9735,-142.857142857143,4,2,1,20,0,0
10735,-125,4,2,1,20,0,0
11735,-100,4,2,1,20,0,0
12402,-125,4,2,1,20,0,0
13069,-100,4,2,1,20,0,0
14402,-90.9090909090909,4,2,1,20,0,0
15069,-111.111111111111,4,2,1,20,0,0
15735,-90.9090909090909,4,2,1,20,0,0
17069,-83.3333333333333,4,2,1,20,0,0
17735,-100,4,2,1,20,0,0
18402,-83.3333333333333,4,2,1,20,0,0
19736,833.333333333333,4,2,1,20,1,0
19736,-200,4,2,1,20,0,0
20152,635.593220338983,4,2,1,20,1,0
20152,-100,4,2,1,20,0,0
20787,677.966101694915,4,2,1,20,1,0
20787,-100,4,2,1,20,0,0
21125,685.714285714286,4,2,1,20,1,0
21125,-100,4,2,1,20,0,0
21467,657.894736842105,4,2,1,20,1,0
21795,625,4,2,1,20,1,0
22107,638.297872340426,4,2,1,20,1,0
22426,612.244897959184,4,2,1,20,1,0
22732,689.655172413793,4,2,1,20,1,0
23076,727.272727272727,4,2,1,20,1,0
23439,714.285714285714,4,2,1,20,1,0
23795,666.666666666667,4,2,1,20,1,0
24512,829.875518672199,4,2,1,20,1,0
24927,784.313725490196,4,2,1,20,1,0
25319,906.344410876133,4,2,1,20,1,0
25772,1000,4,2,1,20,1,0
26272,1463.41463414634,4,2,1,20,1,0
27003,1420.11834319527,4,2,1,20,1,0
28328,2292.7015666794,4,2,1,20,1,0
30620,498.338870431894,4,2,10,20,1,0
30620,-50,4,2,10,20,0,0
30993,-50,4,2,10,5,0,0
31069,333.333333333333,4,3,1,60,1,0
31069,-66.6666666666667,4,3,1,60,0,0
31235,-83.3333333333333,4,3,1,60,0,0
31402,-83.3333333333333,4,3,7,60,0,0
31902,-66.6666666666667,4,3,1,60,0,0
32069,-66.6666666666667,4,3,7,60,0,0
32402,-83.3333333333333,4,3,5,60,0,0
32735,-83.3333333333333,4,3,7,60,0,0
33069,-66.6666666666667,4,3,2,60,0,0
33152,-66.6666666666667,4,3,11,60,0,0
33235,-66.6666666666667,4,3,2,60,0,0
33319,-66.6666666666667,4,3,11,60,0,0
33402,-66.6666666666667,4,3,7,60,0,0
33485,-66.6666666666667,4,3,10,60,0,0
33569,-66.6666666666667,4,3,2,60,0,0
33652,-66.6666666666667,4,3,10,60,0,0
33735,-83.3333333333333,4,3,1,60,0,0
34069,-83.3333333333333,4,3,7,60,0,0
34569,-66.6666666666667,4,3,1,60,0,0
34735,-66.6666666666667,4,3,7,60,0,0
35069,-83.3333333333333,4,3,5,60,0,0
35402,-83.3333333333333,4,3,7,60,0,0
35735,-66.6666666666667,4,3,1,60,0,0
36070,-66.6666666666667,4,3,2,60,0,0
36318,-66.6666666666667,4,3,2,5,0,0
36402,-83.3333333333333,4,3,1,60,0,0
36735,-83.3333333333333,4,3,7,60,0,0
37235,-66.6666666666667,4,3,1,60,0,0
37402,-66.6666666666667,4,3,7,60,0,0
37735,-83.3333333333333,4,3,5,60,0,0
38068,-83.3333333333333,4,3,7,60,0,0
38402,-66.6666666666667,4,3,1,60,0,0
38485,-66.6666666666667,4,3,11,60,0,0
38568,-66.6666666666667,4,3,1,60,0,0
38652,-66.6666666666667,4,3,11,60,0,0
38735,-66.6666666666667,4,3,7,60,0,0
38818,-66.6666666666667,4,3,10,60,0,0
38902,-66.6666666666667,4,3,1,60,0,0
38985,-66.6666666666667,4,3,10,60,0,0
39069,-83.3333333333333,4,3,1,60,0,0
39402,-83.3333333333333,4,3,7,60,0,0
39902,-66.6666666666667,4,3,1,60,0,0
40068,-66.6666666666667,4,3,7,60,0,0
40402,-83.3333333333333,4,3,5,60,0,0
40735,-83.3333333333333,4,3,7,60,0,0
41069,-66.6666666666667,4,3,1,60,0,0
41402,-66.6666666666667,4,3,2,60,0,0
41735,-133.333333333333,4,3,2,60,0,0
42235,-133.333333333333,4,3,2,5,0,0
42402,-133.333333333333,4,3,3,60,0,0
42902,-133.333333333333,4,3,1,5,0,0
43069,-100,4,3,2,60,0,0
43568,-100,4,3,2,5,0,0
43735,-100,4,3,3,60,0,0
44235,-100,4,3,1,5,0,0
44402,-100,4,3,3,60,0,0
47068,-100,4,3,3,60,0,0
49735,-100,4,3,2,60,0,0
50735,-66.6666666666667,4,3,7,60,0,0
50902,-66.6666666666667,4,3,2,60,0,0
51152,-66.6666666666667,4,3,2,5,0,0
51235,-66.6666666666667,4,3,16,60,0,0
51735,-66.6666666666667,4,3,1,60,0,0
52402,-66.6666666666667,4,3,2,60,0,0
52735,-66.6666666666667,4,3,7,60,0,0
53069,-83.3333333333333,4,3,5,60,0,0
53402,-66.6666666666667,4,3,7,60,0,0
53735,-66.6666666666667,4,3,5,60,0,0
54068,-66.6666666666667,4,3,7,60,0,0
54402,-66.6666666666667,4,3,5,60,0,0
54735,-66.6666666666667,4,3,7,60,0,0
55068,-66.6666666666667,4,3,2,60,0,0
55402,-66.6666666666667,4,3,7,60,0,0
55735,-83.3333333333333,4,3,5,60,0,0
56068,-83.3333333333333,4,3,7,60,0,0
56235,-66.6666666666667,4,3,1,60,0,0
56568,-66.6666666666667,4,3,5,60,0,0
56735,-66.6666666666667,4,3,7,60,0,0
56902,-66.6666666666667,4,3,5,60,0,0
57068,-66.6666666666667,4,3,4,60,0,0
57235,-66.6666666666667,4,3,5,60,0,0
57402,-66.6666666666667,4,3,7,60,0,0
57568,-66.6666666666667,4,3,5,60,0,0
57735,-66.6666666666667,4,3,2,60,0,0
58068,-66.6666666666667,4,3,7,60,0,0
58402,-83.3333333333333,4,3,5,60,0,0
58735,-66.6666666666667,4,3,7,60,0,0
59068,-66.6666666666667,4,3,5,60,0,0
59402,-66.6666666666667,4,3,7,60,0,0
59735,-66.6666666666667,4,3,5,60,0,0
60068,-66.6666666666667,4,3,7,60,0,0
60402,-66.6666666666667,4,3,2,60,0,0
60735,-66.6666666666667,4,3,7,60,0,0
61069,-83.3333333333333,4,3,5,60,0,0
61402,-83.3333333333333,4,3,7,60,0,0
61569,-66.6666666666667,4,3,1,60,0,0
61902,-66.6666666666667,4,3,5,60,0,0
62068,-66.6666666666667,4,3,7,60,0,0
62235,-66.6666666666667,4,3,5,60,0,0
62735,-66.6666666666667,4,3,10,60,0,0
63069,-303.030303030303,4,3,1,75,0,0
63152,-303.030303030303,4,2,1,75,0,0
63402,-303.030303030303,4,2,1,71,0,0
63735,-303.030303030303,4,2,1,68,0,0
64068,-303.030303030303,4,2,1,65,0,0
64402,-303.030303030303,4,2,1,62,0,0
64735,-303.030303030303,4,2,1,59,0,0
65068,-303.030303030303,4,2,1,56,0,0
65402,-303.030303030303,4,2,1,53,0,0
65735,-303.030303030303,4,2,1,50,0,0
66068,-303.030303030303,4,2,1,47,0,0
66402,-303.030303030303,4,2,1,44,0,0
66735,-303.030303030303,4,2,1,41,0,0
67068,-303.030303030303,4,2,1,38,0,0
67402,-303.030303030303,4,2,1,35,0,0
67735,-303.030303030303,4,2,1,32,0,0
68068,-303.030303030303,4,2,1,29,0,0
68402,-303.030303030303,4,2,1,26,0,0
68735,-303.030303030303,4,2,1,23,0,0
69068,-303.030303030303,4,2,1,20,0,0
69402,-303.030303030303,4,2,1,17,0,0
69735,-303.030303030303,4,2,1,14,0,0
70068,-303.030303030303,4,2,1,11,0,0
70402,-303.030303030303,4,2,1,8,0,0
70735,-303.030303030303,4,2,1,5,0,0
71068,-303.030303030303,4,2,1,40,0,0
72735,-303.030303030303,4,3,5,40,0,0
73068,-303.030303030303,4,3,7,40,0,0
73735,-200,4,2,1,30,0,0
74402,-200,4,2,2,30,0,0
74735,-200,4,3,2,30,0,0
74902,-200,4,2,2,30,0,0
76068,-200,4,3,2,30,0,0
76402,-200,4,2,1,30,0,0
77068,-200,4,2,2,30,0,0
77402,-200,4,3,2,30,0,0
77568,-200,4,2,2,30,0,0
78735,-200,4,3,2,30,0,0
78902,-200,4,2,2,30,0,0
79068,-200,4,3,5,30,0,0
79735,-200,4,2,2,30,0,0
80068,-200,4,3,2,30,0,0
80235,-200,4,2,2,30,0,0
80568,-200,4,3,2,30,0,0
80735,-200,4,2,2,30,0,0
81402,-200,4,3,2,30,0,0
81735,-200,4,3,5,30,0,0
82402,-200,4,2,2,30,0,0
82735,-200,4,3,2,30,0,0
82902,-200,4,2,2,30,0,0
84402,-200,4,2,1,30,0,0
85068,-200,4,2,2,30,0,0
85402,-200,4,3,2,30,0,0
85568,-200,4,2,2,30,0,0
86735,-200,4,3,2,30,0,0
87068,-200,4,2,1,30,0,0
87735,-200,4,2,2,30,0,0
88068,-200,4,3,2,30,0,0
88235,-200,4,2,2,30,0,0
89402,-200,4,3,2,30,0,0
89568,-200,4,2,2,30,0,0
89735,-200,4,3,5,30,0,0
90402,-200,4,2,2,30,0,0
90735,-200,4,3,2,30,0,0
90902,-200,4,2,2,30,0,0
92068,-200,4,3,2,30,0,0
92402,-200,4,2,1,30,0,0
93068,-200,4,2,2,30,0,0
93402,-200,4,3,2,30,0,0
93568,-200,4,2,2,30,0,0
93902,-200,4,2,2,5,0,0
93985,-66.6666666666667,4,2,1,60,0,0
94068,-66.6666666666667,4,2,1,20,0,0
94985,-66.6666666666667,4,2,1,5,0,0
95068,-100,4,3,1,60,0,0
95318,-100,4,3,1,5,0,0
95402,-100,4,3,7,60,0,0
95735,-100,4,3,4,60,0,0
95985,-100,4,3,4,5,0,0
96068,-100,4,3,7,60,0,0
96485,-100,4,3,7,5,0,0
96568,-100,4,3,7,60,0,0
97235,-100,4,3,12,60,0,0
97318,-100,4,3,11,60,0,0
97402,-100,4,3,7,60,0,0
97568,-100,4,3,10,60,0,0
97735,-100,4,3,1,60,0,0
97985,-100,4,3,1,5,0,0
98068,-100,4,3,7,60,0,0
98402,-100,4,3,4,60,0,0
98652,-100,4,3,4,5,0,0
98735,-100,4,3,7,60,0,0
99152,-100,4,3,7,5,0,0
99235,-100,4,3,7,60,0,0
99957,-100,4,3,12,60,0,0
100068,-100,4,3,11,60,0,0
100291,-100,4,3,10,60,0,0
100402,-100,4,3,1,60,0,0
100652,-100,4,3,1,5,0,0
100735,-100,4,3,7,60,0,0
101068,-100,4,3,4,60,0,0
101318,-100,4,3,4,5,0,0
101402,-100,4,3,7,60,0,0
101818,-100,4,3,7,5,0,0
101902,-100,4,3,7,60,0,0
102735,-100,4,3,12,60,0,0
102902,-100,4,3,7,60,0,0
103068,-100,4,3,1,60,0,0
103318,-100,4,3,1,5,0,0
103402,-100,4,3,7,60,0,0
103735,-100,4,3,4,60,0,0
103985,-100,4,3,4,5,0,0
104068,-100,4,3,7,60,0,0
104485,-100,4,3,7,5,0,0
104568,-100,4,3,7,60,0,0
105402,-100,4,3,3,60,0,0
105735,-100,4,3,2,60,0,0
106068,-100,4,3,5,60,0,0
107318,-100,4,3,5,5,0,0
107402,-100,4,3,5,60,0,0
108152,-100,4,3,5,5,0,0
108235,-100,4,3,4,60,0,0
108318,-100,4,3,4,5,0,0
108402,-100,4,3,5,60,0,0
109985,-100,4,3,5,5,0,0
110068,-100,4,3,5,60,0,0
110818,-100,4,3,5,5,0,0
110902,-100,4,3,4,60,0,0
110985,-100,4,3,4,5,0,0
111068,-100,4,3,2,60,0,0
111402,-100,4,3,5,60,0,0
112652,-100,4,3,5,5,0,0
112735,-100,4,3,5,60,0,0
113235,-100,4,3,7,60,0,0
113318,-100,4,3,7,5,0,0
113402,-100,4,3,5,60,0,0
113485,-100,4,3,5,5,0,0
113568,-100,4,3,4,60,0,0
113652,-100,4,3,4,5,0,0
113735,-100,4,3,5,60,0,0
115318,-100,4,3,5,5,0,0
115402,-80,4,3,5,60,0,0
116402,-80,4,3,2,60,0,0
116735,-100,4,3,5,60,0,0
117985,-100,4,3,5,5,0,0
118068,-100,4,3,5,60,0,0
118818,-100,4,3,5,5,0,0
118902,-100,4,3,4,60,0,0
118985,-100,4,3,4,5,0,0
119068,-100,4,3,5,60,0,0
120652,-100,4,3,5,5,0,0
120735,-100,4,3,5,60,0,0
121485,-100,4,3,5,5,0,0
121568,-100,4,3,4,60,0,0
121652,-100,4,3,4,5,0,0
121735,-100,4,3,2,60,0,0
122068,-100,4,3,5,60,0,0
123318,-100,4,3,5,5,0,0
123402,-100,4,3,5,60,0,0
123902,-100,4,3,7,60,0,0
123985,-100,4,3,7,5,0,0
124068,-100,4,3,5,60,0,0
124152,-100,4,3,5,5,0,0
124235,-100,4,3,4,60,0,0
124318,-100,4,3,4,5,0,0
124402,-100,4,3,5,60,0,0
125985,-100,4,3,5,5,0,0
126068,-100,4,3,5,60,0,0
126735,-80,4,3,2,60,0,0
127068,-80,4,3,16,80,0,0
127402,-57.1428571428571,4,3,1,80,0,0
127902,-57.1428571428571,4,3,3,80,0,0
128402,-57.1428571428571,4,3,1,80,0,0
128902,-57.1428571428571,4,3,3,80,0,0
129402,-57.1428571428571,4,3,2,80,0,0
129735,-57.1428571428571,4,3,16,80,0,0
130068,-57.1428571428571,4,3,1,80,0,0
130568,-57.1428571428571,4,3,3,80,0,0
131068,-57.1428571428571,4,3,1,80,0,0
131568,-57.1428571428571,4,3,3,80,0,0
131902,-57.1428571428571,4,3,12,80,0,0
132068,-57.1428571428571,4,3,11,80,0,0
132402,-100,4,3,5,60,0,0
132652,-100,4,3,5,5,0,0
132735,-100,4,3,2,60,0,0
133068,-100,4,3,5,60,0,0
133235,-100,4,3,4,60,0,0
133402,-100,4,3,5,60,0,0
133568,-100,4,3,4,60,0,0
133735,-100,4,3,5,60,0,0
133902,-100,4,3,4,60,0,0
134068,-100,4,3,5,60,0,0
134235,-100,4,3,4,60,0,0
134402,-100,4,3,5,60,0,0
134568,-100,4,3,4,60,0,0
134735,-100,4,3,5,60,0,0
134902,-100,4,3,4,60,0,0
135068,-100,4,3,5,60,0,0
135235,-100,4,3,4,60,0,0
135402,-100,4,3,5,60,0,0
135568,-100,4,3,4,60,0,0
135735,-100,4,3,5,60,0,0
135902,-100,4,3,4,60,0,0
136068,-100,4,3,5,60,0,0
136235,-100,4,3,4,60,0,0
136485,-100,4,3,4,5,0,0
136568,-100,4,3,4,60,0,0
136735,-100,4,3,5,60,0,0
137735,-100,4,3,16,80,0,0
138068,-57.1428571428571,4,3,1,80,0,0
138568,-57.1428571428571,4,3,3,80,0,0
139068,-57.1428571428571,4,3,1,80,0,0
139568,-57.1428571428571,4,3,3,80,0,0
140068,-57.1428571428571,4,3,2,80,0,0
140402,-57.1428571428571,4,3,16,80,0,0
140735,-57.1428571428571,4,3,1,80,0,0
141235,-57.1428571428571,4,3,3,80,0,0
141735,-57.1428571428571,4,3,1,80,0,0
142235,-57.1428571428571,4,3,3,80,0,0
142568,-57.1428571428571,4,3,12,80,0,0
142735,-57.1428571428571,4,3,11,80,0,0
143068,-100,4,3,5,60,0,0
143318,-100,4,3,5,5,0,0
143402,-100,4,3,2,60,0,0
143735,-100,4,3,5,60,0,0
143902,-100,4,3,4,60,0,0
144068,-100,4,3,5,60,0,0
144235,-100,4,3,4,60,0,0
144402,-100,4,3,5,60,0,0
144568,-100,4,3,4,60,0,0
144735,-100,4,3,5,60,0,0
144902,-100,4,3,4,60,0,0
145068,-100,4,3,5,60,0,0
145235,-100,4,3,4,60,0,0
145402,-100,4,3,5,60,0,0
145568,-100,4,3,4,60,0,0
145735,-100,4,3,5,60,0,0
145902,-100,4,3,4,60,0,0
146068,-100,4,3,5,60,0,0
146235,-100,4,3,4,60,0,0
146402,-100,4,3,5,60,0,0
146568,-100,4,3,4,60,0,0
146735,-100,4,3,5,60,0,0
146902,-100,4,3,10,60,0,0
147152,-100,4,3,10,5,0,0
147235,-100,4,3,10,60,0,0
148402,-66.6666666666667,4,3,16,60,0,1
148568,-66.6666666666667,4,3,5,60,0,1
148735,-66.6666666666667,4,3,7,60,0,1
148902,-66.6666666666667,4,3,5,60,0,1
149068,-66.6666666666667,4,3,3,60,0,1
149235,-66.6666666666667,4,3,5,60,0,1
149402,-66.6666666666667,4,3,7,60,0,1
149568,-66.6666666666667,4,3,5,60,0,1
149735,-66.6666666666667,4,3,3,60,0,1
149902,-66.6666666666667,4,3,5,60,0,1
150068,-66.6666666666667,4,3,7,60,0,1
150235,-66.6666666666667,4,3,5,60,0,1
150735,-66.6666666666667,4,3,7,60,0,1
150902,-66.6666666666667,4,3,5,60,0,1
151068,-66.6666666666667,4,3,1,60,0,1
151235,-66.6666666666667,4,3,5,60,0,1
151402,-66.6666666666667,4,3,7,60,0,1
151568,-66.6666666666667,4,3,5,60,0,1
152068,-66.6666666666667,4,3,7,60,0,1
152235,-66.6666666666667,4,3,5,60,0,1
152402,-66.6666666666667,4,3,1,60,0,1
152568,-66.6666666666667,4,3,5,60,0,1
152735,-66.6666666666667,4,3,7,60,0,1
152902,-66.6666666666667,4,3,5,60,0,1
153402,-66.6666666666667,4,3,7,60,0,1
153568,-66.6666666666667,4,3,5,60,0,1
153735,-66.6666666666667,4,3,16,60,0,1
153818,-66.6666666666667,4,3,5,60,0,1
154068,-66.6666666666667,4,3,7,60,0,1
154152,-66.6666666666667,4,3,5,60,0,1
154735,-66.6666666666667,4,3,7,60,0,1
154902,-66.6666666666667,4,3,5,60,0,1
155068,-66.6666666666667,4,3,16,60,0,1
155152,-66.6666666666667,4,3,5,60,0,1
155402,-66.6666666666667,4,3,7,60,0,1
155568,-66.6666666666667,4,3,5,60,0,1
156068,-66.6666666666667,4,3,7,60,0,1
156235,-66.6666666666667,4,3,5,60,0,1
156402,-66.6666666666667,4,3,16,60,0,1
156485,-66.6666666666667,4,3,5,60,0,1
156735,-66.6666666666667,4,3,7,60,0,1
156902,-66.6666666666667,4,3,5,60,0,1
157402,-66.6666666666667,4,3,7,60,0,1
157568,-66.6666666666667,4,3,5,60,0,1
157735,-66.6666666666667,4,3,16,60,0,1
157902,-66.6666666666667,4,3,1,60,0,1
158568,-66.6666666666667,4,3,12,60,0,1
158735,-66.6666666666667,4,3,11,60,0,1
158902,-66.6666666666667,4,3,10,60,0,1
158985,-66.6666666666667,4,3,10,60,0,0
159068,-66.6666666666667,4,3,17,60,0,1
159235,-66.6666666666667,4,3,5,60,0,1
159402,-66.6666666666667,4,3,7,60,0,1
159568,-66.6666666666667,4,3,5,60,0,1
159735,-66.6666666666667,4,3,1,60,0,1
159902,-66.6666666666667,4,3,5,60,0,1
160068,-66.6666666666667,4,3,7,60,0,1
160235,-66.6666666666667,4,3,5,60,0,1
160402,-66.6666666666667,4,3,1,60,0,1
160568,-66.6666666666667,4,3,5,60,0,1
160735,-66.6666666666667,4,3,7,60,0,1
160902,-66.6666666666667,4,3,5,60,0,1
161402,-66.6666666666667,4,3,7,60,0,1
161568,-66.6666666666667,4,3,5,60,0,1
161735,-66.6666666666667,4,3,3,60,0,1
161902,-66.6666666666667,4,3,5,60,0,1
162068,-66.6666666666667,4,3,7,60,0,1
162235,-66.6666666666667,4,3,5,60,0,1
162735,-66.6666666666667,4,3,7,60,0,1
162902,-66.6666666666667,4,3,5,60,0,1
163068,-66.6666666666667,4,3,3,60,0,1
163235,-66.6666666666667,4,3,5,60,0,1
163402,-66.6666666666667,4,3,7,60,0,1
163568,-66.6666666666667,4,3,5,60,0,1
164068,-66.6666666666667,4,3,7,60,0,1
164235,-66.6666666666667,4,3,5,60,0,1
164402,-66.6666666666667,4,3,17,60,0,1
164652,-66.6666666666667,4,3,17,5,0,1
164735,-66.6666666666667,4,3,7,60,0,1
164902,-66.6666666666667,4,3,4,60,0,1
165068,-66.6666666666667,4,3,17,60,0,1
165318,-66.6666666666667,4,3,17,5,0,1
165402,-66.6666666666667,4,3,7,60,0,1
165568,-66.6666666666667,4,3,4,60,0,1
165735,-66.6666666666667,4,3,17,60,0,1
165985,-66.6666666666667,4,3,17,5,0,1
166068,-66.6666666666667,4,3,7,60,0,1
166235,-66.6666666666667,4,3,4,60,0,1
166402,-66.6666666666667,4,3,17,60,0,1
166652,-66.6666666666667,4,3,17,5,0,1
166735,-66.6666666666667,4,3,7,60,0,1
166902,-66.6666666666667,4,3,4,60,0,1
167068,-66.6666666666667,4,3,17,60,0,1
167152,-66.6666666666667,4,3,1,60,0,1
167735,-66.6666666666667,4,3,12,60,0,1
168068,-66.6666666666667,4,3,11,60,0,1
168402,-66.6666666666667,4,3,1,60,0,1
169068,-66.6666666666667,4,3,1,60,0,1
169735,-66.6666666666667,4,3,2,60,0,0
170068,-66.6666666666667,4,3,7,60,0,0
170402,-83.3333333333333,4,3,5,60,0,0
170735,-66.6666666666667,4,3,7,60,0,0
171068,-66.6666666666667,4,3,5,60,0,0
171402,-66.6666666666667,4,3,7,60,0,0
171735,-66.6666666666667,4,3,5,60,0,0
172068,-66.6666666666667,4,3,7,60,0,0
172402,-66.6666666666667,4,3,2,60,0,0
172735,-66.6666666666667,4,3,7,60,0,0
173068,-83.3333333333333,4,3,5,60,0,0
173402,-83.3333333333333,4,3,7,60,0,0
173568,-66.6666666666667,4,3,1,60,0,0
173902,-66.6666666666667,4,3,5,60,0,0
174068,-66.6666666666667,4,3,7,60,0,0
174235,-66.6666666666667,4,3,5,60,0,0
174402,-66.6666666666667,4,3,4,60,0,0
174568,-66.6666666666667,4,3,5,60,0,0
174735,-66.6666666666667,4,3,7,60,0,0
174902,-66.6666666666667,4,3,5,60,0,0
175068,-66.6666666666667,4,3,2,60,0,0
175402,-66.6666666666667,4,3,7,60,0,0
175735,-83.3333333333333,4,3,5,60,0,0
176068,-66.6666666666667,4,3,7,60,0,0
176402,-66.6666666666667,4,3,5,60,0,0
176735,-66.6666666666667,4,3,7,60,0,0
177068,-66.6666666666667,4,3,5,60,0,0
177402,-66.6666666666667,4,3,7,60,0,0
177735,-66.6666666666667,4,3,2,60,0,0
178068,-66.6666666666667,4,3,7,60,0,0
178402,-83.3333333333333,4,3,5,60,0,0
178735,-83.3333333333333,4,3,7,60,0,0
178902,-66.6666666666667,4,3,1,60,0,0
179235,-66.6666666666667,4,3,5,60,0,0
179402,-66.6666666666667,4,3,7,60,0,0
179568,-66.6666666666667,4,3,5,60,0,0
180068,-66.6666666666667,4,3,10,60,0,0
180402,-100,4,3,1,60,0,0
180652,-100,4,3,1,5,0,0
180735,-100,4,3,7,60,0,0
181068,-100,4,3,4,60,0,0
181318,-100,4,3,4,5,0,0
181402,-100,4,3,7,60,0,0
181818,-100,4,3,7,5,0,0
181902,-100,4,3,7,60,0,0
182568,-100,4,3,11,60,0,0
182735,-100,4,3,1,60,0,0
183318,-100,4,3,1,5,0,0
183402,-100,4,3,7,60,0,0
183735,-100,4,3,4,60,0,0
183985,-100,4,3,4,5,0,0
184068,-100,4,3,7,60,0,0
184485,-100,4,3,7,5,0,0
184568,-100,4,3,7,60,0,0
185291,-100,4,3,12,60,0,0
185402,-100,4,3,11,60,0,0
185624,-100,4,3,10,60,0,0
185735,-100,4,3,1,60,0,0
185985,-100,4,3,1,5,0,0
186068,-100,4,3,7,60,0,0
186402,-100,4,3,4,60,0,0
186652,-100,4,3,4,5,0,0
186735,-100,4,3,7,60,0,0
187152,-100,4,3,7,5,0,0
187235,-100,4,3,7,60,0,0
188068,-100,4,3,12,60,0,0
188235,-100,4,3,1,60,0,0
188652,-100,4,3,1,5,0,0
188735,-100,4,3,7,60,0,0
189068,-100,4,3,4,60,0,0
189318,-100,4,3,4,5,0,0
189402,-100,4,3,7,60,0,0
189818,-100,4,3,7,5,0,0
189902,-100,4,3,7,60,0,0
190068,-100,4,3,7,60,0,0
190735,-100,4,3,3,60,0,0
191068,-100,4,3,2,60,0,0
191402,-100,4,3,5,60,0,0
193568,-100,4,3,4,60,0,0
193735,-100,4,3,5,60,0,0
196235,-100,4,3,4,60,0,0
196402,-100,4,3,2,60,0,0
196735,-100,4,3,5,60,0,0
198902,-100,4,3,4,60,0,0
199068,-100,4,3,5,60,0,0
201068,-80,4,3,5,60,0,0
201318,-80,4,3,5,5,0,0
201402,-100,4,3,1,60,0,0
201735,-100,4,3,2,60,0,0
202068,-100,4,3,5,60,0,0
204235,-100,4,3,4,60,0,0
204402,-100,4,3,5,60,0,0
206902,-100,4,3,4,60,0,0
207068,-100,4,3,2,60,0,0
207402,-100,4,3,5,60,0,0
209568,-100,4,3,4,60,0,0
209735,-80,4,3,5,60,0,0
209985,-80,4,3,5,5,0,0
210068,-100,4,3,5,60,0,0
212068,-100,4,3,2,60,0,0
212402,-100,4,3,16,80,0,0
212735,-66.6666666666667,4,3,1,80,0,0
213235,-66.6666666666667,4,3,3,80,0,0
213735,-66.6666666666667,4,3,1,80,0,0
214235,-66.6666666666667,4,3,3,80,0,0
214735,-66.6666666666667,4,3,2,80,0,0
215068,-66.6666666666667,4,3,16,80,0,0
215402,-66.6666666666667,4,3,1,80,0,0
215902,-66.6666666666667,4,3,3,80,0,0
216402,-66.6666666666667,4,3,1,80,0,0
216902,-66.6666666666667,4,3,3,80,0,0
217235,-66.6666666666667,4,3,12,80,0,0
217402,-66.6666666666667,4,3,11,80,0,0
217735,-100,4,3,5,60,0,0
217985,-100,4,3,5,5,0,0
218068,-100,4,3,2,60,0,0
218402,-100,4,3,5,60,0,0
218568,-100,4,3,4,60,0,0
218735,-100,4,3,5,60,0,0
218902,-100,4,3,4,60,0,0
219068,-100,4,3,5,60,0,0
219235,-100,4,3,4,60,0,0
219402,-100,4,3,5,60,0,0
219568,-100,4,3,4,60,0,0
219735,-100,4,3,5,60,0,0
219902,-100,4,3,4,60,0,0
220068,-100,4,3,5,60,0,0
220235,-100,4,3,4,60,0,0
220402,-100,4,3,5,60,0,0
220568,-100,4,3,4,60,0,0
220735,-100,4,3,5,60,0,0
220902,-100,4,3,4,60,0,0
221068,-100,4,3,5,60,0,0
221235,-100,4,3,4,60,0,0
221402,-100,4,3,5,60,0,0
221568,-100,4,3,4,60,0,0
221818,-100,4,3,4,5,0,0
221902,-100,4,3,4,60,0,0
222068,-100,4,3,5,60,0,0
223068,-100,4,3,16,80,0,0
223402,-66.6666666666667,4,3,1,80,0,0
223902,-66.6666666666667,4,3,3,80,0,0
224402,-66.6666666666667,4,3,1,80,0,0
224902,-66.6666666666667,4,3,3,80,0,0
225402,-66.6666666666667,4,3,2,80,0,0
225735,-66.6666666666667,4,3,16,80,0,0
226068,-66.6666666666667,4,3,1,80,0,0
226568,-66.6666666666667,4,3,3,80,0,0
227068,-66.6666666666667,4,3,1,80,0,0
227568,-66.6666666666667,4,3,3,80,0,0
227902,-66.6666666666667,4,3,12,80,0,0
228068,-66.6666666666667,4,3,11,80,0,0
228402,-100,4,3,5,60,0,0
228652,-100,4,3,5,5,0,0
228735,-100,4,3,2,60,0,0
229068,-100,4,3,5,60,0,0
229235,-100,4,3,4,60,0,0
229402,-100,4,3,5,60,0,0
229568,-100,4,3,4,60,0,0
229735,-100,4,3,5,60,0,0
229902,-100,4,3,4,60,0,0
230068,-100,4,3,5,60,0,0
230235,-100,4,3,4,60,0,0
230402,-100,4,3,5,60,0,0
230568,-100,4,3,4,60,0,0
230735,-100,4,3,5,60,0,0
230902,-100,4,3,4,60,0,0
231068,-100,4,3,5,60,0,0
231235,-100,4,3,4,60,0,0
231402,-100,4,3,5,60,0,0
231568,-100,4,3,4,60,0,0
231735,-100,4,3,5,60,0,0
231902,-100,4,3,4,60,0,0
232068,-100,4,3,5,60,0,0
232235,-100,4,3,10,60,0,0
232485,-100,4,3,10,5,0,0
232568,-100,4,3,10,60,0,0
233735,-66.6666666666667,4,3,16,60,0,1
233902,-66.6666666666667,4,3,5,60,0,1
234068,-66.6666666666667,4,3,7,60,0,1
234235,-66.6666666666667,4,3,5,60,0,1
234402,-66.6666666666667,4,3,3,60,0,1
234568,-66.6666666666667,4,3,5,60,0,1
234735,-66.6666666666667,4,3,7,60,0,1
234902,-66.6666666666667,4,3,5,60,0,1
235068,-66.6666666666667,4,3,3,60,0,1
235235,-66.6666666666667,4,3,5,60,0,1
235402,-66.6666666666667,4,3,7,60,0,1
235568,-66.6666666666667,4,3,5,60,0,1
236068,-66.6666666666667,4,3,7,60,0,1
236235,-66.6666666666667,4,3,5,60,0,1
236402,-66.6666666666667,4,3,1,60,0,1
236568,-66.6666666666667,4,3,5,60,0,1
236735,-66.6666666666667,4,3,7,60,0,1
236902,-66.6666666666667,4,3,5,60,0,1
237402,-66.6666666666667,4,3,7,60,0,1
237568,-66.6666666666667,4,3,5,60,0,1
237735,-66.6666666666667,4,3,1,60,0,1
237902,-66.6666666666667,4,3,5,60,0,1
238068,-66.6666666666667,4,3,7,60,0,1
238235,-66.6666666666667,4,3,5,60,0,1
238735,-66.6666666666667,4,3,7,60,0,1
238902,-66.6666666666667,4,3,5,60,0,1
239068,-66.6666666666667,4,3,16,60,0,1
239152,-66.6666666666667,4,3,5,60,0,1
239402,-66.6666666666667,4,3,7,60,0,1
239568,-66.6666666666667,4,3,5,60,0,1
240068,-66.6666666666667,4,3,7,60,0,1
240235,-66.6666666666667,4,3,5,60,0,1
240402,-66.6666666666667,4,3,16,60,0,1
240485,-66.6666666666667,4,3,5,60,0,1
240735,-66.6666666666667,4,3,7,60,0,1
240902,-66.6666666666667,4,3,5,60,0,1
241402,-66.6666666666667,4,3,7,60,0,1
241568,-66.6666666666667,4,3,5,60,0,1
241735,-66.6666666666667,4,3,16,60,0,1
241818,-66.6666666666667,4,3,5,60,0,1
242068,-66.6666666666667,4,3,7,60,0,1
242235,-66.6666666666667,4,3,5,60,0,1
242735,-66.6666666666667,4,3,7,60,0,1
242902,-66.6666666666667,4,3,5,60,0,1
243068,-66.6666666666667,4,3,16,60,0,1
243235,-66.6666666666667,4,3,1,60,0,1
243902,-66.6666666666667,4,3,12,60,0,1
244068,-66.6666666666667,4,3,11,60,0,1
244235,-66.6666666666667,4,3,10,60,0,1
244318,-66.6666666666667,4,3,10,60,0,0
244402,-66.6666666666667,4,3,17,60,0,1
244568,-66.6666666666667,4,3,5,60,0,1
244735,-66.6666666666667,4,3,7,60,0,1
244902,-66.6666666666667,4,3,5,60,0,1
245068,-66.6666666666667,4,3,1,60,0,1
245235,-66.6666666666667,4,3,5,60,0,1
245402,-66.6666666666667,4,3,7,60,0,1
245568,-66.6666666666667,4,3,5,60,0,1
245735,-66.6666666666667,4,3,1,60,0,1
245902,-66.6666666666667,4,3,5,60,0,1
246068,-66.6666666666667,4,3,7,60,0,1
246235,-66.6666666666667,4,3,5,60,0,1
246735,-66.6666666666667,4,3,7,60,0,1
246902,-66.6666666666667,4,3,5,60,0,1
247068,-66.6666666666667,4,3,3,60,0,1
247235,-66.6666666666667,4,3,5,60,0,1
247402,-66.6666666666667,4,3,7,60,0,1
247568,-66.6666666666667,4,3,5,60,0,1
248068,-66.6666666666667,4,3,7,60,0,1
248235,-66.6666666666667,4,3,5,60,0,1
248402,-66.6666666666667,4,3,3,60,0,1
248568,-66.6666666666667,4,3,5,60,0,1
248735,-66.6666666666667,4,3,7,60,0,1
248902,-66.6666666666667,4,3,5,60,0,1
249402,-66.6666666666667,4,3,7,60,0,1
249568,-66.6666666666667,4,3,5,60,0,1
249735,-66.6666666666667,4,3,17,60,0,1
249985,-66.6666666666667,4,3,17,5,0,1
250068,-66.6666666666667,4,3,7,60,0,1
250235,-66.6666666666667,4,3,4,60,0,1
250402,-66.6666666666667,4,3,17,60,0,1
250652,-66.6666666666667,4,3,17,5,0,1
250735,-66.6666666666667,4,3,7,60,0,1
250902,-66.6666666666667,4,3,4,60,0,1
251068,-66.6666666666667,4,3,17,60,0,1
251318,-66.6666666666667,4,3,17,5,0,1
251402,-66.6666666666667,4,3,7,60,0,1
251568,-66.6666666666667,4,3,4,60,0,1
251735,-66.6666666666667,4,3,17,60,0,1
251985,-66.6666666666667,4,3,17,5,0,1
252068,-66.6666666666667,4,3,7,60,0,1
252235,-66.6666666666667,4,3,4,60,0,1
252402,-66.6666666666667,4,3,17,60,0,1
253068,-66.6666666666667,4,3,12,60,0,1
253402,-66.6666666666667,4,3,11,60,0,1
253735,-66.6666666666667,4,3,1,60,0,1
254402,-66.6666666666667,4,3,1,60,0,1
255068,-66.6666666666667,4,3,2,60,0,0
255402,-66.6666666666667,4,3,5,60,0,0
255735,-66.6666666666667,4,3,7,60,0,0
256068,-66.6666666666667,4,3,5,60,0,0
257068,-66.6666666666667,4,3,7,60,0,0
257402,-66.6666666666667,4,3,5,60,0,0
257735,-66.6666666666667,4,3,2,60,0,0
258068,-66.6666666666667,4,3,5,60,0,0
258402,-66.6666666666667,4,3,7,60,0,0
258735,-66.6666666666667,4,3,5,60,0,0
259068,-66.6666666666667,4,3,2,60,0,0
259402,-66.6666666666667,4,3,5,60,0,0
259735,-66.6666666666667,4,3,7,60,0,0
260068,-66.6666666666667,4,3,5,60,0,0
260402,-66.6666666666667,4,3,2,60,0,0
260735,-66.6666666666667,4,3,5,60,0,0
261068,-66.6666666666667,4,3,7,60,0,0
261402,-66.6666666666667,4,3,5,60,0,0
261735,-66.6666666666667,4,3,5,60,0,0
262068,-66.6666666666667,4,3,5,60,0,0
262402,-66.6666666666667,4,3,7,60,0,0
262735,-66.6666666666667,4,3,5,60,0,0
263068,-66.6666666666667,4,3,2,60,0,0
263402,-66.6666666666667,4,3,5,60,0,0
263735,-66.6666666666667,4,3,7,60,0,0
264402,-66.6666666666667,4,3,2,60,0,0
265235,-66.6666666666667,4,3,11,60,0,0
265402,-66.6666666666667,4,3,5,60,0,0
265568,-66.6666666666667,4,3,11,60,0,0
265735,-66.6666666666667,4,3,2,60,0,0
266068,-100,4,3,5,60,0,0
266402,-100,4,3,7,60,0,0
266735,-100,4,3,5,60,0,0
267068,-100,4,3,7,60,0,0
267402,-100,4,3,5,60,0,0
267735,-100,4,3,7,60,0,0
268068,-100,4,3,5,60,0,0
268402,-66.6666666666667,4,3,2,60,0,0
268568,-66.6666666666667,4,3,5,60,0,0
268735,-66.6666666666667,4,3,7,60,0,0
268902,-66.6666666666667,4,3,5,60,0,0
269068,-66.6666666666667,4,3,7,60,0,0
269235,-66.6666666666667,4,3,5,60,0,0
269402,-66.6666666666667,4,3,7,60,0,0
269568,-66.6666666666667,4,3,5,60,0,0
269735,-66.6666666666667,4,3,2,60,0,0
269902,-66.6666666666667,4,3,5,60,0,0
270068,-66.6666666666667,4,3,7,60,0,0
270235,-66.6666666666667,4,3,5,60,0,0
270402,-66.6666666666667,4,3,7,60,0,0
270568,-66.6666666666667,4,3,5,60,0,0
270735,-66.6666666666667,4,3,7,60,0,0
270902,-66.6666666666667,4,3,5,60,0,0
271068,-66.6666666666667,4,3,17,60,0,1
271152,-66.6666666666667,4,3,4,60,0,1
271402,-66.6666666666667,4,3,7,60,0,1
271568,-66.6666666666667,4,3,16,60,0,1
271652,-66.6666666666667,4,3,4,60,0,1
271902,-66.6666666666667,4,3,7,60,0,1
272068,-66.6666666666667,4,3,17,60,0,1
272152,-66.6666666666667,4,3,4,60,0,1
272402,-66.6666666666667,4,3,7,60,0,1
272568,-66.6666666666667,4,3,16,60,0,1
272652,-66.6666666666667,4,3,4,60,0,1
272902,-66.6666666666667,4,3,7,60,0,1
273068,-66.6666666666667,4,3,17,60,0,1
273152,-66.6666666666667,4,3,4,60,0,1
273402,-66.6666666666667,4,3,7,60,0,1
273735,-66.6666666666667,4,3,18,60,0,1
273818,-66.6666666666667,4,3,5,60,0,1
274068,-66.6666666666667,4,3,7,60,0,1
274235,-66.6666666666667,4,3,5,60,0,1
274402,-66.6666666666667,4,3,7,60,0,1
274568,-66.6666666666667,4,3,5,60,0,1
274735,-66.6666666666667,4,3,7,60,0,1
274902,-66.6666666666667,4,3,5,60,0,1
275068,-66.6666666666667,4,3,18,60,0,1
275152,-66.6666666666667,4,3,5,60,0,1
275402,-66.6666666666667,4,3,7,60,0,1
275568,-66.6666666666667,4,3,5,60,0,1
275735,-66.6666666666667,4,3,7,60,0,1
275902,-66.6666666666667,4,3,5,60,0,1
276068,-66.6666666666667,4,3,7,60,0,1
276402,-333.333333333333,4,3,1,30,0,0
277402,-333.333333333333,4,3,1,5,0,0
277735,-66.6666666666667,4,3,16,60,0,1
277902,-66.6666666666667,4,3,12,60,0,1
278068,-66.6666666666667,4,3,7,60,0,1
278235,-66.6666666666667,4,3,11,60,0,1
278402,-66.6666666666667,4,3,17,60,0,1
278485,-66.6666666666667,4,3,3,60,0,1
278735,-66.6666666666667,4,3,7,60,0,1
278902,-66.6666666666667,4,3,10,60,0,1
279068,-83.3333333333333,4,3,17,60,0,1
279235,-83.3333333333333,4,3,3,60,0,1
279402,-83.3333333333333,4,3,7,60,0,1
279902,-83.3333333333333,4,3,5,60,0,1
280068,-66.6666666666667,4,3,3,60,0,1
280402,-66.6666666666667,4,3,16,60,0,1
280568,-66.6666666666667,4,3,1,60,0,1
280735,-66.6666666666667,4,3,7,60,0,1
281068,-66.6666666666667,4,3,3,60,0,1
281402,-66.6666666666667,4,3,7,60,0,1
281735,-66.6666666666667,4,3,16,60,0,1
281818,-66.6666666666667,4,3,12,60,0,1
281902,-66.6666666666667,4,3,1,60,0,1
281985,-66.6666666666667,4,3,12,60,0,1
282068,-66.6666666666667,4,3,7,60,0,1
282235,-66.6666666666667,4,3,12,60,0,1
282402,-66.6666666666667,4,3,3,60,0,1
282735,-133.333333333333,4,3,7,60,0,0
282985,-133.333333333333,4,3,1,5,0,0
283068,-66.6666666666667,4,3,16,60,0,1
283152,-66.6666666666667,4,3,5,60,0,1
283402,-66.6666666666667,4,3,7,60,0,1
283568,-66.6666666666667,4,3,5,60,0,1
284068,-66.6666666666667,4,3,7,60,0,1
284235,-66.6666666666667,4,3,5,60,0,1
284402,-66.6666666666667,4,3,16,60,0,1
284485,-66.6666666666667,4,3,5,60,0,1
284735,-66.6666666666667,4,3,7,60,0,1
284902,-66.6666666666667,4,3,5,60,0,1
285402,-66.6666666666667,4,3,7,60,0,1
285568,-66.6666666666667,4,3,5,60,0,1
285735,-66.6666666666667,4,3,16,60,0,1
285818,-66.6666666666667,4,3,5,60,0,1
286068,-66.6666666666667,4,3,7,60,0,1
286235,-66.6666666666667,4,3,5,60,0,1
286735,-66.6666666666667,4,3,7,60,0,1
286902,-66.6666666666667,4,3,5,60,0,1
287068,-66.6666666666667,4,3,16,60,0,1
287235,-66.6666666666667,4,3,1,60,0,1
287902,-66.6666666666667,4,3,12,60,0,1
288068,-66.6666666666667,4,3,11,60,0,1
288235,-66.6666666666667,4,3,10,60,0,1
288402,-66.6666666666667,4,3,17,60,0,1
288568,-66.6666666666667,4,3,5,60,0,1
288735,-66.6666666666667,4,3,7,60,0,1
288902,-66.6666666666667,4,3,5,60,0,1
289068,-66.6666666666667,4,3,1,60,0,1
289235,-66.6666666666667,4,3,5,60,0,1
289402,-66.6666666666667,4,3,7,60,0,1
289568,-66.6666666666667,4,3,5,60,0,1
289735,-66.6666666666667,4,3,1,60,0,1
289902,-66.6666666666667,4,3,5,60,0,1
290068,-66.6666666666667,4,3,7,60,0,1
290235,-66.6666666666667,4,3,5,60,0,1
290735,-66.6666666666667,4,3,7,60,0,1
290902,-66.6666666666667,4,3,5,60,0,1
291068,-66.6666666666667,4,3,3,60,0,1
291235,-66.6666666666667,4,3,5,60,0,1
291402,-66.6666666666667,4,3,7,60,0,1
291568,-66.6666666666667,4,3,5,60,0,1
292068,-66.6666666666667,4,3,7,60,0,1
292235,-66.6666666666667,4,3,5,60,0,1
292402,-66.6666666666667,4,3,3,60,0,1
292568,-66.6666666666667,4,3,5,60,0,1
292735,-66.6666666666667,4,3,7,60,0,1
292902,-66.6666666666667,4,3,5,60,0,1
293402,-66.6666666666667,4,3,7,60,0,1
293568,-66.6666666666667,4,3,5,60,0,1
293735,-66.6666666666667,4,3,3,60,0,1
293985,-66.6666666666667,4,3,3,5,0,1
294068,-66.6666666666667,4,3,7,60,0,1
294235,-66.6666666666667,4,3,4,60,0,1
294402,-66.6666666666667,4,3,3,60,0,1
294652,-66.6666666666667,4,3,3,5,0,1
294735,-66.6666666666667,4,3,7,60,0,1
294902,-66.6666666666667,4,3,4,60,0,1
295068,-66.6666666666667,4,3,3,60,0,1
295318,-66.6666666666667,4,3,3,5,0,1
295402,-66.6666666666667,4,3,7,60,0,1
295568,-66.6666666666667,4,3,4,60,0,1
295735,-66.6666666666667,4,3,3,60,0,1
295985,-66.6666666666667,4,3,3,5,0,1
296068,-66.6666666666667,4,3,7,60,0,1
296235,-66.6666666666667,4,3,4,60,0,1
296402,-66.6666666666667,4,3,3,60,0,1
297068,-66.6666666666667,4,3,12,60,0,1
297402,-66.6666666666667,4,3,11,60,0,1
297735,-66.6666666666667,4,3,3,60,0,1
298402,-66.6666666666667,4,3,1,60,0,1
299068,-66.6666666666667,4,3,2,60,0,0
299402,-66.6666666666667,4,3,7,60,0,0
299735,-83.3333333333333,4,3,5,60,0,0
300068,-66.6666666666667,4,3,7,60,0,0
300402,-66.6666666666667,4,3,5,60,0,0
300735,-66.6666666666667,4,3,7,60,0,0
301068,-66.6666666666667,4,3,5,60,0,0
301402,-66.6666666666667,4,3,7,60,0,0
301735,-66.6666666666667,4,3,2,60,0,0
302068,-66.6666666666667,4,3,7,60,0,0
302402,-83.3333333333333,4,3,5,60,0,0
302735,-66.6666666666667,4,3,7,60,0,0
302902,-66.6666666666667,4,3,1,60,0,0
303235,-66.6666666666667,4,3,5,60,0,0
303402,-66.6666666666667,4,3,7,60,0,0
303568,-66.6666666666667,4,3,5,60,0,0
303735,-66.6666666666667,4,3,4,60,0,0
303902,-66.6666666666667,4,3,5,60,0,0
304068,-66.6666666666667,4,3,7,60,0,0
304235,-66.6666666666667,4,3,5,60,0,0
304402,-66.6666666666667,4,3,2,60,0,0
304735,-66.6666666666667,4,3,7,60,0,0
305068,-83.3333333333333,4,3,5,60,0,0
305402,-66.6666666666667,4,3,7,60,0,0
305735,-66.6666666666667,4,3,5,60,0,0
306068,-66.6666666666667,4,3,7,60,0,0
306402,-66.6666666666667,4,3,5,60,0,0
306735,-66.6666666666667,4,3,7,60,0,0
307068,-66.6666666666667,4,3,2,60,0,0
307402,-66.6666666666667,4,3,7,60,0,0
307735,-83.3333333333333,4,3,5,60,0,0
308068,-66.6666666666667,4,3,7,60,0,0
308235,-66.6666666666667,4,3,1,60,0,0
308568,-66.6666666666667,4,3,5,60,0,0
308735,-96.1538461538461,4,3,7,60,0,0
308902,-96.1538461538461,4,3,5,60,0,0
309068,-66.6666666666667,4,3,4,60,0,0
309735,-100,4,3,16,65,0,0
310068,-100,4,3,16,62,0,0
310402,-100,4,3,16,59,0,0
310735,-100,4,3,16,56,0,0
311068,-100,4,3,16,53,0,0
311402,-100,4,3,16,50,0,0
311735,-100,4,3,16,47,0,0
312068,-100,4,3,16,44,0,0
312402,-100,4,3,16,41,0,0
312735,-100,4,3,16,38,0,0
313068,-100,4,3,16,35,0,0
313402,-100,4,3,16,32,0,0
313735,-100,4,3,16,29,0,0
314068,-100,4,3,16,26,0,0
314402,-100,4,3,16,23,0,0
314735,-100,4,3,16,20,0,0
315068,-100,4,3,16,17,0,0
315402,-100,4,3,16,14,0,0
315735,-100,4,3,16,11,0,0
316068,-100,4,3,16,8,0,0
316402,-100,4,3,16,5,0,0

[Colours]
Combo1 : 106,106,106
Combo2 : 139,73,73
Combo3 : 139,139,73
Combo4 : 73,139,139
Combo5 : 73,91,139
Combo6 : 106,73,139
Combo7 : 212,212,212

[HitObjects]
124,90,432,85,2,0:0:0:0:
124,90,1069,2,0,L|138:174,1,52.5,8|0,0:0|0:0,0:0:0:0:
148,224,1735,1,0,0:0:0:0:
148,224,2069,1,0,0:0:0:0:
227,112,2402,6,0,L|211:195,1,52.5,8|0,0:0|0:0,0:0:0:0:
148,224,3069,1,0,0:0:0:0:
148,224,3402,1,0,0:0:0:0:
303,189,3735,86,0,L|259:262,1,52.5,8|0,0:0|0:0,0:0:0:0:
148,224,4402,1,0,0:0:0:0:
148,224,4735,1,0,0:0:0:0:
291,321,5069,5,8,0:0:0:0:
291,321,5735,1,2,0:0:0:0:
291,321,6402,86,0,P|352:328|398:339,1,105,8|0,0:0|0:0,0:0:0:0:
486,374,7069,2,0,L|479:315,1,52.5
276,234,7735,6,0,P|336:220|382:214,1,105,8|0,0:0|0:0,0:0:0:0:
464,242,8402,2,0,L|474:172,1,62.9999980773926,2|0,0:0|0:0,0:0:0:0:
217,163,9069,86,0,P|269:129|310:108,1,105,10|0,0:0|0:0,0:0:0:0:
419,100,9735,2,0,L|405:19,1,73.4999977569581,0|2,0:0|0:0,0:0:0:0:
327,221,10402,5,2,0:0:0:0:
141,115,10735,2,0,L|124:211,1,84
296,344,11402,1,0,0:0:0:0:
196,275,11735,86,0,P|136:289|90:295,1,105,8|2,0:0|0:0,0:0:0:0:
270,178,12402,2,0,L|287:261,1,84
285,382,13069,6,0,P|223:374|178:364,1,105
362,297,13735,1,2,0:0:0:0:
362,297,14069,1,0,0:0:0:0:
196,275,14402,86,0,P|136:289|76:295,1,115.50000352478,8|0,0:0|0:0,0:0:0:0:
270,178,15069,2,0,L|290:274,1,94.499997116089
285,382,15735,6,0,P|223:374|158:358,1,115.50000352478
373,294,16402,1,2,0:0:0:0:
373,294,16736,1,0,0:0:0:0:
196,275,17069,86,0,P|136:289|64:297,1,125.999996154785,8|0,0:0|0:0,0:0:0:0:
270,178,17736,2,0,L|293:283,1,105
285,382,18402,6,0,P|223:374|146:352,1,125.999996154785
390,291,19069,1,2,0:0:0:0:
473,318,19403,1,0,0:0:0:0:
269,173,19735,85,10,0:0:0:0:
269,173,20152,2,0,P|326:194|372:194,2,105
169,193,21125,6,0,L|148:78,1,105
269,173,21795,2,0,L|250:276,1,105
191,356,22426,86,0,P|132:334|74:318,1,105
0,241,23076,2,0,P|50:226|99:207,1,105
160,134,23795,6,0,L|137:7,1,105
141,30,24512,1,0,0:0:0:0:
232,77,24926,1,0,0:0:0:0:
75,135,25319,85,0,0:0:0:0:
283,195,25772,1,0,0:0:0:0:
54,282,26272,1,0,0:0:0:0:
330,337,27003,5,0,0:0:0:0:
330,337,28328,1,0,0:0:0:0:
124,383,30620,6,0,B|66:396|21:325|52:281|79:257|79:257|107:232|132:173|86:147|49:92,1,315
85,139,31070,5,6,0:0:0:0:
196,46,31235,2,0,L|217:134,2,62.9999980773926,4|4|6,0:0|0:0|0:0,0:0:0:0:
178,245,31569,1,4,0:0:0:0:
281,25,31735,1,8,0:0:0:0:
414,175,31902,2,0,P|328:153|307:142,1,78.7500030040742,4|0,0:0|0:0,0:0:0:0:
452,72,32069,2,0,P|478:101|499:134,1,78.7500030040742,6|0,0:0|0:0,0:0:0:0:
445,285,32235,2,0,P|471:255|492:222,1,78.7500030040742,8|0,0:0|0:0,0:0:0:0:
269,112,32402,6,0,L|192:130,2,62.9999980773926,6|4|4,0:0|0:0|0:0,0:0:0:0:
348,50,32735,1,6,0:0:0:0:
276,233,32902,1,4,0:0:0:0:
94,84,33069,2,0,P|117:162|135:184,1,78.7500030040742,12|8,3:0|0:0,0:0:0:0:
53,233,33235,2,0,P|132:252|160:247,1,78.7500030040742,4|4,0:0|0:0,0:0:0:0:
276,233,33402,2,0,P|219:291|209:318,1,78.7500030040742,6|8,0:0|0:0,0:0:0:0:
390,340,33569,2,0,P|310:320|282:325,1,78.7500030040742,8|4,0:0|0:0,0:0:0:0:
152,325,33735,6,0,L|172:390,2,62.9999980773926,6|4|4,0:0|0:0|0:0,0:0:0:0:
287,193,34069,1,6,0:0:0:0:
249,364,34235,1,4,0:0:0:0:
160,143,34402,1,8,0:0:0:0:
384,249,34569,2,0,L|396:126,1,78.7500030040742,4|0,0:0|0:0,0:0:0:0:
279,114,34735,2,0,L|287:193,1,78.7500030040742,6|0,0:0|0:0,0:0:0:0:
488,163,34902,2,0,L|495:84,1,78.7500030040742,8|0,0:0|0:0,0:0:0:0:
294,24,35069,6,0,L|222:37,2,62.9999980773926,6|4|4,0:0|0:0|0:0,0:0:0:0:
371,150,35402,1,6,0:0:0:0:
184,110,35569,1,4,0:0:0:0:
402,3,35735,38,0,L|417:84,1,78.7500030040742,8|0,0:0|0:0,0:0:0:0:
279,114,35902,2,0,L|264:191,1,78.7500030040742,4|0,0:0|0:0,0:0:0:0:
410,346,36069,2,0,P|318:282|169:321,1,236.250009012223,6|0,0:0|0:0,0:0:0:0:
200,297,36402,38,0,L|216:372,2,62.9999980773926,6|4|4,0:0|0:0|0:0,0:0:0:0:
107,341,36735,1,6,0:0:0:0:
162,193,36902,1,4,0:0:0:0:
299,362,37069,1,8,0:0:0:0:
98,250,37235,2,0,P|79:178|90:135,1,78.7500030040742,4|0,0:0|0:0,0:0:0:0:
0,139,37402,2,0,P|52:86|95:74,1,78.7500030040742,6|0,0:0|0:0,0:0:0:0:
48,0,37568,2,0,P|119:19|151:50,1,78.7500030040742,8|0,0:0|0:0,0:0:0:0:
251,175,37735,6,0,L|237:246,2,62.9999980773926,4|4|4,0:0|0:0|0:0,0:0:0:0:
230,66,38069,1,6,0:0:0:0:
330,215,38235,1,4,0:0:0:0:
359,7,38402,2,0,P|321:76|323:116,1,78.7500030040742,8|8,0:0|0:0,0:0:0:0:
410,82,38569,2,0,P|425:159|452:188,1,78.7500030040742,4|4,0:0|0:0,0:0:0:0:
446,314,38735,2,0,P|408:245|410:205,1,78.7500030040742,6|8,0:0|0:0,0:0:0:0:
498,239,38902,2,0,P|513:161|540:132,1,78.7500030040742,8|4,0:0|0:0,0:0:0:0:
380,366,39069,38,0,L|309:352,2,62.9999980773926,6|4|4,0:0|0:0|0:0,0:0:0:0:
446,314,39402,1,6,0:0:0:0:
244,332,39568,1,4,0:0:0:0:
414,173,39735,1,8,0:0:0:0:
213,222,39902,2,0,P|127:200|106:189,1,78.7500030040742,4|0,0:0|0:0,0:0:0:0:
251,119,40069,2,0,P|277:148|298:181,1,78.7500030040742,6|0,0:0|0:0,0:0:0:0:
244,332,40235,2,8,P|270:302|291:269,1,78.7500030040742,8|0,0:0|0:0,0:0:0:0:
51,180,40402,6,0,L|64:255,2,62.9999980773926,6|4|4,0:0|0:0|0:0,0:0:0:0:
151,116,40735,1,6,0:0:0:0:
129,290,40902,1,4,0:0:0:0:
93,36,41069,6,0,L|205:13,1,78.7500030040742,8|0,0:0|0:0,0:0:0:0:
251,119,41235,2,0,L|328:134,1,78.7500030040742,4|0,0:0|0:0,0:0:0:0:
397,15,41402,2,0,L|474:0,1,78.7500030040742,6|0,0:0|0:0,0:0:0:0:
373,211,41569,1,8,0:0:0:0:
151,116,41735,6,0,P|99:110|121:249,1,236.250009012223,6|0,0:0|0:0,0:0:0:0:
260,366,42402,2,0,P|304:271|205:235,1,236.250009012223,6|0,0:0|0:0,0:0:0:0:
151,116,43069,6,0,P|99:110|137:275,1,315,6|0,0:0|0:0,0:0:0:0:
260,366,43735,2,0,P|356:270|237:205,1,315,6|0,0:0|0:0,0:0:0:0:
274,282,44402,1,6,0:0:0:0:
256,192,44485,12,0,46902,0:0:0:0:
180,115,47068,37,6,0:0:0:0:
433,41,49735,1,12,0:0:0:0:
371,297,49902,1,12,0:0:0:0:
371,297,50735,6,0,L|360:200,1,78.7500030040742,2|0,0:0|0:0,0:0:0:0:
261,108,50902,2,0,P|349:138|432:30,1,236.250009012223,6|0,0:0|0:0,0:0:0:0:
432,40,51235,1,12,0:0:0:0:
362,218,51402,1,12,0:0:0:0:
332,25,51569,1,12,0:0:0:0:
466,191,51735,6,0,L|454:295,1,78.7500030040742,6|4,0:0|0:0,0:0:0:0:
267,326,51902,1,8,0:0:0:0:
317,304,51985,1,8,0:0:0:0:
371,313,52069,1,8,0:0:0:0:
323,340,52152,1,8,0:0:0:0:
269,326,52235,1,8,0:0:0:0:
228,288,52319,1,8,0:0:0:0:
217,234,52402,6,0,L|235:140,1,78.7500030040742,6|4,0:0|0:0,0:0:0:0:
196,368,52569,1,8,0:0:0:0:
100,209,52735,1,6,0:0:0:0:
100,209,52819,1,4,0:0:0:0:
100,209,52902,1,8,0:0:0:0:
43,367,53069,2,0,L|25:281,2,62.9999980773926,6|4|8,0:0|0:0|0:0,0:0:0:0:
72,112,53402,2,0,P|143:123|175:150,1,78.7500030040742,6|0,0:0|0:0,0:0:0:0:
217,234,53569,2,0,L|202:311,1,78.7500030040742,8|0,0:0|0:0,0:0:0:0:
214,72,53735,5,6,0:0:0:0:
301,262,53902,1,8,0:0:0:0:
371,105,54069,1,6,0:0:0:0:
371,105,54152,1,4,0:0:0:0:
371,105,54235,2,0,P|331:104|295:118,1,78.7500030040742,8|0,0:0|0:0,0:0:0:0:
484,80,54402,37,6,0:0:0:0:
484,80,54485,1,4,0:0:0:0:
484,80,54568,2,0,P|464:45|434:21,1,78.7500030040742,8|4,0:0|0:0,0:0:0:0:
355,195,54735,1,6,0:0:0:0:
355,195,54819,1,4,0:0:0:0:
355,195,54902,2,0,L|370:279,1,78.7500030040742,8|4,0:0|0:0,0:0:0:0:
512,195,55069,6,0,P|474:190|423:173,1,78.7500030040742,6|0,0:0|0:0,0:0:0:0:
277,236,55235,2,0,L|298:341,1,78.7500030040742,8|0,0:0|0:0,0:0:0:0:
468,280,55402,1,6,0:0:0:0:
267,149,55569,1,8,0:0:0:0:
372,354,55735,2,0,L|385:288,2,62.9999980773926,6|4|8,0:0|0:0|0:0,0:0:0:0:
184,240,56069,1,6,0:0:0:0:
309,51,56235,6,0,B|204:49|205:115|69:124,1,236.250009012223,10|4,0:0|0:0,0:0:0:0:
87,123,56569,2,0,L|105:25,1,78.7500030040742,10|4,0:0|0:0,0:0:0:0:
135,270,56735,5,6,3:0:0:0:
83,289,56819,1,4,3:0:0:0:
32,270,56902,1,10,3:0:0:0:
84,251,56986,1,4,0:0:0:0:
135,270,57069,5,6,0:0:0:0:
170,312,57152,1,4,0:0:0:0:
219,336,57236,1,10,0:0:0:0:
273,338,57319,1,4,0:0:0:0:
325,323,57402,1,6,0:0:0:0:
359,279,57486,1,4,0:0:0:0:
365,224,57569,1,10,0:0:0:0:
342,173,57652,1,8,0:0:0:0:
296,140,57735,38,0,L|208:158,1,78.7500030040742,6|0,0:0|0:0,0:0:0:0:
453,263,57902,1,8,0:0:0:0:
393,89,58069,1,6,0:0:0:0:
393,89,58152,1,4,0:0:0:0:
393,89,58235,1,8,0:0:0:0:
359,279,58402,2,0,L|382:371,2,62.9999980773926,6|4|8,0:0|0:0|0:0,0:0:0:0:
511,185,58735,2,0,P|447:174|395:154,1,78.7500030040742,6|0,0:0|0:0,0:0:0:0:
293,90,58902,2,0,L|312:-3,1,78.7500030040742,8|0,0:0|0:0,0:0:0:0:
258,239,59069,5,6,0:0:0:0:
190,59,59235,1,8,0:0:0:0:
79,193,59402,1,6,0:0:0:0:
79,193,59485,1,4,0:0:0:0:
79,193,59569,2,0,P|118:187|156:177,1,78.7500030040742,8|0,0:0|0:0,0:0:0:0:
111,26,59735,5,6,0:0:0:0:
111,26,59819,1,4,0:0:0:0:
111,26,59902,2,0,L|100:114,1,78.7500030040742,8|4,0:0|0:0,0:0:0:0:
22,270,60068,1,6,0:0:0:0:
22,270,60152,1,4,0:0:0:0:
22,270,60236,2,0,P|61:275|99:285,1,78.7500030040742,8|4,0:0|0:0,0:0:0:0:
211,376,60402,6,0,L|201:297,1,78.7500030040742,6|0,0:0|0:0,0:0:0:0:
265,163,60569,2,0,P|225:168|187:178,1,78.7500030040742,8|0,0:0|0:0,0:0:0:0:
359,279,60735,1,6,0:0:0:0:
319,91,60902,1,8,0:0:0:0:
281,293,61069,2,0,L|291:369,2,62.9999980773926,6|4|8,0:0|0:0|0:0,0:0:0:0:
461,353,61402,1,6,0:0:0:0:
321,185,61569,6,0,P|383:201|463:29,1,236.250009012223,10|4,0:0|0:0,0:0:0:0:
485,87,61902,2,0,L|399:95,1,78.7500030040742,10|4,0:0|0:0,0:0:0:0:
246,79,62069,1,6,0:0:0:0:
216,125,62152,1,4,0:0:0:0:
206,179,62235,1,10,0:0:0:0:
219,232,62319,1,4,0:0:0:0:
253,274,62402,38,0,L|369:255,1,78.7500030040742,8|0,0:0|0:0,0:0:0:0:
414,196,62569,2,0,L|491:208,1,78.7500030040742,8|0,0:0|0:0,0:0:0:0:
414,330,62735,1,8,0:0:0:0:
253,274,62902,1,4,0:0:0:0:
429,114,63069,6,0,B|459:88|519:77|562:163|500:216|445:226|383:227|321:176|298:98|367:7|367:7|237:95|324:235|324:235|337:260|352:289|332:348|303:362|268:364|236:364|201:369|141:317|182:225|182:225|220:143|169:86|100:52|35:113|20:136|31:188|32:198|53:235|53:235|100:300|61:357|61:357|65:294|18:266|18:266,1,1663.19999492432,6|8,0:0|0:0,0:0:0:0:
112,180,72735,53,2,0:0:0:0:
112,180,72902,1,2,0:0:0:0:
253,274,73069,1,2,0:0:0:0:
256,84,73735,5,8,0:0:0:0:
263,101,74068,2,0,P|312:118|363:127,1,105,0|8,0:0|0:0,0:0:0:0:
459,226,74735,1,0,0:0:0:0:
459,226,74902,2,0,P|398:277|347:336,1,157.5,8|0,0:0|0:0,0:0:0:0:
236,257,75735,2,0,P|226:206|208:157,1,105,8|0,0:0|0:0,0:0:0:0:
55,74,76402,86,0,B|117:105|149:72|161:72|193:41|257:70,1,210,8|8,0:0|0:0,0:0:0:0:
55,74,77402,1,0,0:0:0:0:
55,74,77568,2,0,B|117:105|149:72|161:72|193:40|255:69|255:69|280:83|292:110,1,262.5,8|8,0:0|0:0,0:0:0:0:
208,156,78735,1,0,0:0:0:0:
208,156,78902,1,8,0:0:0:0:
208,156,79068,5,2,0:0:0:0:
208,156,79735,2,0,P|191:205|182:257,1,105,8|0,0:0|0:0,0:0:0:0:
357,301,80235,2,0,P|322:261|282:228,1,105,8|0,0:0|0:0,0:0:0:0:
156,357,80735,2,0,P|207:346|256:328,2,105,0|8|0,0:0|0:0|0:0,0:0:0:0:
134,82,81735,86,0,P|100:181|82:284,1,210,2|8,0:0|0:0,0:0:0:0:
134,82,82735,1,0,0:0:0:0:
134,82,82902,2,0,P|100:181|79:344,1,262.5,8|8,0:0|0:0,0:0:0:0:
257,329,84402,5,8,0:0:0:0:
268,312,84735,2,0,P|259:260|242:210,1,105,0|8,0:0|0:0,0:0:0:0:
288,82,85402,1,0,0:0:0:0:
288,82,85568,2,0,P|361:109|438:124,1,157.5,8|0,0:0|0:0,0:0:0:0:
418,260,86402,2,0,P|377:293|343:332,1,105,8|0,0:0|0:0,0:0:0:0:
137,168,87068,86,0,L|348:186,1,210,8|8,0:0|0:0,0:0:0:0:
137,168,88068,1,0,0:0:0:0:
137,168,88235,2,0,L|408:192,1,262.5,8|8,0:0|0:0,0:0:0:0:
343,333,89402,1,0,0:0:0:0:
343,333,89569,1,8,0:0:0:0:
343,333,89735,5,2,0:0:0:0:
343,333,90402,2,0,P|291:341|241:359,1,105,8|0,0:0|0:0,0:0:0:0:
112,232,90902,2,0,P|163:240|213:258,1,105,8|0,0:0|0:0,0:0:0:0:
343,131,91402,2,0,P|291:139|241:157,2,105,0|8|0,0:0|0:0|0:0,0:0:0:0:
425,284,92402,86,0,B|393:221|426:189|426:177|457:145|428:81,1,210,8|8,0:0|0:0,0:0:0:0:
425,284,93402,1,0,0:0:0:0:
425,284,93568,2,0,P|412:233|426:183,1,105,8|0,0:0|0:0,0:0:0:0:
230,34,93985,22,0,B|277:22|350:45|338:150|275:176|275:176|221:199|172:242|187:371|297:385|354:378|367:291|367:291|399:220|468:201|532:313|464:375|320:361|293:234,1,945.000036048891
303,264,95068,6,0,L|324:92,1,157.5,6|0,0:0|0:0,0:0:0:0:
322,108,95402,2,0,L|243:128,1,52.5,6|0,0:0|0:0,0:0:0:0:
230,34,95568,1,4,0:0:0:0:
90,189,95735,2,0,P|153:191|233:272,1,157.5,10|0,0:0|0:0,0:0:0:0:
223,249,96068,2,0,L|202:323,1,52.5,10|0,0:0|0:0,0:0:0:0:
17,271,96235,2,0,L|0:104,1,157.5,4|0,0:0|0:0,0:0:0:0:
1,114,96568,5,4,0:0:0:0:
130,39,96735,1,2,0:0:0:0:
95,189,96902,1,4,0:0:0:0:
78,51,97068,1,8,0:0:0:0:
130,39,97152,1,8,0:0:0:0:
183,28,97235,2,0,L|261:40,1,52.5,4|4,0:0|0:0,0:0:0:0:
337,119,97402,1,8,0:0:0:0:
215,159,97568,1,0,0:0:0:0:
376,27,97735,6,0,P|434:98|405:196,1,157.5,6|0,0:0|0:0,0:0:0:0:
429,159,98068,2,0,L|344:146,1,52.5,6|0,0:0|0:0,0:0:0:0:
378,275,98235,1,4,0:0:0:0:
215,159,98402,2,0,L|247:350,1,157.5,10|0,0:0|0:0,0:0:0:0:
241,314,98735,2,0,L|189:305,1,52.5,10|0,0:0|0:0,0:0:0:0:
1,149,98902,2,0,B|100:149|64:191|165:195,1,157.5,4|0,0:0|0:0,0:0:0:0:
150,194,99235,5,4,0:0:0:0:
101,44,99402,1,2,0:0:0:0:
50,299,99568,1,4,3:0:0:0:
1,149,99735,1,8,3:0:0:0:
68,112,99846,1,8,3:0:0:0:
144,106,99957,1,8,0:0:0:0:
215,132,100068,1,8,0:0:0:0:
291,126,100180,1,8,0:0:0:0:
358,89,100291,1,8,0:0:0:0:
404,27,100402,38,0,P|352:101|340:201,1,157.5,6|0,0:0|0:0,0:0:0:0:
338,165,100735,2,0,L|411:153,1,52.5,6|0,0:0|0:0,0:0:0:0:
480,241,100902,1,4,0:0:0:0:
290,328,101068,2,0,L|248:152,1,157.5,14|0,0:0|0:0,0:0:0:0:
253,174,101402,2,0,L|201:165,1,52.5,10|0,0:0|0:0,0:0:0:0:
42,283,101568,2,0,P|84:252|202:259,1,157.5,4|0,0:0|0:0,0:0:0:0:
185,250,101902,5,4,0:0:0:0:
125,343,102068,1,2,0:0:0:0:
92,147,102235,1,4,0:0:0:0:
247,332,102402,5,8,0:0:0:0:
274,287,102485,1,8,0:0:0:0:
275,234,102568,1,4,0:0:0:0:
248,187,102652,1,4,0:0:0:0:
221,141,102735,1,8,0:0:0:0:
221,88,102818,1,8,0:0:0:0:
259,51,102902,1,4,0:0:0:0:
311,47,102985,1,4,0:0:0:0:
362,72,103068,6,0,L|320:262,1,157.5,6|0,0:0|0:0,0:0:0:0:
328,225,103402,2,0,L|418:203,1,52.5,6|0,0:0|0:0,0:0:0:0:
396,353,103568,1,4,0:0:0:0:
215,262,103735,2,0,B|147:256|147:256|55:302,1,157.5,10|0,0:0|0:0,0:0:0:0:
67,295,104068,2,0,L|57:367,1,52.5,10|0,0:0|0:0,0:0:0:0:
130,181,104235,2,0,L|103:23,1,157.5,4|0,0:0|0:0,0:0:0:0:
103,25,104568,5,4,0:0:0:0:
196,80,104735,1,2,0:0:0:0:
45,148,104902,1,4,0:0:0:0:
265,200,105068,1,8,0:0:0:0:
274,148,105152,1,8,0:0:0:0:
284,96,105235,2,0,L|275:41,1,52.5,4|4,0:0|0:0,0:0:0:0:
372,329,105402,1,10,0:0:0:0:
372,329,105735,5,6,0:0:0:0:
356,235,105902,1,0,0:0:0:0:
431,172,106068,2,0,P|447:122|458:70,1,105,10|0,0:0|0:0,0:0:0:0:
283,161,106402,2,0,P|317:200|356:235,1,105,6|4,0:0|0:0,0:0:0:0:
342,58,106735,1,10,0:0:0:0:
342,58,106902,1,0,0:0:0:0:
153,70,107068,6,0,L|140:227,1,157.5,6|0,0:0|0:0,0:0:0:0:
140,226,107402,1,10,0:0:0:0:
10,137,107568,1,4,0:0:0:0:
10,137,107735,1,2,0:0:0:0:
160,52,107902,1,4,0:0:0:0:
283,161,108068,2,0,L|335:160,1,52.5,10|0,0:0|0:0,0:0:0:0:
336,48,108235,2,0,L|283:47,1,52.5,2|0,0:0|0:0,0:0:0:0:
181,135,108402,86,0,B|188:189|188:189|208:236,1,105,6|0,0:0|0:0,0:0:0:0:
412,232,108735,2,0,B|432:185|432:185|439:131,1,105,10|0,0:0|0:0,0:0:0:0:
283,47,109068,1,6,0:0:0:0:
336,160,109235,1,4,3:0:0:0:
160,52,109402,1,10,0:0:0:0:
160,52,109568,1,0,3:0:0:0:
336,160,109735,6,0,L|493:147,1,157.5,6|0,0:0|0:0,0:0:0:0:
492,147,110068,1,10,0:0:0:0:
300,294,110235,1,4,0:0:0:0:
300,294,110402,1,2,0:0:0:0:
191,111,110568,1,4,0:0:0:0:
300,294,110735,2,0,P|279:223|263:204,1,52.5,10|0,0:0|0:0,0:0:0:0:
336,160,110902,2,0,P|264:142|239:147,1,52.5,2|0,0:0|0:0,0:0:0:0:
126,190,111068,86,0,P|183:132|193:105,1,105,6|0,0:0|0:0,0:0:0:0:
0,84,111402,2,0,P|47:102|100:101,1,105,10|0,0:0|0:0,0:0:0:0:
256,32,111735,1,6,0:0:0:0:
126,190,111902,1,4,0:0:0:0:
328,224,112068,1,10,0:0:0:0:
328,224,112235,1,0,0:0:0:0:
256,32,112402,6,0,L|98:42,1,157.5,6|0,0:0|0:0,0:0:0:0:
99,41,112735,1,10,0:0:0:0:
126,190,112902,1,4,0:0:0:0:
126,190,113068,1,2,0:0:0:0:
334,171,113235,2,0,P|413:150|432:140,1,52.5,6|0,0:0|0:0,0:0:0:0:
300,76,113402,2,0,P|276:102|256:133,1,52.5,10|0,0:0|0:0,0:0:0:0:
306,272,113568,2,0,P|282:244|262:214,1,52.5,2|0,0:0|0:0,0:0:0:0:
261,0,113735,86,0,P|221:34|186:73,1,105,6|0,0:0|0:0,0:0:0:0:
192,274,114068,2,0,P|227:313|267:348,1,105,10|0,0:0|0:0,0:0:0:0:
334,171,114402,1,6,0:0:0:0:
453,318,114568,1,4,0:0:0:0:
241,167,114735,1,10,0:0:0:0:
241,167,114902,1,0,0:0:0:0:
453,318,115068,6,0,P|484:244|466:161,1,157.5,6|0,0:0|0:0,0:0:0:0:
470,170,115402,6,0,B|408:137|357:167|335:215|335:215|315:246|301:266|251:300|167:281|136:193,1,393.75,2|4,0:0|0:0,0:0:0:0:
54,32,116068,1,10,0:0:0:0:
40,48,116402,69,6,0:0:0:0:
125,86,116568,1,0,0:0:0:0:
199,30,116735,2,0,P|249:13|300:3,1,105,10|0,0:0|0:0,0:0:0:0:
475,85,117068,2,0,P|425:68|374:58,1,105,6|4,0:0|0:0,0:0:0:0:
199,140,117402,1,10,0:0:0:0:
199,140,117568,1,0,0:0:0:0:
475,195,117735,6,0,P|400:169|323:154,1,157.5,6|0,0:0|0:0,0:0:0:0:
323,154,118068,1,10,0:0:0:0:
199,250,118235,1,4,0:0:0:0:
199,250,118402,1,2,0:0:0:0:
199,30,118568,1,4,0:0:0:0:
56,89,118735,2,0,L|66:141,1,52.5,6|0,0:0|0:0,0:0:0:0:
36,240,118902,2,0,L|25:291,1,52.5,2|0,0:0|0:0,0:0:0:0:
171,350,119068,86,0,B|225:343|225:343|272:323,1,105,6|0,0:0|0:0,0:0:0:0:
273,176,119402,2,0,B|226:156|226:156|172:149,1,105,10|0,0:0|0:0,0:0:0:0:
199,250,119735,1,6,0:0:0:0:
245,75,119902,1,4,0:0:0:0:
374,202,120068,1,10,0:0:0:0:
374,202,120235,1,0,0:0:0:0:
158,5,120402,6,0,P|138:69|182:157,1,157.5,6|0,0:0|0:0,0:0:0:0:
172,148,120735,1,10,0:0:0:0:
54,232,120902,1,4,0:0:0:0:
54,232,121068,1,2,0:0:0:0:
39,88,121235,1,4,0:0:0:0:
187,293,121402,2,0,P|212:297|239:296,1,52.5,6|0,0:0|0:0,0:0:0:0:
306,374,121568,2,0,P|322:353|335:330,1,52.5,2|0,0:0|0:0,0:0:0:0:
263,136,121735,86,0,P|286:183|315:226,1,105,6|0,0:0|0:0,0:0:0:0:
430,38,122068,2,0,P|401:81|378:129,1,105,10|0,0:0|0:0,0:0:0:0:
414,261,122402,1,6,0:0:0:0:
263,136,122568,1,4,0:0:0:0:
512,146,122734,1,10,0:0:0:0:
512,146,122902,1,0,0:0:0:0:
283,26,123068,6,0,L|126:13,1,157.5,6|0,0:0|0:0,0:0:0:0:
126,13,123402,1,10,0:0:0:0:
49,185,123568,1,4,0:0:0:0:
49,185,123735,1,2,0:0:0:0:
237,117,123902,2,0,L|183:113,1,52.5,6|0,0:0|0:0,0:0:0:0:
49,185,124068,2,0,L|103:181,1,52.5,10|0,0:0|0:0,0:0:0:0:
283,26,124235,2,0,L|229:22,1,52.5,2|0,0:0|0:0,0:0:0:0:
95,276,124402,86,0,B|148:272|148:272|210:288,1,105,6|0,0:0|0:0,0:0:0:0:
374,382,124735,2,0,B|321:386|321:386|259:370,1,105,10|0,0:0|0:0,0:0:0:0:
226,184,125068,1,6,0:0:0:0:
170,384,125235,1,4,0:0:0:0:
327,173,125402,1,10,0:0:0:0:
327,173,125568,1,0,0:0:0:0:
141,269,125735,6,0,P|108:204|123:124,1,157.5,6|0,0:0|0:0,0:0:0:0:
123,123,126068,1,10,0:0:0:0:
284,266,126235,1,4,0:0:0:0:
6,153,126402,5,10,0:0:0:0:
4,101,126485,1,8,0:0:0:0:
24,54,126568,1,4,0:0:0:0:
63,19,126651,1,4,0:0:0:0:
114,3,126735,2,0,B|160:0|160:0|196:8|196:8|259:1,1,131.25,2|4,0:0|0:0,0:0:0:0:
372,221,127068,5,4,0:0:0:0:
372,221,127235,1,4,0:0:0:0:
87,306,127402,2,0,B|51:289|51:289|129:279|129:279|190:228,1,183.750001752377,10|4,0:0|0:0,0:0:0:0:
285,76,127735,5,4,0:0:0:0:
370,361,127902,2,0,B|409:355|409:355|337:322|337:322|294:256,1,183.750001752377,10|4,0:0|0:0,0:0:0:0:
141,162,128235,5,4,0:0:0:0:
425,78,128402,2,0,B|461:95|461:95|383:105|383:105|322:156,1,183.750001752377,10|4,0:0|0:0,0:0:0:0:
228,306,128735,5,4,0:0:0:0:
142,23,128902,2,0,B|159:-13|159:-13|169:65|169:65|220:126,1,183.750001752377,10|4,0:0|0:0,0:0:0:0:
228,306,129235,1,4,0:0:0:0:
285,76,129402,37,10,0:0:0:0:
141,162,129568,1,4,0:0:0:0:
372,221,129735,5,4,0:0:0:0:
372,221,129902,1,4,0:0:0:0:
142,24,130068,2,0,B|102:29|102:29|174:61|174:61|218:126,1,183.750001752377,10|4,0:0|0:0,0:0:0:0:
227,307,130402,5,4,0:0:0:0:
425,78,130568,2,0,B|418:38|418:38|386:110|386:110|321:154,1,183.750001752377,10|4,0:0|0:0,0:0:0:0:
141,162,130902,5,4,0:0:0:0:
370,361,131068,2,0,B|409:355|409:355|337:322|337:322|294:256,1,183.750001752377,10|4,0:0|0:0,0:0:0:0:
286,77,131402,5,4,0:0:0:0:
87,305,131568,2,0,B|92:344|92:344|125:272|125:272|191:229,1,183.750001752377,10|8,0:0|0:0,0:0:0:0:
227,307,131819,1,8,0:0:0:0:
251,336,131902,1,4,0:0:0:0:
286,351,131986,1,4,0:0:0:0:
324,349,132069,1,8,0:0:0:0:
357,331,132152,1,8,0:0:0:0:
379,301,132235,1,4,0:0:0:0:
386,264,132318,1,4,0:0:0:0:
376,228,132402,38,0,B|368:169|368:169|382:132|382:132|374:74,1,157.5,6|0,0:0|0:0,0:0:0:0:
374,74,132735,1,10,0:0:0:0:
89,37,133068,2,0,L|193:30,1,105,6|6,0:0|0:0,0:0:0:0:
301,122,133402,1,10,0:0:0:0:
301,122,133568,2,0,L|196:115,1,105,6|2,0:0|0:0,0:0:0:0:
171,301,133902,5,6,0:0:0:0:
170,301,134068,2,0,P|175:251|203:185,1,105,10|2,0:0|0:0,0:0:0:0:
368,241,134402,2,0,P|320:262|268:271,1,105,6|6,3:0|3:0,3:0:0:0:
392,140,134735,2,0,P|432:169|475:226,1,105,10|2,0:0|0:0,0:0:0:0:
399,340,135068,6,0,P|347:348|299:370,1,105,6|2,3:0|3:0,3:0:0:0:
291,169,135402,2,0,L|257:56,1,105,10|2,0:0|0:0,0:0:0:0:
269,271,135735,1,6,0:0:0:0:
189,145,135902,1,6,0:0:0:0:
197,347,136068,1,10,0:0:0:0:
261,68,136235,2,0,L|428:53,1,157.5,6|0,0:0|0:0,0:0:0:0:
417,54,136568,5,6,0:0:0:0:
162,43,136735,1,10,0:0:0:0:
162,43,137068,1,8,0:0:0:0:
205,85,137151,1,8,0:0:0:0:
190,141,137235,1,4,0:0:0:0:
134,156,137318,1,4,0:0:0:0:
91,114,137402,1,8,0:0:0:0:
106,58,137735,5,4,3:0:0:0:
106,58,137902,1,4,3:0:0:0:
418,0,138068,2,0,B|448:25|448:25|370:15|370:15|298:48,1,183.750001752377,10|4,0:0|0:0,0:0:0:0:
79,163,138402,37,4,3:0:0:0:
381,139,138568,2,0,B|400:104|400:104|331:140|331:140|251:134,1,183.750001752377,10|4,0:0|0:0,0:0:0:0:
48,268,138902,5,4,3:0:0:0:
312,235,139068,2,0,B|342:260|342:260|264:250|264:250|192:283,1,183.750001752377,10|4,0:0|0:0,0:0:0:0:
5,371,139402,5,4,3:0:0:0:
275,374,139568,2,0,B|294:339|294:339|225:375|225:375|145:369,1,183.750001752377,10|4,0:0|0:0,0:0:0:0:
5,106,139902,5,4,0:0:0:0:
205,278,140068,1,10,0:0:0:0:
247,147,140235,1,4,3:0:0:0:
378,322,140402,5,4,3:0:0:0:
378,322,140569,1,4,3:0:0:0:
94,384,140735,2,0,B|63:358|63:358|141:368|141:368|213:335,1,183.750001752377,10|4,0:0|0:0,0:0:0:0:
421,219,141069,37,4,3:0:0:0:
131,245,141235,2,0,B|111:279|111:279|180:243|180:243|260:249,1,183.750001752377,10|4,0:0|0:0,0:0:0:0:
464,116,141569,5,4,3:0:0:0:
200,149,141735,2,0,B|169:123|169:123|247:133|247:133|319:100,1,183.750001752377,10|4,0:0|0:0,0:0:0:0:
507,13,142069,5,4,3:0:0:0:
237,10,142235,2,0,B|217:44|217:44|286:8|286:8|366:14,1,183.750001752377,10|8,0:0|0:0,0:0:0:0:
404,72,142485,1,8,0:0:0:0:
378,146,142569,1,4,0:0:0:0:
300,160,142652,1,4,0:0:0:0:
276,193,142735,1,8,0:0:0:0:
274,234,142818,1,8,0:0:0:0:
292,269,142902,1,4,0:0:0:0:
326,292,142985,1,4,0:0:0:0:
366,294,143068,6,0,B|278:269|289:330|187:306,1,157.5,6|0,0:0|0:0,0:0:0:0:
213,311,143402,1,10,0:0:0:0:
112,179,143735,2,0,P|162:188|215:182,1,105,6|6,0:0|0:0,0:0:0:0:
215,27,144068,1,10,0:0:0:0:
215,27,144235,2,0,P|164:17|111:23,1,105,6|2,0:0|0:0,0:0:0:0:
284,105,144568,5,6,0:0:0:0:
284,105,144735,2,0,L|388:94,1,105,10|2,0:0|0:0,0:0:0:0:
496,220,145068,2,0,L|391:209,1,105,6|6,0:0|0:0,0:0:0:0:
285,337,145402,2,0,L|389:326,1,105,10|2,0:0|0:0,0:0:0:0:
186,263,145735,38,0,P|167:311|164:363,1,105,6|2,0:0|0:0,0:0:0:0:
284,105,146068,1,10,0:0:0:0:
284,105,146235,2,0,P|303:153|306:205,1,105,2|6,0:0|0:0,0:0:0:0:
285,337,146568,1,6,0:0:0:0:
404,132,146734,1,10,0:0:0:0:
119,274,146902,6,0,L|148:119,1,157.5,4|0,0:0|0:0,0:0:0:0:
147,119,147235,1,4,0:0:0:0:
402,269,147402,1,4,0:0:0:0:
120,274,148402,5,6,0:0:0:0:
319,213,148568,1,10,0:0:0:0:
156,68,148735,2,0,L|145:161,2,78.7500030040742,6|4|10,0:0|0:0|0:0,0:0:0:0:
313,305,149068,1,6,0:0:0:0:
259,67,149235,1,10,0:0:0:0:
415,259,149402,2,0,L|424:180,2,78.7500030040742,6|4|10,0:0|0:0|0:0,0:0:0:0:
239,253,149735,5,6,0:0:0:0:
440,96,149902,1,10,0:0:0:0:
313,305,150068,2,0,L|330:384,2,78.7500030040742,6|4|10,0:0|0:0|0:0,0:0:0:0:
274,90,150402,1,4,0:0:0:0:
233,342,150568,2,0,P|131:309|109:307,1,78.7500030040742,10|4,0:0|0:0,0:0:0:0:
32,222,150735,1,2,0:0:0:0:
32,222,150818,1,4,0:0:0:0:
32,222,150902,2,0,P|69:210|105:194,1,78.7500030040742,10|0,0:0|0:0,0:0:0:0:
274,90,151068,6,0,L|255:221,1,78.7500030040742,6|0,0:0|0:0,0:0:0:0:
176,12,151235,1,10,0:0:0:0:
353,151,151402,1,6,0:0:0:0:
353,151,151485,1,4,0:0:0:0:
353,151,151568,2,0,L|449:132,1,78.7500030040742,10|0,0:0|0:0,0:0:0:0:
163,127,151735,1,4,0:0:0:0:
251,350,151902,1,10,0:0:0:0:
482,252,152068,1,6,0:0:0:0:
482,252,152152,1,4,0:0:0:0:
482,252,152235,2,0,L|404:236,1,78.7500030040742,10|0,0:0|0:0,0:0:0:0:
259,358,152402,37,6,0:0:0:0:
259,358,152486,1,0,0:0:0:0:
259,358,152569,2,0,L|336:342,1,78.7500030040742,10|0,0:0|0:0,0:0:0:0:
211,154,152735,2,0,P|171:242|175:267,1,78.7500030040742,6|4,0:0|0:0,0:0:0:0:
78,227,152902,2,0,P|134:305|157:314,1,78.7500030040742,10|0,0:0|0:0,0:0:0:0:
289,213,153068,2,0,L|312:105,1,78.7500030040742,4|0,0:0|0:0,0:0:0:0:
106,45,153235,2,0,L|122:122,1,78.7500030040742,10|4,0:0|0:0,0:0:0:0:
327,52,153402,1,2,0:0:0:0:
272,49,153485,1,4,0:0:0:0:
224,76,153568,2,0,L|203:193,1,78.7500030040742,10|0,0:0|0:0,0:0:0:0:
176,333,153735,5,6,0:0:0:0:
223,305,153818,1,0,0:0:0:0:
278,299,153902,1,10,0:0:0:0:
331,310,153985,1,0,0:0:0:0:
377,338,154068,1,6,0:0:0:0:
432,342,154152,1,4,0:0:0:0:
480,315,154235,1,10,0:0:0:0:
500,263,154318,1,0,0:0:0:0:
492,207,154402,1,6,0:0:0:0:
451,169,154485,1,4,0:0:0:0:
427,119,154568,1,10,0:0:0:0:
428,63,154652,1,4,0:0:0:0:
456,16,154735,6,0,L|546:5,1,78.7500030040742,6|4,0:0|0:0,0:0:0:0:
332,107,154902,2,0,L|253:97,1,78.7500030040742,10|4,0:0|0:0,0:0:0:0:
49,51,155068,5,6,0:0:0:0:
108,29,155152,1,0,0:0:0:0:
169,41,155235,1,10,0:0:0:0:
205,91,155318,1,0,0:0:0:0:
206,154,155402,1,6,0:0:0:0:
171,206,155485,1,4,0:0:0:0:
139,260,155568,1,10,0:0:0:0:
141,323,155652,1,0,0:0:0:0:
178,373,155735,1,6,0:0:0:0:
239,384,155818,1,4,0:0:0:0:
296,357,155902,1,10,0:0:0:0:
318,298,155985,1,4,0:0:0:0:
267,260,156068,6,0,L|181:277,1,78.7500030040742,6|4,0:0|0:0,0:0:0:0:
416,325,156235,2,0,L|493:340,1,78.7500030040742,10|4,0:0|0:0,0:0:0:0:
397,49,156402,37,6,0:0:0:0:
353,104,156485,1,0,0:0:0:0:
357,174,156568,1,10,0:0:0:0:
409,222,156652,1,0,0:0:0:0:
479,229,156735,1,6,0:0:0:0:
427,180,156818,1,4,0:0:0:0:
355,174,156902,1,10,0:0:0:0:
287,196,156985,1,0,0:0:0:0:
238,247,157068,1,6,0:0:0:0:
185,295,157152,1,4,0:0:0:0:
114,304,157235,1,10,0:0:0:0:
50,273,157318,1,4,0:0:0:0:
35,203,157402,6,0,L|57:93,1,78.7500030040742,6|4,0:0|0:0,0:0:0:0:
185,295,157568,2,0,L|200:372,1,78.7500030040742,10|4,0:0|0:0,0:0:0:0:
153,117,157735,5,6,0:0:0:0:
48,356,157902,1,8,0:0:0:0:
48,356,157986,1,0,0:0:0:0:
48,356,158069,1,4,0:0:0:0:
5,36,158235,1,8,0:0:0:0:
256,320,158402,5,8,0:0:0:0:
331,301,158485,1,8,0:0:0:0:
375,236,158568,1,4,0:0:0:0:
369,156,158652,1,4,0:0:0:0:
321,93,158735,1,4,0:0:0:0:
243,80,158818,1,4,0:0:0:0:
170,113,158902,1,4,0:0:0:0:
247,119,158985,1,4,0:0:0:0:
321,93,159068,5,6,0:0:0:0:
256,320,159235,1,10,0:0:0:0:
78,134,159402,2,0,L|99:26,2,78.7500030040742,6|4|10,0:0|0:0|0:0,0:0:0:0:
252,217,159735,1,6,0:0:0:0:
50,359,159902,1,10,0:0:0:0:
226,120,160068,2,0,P|324:139|344:153,2,78.7500030040742,6|4|10,0:0|0:0|0:0,0:0:0:0:
149,344,160402,37,6,0:0:0:0:
101,98,160568,1,10,0:0:0:0:
274,305,160735,2,0,L|258:392,2,78.7500030040742,6|4|10,0:0|0:0|0:0,0:0:0:0:
84,262,161068,1,4,0:0:0:0:
303,128,161235,2,0,L|402:143,1,78.7500030040742,10|4,0:0|0:0,0:0:0:0:
461,232,161402,1,2,0:0:0:0:
461,232,161485,1,4,0:0:0:0:
461,232,161568,2,0,L|383:243,1,78.7500030040742,10|0,0:0|0:0,0:0:0:0:
203,132,161735,6,0,P|237:45|258:27,1,78.7500030040742,6|0,0:0|0:0,0:0:0:0:
274,305,161902,1,10,0:0:0:0:
115,165,162068,1,6,0:0:0:0:
115,165,162152,1,4,0:0:0:0:
115,165,162235,2,0,L|23:184,1,78.7500030040742,10|0,0:0|0:0,0:0:0:0:
44,44,162402,1,4,0:0:0:0:
86,285,162568,1,10,0:0:0:0:
305,227,162735,1,6,0:0:0:0:
305,227,162819,1,4,0:0:0:0:
305,227,162902,2,0,L|397:246,1,78.7500030040742,10|0,0:0|0:0,0:0:0:0:
249,324,163068,5,6,0:0:0:0:
249,324,163152,1,0,0:0:0:0:
249,324,163235,2,0,L|171:339,1,78.7500030040742,10|0,0:0|0:0,0:0:0:0:
165,145,163402,2,0,P|200:231|182:282,1,78.7500030040742,6|4,0:0|0:0,0:0:0:0:
86,285,163568,2,0,P|61:254|51:216,1,78.7500030040742,10|0,0:0|0:0,0:0:0:0:
99,78,163735,2,0,P|197:58|218:69,1,78.7500030040742,4|0,0:0|0:0,0:0:0:0:
258,0,163902,2,0,P|324:74|325:98,1,78.7500030040742,10|4,0:0|0:0,0:0:0:0:
409,147,164068,1,2,0:0:0:0:
399,201,164152,1,4,0:0:0:0:
388,254,164235,2,0,L|372:354,1,78.7500030040742,10|0,0:0|0:0,0:0:0:0:
147,182,164402,6,0,P|228:190|205:355,1,236.250009012223,6|0,0:0|0:0,0:0:0:0:
110,286,164735,1,6,0:0:0:0:
110,286,164818,1,4,0:0:0:0:
110,286,164902,2,0,P|157:278|214:239,1,78.7500030040742,10|0,0:0|0:0,0:0:0:0:
86,56,165068,6,0,B|11:32|11:32|58:190,1,236.250009012223,6|0,0:0|0:0,0:0:0:0:
197,96,165402,1,6,0:0:0:0:
197,96,165485,1,4,0:0:0:0:
197,96,165568,2,0,L|210:3,1,78.7500030040742,10|0,0:0|0:0,0:0:0:0:
449,125,165735,38,0,B|317:117|357:197|201:189,1,236.250009012223,6|0,0:0|0:0,0:0:0:0:
323,22,166068,1,6,0:0:0:0:
323,22,166152,1,4,0:0:0:0:
323,22,166235,2,0,P|403:39|417:45,1,78.7500030040742,10|0,0:0|0:0,0:0:0:0:
410,331,166402,6,0,P|403:221|342:107,1,236.250009012223,6|0,0:0|0:0,0:0:0:0:
285,217,166735,1,6,0:0:0:0:
285,217,166818,1,4,0:0:0:0:
285,217,166902,2,0,P|311:307|311:337,1,78.7500030040742,10|0,0:0|0:0,0:0:0:0:
185,330,167068,6,0,P|169:293|160:255,1,78.7500030040742,14|0,0:0|0:0,0:0:0:0:
51,107,167235,1,8,0:0:0:0:
116,63,167318,1,8,0:0:0:0:
195,66,167402,1,8,0:0:0:0:
259,110,167485,1,8,0:0:0:0:
322,156,167568,1,8,0:0:0:0:
400,165,167652,1,8,0:0:0:0:
467,124,167735,5,8,0:0:0:0:
388,118,167818,1,8,0:0:0:0:
322,156,167902,1,8,0:0:0:0:
296,230,167985,1,8,0:0:0:0:
306,307,168068,1,8,0:0:0:0:
364,360,168152,1,8,0:0:0:0:
442,364,168235,1,8,0:0:0:0:
503,314,168318,1,8,0:0:0:0:
428,286,168402,5,12,0:0:0:0:
482,22,168624,1,12,0:0:0:0:
362,360,168846,1,12,0:0:0:0:
215,48,169068,1,6,0:0:0:0:
96,382,169402,37,8,0:0:0:0:
131,340,169485,1,8,0:0:0:0:
141,286,169568,1,8,0:0:0:0:
122,234,169652,1,8,0:0:0:0:
79,198,169735,6,0,L|61:104,1,78.7500030040742,6|0,0:0|0:0,0:0:0:0:
96,382,169902,1,8,0:0:0:0:
247,276,170068,1,6,0:0:0:0:
247,276,170152,1,4,0:0:0:0:
247,276,170235,1,8,0:0:0:0:
77,59,170402,2,0,L|64:120,2,62.9999980773926,6|4|8,0:0|0:0|0:0,0:0:0:0:
268,171,170735,2,0,P|197:182|165:209,1,78.7500030040742,6|0,0:0|0:0,0:0:0:0:
268,381,170902,2,0,P|197:370|165:343,1,78.7500030040742,8|0,0:0|0:0,0:0:0:0:
329,277,171068,5,6,0:0:0:0:
139,275,171235,1,8,0:0:0:0:
369,136,171402,1,6,0:0:0:0:
369,136,171485,1,4,0:0:0:0:
369,136,171568,2,0,P|349:100|319:76,1,78.7500030040742,8|0,0:0|0:0,0:0:0:0:
450,205,171735,5,6,0:0:0:0:
450,205,171818,1,4,0:0:0:0:
450,205,171902,2,0,P|470:170|476:132,1,78.7500030040742,8|4,0:0|0:0,0:0:0:0:
268,171,172068,1,6,0:0:0:0:
268,171,172152,1,4,0:0:0:0:
268,171,172235,2,0,L|253:255,1,78.7500030040742,8|4,0:0|0:0,0:0:0:0:
359,379,172402,6,0,L|345:301,1,78.7500030040742,6|0,0:0|0:0,0:0:0:0:
105,214,172568,2,0,P|143:209|194:192,1,78.7500030040742,8|0,0:0|0:0,0:0:0:0:
281,93,172735,1,6,0:0:0:0:
170,308,172902,1,8,0:0:0:0:
118,77,173068,2,0,L|105:11,2,62.9999980773926,6|4|8,0:0|0:0|0:0,0:0:0:0:
7,292,173402,1,6,0:0:0:0:
287,233,173568,38,0,B|405:240|404:306|509:304,1,236.250009012223,10|4,0:0|0:0,0:0:0:0:
509,305,173902,2,0,L|491:207,1,78.7500030040742,10|4,0:0|0:0,0:0:0:0:
183,224,174068,1,6,0:0:0:0:
193,278,174151,1,4,0:0:0:0:
228,320,174234,1,10,0:0:0:0:
218,266,174318,1,4,0:0:0:0:
183,224,174402,5,6,0:0:0:0:
131,205,174485,1,4,0:0:0:0:
77,214,174568,1,10,0:0:0:0:
129,233,174652,1,4,0:0:0:0:
183,224,174735,1,6,0:0:0:0:
224,188,174818,1,4,0:0:0:0:
243,137,174902,1,10,0:0:0:0:
201,172,174985,1,8,0:0:0:0:
183,224,175068,6,0,L|201:312,1,78.7500030040742,6|0,0:0|0:0,0:0:0:0:
303,50,175235,1,8,3:0:0:0:
305,311,175402,1,6,0:0:0:0:
305,311,175485,1,4,0:0:0:0:
305,311,175568,1,8,0:0:0:0:
197,41,175735,2,0,L|135:25,2,62.9999980773926,6|4|8,0:0|0:0|0:0,0:0:0:0:
408,76,176068,2,0,P|399:4|373:-28,1,78.7500030040742,6|0,0:0|0:0,0:0:0:0:
437,179,176235,2,0,P|494:135|510:97,1,78.7500030040742,8|0,0:0|0:0,0:0:0:0:
303,50,176402,5,6,0:0:0:0:
183,224,176568,1,8,0:0:0:0:
27,82,176735,1,6,0:0:0:0:
27,82,176818,1,4,0:0:0:0:
27,82,176902,2,0,P|66:88|104:98,1,78.7500030040742,8|0,0:0|0:0,0:0:0:0:
191,232,177068,5,6,0:0:0:0:
191,232,177151,1,4,0:0:0:0:
191,232,177235,2,0,P|152:238|114:248,1,78.7500030040742,8|4,0:0|0:0,0:0:0:0:
14,369,177402,1,6,0:0:0:0:
14,369,177485,1,4,0:0:0:0:
14,369,177569,2,0,P|53:375|91:385,1,78.7500030040742,8|4,0:0|0:0,0:0:0:0:
284,247,177735,38,0,L|274:168,1,78.7500030040742,6|0,0:0|0:0,0:0:0:0:
375,34,177902,2,0,L|365:113,1,78.7500030040742,8|0,0:0|0:0,0:0:0:0:
188,128,178068,1,6,0:0:0:0:
383,270,178235,1,8,0:0:0:0:
189,277,178402,2,0,L|127:289,2,62.9999980773926,6|4|8,0:0|0:0|0:0,0:0:0:0:
39,177,178735,1,6,0:0:0:0:
238,372,178902,6,0,P|294:275|234:181,1,236.250009012223,10|4,0:0|0:0,0:0:0:0:
234,181,179235,2,0,L|327:147,1,78.7500030040742,10|4,0:0|0:0,0:0:0:0:
190,277,179402,1,6,0:0:0:0:
147,311,179486,1,4,0:0:0:0:
93,320,179569,1,10,0:0:0:0:
41,301,179652,1,4,0:0:0:0:
5,258,179736,6,0,L|-10:179,1,78.7500030040742,8|0,0:0|0:0,0:0:0:0:
35,84,179902,2,0,L|53:-14,1,78.7500030040742,8|0,0:0|0:0,0:0:0:0:
190,277,180068,1,8,0:0:0:0:
220,103,180235,1,4,0:0:0:0:
375,296,180402,6,0,L|407:93,1,157.5,6|0,0:0|0:0,0:0:0:0:
399,140,180735,2,0,L|320:160,1,52.5,6|0,0:0|0:0,0:0:0:0:
220,103,180902,1,4,0:0:0:0:
427,31,181068,2,0,P|480:64|509:174,1,157.5,10|0,0:0|0:0,0:0:0:0:
512,150,181402,2,0,L|503:202,1,52.5,10|0,0:0|0:0,0:0:0:0:
375,296,181568,2,0,L|218:280,1,157.5,4|0,0:0|0:0,0:0:0:0:
218,280,181902,5,4,0:0:0:0:
310,152,182068,1,2,0:0:0:0:
218,23,182235,1,4,0:0:0:0:
258,140,182402,1,8,0:0:0:0:
310,152,182486,1,8,0:0:0:0:
363,163,182569,2,0,L|441:151,1,52.5,8|4,0:0|0:0,0:0:0:0:
512,85,182735,1,8,0:0:0:0:
360,66,182902,1,4,0:0:0:0:
472,243,183068,38,0,P|470:306|388:386,1,157.5,6|0,0:0|0:0,0:0:0:0:
412,377,183402,2,0,L|370:343,1,52.5,6|0,0:0|0:0,0:0:0:0:
234,327,183568,1,4,0:0:0:0:
354,140,183735,2,0,B|255:140|291:98|190:94,1,157.5,10|0,0:0|0:0,0:0:0:0:
206,95,184068,2,0,L|164:128,1,52.5,10|0,0:0|0:0,0:0:0:0:
105,263,184235,2,0,B|88:187|88:187|24:138,1,157.5,4|0,0:0|0:0,0:0:0:0:
25,139,184568,5,4,0:0:0:0:
185,249,184735,1,2,0:0:0:0:
210,108,184902,1,4,0:0:0:0:
105,263,185068,1,8,0:0:0:0:
39,217,185180,1,8,0:0:0:0:
25,139,185291,1,8,0:0:0:0:
70,75,185402,1,8,0:0:0:0:
147,62,185513,1,8,0:0:0:0:
210,108,185624,1,8,0:0:0:0:
222,186,185735,6,0,L|197:31,1,157.5,6|0,0:0|0:0,0:0:0:0:
197,31,186068,2,0,L|146:43,1,52.5,6|0,0:0|0:0,0:0:0:0:
126,162,186235,1,4,0:0:0:0:
327,185,186402,2,0,L|302:340,1,157.5,10|0,0:0|0:0,0:0:0:0:
302,340,186735,2,0,L|381:320,1,52.5,10|0,0:0|0:0,0:0:0:0:
421,103,186902,2,0,P|354:63|277:70,1,157.5,4|0,0:0|0:0,0:0:0:0:
277,70,187235,5,4,0:0:0:0:
487,26,187402,1,2,0:0:0:0:
211,147,187568,1,4,0:0:0:0:
421,103,187735,5,8,0:0:0:0:
455,146,187819,1,8,0:0:0:0:
464,200,187902,1,4,0:0:0:0:
445,252,187985,1,4,0:0:0:0:
402,287,188068,1,8,0:0:0:0:
347,295,188152,1,0,0:0:0:0:
295,274,188235,1,4,0:0:0:0:
240,282,188318,1,4,0:0:0:0:
197,318,188402,38,0,P|259:326|361:284,1,157.5,6|0,0:0|0:0,0:0:0:0:
347,294,188735,2,0,L|327:215,1,52.5,6|0,0:0|0:0,0:0:0:0:
464,200,188902,1,4,0:0:0:0:
256,98,189068,2,0,L|53:66,1,157.5,10|0,0:0|0:0,0:0:0:0:
100,73,189402,2,0,L|87:123,1,52.5,10|0,0:0|0:0,0:0:0:0:
191,309,189568,2,0,B|197:241|197:241|151:149,1,157.5,4|0,0:0|0:0,0:0:0:0:
157,161,189902,5,4,0:0:0:0:
34,236,190068,1,2,0:0:0:0:
0,88,190235,1,4,0:0:0:0:
256,98,190401,1,8,0:0:0:0:
308,89,190485,1,8,0:0:0:0:
360,79,190568,2,0,L|415:88,1,52.5,4|4,0:0|0:0,0:0:0:0:
157,161,190735,1,10,0:0:0:0:
157,161,191068,54,0,P|167:212|184:262,1,105,6|0,0:0|0:0,0:0:0:0:
333,114,191402,2,0,P|293:148|259:187,1,105,10|0,0:0|0:0,0:0:0:0:
461,242,191735,2,0,P|411:225|360:214,1,105,6|4,0:0|0:0,0:0:0:0:
231,86,192068,1,10,0:0:0:0:
285,288,192235,1,0,0:0:0:0:
333,114,192402,5,6,0:0:0:0:
184,262,192568,1,0,0:0:0:0:
307,12,192735,2,0,B|361:1|361:1|411:3,1,105,10|4,0:0|0:0,0:0:0:0:
464,206,193068,2,0,B|410:217|410:217|360:215,1,105,2|4,0:0|0:0,0:0:0:0:
231,86,193402,1,10,0:0:0:0:
285,288,193568,1,2,0:0:0:0:
157,160,193735,86,0,P|140:110|129:59,1,105,6|0,0:0|0:0,0:0:0:0:
185,260,194068,2,0,P|133:249|83:233,1,105,10|0,0:0|0:0,0:0:0:0:
285,288,194402,1,6,0:0:0:0:
111,334,194568,1,4,0:0:0:0:
157,160,194735,1,10,0:0:0:0:
157,160,194902,1,0,0:0:0:0:
387,307,195068,6,0,B|376:258|376:258|352:209,1,105,6|0,0:0|0:0,0:0:0:0:
217,367,195402,2,0,B|254:333|254:333|285:288,1,105,10|4,0:0|0:0,0:0:0:0:
215,91,195735,1,2,0:0:0:0:
215,91,195902,2,0,B|226:140|226:140|250:189,1,105,4|10,0:0|0:0,0:0:0:0:
455,227,196235,1,2,0:0:0:0:
385,31,196402,86,0,B|348:65|348:65|317:110,1,105,6|4,0:0|0:0,0:0:0:0:
455,227,196735,2,0,P|440:176|420:128,1,105,10|0,3:0|3:0,3:0:0:0:
250,189,197068,2,0,P|300:201|352:208,1,105,6|4,3:0|3:0,3:0:0:0:
182,107,197402,1,10,0:0:0:0:
182,107,197568,2,0,P|162:156|148:207,1,105,0|6,3:0|3:0,3:0:0:0:
283,11,197902,5,0,0:0:0:0:
283,11,198068,2,0,P|302:59|317:110,1,105,10|4,3:0|3:0,3:0:0:0:
284,288,198402,2,0,L|179:295,1,105,2|4,0:0|0:0,0:0:0:0:
43,199,198735,2,0,L|151:207,1,105,10|2,0:0|0:0,0:0:0:0:
284,110,199068,86,0,L|176:118,1,105,6|0,0:0|0:0,0:0:0:0:
43,199,199402,1,10,0:0:0:0:
148,29,199568,1,0,0:0:0:0:
148,207,199735,1,6,0:0:0:0:
43,21,199902,1,4,0:0:0:0:
292,222,200068,2,0,P|339:199|382:170,1,105,10|0,3:0|3:0,3:0:0:0:
290,12,200402,6,0,P|337:35|380:64,1,105,6|0,3:0|3:0,3:0:0:0:
382,273,200735,1,10,0:0:0:0:
472,116,200902,1,4,0:0:0:0:
210,163,201068,6,0,B|207:190|196:221|196:221|208:260|208:260|192:296|192:296|200:328|193:353,1,196.875,2|0,0:0|0:0,0:0:0:0:
194,353,201402,1,8,0:0:0:0:
292,222,201568,1,8,3:0:0:0:
345,217,201652,1,8,3:0:0:0:
398,212,201735,70,0,L|421:264,2,52.5,6|0|0,3:0|3:0|3:0,3:0:0:0:
210,163,202068,2,0,B|163:178|163:178|108:182,1,105,10|0,0:0|0:0,0:0:0:0:
291,11,202402,2,0,B|346:15|346:15|393:30,1,105,6|4,0:0|0:0,0:0:0:0:
141,83,202735,1,10,0:0:0:0:
325,109,202902,1,0,0:0:0:0:
107,182,203068,5,6,0:0:0:0:
291,11,203235,1,0,0:0:0:0:
210,162,203402,2,0,L|220:266,1,105,10|4,0:0|0:0,0:0:0:0:
63,384,203735,2,0,L|73:279,1,105,2|4,0:0|0:0,0:0:0:0:
308,197,204068,1,10,0:0:0:0:
141,83,204235,1,2,0:0:0:0:
342,98,204402,86,0,P|330:149|308:197,1,105,6|0,0:0|0:0,0:0:0:0:
107,181,204735,2,0,P|118:129|141:82,1,105,10|0,3:0|3:0,3:0:0:0:
270,275,205068,2,0,P|218:264|171:241,1,105,6|4,0:0|0:0,0:0:0:0:
39,101,205402,1,10,0:0:0:0:
181,3,205568,2,0,P|232:14|279:37,1,105,0|6,0:0|0:0,3:0:0:0:
413,187,205902,5,0,0:0:0:0:
413,187,206068,2,0,L|308:197,1,105,10|4,0:0|0:0,0:0:0:0:
111,326,206402,1,2,0:0:0:0:
111,326,206568,2,0,L|216:336,1,105,4|10,0:0|0:0,0:0:0:0:
369,282,206902,1,2,0:0:0:0:
233,122,207068,86,0,P|216:171|205:223,1,105,6|0,3:0|3:0,3:0:0:0:
512,213,207402,2,0,P|501:161|485:112,1,105,10|0,3:0|3:0,3:0:0:0:
303,68,207735,2,0,P|355:72|408:68,1,105,6|4,3:0|3:0,3:0:0:0:
222,35,208068,1,10,0:0:0:0:
99,179,208235,2,0,L|89:284,1,105,0|6,0:0|0:0,0:0:0:0:
17,145,208568,5,0,0:0:0:0:
286,220,208735,2,0,B|238:235|183:239,1,105,10|4,3:0|3:0,3:0:0:0:
370,280,209068,2,0,B|407:313|438:359,1,105,2|4,3:0|3:0,3:0:0:0:
380,178,209402,2,0,B|390:129|414:79,1,105,10|2,3:0|3:0,3:0:0:0:
229,107,209735,86,0,B|166:127|134:107|126:107|94:87|35:107,1,196.875,6|0,0:0|0:0,0:0:0:0:
35,107,210068,2,0,P|33:159|37:212,1,105,10|0,3:0|3:0,3:0:0:0:
179,345,210402,1,6,0:0:0:0:
140,106,210568,1,4,0:0:0:0:
69,319,210735,1,10,0:0:0:0:
244,127,210902,1,0,0:0:0:0:
289,371,211068,6,0,P|305:321|316:269,1,105,6|0,3:0|3:0,3:0:0:0:
140,106,211402,1,10,0:0:0:0:
345,149,211568,1,4,0:0:0:0:
37,212,211735,1,8,3:0:0:0:
32,265,211819,1,8,3:0:0:0:
27,318,211902,2,0,L|40:372,1,52.5,4|4,3:0|3:0,3:0:0:0:
140,106,212068,1,10,0:0:0:0:
261,308,212235,1,4,0:0:0:0:
345,149,212402,5,4,0:0:0:0:
345,149,212568,1,4,0:0:0:0:
14,105,212735,2,0,B|56:59|56:59|65:187,1,157.500006008148,10|4,0:0|0:0,0:0:0:0:
14,340,213068,5,4,0:0:0:0:
218,119,213235,2,0,B|176:73|176:73|169:167,1,157.500006008148,10|4,0:0|0:0,0:0:0:0:
172,364,213568,5,4,0:0:0:0:
297,175,213735,2,0,B|339:129|339:129|345:223,1,157.500006008148,10|4,0:0|0:0,0:0:0:0:
309,379,214068,5,4,0:0:0:0:
499,215,214235,2,0,B|457:169|457:169|450:263,1,157.500006008148,10|4,0:0|0:0,0:0:0:0:
487,370,214568,5,4,0:0:0:0:
456,171,214735,1,10,0:0:0:0:
309,379,214902,1,4,0:0:0:0:
403,89,215068,37,4,0:0:0:0:
403,89,215235,1,4,0:0:0:0:
168,318,215402,2,0,B|125:351|125:351|231:356,1,157.500006008148,10|4,0:0|0:0,0:0:0:0:
465,167,215735,5,4,0:0:0:0:
157,199,215902,2,0,B|120:238|120:238|225:225,1,157.500006008148,10|4,0:0|0:0,0:0:0:0:
504,76,216235,5,4,0:0:0:0:
200,86,216402,2,0,B|157:119|157:119|263:124,1,157.500006008148,10|4,0:0|0:0,0:0:0:0:
488,258,216735,5,4,0:0:0:0:
168,318,216902,2,0,B|131:357|131:357|233:344,1,157.500006008148,10|8,0:0|0:0,0:0:0:0:
303,255,217152,5,8,0:0:0:0:
272,249,217235,1,4,0:0:0:0:
241,244,217318,1,4,0:0:0:0:
209,239,217402,1,8,0:0:0:0:
177,234,217485,1,8,0:0:0:0:
145,229,217568,1,4,0:0:0:0:
113,225,217652,1,4,0:0:0:0:
87,220,217735,38,0,B|84:162|84:162|64:127|64:127|61:42,1,157.5,6|0,0:0|0:0,0:0:0:0:
61,67,218068,1,10,0:0:0:0:
311,98,218402,2,0,L|187:121,1,105,6|6,0:0|0:0,0:0:0:0:
359,227,218735,1,10,0:0:0:0:
359,227,218902,2,0,L|462:246,1,105,6|2,0:0|0:0,0:0:0:0:
220,228,219235,5,6,0:0:0:0:
220,228,219402,2,0,P|250:299|256:353,1,105,10|2,0:0|0:0,0:0:0:0:
167,140,219735,2,0,P|120:201|76:233,1,105,6|6,0:0|0:0,0:0:0:0:
217,51,220068,2,0,P|140:41|90:19,1,105,10|2,0:0|0:0,0:0:0:0:
345,139,220402,6,0,L|328:17,1,105,6|2,0:0|0:0,0:0:0:0:
481,142,220735,2,0,L|461:245,1,105,10|6,0:0|0:0,0:0:0:0:
366,284,221068,1,6,0:0:0:0:
345,139,221235,1,6,0:0:0:0:
445,332,221402,1,10,0:0:0:0:
259,197,221568,2,0,P|269:223|172:328,1,157.5,6|0,0:0|0:0,0:0:0:0:
209,324,221902,5,6,0:0:0:0:
166,94,222068,1,10,0:0:0:0:
166,94,222402,1,8,0:0:0:0:
212,127,222485,1,8,0:0:0:0:
269,133,222568,1,4,0:0:0:0:
324,116,222652,1,4,0:0:0:0:
358,69,222735,1,8,0:0:0:0:
358,69,223068,5,4,0:0:0:0:
358,69,223235,1,4,0:0:0:0:
494,316,223402,2,0,B|429:292|429:292|306:337,1,157.500006008148,10|4,0:0|0:0,0:0:0:0:
117,346,223735,37,4,0:0:0:0:
490,225,223902,2,0,B|425:201|425:201|302:246,1,157.500006008148,10|4,0:0|0:0,0:0:0:0:
124,255,224235,5,4,0:0:0:0:
487,138,224402,2,0,B|422:114|422:114|299:159,1,157.500006008148,10|4,0:0|0:0,0:0:0:0:
138,165,224735,5,4,0:0:0:0:
484,51,224902,2,0,B|419:27|419:27|296:72,1,157.500006008148,10|4,0:0|0:0,0:0:0:0:
208,223,225235,5,4,0:0:0:0:
180,49,225402,1,10,0:0:0:0:
55,205,225568,1,4,0:0:0:0:
102,0,225735,5,4,0:0:0:0:
102,0,225902,1,4,0:0:0:0:
286,155,226068,2,0,B|310:220|310:220|265:343,1,157.500006008148,10|4,0:0|0:0,0:0:0:0:
32,311,226402,37,4,0:0:0:0:
223,87,226568,2,0,B|288:63|288:63|411:108,1,157.500006008148,10|4,0:0|0:0,0:0:0:0:
472,348,226902,5,4,0:0:0:0:
146,384,227068,2,0,B|122:319|122:319|167:196,1,157.500006008148,10|4,0:0|0:0,0:0:0:0:
450,62,227402,5,4,0:0:0:0:
286,155,227568,2,0,B|221:179|221:179|98:134,1,157.500006008148,10|8,0:0|0:0,0:0:0:0:
96,62,227818,5,8,0:0:0:0:
175,24,227902,1,4,0:0:0:0:
259,52,227985,1,4,0:0:0:0:
290,54,228068,1,8,0:0:0:0:
321,56,228152,1,8,0:0:0:0:
352,59,228235,1,4,0:0:0:0:
383,62,228318,1,4,0:0:0:0:
414,67,228402,6,0,B|382:152|444:146|411:246,1,157.5,6|0,0:0|0:0,0:0:0:0:
417,220,228735,1,10,0:0:0:0:
213,219,229068,2,0,P|316:196|324:191,1,105,6|6,0:0|0:0,0:0:0:0:
411,334,229402,1,10,0:0:0:0:
411,334,229568,2,0,P|362:315|309:312,1,105,6|2,0:0|0:0,0:0:0:0:
124,262,229902,37,6,0:0:0:0:
124,262,230068,2,0,L|136:148,1,105,10|2,0:0|0:0,0:0:0:0:
151,32,230402,2,0,P|216:60|248:99,1,105,6|6,0:0|0:0,0:0:0:0:
337,32,230735,2,0,P|345:102|327:149,1,105,10|2,0:0|0:0,0:0:0:0:
426,188,231068,6,0,P|369:230|319:238,1,105,6|2,0:0|0:0,0:0:0:0:
234,315,231402,1,10,0:0:0:0:
234,315,231568,2,0,L|217:205,1,105,2|6,0:0|0:0,0:0:0:0:
315,384,231902,1,6,0:0:0:0:
336,237,232069,1,10,0:0:0:0:
111,289,232235,6,0,L|137:126,1,157.5,4|0,0:0|0:0,0:0:0:0:
135,133,232568,1,4,0:0:0:0:
382,323,232735,1,4,0:0:0:0:
111,289,233735,5,6,0:0:0:0:
336,237,233902,1,10,0:0:0:0:
179,69,234068,2,0,L|188:147,2,78.7500030040742,6|4|10,0:0|0:0|0:0,0:0:0:0:
239,328,234402,1,6,0:0:0:0:
81,159,234568,1,10,0:0:0:0:
306,107,234735,2,0,L|384:97,2,78.7500030040742,6|4|10,0:0|0:0|0:0,0:0:0:0:
52,31,235068,5,6,0:0:0:0:
282,3,235235,1,10,0:0:0:0:
81,159,235402,2,0,L|71:237,2,78.7500030040742,6|4|10,0:0|0:0|0:0,0:0:0:0:
306,107,235735,1,4,0:0:0:0:
134,284,235902,2,0,P|168:264|204:249,1,78.7500030040742,10|4,0:0|0:0,0:0:0:0:
379,266,236068,1,2,0:0:0:0:
379,266,236151,1,4,0:0:0:0:
379,266,236234,2,0,P|345:246|314:221,1,78.7500030040742,10|0,0:0|0:0,0:0:0:0:
315,29,236402,38,0,L|305:107,1,78.7500030040742,6|0,0:0|0:0,0:0:0:0:
205,250,236568,1,10,0:0:0:0:
397,83,236735,1,6,0:0:0:0:
397,83,236818,1,4,0:0:0:0:
397,83,236901,2,0,L|493:64,1,78.7500030040742,10|0,0:0|0:0,0:0:0:0:
213,131,237068,1,4,0:0:0:0:
379,266,237235,1,10,0:0:0:0:
315,29,237401,1,6,0:0:0:0:
315,29,237485,1,4,0:0:0:0:
315,29,237568,2,0,L|237:13,1,78.7500030040742,10|0,0:0|0:0,0:0:0:0:
136,147,237735,5,6,0:0:0:0:
136,147,237819,1,0,0:0:0:0:
136,147,237902,2,0,L|214:131,1,78.7500030040742,10|0,0:0|0:0,0:0:0:0:
196,372,238068,2,0,P|156:284|160:259,1,78.7500030040742,6|4,0:0|0:0,0:0:0:0:
63,299,238235,2,0,P|119:221|142:212,1,78.7500030040742,10|0,0:0|0:0,0:0:0:0:
278,210,238402,2,0,L|262:288,1,78.7500030040742,4|0,0:0|0:0,0:0:0:0:
45,160,238568,2,0,L|29:83,1,78.7500030040742,10|4,0:0|0:0,0:0:0:0:
285,106,238735,1,2,0:0:0:0:
337,122,238818,1,4,0:0:0:0:
372,165,238902,2,0,L|349:281,1,78.7500030040742,10|0,0:0|0:0,0:0:0:0:
168,334,239068,5,6,0:0:0:0:
207,296,239151,1,0,0:0:0:0:
262,288,239234,1,10,0:0:0:0:
311,311,239318,1,0,0:0:0:0:
337,360,239402,1,6,0:0:0:0:
386,383,239485,1,4,3:0:0:0:
441,375,239568,1,10,3:0:0:0:
480,337,239651,1,0,3:0:0:0:
491,282,239735,1,6,3:0:0:0:
468,232,239818,1,4,3:0:0:0:
445,182,239902,1,10,3:0:0:0:
456,127,239986,1,4,3:0:0:0:
495,89,240068,6,0,L|506:-1,1,78.7500030040742,6|4,0:0|0:0,0:0:0:0:
285,106,240235,2,0,L|295:185,1,78.7500030040742,10|4,0:0|0:0,0:0:0:0:
119,333,240402,5,6,0:0:0:0:
178,355,240485,1,4,0:0:0:0:
239,343,240568,1,10,0:0:0:0:
287,303,240652,1,0,0:0:0:0:
307,245,240735,1,6,0:0:0:0:
295,185,240818,1,4,3:0:0:0:
254,138,240902,1,10,0:0:0:0:
196,119,240985,1,0,3:0:0:0:
134,131,241068,1,6,0:0:0:0:
92,83,241152,1,4,0:0:0:0:
112,23,241235,1,10,0:0:0:0:
173,11,241318,1,4,0:0:0:0:
213,57,241402,38,0,L|135:76,1,78.7500030040742,6|4,0:0|0:0,0:0:0:0:
353,0,241568,2,0,L|431:19,1,78.7500030040742,10|4,0:0|0:0,0:0:0:0:
380,314,241735,5,6,0:0:0:0:
336,259,241818,1,4,0:0:0:0:
343,188,241901,1,10,0:0:0:0:
398,142,241985,1,0,0:0:0:0:
469,148,242068,1,6,0:0:0:0:
414,194,242151,1,4,0:0:0:0:
343,188,242235,1,10,0:0:0:0:
297,133,242318,1,0,0:0:0:0:
303,61,242401,1,6,0:0:0:0:
257,6,242485,1,4,3:0:0:0:
186,0,242568,1,10,3:0:0:0:
131,46,242651,1,4,3:0:0:0:
124,117,242735,6,0,L|134:196,1,78.7500030040742,6|4,0:0|0:0,0:0:0:0:
243,362,242902,2,0,L|253:283,1,78.7500030040742,10|4,0:0|0:0,0:0:0:0:
214,90,243068,5,6,0:0:0:0:
94,384,243235,1,8,0:0:0:0:
94,384,243318,1,0,0:0:0:0:
94,384,243402,1,4,0:0:0:0:
34,144,243568,1,8,0:0:0:0:
409,341,243735,5,8,0:0:0:0:
479,309,243818,1,8,0:0:0:0:
511,237,243901,1,4,0:0:0:0:
489,161,243985,1,4,0:0:0:0:
423,116,244068,1,4,0:0:0:0:
343,123,244152,1,4,0:0:0:0:
286,179,244235,1,4,0:0:0:0:
366,172,244318,1,4,0:0:0:0:
423,116,244401,37,6,0:0:0:0:
301,295,244568,1,10,0:0:0:0:
206,99,244735,2,0,L|227:-9,2,78.7500030040742,6|4|10,0:0|0:0|0:0,0:0:0:0:
88,275,245068,1,6,3:0:0:0:
286,179,245235,1,10,3:0:0:0:
8,224,245402,2,0,P|-1:262|0:301,2,78.7500030040742,6|4|10,0:0|0:0|0:0,0:0:0:0:
168,326,245735,5,6,3:0:0:0:
17,147,245902,1,10,0:0:0:0:
301,295,246068,2,0,L|317:382,2,78.7500030040742,6|4|10,0:0|0:0|0:0,0:0:0:0:
452,116,246402,1,4,0:0:0:0:
222,75,246568,2,0,L|144:86,1,78.7500030040742,10|4,0:0|0:0,0:0:0:0:
25,155,246735,1,2,0:0:0:0:
25,155,246818,1,4,0:0:0:0:
25,155,246901,2,0,L|103:166,1,78.7500030040742,10|0,0:0|0:0,0:0:0:0:
328,82,247068,6,0,P|294:-5|273:-23,1,78.7500030040742,6|0,0:0|0:0,0:0:0:0:
302,295,247235,1,10,0:0:0:0:
460,124,247401,1,6,0:0:0:0:
460,124,247485,1,4,0:0:0:0:
460,124,247568,2,0,L|442:200,1,78.7500030040742,10|0,0:0|0:0,0:0:0:0:
253,180,247735,1,4,0:0:0:0:
491,315,247902,1,10,0:0:0:0:
162,357,248068,1,6,0:0:0:0:
162,357,248152,1,4,0:0:0:0:
162,357,248235,2,0,L|143:265,1,78.7500030040742,10|0,0:0|0:0,0:0:0:0:
253,179,248402,5,6,0:0:0:0:
253,179,248486,1,0,0:0:0:0:
253,179,248569,2,0,L|237:256,1,78.7500030040742,10|0,0:0|0:0,0:0:0:0:
174,109,248735,2,0,P|260:74|311:92,1,78.7500030040742,6|4,0:0|0:0,0:0:0:0:
322,145,248902,2,0,P|236:180|185:162,1,78.7500030040742,10|0,3:0|3:0,3:0:0:0:
81,159,249068,2,0,P|77:66|111:24,1,78.7500030040742,4|0,0:0|0:0,0:0:0:0:
415,95,249235,2,0,P|418:187|384:229,1,78.7500030040742,10|4,3:0|3:0,3:0:0:0:
346,348,249402,1,2,0:0:0:0:
292,358,249486,1,4,0:0:0:0:
239,369,249568,2,0,L|161:356,1,78.7500030040742,10|0,0:0|0:0,0:0:0:0:
81,159,249735,6,0,P|95:239|251:214,1,236.250009012223,6|0,0:0|0:0,0:0:0:0:
174,109,250068,1,6,0:0:0:0:
174,109,250151,1,4,0:0:0:0:
173,109,250235,2,0,P|175:148|165:186,1,78.7500030040742,10|0,0:0|0:0,0:0:0:0:
143,0,250402,38,0,B|272:-7|232:72|364:64,1,236.250009012223,6|0,0:0|0:0,0:0:0:0:
502,160,250735,1,6,0:0:0:0:
502,160,250819,1,4,0:0:0:0:
502,160,250902,2,0,P|462:162|424:171,1,78.7500030040742,10|0,0:0|0:0,0:0:0:0:
269,297,251068,6,0,B|344:321|344:321|297:163,1,236.250009012223,6|0,0:0|0:0,0:0:0:0:
158,257,251402,1,6,0:0:0:0:
158,257,251485,1,4,0:0:0:0:
158,257,251568,2,0,L|145:350,1,78.7500030040742,10|0,0:0|0:0,0:0:0:0:
0,126,251735,6,0,P|103:70|220:61,1,236.250009012223,6|0,0:0|0:0,0:0:0:0:
302,236,252068,1,6,0:0:0:0:
302,236,252152,1,4,0:0:0:0:
302,236,252235,2,0,P|292:197|278:161,1,78.7500030040742,10|0,0:0|0:0,0:0:0:0:
134,182,252402,6,0,P|143:220|157:256,1,78.7500030040742,6|0,0:0|0:0,0:0:0:0:
445,266,252568,1,8,0:0:0:0:
380,222,252651,1,8,0:0:0:0:
302,236,252735,1,8,0:0:0:0:
256,301,252818,1,8,0:0:0:0:
210,366,252902,1,8,0:0:0:0:
132,380,252985,1,8,0:0:0:0:
67,336,253068,5,8,0:0:0:0:
52,258,253152,1,8,0:0:0:0:
98,193,253235,1,8,0:0:0:0:
176,179,253318,1,8,0:0:0:0:
241,223,253402,1,8,0:0:0:0:
163,237,253485,1,8,0:0:0:0:
98,193,253568,1,8,0:0:0:0:
83,115,253652,1,8,0:0:0:0:
127,49,253735,37,12,0:0:0:0:
372,96,253957,1,12,0:0:0:0:
52,258,254180,1,12,3:3:0:0:
461,271,254402,1,2,3:3:0:0:
372,96,254735,5,8,0:0:0:0:
339,140,254818,1,8,0:0:0:0:
329,194,254902,1,8,0:0:0:0:
344,246,254985,1,8,0:0:0:0:
384,283,255068,6,0,L|477:269,1,78.7500030040742,6|0,0:0|0:0,0:0:0:0:
251,152,255235,1,8,0:0:0:0:
213,345,255402,1,6,0:0:0:0:
213,345,255485,1,4,0:0:0:0:
213,345,255568,1,10,0:0:0:0:
140,159,255735,6,0,L|174:60,1,78.7500030040742,6|0,0:0|0:0,0:0:0:0:
283,301,255902,1,8,0:0:0:0:
74,235,256068,1,6,0:0:0:0:
74,235,256152,1,4,0:0:0:0:
74,235,256235,1,8,0:0:0:0:
303,174,256402,6,0,P|234:207|177:209,1,78.7500030040742,6|0,0:0|0:0,0:0:0:0:
47,141,256568,1,8,0:0:0:0:
193,52,256735,1,6,0:0:0:0:
193,52,256818,1,4,0:0:0:0:
193,52,256902,1,10,0:0:0:0:
163,255,257068,37,6,0:0:0:0:
47,141,257235,1,8,0:0:0:0:
132,351,257402,1,6,0:0:0:0:
132,351,257485,1,4,0:0:0:0:
132,351,257568,1,8,0:0:0:0:
282,142,257735,5,6,0:0:0:0:
242,190,257818,1,0,0:0:0:0:
236,253,257902,1,8,0:0:0:0:
264,309,257985,1,0,0:0:0:0:
315,344,258068,1,6,0:0:0:0:
378,351,258152,1,4,0:0:0:0:
437,330,258235,1,10,0:0:0:0:
473,278,258318,1,0,0:0:0:0:
473,214,258402,5,6,0:0:0:0:
441,159,258485,1,0,0:0:0:0:
420,99,258568,1,8,0:0:0:0:
433,36,258652,1,0,0:0:0:0:
488,6,258735,1,6,0:0:0:0:
480,68,258818,1,4,0:0:0:0:
420,99,258902,1,8,0:0:0:0:
358,85,258985,1,0,0:0:0:0:
314,40,259068,5,6,0:0:0:0:
344,102,259151,1,0,0:0:0:0:
332,171,259234,1,8,0:0:0:0:
283,221,259318,1,0,0:0:0:0:
215,233,259401,1,6,0:0:0:0:
152,203,259484,1,4,0:0:0:0:
117,143,259568,1,10,0:0:0:0:
123,80,259652,1,0,0:0:0:0:
151,23,259735,6,0,L|244:32,1,78.7500030040742,6|0,0:0|0:0,0:0:0:0:
26,162,259902,1,8,0:0:0:0:
231,124,260068,1,10,0:0:0:0:
223,179,260152,1,8,0:0:0:0:
215,233,260235,1,8,0:0:0:0:
207,287,260318,1,8,0:0:0:0:
201,345,260402,38,0,L|182:263,1,78.7500030040742,6|0,0:0|0:0,0:0:0:0:
304,374,260568,1,8,0:0:0:0:
332,171,260735,1,6,0:0:0:0:
332,171,260818,1,4,0:0:0:0:
332,171,260902,1,10,0:0:0:0:
449,297,261068,6,0,L|466:220,1,78.7500030040742,6|0,0:0|0:0,0:0:0:0:
301,78,261235,1,8,0:0:0:0:
358,256,261402,1,6,0:0:0:0:
358,256,261485,1,4,0:0:0:0:
358,256,261568,1,8,0:0:0:0:
482,100,261735,6,0,P|397:132|368:166,1,78.7500030040742,6|0,0:0|0:0,0:0:0:0:
277,232,261902,1,8,0:0:0:0:
389,371,262068,1,6,0:0:0:0:
389,371,262152,1,4,0:0:0:0:
389,371,262235,1,10,0:0:0:0:
253,146,262402,5,6,0:0:0:0:
202,331,262568,1,8,0:0:0:0:
166,82,262735,2,0,P|240:35|315:50,1,157.500006008148,6|8,0:0|0:0,0:0:0:0:
281,236,262985,1,0,0:0:0:0:
281,236,263068,6,0,L|150:216,1,78.7500030040742,6|0,0:0|0:0,0:0:0:0:
63,119,263235,2,0,P|86:211|102:305,1,157.500006008148,8|6,0:0|0:0,0:0:0:0:
97,272,263485,1,4,0:0:0:0:
97,272,263568,1,10,0:0:0:0:
298,325,263735,38,0,L|379:311,1,78.7500030040742,6|0,0:0|0:0,0:0:0:0:
469,187,263902,1,8,0:0:0:0:
469,187,263985,2,0,P|385:191|303:98,1,157.500006008148,0|4,0:0|0:0,0:0:0:0:
327,150,264235,2,0,L|343:57,1,78.7500030040742,8|0,0:0|0:0,0:0:0:0:
199,220,264402,6,0,L|228:351,1,78.7500030040742,6|0,0:0|0:0,0:0:0:0:
250,94,264568,1,8,0:0:0:0:
194,87,264652,1,8,0:0:0:0:
145,112,264735,1,8,0:0:0:0:
109,153,264818,1,8,0:0:0:0:
58,176,264902,1,8,0:0:0:0:
3,176,264985,1,8,0:0:0:0:
49,146,265068,5,8,0:0:0:0:
109,153,265152,1,8,0:0:0:0:
145,194,265235,2,0,L|129:293,1,78.7500030040742,8|0,0:0|0:0,0:0:0:0:
52,323,265402,1,8,0:0:0:0:
11,69,265568,1,4,0:0:0:0:
145,194,265735,5,6,0:0:0:0:
179,85,265902,1,4,0:0:0:0:
223,244,266068,2,0,P|144:286|93:269,1,105,14|4,0:0|0:0,0:0:0:0:
96,117,266402,1,6,0:0:0:0:
304,198,266568,2,0,P|300:287|260:323,1,105,4|10,0:0|0:0,0:0:0:0:
56,195,266902,1,4,0:0:0:0:
306,106,267068,6,0,P|381:153|392:206,1,105,6|4,0:0|0:0,0:0:0:0:
230,344,267402,1,10,0:0:0:0:
199,137,267568,2,0,L|219:18,1,105,4|6,0:0|0:0,0:0:0:0:
304,198,267902,1,4,0:0:0:0:
132,284,268068,1,10,0:0:0:0:
306,106,268235,1,4,0:0:0:0:
443,341,268402,37,6,0:0:0:0:
386,314,268485,1,0,0:0:0:0:
323,311,268568,1,6,0:0:0:0:
267,341,268652,1,0,0:0:0:0:
207,361,268735,1,10,0:0:0:0:
145,348,268818,1,0,0:0:0:0:
103,299,268902,1,6,0:0:0:0:
97,236,268985,1,0,0:0:0:0:
122,178,269068,5,6,0:0:0:0:
176,146,269152,1,0,0:0:0:0:
238,149,269235,1,6,0:0:0:0:
288,185,269318,1,0,0:0:0:0:
349,199,269402,1,10,0:0:0:0:
411,191,269485,1,0,0:0:0:0:
454,145,269568,1,6,0:0:0:0:
463,82,269652,1,0,0:0:0:0:
443,22,269735,5,6,0:0:0:0:
434,85,269818,1,0,0:0:0:0:
454,145,269902,1,6,0:0:0:0:
477,197,269985,1,0,0:0:0:0:
473,259,270068,1,10,0:0:0:0:
436,310,270152,1,0,0:0:0:0:
377,332,270235,1,6,0:0:0:0:
314,324,270318,1,0,0:0:0:0:
267,281,270402,5,6,0:0:0:0:
252,219,270485,1,0,0:0:0:0:
264,157,270568,1,6,0:0:0:0:
248,95,270652,1,0,0:0:0:0:
202,51,270735,1,10,0:0:0:0:
140,36,270818,1,0,0:0:0:0:
78,52,270902,1,4,0:0:0:0:
37,99,270985,1,0,0:0:0:0:
21,175,271068,5,14,0:0:0:0:
55,246,271152,1,4,0:0:0:0:
125,279,271235,1,6,0:0:0:0:
203,278,271318,1,4,0:0:0:0:
268,232,271402,1,10,0:0:0:0:
291,157,271485,1,4,0:0:0:0:
279,79,271568,37,6,0:0:0:0:
253,154,271652,1,4,0:0:0:0:
268,232,271735,1,10,0:0:0:0:
320,290,271818,1,4,0:0:0:0:
397,305,271902,1,6,0:0:0:0:
470,277,271985,1,4,0:0:0:0:
501,205,272068,5,14,0:0:0:0:
425,228,272152,1,4,0:0:0:0:
397,305,272235,1,6,0:0:0:0:
342,358,272318,1,4,0:0:0:0:
262,359,272402,1,10,0:0:0:0:
200,302,272485,1,4,0:0:0:0:
276,284,272568,5,6,0:0:0:0:
262,359,272652,1,4,0:0:0:0:
185,375,272735,1,10,0:0:0:0:
113,342,272818,1,4,0:0:0:0:
82,268,272902,1,6,0:0:0:0:
92,190,272985,1,4,0:0:0:0:
152,240,273068,5,10,0:0:0:0:
82,268,273152,1,4,0:0:0:0:
18,222,273235,1,6,0:0:0:0:
28,144,273318,1,4,0:0:0:0:
98,107,273402,6,0,L|215:125,1,78.7500030040742,10|4,0:0|0:0,0:0:0:0:
330,185,273568,2,0,L|252:196,1,78.7500030040742,4|4,0:0|0:0,0:0:0:0:
439,58,273735,37,14,0:0:0:0:
464,132,273818,1,4,0:0:0:0:
437,206,273902,1,6,0:0:0:0:
419,282,273985,1,4,0:0:0:0:
445,355,274068,5,10,0:0:0:0:
472,280,274152,1,4,0:0:0:0:
437,206,274235,1,6,0:0:0:0:
365,179,274318,1,4,0:0:0:0:
286,192,274402,5,10,0:0:0:0:
229,246,274485,1,4,0:0:0:0:
156,275,274568,1,6,0:0:0:0:
76,275,274652,1,4,0:0:0:0:
17,222,274735,5,10,0:0:0:0:
8,144,274818,1,4,0:0:0:0:
55,80,274902,1,6,0:0:0:0:
132,68,274985,1,4,0:0:0:0:
212,99,275068,5,14,0:0:0:0:
258,173,275152,1,4,0:0:0:0:
339,200,275235,1,6,0:0:0:0:
423,182,275318,1,4,0:0:0:0:
464,103,275402,37,10,0:0:0:0:
383,76,275485,1,4,0:0:0:0:
299,94,275568,1,4,0:0:0:0:
258,173,275652,1,6,0:0:0:0:
217,252,275735,5,10,0:0:0:0:
133,270,275818,1,4,0:0:0:0:
52,243,275902,2,0,L|46:145,1,78.7500030040742,6|4,0:0|0:0,0:0:0:0:
84,41,276068,5,10,0:0:0:0:
141,104,276152,1,8,0:0:0:0:
159,188,276235,1,8,0:0:0:0:
133,270,276318,1,8,0:0:0:0:
69,326,276402,6,0,L|60:134,1,188.999994232178
69,326,277735,6,0,P|149:294|240:296,1,157.500006008148,6|4,0:0|0:0,0:0:0:0:
334,358,277985,1,4,0:0:0:0:
404,370,278069,1,6,0:0:0:0:
468,342,278152,1,4,0:0:0:0:
496,277,278235,1,4,0:0:0:0:
481,207,278318,1,4,0:0:0:0:
437,150,278402,38,0,L|455:10,1,78.7500030040742,6|0,0:0|0:0,0:0:0:0:
300,10,278568,1,8,0:0:0:0:
269,56,278652,1,8,0:0:0:0:
269,110,278735,1,6,0:0:0:0:
294,158,278818,1,4,0:0:0:0:
315,209,278902,1,4,0:0:0:0:
315,263,278985,1,4,0:0:0:0:
297,313,279068,6,0,L|134:331,1,125.999996154785,6|0,0:0|0:0,0:0:0:0:
36,132,279402,2,0,B|99:120|99:120|157:154,1,125.999996154785,10|0,0:0|0:0,0:0:0:0:
83,207,279652,1,8,0:0:0:0:
83,207,279735,1,8,0:0:0:0:
48,19,279902,1,6,0:0:0:0:
9,313,280068,2,0,L|-9:165,1,78.7500030040742,6|0,0:0|0:0,0:0:0:0:
183,168,280235,1,8,0:0:0:0:
183,168,280318,1,8,0:0:0:0:
183,168,280402,6,0,L|173:246,1,78.7500030040742,6|0,0:0|0:0,0:0:0:0:
260,360,280568,1,8,0:0:0:0:
241,82,280735,1,10,0:0:0:0:
241,82,280818,2,0,P|320:107|352:106,1,78.7500030040742,8|0,0:0|0:0,0:0:0:0:
406,43,280985,1,8,0:0:0:0:
406,43,281068,6,0,L|415:121,1,78.7500030040742,6|0,0:0|0:0,0:0:0:0:
497,275,281235,1,8,0:0:0:0:
437,293,281318,1,8,0:0:0:0:
375,275,281402,1,6,0:0:0:0:
337,224,281485,1,8,0:0:0:0:
330,161,281568,1,8,0:0:0:0:
354,102,281652,1,8,0:0:0:0:
406,43,281735,5,6,0:0:0:0:
391,120,281818,1,4,0:0:0:0:
326,166,281902,1,8,0:0:0:0:
248,179,281985,1,4,0:0:0:0:
170,164,282068,1,6,0:0:0:0:
91,173,282152,1,8,0:0:0:0:
47,238,282235,1,8,0:0:0:0:
62,314,282318,1,8,0:0:0:0:
133,349,282402,37,10,0:0:0:0:
139,270,282485,1,8,0:0:0:0:
146,191,282568,1,8,0:0:0:0:
154,111,282652,1,8,0:0:0:0:
161,33,282735,6,0,L|189:156,1,118.125004506111,2|0,0:0|0:0,0:0:0:0:
389,275,283068,5,6,0:0:0:0:
342,247,283151,1,0,0:0:0:0:
287,241,283235,1,10,0:0:0:0:
236,263,283318,1,0,0:0:0:0:
202,307,283402,1,6,0:0:0:0:
151,329,283485,1,4,3:0:0:0:
96,323,283569,1,10,3:0:0:0:
49,295,283652,1,0,3:0:0:0:
22,247,283735,1,6,3:0:0:0:
22,191,283818,1,4,3:0:0:0:
50,142,283902,1,10,3:0:0:0:
98,113,283985,1,4,3:0:0:0:
154,111,284068,6,0,L|174:200,1,78.7500030040742,6|4,0:0|0:0,0:0:0:0:
32,371,284235,2,0,L|49:294,1,78.7500030040742,10|4,0:0|0:0,0:0:0:0:
260,128,284402,5,6,0:0:0:0:
319,106,284486,1,0,0:0:0:0:
380,118,284569,1,10,0:0:0:0:
426,158,284652,1,0,0:0:0:0:
445,215,284735,1,6,0:0:0:0:
432,273,284818,1,4,0:0:0:0:
391,316,284902,1,10,0:0:0:0:
333,332,284985,1,0,0:0:0:0:
274,316,285068,1,6,0:0:0:0:
230,272,285152,1,4,0:0:0:0:
171,256,285235,1,10,0:0:0:0:
113,272,285318,1,4,0:0:0:0:
72,316,285402,38,0,L|148:333,1,78.7500030040742,6|4,0:0|0:0,0:0:0:0:
260,128,285568,2,0,L|183:145,1,78.7500030040742,10|4,0:0|0:0,0:0:0:0:
377,364,285735,5,6,0:0:0:0:
381,294,285818,1,0,0:0:0:0:
339,237,285901,1,10,0:0:0:0:
270,220,285985,1,0,0:0:0:0:
206,251,286068,1,6,0:0:0:0:
275,268,286152,1,4,0:0:0:0:
339,237,286235,1,10,0:0:0:0:
367,172,286318,1,0,0:0:0:0:
348,103,286402,1,6,0:0:0:0:
288,64,286485,1,4,0:0:0:0:
217,70,286569,1,10,0:0:0:0:
166,120,286652,1,4,3:0:0:0:
95,126,286735,6,0,L|16:115,1,78.7500030040742,6|4,0:0|0:0,0:0:0:0:
351,31,286902,2,0,L|429:20,1,78.7500030040742,10|4,0:0|0:0,0:0:0:0:
69,23,287068,5,6,0:0:0:0:
411,131,287235,1,8,0:0:0:0:
411,131,287318,1,0,0:0:0:0:
411,131,287402,1,4,0:0:0:0:
146,373,287568,1,8,3:0:0:0:
407,34,287735,5,8,0:0:0:0:
480,63,287818,1,8,0:0:0:0:
506,137,287901,1,4,0:0:0:0:
470,208,287985,1,4,0:0:0:0:
394,227,288068,1,4,0:0:0:0:
358,299,288152,1,4,3:0:0:0:
384,373,288235,1,4,3:0:0:0:
420,301,288318,1,4,3:0:0:0:
394,227,288402,37,6,3:0:0:0:
261,374,288568,1,10,0:0:0:0:
168,145,288735,2,0,L|192:59,2,78.7500030040742,6|4|10,0:0|0:0|0:0,0:0:0:0:
295,295,289068,1,6,0:0:0:0:
74,341,289235,1,10,0:0:0:0:
302,171,289402,2,0,L|388:195,2,78.7500030040742,6|4|10,0:0|0:0|0:0,0:0:0:0:
95,80,289735,5,6,0:0:0:0:
184,318,289902,1,10,0:0:0:0:
340,77,290068,2,0,L|264:98,2,78.7500030040742,6|4|10,0:0|0:0|0:0,0:0:0:0:
226,228,290402,1,4,0:0:0:0:
28,159,290568,2,0,P|114:182|135:204,1,78.7500030040742,10|4,0:0|0:0,0:0:0:0:
192,326,290735,1,2,0:0:0:0:
192,326,290818,1,4,0:0:0:0:
192,326,290902,2,0,L|90:344,1,78.7500030040742,10|0,0:0|0:0,0:0:0:0:
320,203,291068,6,0,L|302:305,1,78.7500030040742,6|0,0:0|0:0,0:0:0:0:
186,43,291235,1,10,0:0:0:0:
418,211,291402,1,6,0:0:0:0:
418,211,291485,1,4,0:0:0:0:
418,211,291568,2,0,L|404:133,1,78.7500030040742,10|0,0:0|0:0,0:0:0:0:
327,364,291735,1,4,0:0:0:0:
257,142,291902,1,10,0:0:0:0:
449,299,292068,1,6,0:0:0:0:
449,299,292152,1,4,0:0:0:0:
449,299,292235,2,0,P|361:283|329:255,1,78.7500030040742,10|0,0:0|0:0,0:0:0:0:
265,150,292402,5,6,0:0:0:0:
265,150,292485,1,0,0:0:0:0:
265,150,292568,2,0,L|288:46,1,78.7500030040742,10|0,0:0|0:0,0:0:0:0:
311,224,292735,2,0,P|273:235|234:233,1,78.7500030040742,6|4,0:0|0:0,0:0:0:0:
155,318,292901,2,0,P|126:290|107:256,1,78.7500030040742,10|0,0:0|0:0,0:0:0:0:
0,243,293068,2,0,P|9:204|29:171,1,78.7500030040742,4|0,0:0|0:0,0:0:0:0:
134,70,293235,2,0,L|151:159,1,78.7500030040742,10|4,0:0|0:0,0:0:0:0:
291,334,293402,1,2,0:0:0:0:
301,279,293485,1,4,0:0:0:0:
311,224,293568,2,0,L|325:146,1,78.7500030040742,10|0,0:0|0:0,0:0:0:0:
507,241,293735,6,0,B|435:208|435:208|462:370,1,236.250009012223,6|0,0:0|0:0,0:0:0:0:
512,133,294068,1,6,0:0:0:0:
512,133,294152,1,4,0:0:0:0:
512,133,294235,2,0,L|495:44,1,78.7500030040742,10|0,0:0|0:0,0:0:0:0:
173,89,294402,38,0,B|294:142|284:54|403:105,1,236.250009012223,6|0,0:0|0:0,3:0:0:0:
348,290,294735,1,6,0:0:0:0:
348,290,294819,1,4,0:0:0:0:
348,290,294902,2,0,P|346:251|338:213,1,78.7500030040742,10|0,0:0|0:0,0:0:0:0:
141,190,295068,6,0,P|221:204|196:360,1,236.250009012223,6|0,0:0|0:0,0:0:0:0:
77,106,295402,1,6,0:0:0:0:
77,106,295485,1,4,0:0:0:0:
77,106,295568,2,0,P|113:91|152:84,1,78.7500030040742,10|0,0:0|0:0,0:0:0:0:
467,106,295735,6,0,P|364:50|247:41,1,236.250009012223,6|0,0:0|0:0,0:0:0:0:
266,235,296068,1,6,0:0:0:0:
266,235,296152,1,4,0:0:0:0:
266,235,296235,2,0,P|303:249|342:257,1,78.7500030040742,10|0,0:0|0:0,0:0:0:0:
373,156,296402,6,0,P|336:142|298:134,1,78.7500030040742,6|0,0:0|0:0,0:0:0:0:
77,105,296568,1,8,0:0:0:0:
126,166,296651,1,8,0:0:0:0:
137,243,296735,1,8,0:0:0:0:
108,315,296818,1,8,0:0:0:0:
46,362,296902,1,8,0:0:0:0:
75,290,296985,1,8,0:0:0:0:
137,243,297068,5,8,0:0:0:0:
214,233,297152,1,8,0:0:0:0:
285,262,297235,1,8,0:0:0:0:
209,272,297318,1,8,3:0:0:0:
137,243,297402,1,8,0:0:0:0:
88,182,297485,1,8,0:0:0:0:
77,105,297568,1,8,0:0:0:0:
105,32,297652,1,8,0:0:0:0:
154,92,297735,37,12,3:0:0:0:
46,362,297957,1,12,0:0:0:0:
105,32,298180,1,12,0:0:0:0:
361,248,298402,1,14,0:0:0:0:
169,214,298735,1,8,0:0:0:0:
215,172,298818,1,8,0:0:0:0:
276,165,298901,1,8,0:0:0:0:
332,193,298984,1,8,0:0:0:0:
361,248,299068,6,0,L|346:325,1,78.7500030040742,6|0,0:0|0:0,0:0:0:0:
169,214,299235,1,8,0:0:0:0:
344,105,299402,1,6,0:0:0:0:
344,105,299485,1,4,0:0:0:0:
344,105,299568,1,8,0:0:0:0:
191,301,299735,2,0,P|125:292|100:278,2,62.9999980773926,6|4|8,0:0|0:0|0:0,0:0:0:0:
56,73,300068,2,0,P|75:158|97:184,1,78.7500030040742,6|0,0:0|0:0,0:0:0:0:
239,120,300235,2,0,P|237:80|225:43,1,78.7500030040742,8|0,0:0|0:0,0:0:0:0:
145,98,300401,5,6,0:0:0:0:
191,301,300568,1,8,0:0:0:0:
334,146,300735,1,6,0:0:0:0:
334,146,300818,1,4,0:0:0:0:
334,146,300902,2,0,L|440:162,1,78.7500030040742,8|0,0:0|0:0,0:0:0:0:
476,266,301068,5,6,0:0:0:0:
476,266,301151,1,4,0:0:0:0:
476,266,301235,2,0,L|370:282,1,78.7500030040742,8|4,0:0|0:0,0:0:0:0:
235,163,301402,1,6,0:0:0:0:
235,163,301485,1,4,0:0:0:0:
235,163,301569,2,0,L|246:85,1,78.7500030040742,8|4,0:0|0:0,0:0:0:0:
140,132,301735,6,0,L|62:146,1,78.7500030040742,6|0,0:0|0:0,0:0:0:0:
334,146,301902,2,0,L|411:160,1,78.7500030040742,8|0,0:0|0:0,0:0:0:0:
220,295,302068,1,6,0:0:0:0:
170,53,302235,1,8,0:0:0:0:
329,232,302402,2,0,L|400:247,2,62.9999980773926,6|4|8,0:0|0:0|0:0,0:0:0:0:
387,376,302735,1,6,0:0:0:0:
486,72,302902,38,0,P|414:146|275:101,1,236.250009012223,10|4,0:0|0:0,0:0:0:0:
293,121,303235,2,0,L|313:21,1,78.7500030040742,10|4,0:0|0:0,0:0:0:0:
453,294,303401,1,6,0:0:0:0:
399,277,303485,1,4,0:0:0:0:
344,285,303568,1,10,0:0:0:0:
297,314,303651,1,4,0:0:0:0:
243,330,303735,5,6,0:0:0:0:
188,325,303818,1,4,0:0:0:0:
145,290,303901,1,10,0:0:0:0:
125,237,303985,1,4,0:0:0:0:
140,184,304068,1,6,0:0:0:0:
163,234,304152,1,4,0:0:0:0:
145,290,304235,1,10,0:0:0:0:
98,318,304318,1,8,0:0:0:0:
42,318,304402,6,0,L|30:197,1,78.7500030040742,6|0,0:0|0:0,0:0:0:0:
26,45,304568,1,8,0:0:0:0:
258,165,304735,1,6,0:0:0:0:
258,165,304818,1,4,0:0:0:0:
258,165,304902,1,8,0:0:0:0:
30,144,305068,2,0,L|91:157,2,62.9999980773926,6|4|8,0:0|0:0|0:0,0:0:0:0:
298,78,305402,2,0,P|225:74|189:94,1,78.7500030040742,6|0,0:0|0:0,0:0:0:0:
218,252,305568,2,0,P|290:255|326:235,1,78.7500030040742,8|0,0:0|0:0,0:0:0:0:
258,165,305735,5,6,0:0:0:0:
442,257,305902,1,8,0:0:0:0:
404,12,306069,1,6,3:0:0:0:
404,12,306152,1,4,3:0:0:0:
404,12,306236,2,0,L|388:118,1,78.7500030040742,8|0,3:0|3:0,3:0:0:0:
450,265,306402,5,6,3:0:0:0:
450,265,306485,1,4,3:0:0:0:
450,265,306569,2,0,L|438:187,1,78.7500030040742,8|4,3:0|3:0,3:0:0:0:
383,346,306735,1,6,0:0:0:0:
383,346,306819,1,4,0:0:0:0:
383,346,306902,2,0,P|421:356|459:361,1,78.7500030040742,8|4,0:0|0:0,0:0:0:0:
339,234,307069,38,0,P|300:239|262:249,1,78.7500030040742,6|0,0:0|0:0,0:0:0:0:
141,121,307235,2,0,P|179:126|218:137,1,78.7500030040742,8|0,0:0|0:0,0:0:0:0:
438,187,307402,1,6,0:0:0:0:
283,31,307568,1,8,0:0:0:0:
154,244,307736,2,0,L|166:306,2,62.9999980773926,6|4|8,0:0|0:0|0:0,0:0:0:0:
46,239,308068,1,6,0:0:0:0:
262,249,308235,6,0,B|375:282|396:220|494:258,1,236.250009012223,10|4,0:0|0:0,0:0:0:0:
494,258,308568,2,0,L|474:158,1,78.7500030040742,10|4,0:0|0:0,0:0:0:0:
283,31,308735,1,6,0:0:0:0:
277,85,308818,1,4,0:0:0:0:
272,139,308901,1,10,0:0:0:0:
267,194,308984,1,4,0:0:0:0:
262,249,309068,5,8,0:0:0:0:
342,224,309152,1,8,0:0:0:0:
381,150,309235,1,8,0:0:0:0:
356,70,309318,1,8,0:0:0:0:
283,31,309402,1,8,0:0:0:0:
202,55,309485,1,8,0:0:0:0:
163,129,309568,1,8,0:0:0:0:
188,209,309651,1,8,0:0:0:0:
273,140,309735,5,6,0:0:0:0:
256,192,309818,12,0,316402,0:0:0:0:
