osu file format v14

[General]
AudioFilename: Denkare - Gemini.mp3
AudioLeadIn: 0
PreviewTime: 127735
Countdown: 0
SampleSet: Soft
StackLeniency: 0.3
Mode: 0
LetterboxInBreaks: 1
EpilepsyWarning: 1
WidescreenStoryboard: 1

[Editor]
DistanceSpacing: 1.5
BeatDivisor: 4
GridSize: 4
TimelineZoom: 5.500003

[Metadata]
Title:gemini
TitleUnicode:gemini
Artist:Denkishiki Karen Ongaku Shuudan
ArtistUnicode:電気式華憐音楽集団
Creator:Star Stream
Version:Insane
Source:双子座のパラドクス
Tags:video game rock japanese rock metal scanter HabiHolic Len [ Kuro Usagi ] -Mo- Denkare COTTON
BeatmapID:1646801
BeatmapSetID:182815

[Difficulty]
HPDrainRate:6
CircleSize:4
OverallDifficulty:7
ApproachRate:9
SliderMultiplier:1.8
SliderTickRate:1

[Events]
//Background and Video events
0,0,"bg.jpg",0,0
//Break Periods
2,153120,161162
//Storyboard Layer 0 (Background)
//Storyboard Layer 1 (Fail)
//Storyboard Layer 2 (Pass)
//Storyboard Layer 3 (Foreground)
//Storyboard Layer 4 (Overlay)
//Storyboard Sound Samples

[TimingPoints]
78,315.789473684211,4,2,2,35,1,0
8900,-100,4,2,2,5,0,0
8920,-100,4,2,2,65,0,0
13814,-100,4,2,2,80,0,0
13893,-100,4,2,2,65,0,0
18867,-100,4,2,2,80,0,0
18946,-100,4,2,2,65,0,0
23920,-100,4,2,2,80,0,0
23999,-100,4,2,2,65,0,0
28972,-100,4,2,2,80,0,0
29051,-100,4,2,2,65,0,0
31656,-100,4,2,2,80,0,0
31735,-100,4,2,2,60,0,0
36078,-100,4,2,2,80,0,0
36156,-100,4,2,2,80,0,0
36235,-100,4,2,2,60,0,0
41426,-100,4,2,2,5,0,0
41446,-100,4,2,2,60,0,0
41742,-100,4,2,2,5,0,0
41762,-100,4,2,2,60,0,0
46183,-100,4,2,2,80,0,0
46262,-100,4,2,2,80,0,0
46341,-100,4,2,2,60,0,0
51709,-100,4,2,2,60,0,0
53762,-100,4,2,2,60,0,0
54235,-100,4,2,2,60,0,0
61971,-100,4,2,2,80,0,0
61972,-83.3333333333333,4,2,2,80,0,1
62051,-83.3333333333333,4,2,2,80,0,1
62130,-83.3333333333333,4,2,2,65,0,1
67577,-83.3333333333333,4,2,2,5,0,1
67578,-83.3333333333333,4,2,2,5,0,1
67656,-83.3333333333333,4,2,2,65,0,1
71604,-83.3333333333333,4,2,2,65,0,1
71762,-83.3333333333333,4,2,2,80,0,1
71841,-83.3333333333333,4,2,2,65,0,1
71920,-83.3333333333333,4,2,2,65,0,1
72078,-83.3333333333333,4,2,2,80,0,1
72156,-83.3333333333333,4,2,2,80,0,1
72235,-83.3333333333333,4,2,2,65,0,1
75156,-83.3333333333333,4,2,2,5,0,1
75235,-83.3333333333333,4,2,2,65,0,1
75471,-83.3333333333333,4,2,2,5,0,1
75472,-83.3333333333333,4,2,2,5,0,1
75551,-83.3333333333333,4,2,2,65,0,1
75867,-83.3333333333333,4,2,2,65,0,1
76814,-83.3333333333333,4,2,2,65,0,1
76972,-83.3333333333333,4,2,2,65,0,1
77130,-125,4,2,2,80,0,1
77209,-125,4,2,2,50,0,1
78393,-125,4,2,2,50,0,1
79656,-100,4,2,2,60,0,1
81867,-100,4,2,2,60,0,1
82183,-100,4,2,2,50,0,1
82262,-100,4,2,2,50,0,1
82341,-100,4,2,2,65,0,1
82656,-100,4,2,2,80,0,1
82735,-100,4,2,2,80,0,1
82814,-100,4,2,2,65,0,1
83130,-100,4,2,2,50,0,1
83209,-100,4,2,2,50,0,1
83288,-100,4,2,2,65,0,1
83604,-100,4,2,2,80,0,1
83683,-100,4,2,2,80,0,1
83762,-100,4,2,2,65,0,1
84629,-100,4,2,2,5,0,1
84630,-100,4,2,2,5,0,1
84709,-100,4,2,2,65,0,0
87078,-100,4,2,2,60,0,0
89603,-100,4,2,2,80,0,0
89604,-100,4,2,2,80,0,0
89683,-100,4,2,2,80,0,0
89762,-100,4,2,2,60,0,0
94656,-100,4,2,2,80,0,0
94735,-100,4,2,2,80,0,0
94814,-100,4,2,2,60,0,0
98604,-100,4,2,2,80,0,0
98683,-100,4,2,2,80,0,0
98762,-100,4,2,2,60,0,0
100025,-100,4,2,1,45,0,0
101762,-100,4,2,1,80,0,0
101841,-100,4,2,1,80,0,0
101920,-100,4,2,1,45,0,0
106656,-100,4,2,2,45,0,0
106814,-100,4,2,1,45,0,0
107090,-100,4,2,1,5,0,0
107091,-100,4,2,1,5,0,0
107130,-100,4,2,1,45,0,0
111867,-100,4,2,1,80,0,0
111946,-100,4,2,1,80,0,0
112025,-100,4,2,1,45,0,0
114511,-100,4,2,1,5,0,0
114512,-100,4,2,1,5,0,0
114551,-100,4,2,1,45,0,0
114669,-100,4,2,1,5,0,0
114670,-100,4,2,1,5,0,0
114709,-100,4,2,1,45,0,0
114827,-100,4,2,1,5,0,0
114828,-100,4,2,1,5,0,0
114867,-100,4,2,1,45,0,0
117393,-100,4,2,1,60,0,0
117472,-100,4,2,2,60,0,0
119446,-100,4,2,2,60,0,0
119920,-100,4,2,2,60,0,0
121183,-100,4,2,2,80,0,0
121262,-100,4,2,2,60,0,0
123709,-100,4,2,2,80,0,0
123788,-100,4,2,2,60,0,0
125762,-100,4,2,2,60,0,0
126078,-100,4,2,2,60,0,0
126235,-100,4,2,2,60,0,0
127656,-83.3333333333333,4,2,2,80,0,1
127735,-83.3333333333333,4,2,2,80,0,1
127814,-83.3333333333333,4,2,2,65,0,1
132393,-83.3333333333333,4,2,2,65,0,1
132551,-83.3333333333333,4,2,2,65,0,1
132709,-83.3333333333333,4,2,2,65,0,1
136814,-83.3333333333333,4,2,2,65,0,1
136972,-83.3333333333333,4,2,2,65,0,1
137130,-83.3333333333333,4,2,2,65,0,1
137288,-83.3333333333333,4,2,2,65,0,1
137446,-83.3333333333333,4,2,2,80,0,1
137525,-83.3333333333333,4,2,2,65,0,1
137604,-83.3333333333333,4,2,2,65,0,1
137762,-83.3333333333333,4,2,2,80,0,1
137841,-83.3333333333333,4,2,2,65,0,1
140524,-83.3333333333333,4,2,2,5,0,1
140525,-83.3333333333333,4,2,2,5,0,1
140604,-83.3333333333333,4,2,2,65,0,1
140840,-83.3333333333333,4,2,2,5,0,1
140841,-83.3333333333333,4,2,2,5,0,1
140920,-83.3333333333333,4,2,2,65,0,1
142499,-83.3333333333333,4,2,2,65,0,1
142656,-83.3333333333333,4,2,2,65,0,1
142814,-125,4,2,2,50,0,1
145341,-100,4,2,2,60,0,1
147867,-100,4,2,2,50,0,1
147946,-100,4,2,2,50,0,1
148025,-100,4,2,2,65,0,1
148341,-100,4,2,2,80,0,1
148420,-100,4,2,2,80,0,1
148499,-100,4,2,2,65,0,1
148814,-100,4,2,2,50,0,1
148893,-100,4,2,2,50,0,1
148972,-100,4,2,2,65,0,1
149288,-100,4,2,2,80,0,1
149367,-100,4,2,2,80,0,1
149446,-100,4,2,2,65,0,1
150314,-100,4,2,2,5,0,1
150393,-100,4,2,2,65,0,0
152920,-100,4,2,2,80,0,0
152999,-100,4,2,2,80,0,0
161762,-100,4,2,2,60,0,0
163025,-125,4,2,2,60,0,0
164288,-125,4,2,2,60,0,0
164367,-125,4,2,2,60,0,0
165551,-125,4,2,2,60,0,0
165630,-125,4,2,2,60,0,0
166814,-125,4,2,2,60,0,0
167446,-125,4,2,2,60,0,0
168078,-125,4,2,2,60,0,0
168156,-125,4,2,2,60,0,0
169341,-125,4,2,2,60,0,0
169420,-125,4,2,2,60,0,0
170604,-125,4,2,2,60,0,0
170683,-125,4,2,2,60,0,0
173130,-100,4,2,2,60,0,0
173209,-100,4,2,2,60,0,0
178183,-100,4,2,2,80,0,0
178262,-100,4,2,2,80,0,0
178341,-100,4,2,2,60,0,0
180709,-100,4,2,2,60,0,0
180788,-100,4,2,2,60,0,0
181972,-100,4,2,2,80,0,0
182051,-100,4,2,2,60,0,0
183235,-100,4,2,2,80,0,0
183314,-100,4,2,2,80,0,0
183393,-100,4,2,2,60,0,0
187972,-100,4,2,2,60,0,0
188130,-100,4,2,2,60,0,0
188288,-100,4,2,2,60,0,0
194446,-100,4,2,2,80,0,0
194525,-100,4,2,2,60,0,0
198235,-100,4,2,2,80,0,0
198313,-100,4,2,2,60,0,0
198314,-100,4,2,2,60,0,0
200288,-100,4,2,2,60,0,0
200446,-100,4,2,2,60,0,0
200840,-100,4,2,2,5,0,0
200841,-100,4,2,2,5,0,0
200920,-100,4,2,2,60,0,0
202183,-83.3333333333333,4,2,2,60,0,1
202262,-83.3333333333333,4,2,2,60,0,1
202499,-83.3333333333333,4,2,2,80,0,1
202578,-83.3333333333333,4,2,2,80,0,1
202656,-83.3333333333333,4,2,2,65,0,1
206920,-83.3333333333333,4,2,2,65,0,1
207078,-83.3333333333333,4,2,2,65,0,1
207235,-83.3333333333333,4,2,2,65,0,1
211341,-83.3333333333333,4,2,2,65,0,1
211499,-83.3333333333333,4,2,2,65,0,1
211656,-83.3333333333333,4,2,2,65,0,1
211814,-83.3333333333333,4,2,2,65,0,1
211972,-83.3333333333333,4,2,2,80,0,1
212051,-83.3333333333333,4,2,2,65,0,1
212130,-83.3333333333333,4,2,2,65,0,1
212288,-83.3333333333333,4,2,2,80,0,1
212367,-83.3333333333333,4,2,2,80,0,1
212446,-83.3333333333333,4,2,2,65,0,1
215366,-83.3333333333333,4,2,2,5,0,1
215367,-83.3333333333333,4,2,2,5,0,1
215446,-83.3333333333333,4,2,2,65,0,1
217341,-125,4,2,2,50,0,1
218288,-125,4,2,2,50,0,1
218446,-125,4,2,2,50,0,1
219867,-100,4,2,2,60,0,1
222393,-100,4,2,2,50,0,1
222472,-100,4,2,2,50,0,1
222551,-100,4,2,2,65,0,1
222867,-100,4,2,2,80,0,1
222946,-100,4,2,2,80,0,1
223025,-100,4,2,2,65,0,1
223341,-100,4,2,2,50,0,1
223420,-100,4,2,2,50,0,1
223499,-100,4,2,2,65,0,1
223814,-100,4,2,2,80,0,1
223893,-100,4,2,2,80,0,1
223972,-100,4,2,2,65,0,1
224840,-100,4,2,2,5,0,1
224841,-100,4,2,2,5,0,1
224920,-100,4,2,2,65,0,0
227446,-100,4,2,2,60,0,0
229814,-100,4,2,2,80,0,0
229893,-100,4,2,2,80,0,0
229972,-100,4,2,2,60,0,0
232025,-100,4,2,2,60,0,0
232183,-100,4,2,2,60,0,0
232341,-100,4,2,2,60,0,0
234866,-100,4,2,2,80,0,0
234867,-100,4,2,2,80,0,0
234946,-100,4,2,2,80,0,0
235025,-100,4,2,2,60,0,0
237235,-100,4,2,2,80,0,0
237314,-100,4,2,2,60,0,0
237472,-200,4,2,2,60,0,0
238656,-200,4,2,2,80,0,0
243551,-200,4,2,2,5,0,0

[Colours]
Combo1 : 79,79,255
Combo2 : 193,43,206
Combo3 : 255,115,47
Combo4 : 245,90,114

[HitObjects]
216,176,8920,6,0,L|232:132,3,45,0|0|4|4,1:3|1:3|2:3|2:3,0:0:0:0:
164,244,9235,2,0,L|117:252,3,45,4|4|4|4,2:3|2:3|2:3|2:3,0:0:0:0:
260,264,9551,1,4,2:3:0:0:
260,264,9630,1,4,2:3:0:0:
260,264,9709,1,4,2:3:0:0:
260,264,9788,1,4,2:3:0:0:
260,264,9867,1,4,2:3:0:0:
360,240,10025,6,0,P|380:152|356:68,1,180,2|0,2:0|2:0,0:0:0:0:
276,32,10499,2,0,L|184:44,1,90,2|0,2:0|2:0,0:0:0:0:
36,108,10814,1,2,2:0:0:0:
40,144,11130,1,2,2:0:0:0:
44,180,11446,1,2,2:0:0:0:
48,216,11762,1,2,2:0:0:0:
52,252,12078,2,0,B|96:232|96:232|140:232,1,90,2|0,2:0|2:0,0:0:0:0:
137,232,12393,5,8,2:0:0:0:
16,324,12551,2,0,L|196:324,1,180,4|0,2:0|2:0,0:0:0:0:
288,296,13025,2,0,P|260:256|224:232,1,90,2|0,2:0|2:0,0:0:0:0:
356,132,13341,2,0,P|351:180|332:219,2,90,2|0|2,2:0|0:0|2:0,0:0:0:0:
280,68,13814,6,0,B|240:36|240:36|112:52,1,180,4|0,2:0|2:0,0:0:0:0:
192,152,14288,2,0,L|283:140,1,90,2|0,2:0|2:0,0:0:0:0:
392,68,14604,1,0,1:0:0:0:
392,68,14683,1,0,1:0:0:0:
392,68,14762,1,4,3:0:0:0:
492,152,14920,2,0,L|480:244,1,90,0|4,1:0|2:0,0:0:0:0:
400,340,15551,5,4,2:3:0:0:
364,336,16183,1,4,2:3:0:0:
328,332,16814,1,4,2:3:0:0:
292,328,17446,1,4,2:3:0:0:
408,272,17604,6,0,P|444:188|420:104,1,180,4|0,2:0|2:0,0:0:0:0:
356,36,18078,1,0,1:0:0:0:
356,36,18156,1,0,1:0:0:0:
356,36,18235,1,4,2:3:0:0:
272,104,18393,1,0,1:0:0:0:
258,105,18472,1,0,1:0:0:0:
244,106,18551,1,4,2:3:0:0:
230,106,18630,1,4,2:3:0:0:
216,104,18709,1,0,1:0:0:0:
128,60,18867,6,0,B|120:128|120:128|96:160|96:160|88:232,1,180,4|0,2:0|1:0,0:0:0:0:
88,244,19262,1,0,1:0:0:0:
101,245,19341,1,4,2:3:0:0:
114,246,19420,1,4,2:3:0:0:
127,247,19499,1,4,2:3:0:0:
140,248,19578,1,4,2:3:0:0:
153,249,19656,2,0,B|185:226|185:226|219:264|219:264|264:240|264:240|286:272,1,180,0|0,2:0|2:0,0:0:0:0:
376,280,20130,6,0,L|268:120,1,180,4|4,2:0|2:3,0:0:0:0:
275,130,20604,1,8,2:0:0:0:
376,44,20762,1,4,2:3:0:0:
376,44,20841,1,4,0:3:0:0:
376,44,20920,2,0,P|380:88|360:128,1,90,4|4,2:3|2:3,0:0:0:0:
224,84,21235,2,0,P|263:64|308:68,1,90,8|4,2:0|2:3,0:0:0:0:
168,164,21551,6,0,L|124:76,1,90,0|4,2:0|2:3,0:0:0:0:
127,83,21867,1,8,2:0:0:0:
104,204,22025,2,0,L|60:116,1,90,0|4,2:0|2:3,0:0:0:0:
248,168,22341,2,0,P|232:212|196:236,2,90,4|8|4,2:3|2:0|2:0,0:0:0:0:
308,104,22814,5,0,2:0:0:0:
304,232,22972,1,4,2:3:0:0:
376,136,23130,1,8,2:0:0:0:
372,264,23288,1,0,2:0:0:0:
444,168,23446,1,4,2:3:0:0:
440,296,23604,1,4,2:3:0:0:
512,200,23762,1,8,2:0:0:0:
508,172,23841,1,4,2:3:0:0:
512,144,23920,1,4,2:0:0:0:
508,116,23999,1,4,2:3:0:0:
512,88,24078,5,4,2:3:0:0:
362,177,24235,1,4,2:3:0:0:
432,15,24393,1,8,2:0:0:0:
469,185,24551,1,0,2:0:0:0:
338,69,24709,2,0,L|248:60,1,90,4|4,2:3|2:3,0:0:0:0:
156,116,25025,1,8,2:0:0:0:
388,140,25183,5,4,2:0:0:0:
388,140,25262,1,4,0:3:0:0:
388,140,25341,2,0,P|392:188|380:228,1,90,4|4,0:3|2:3,0:0:0:0:
312,288,25656,1,8,2:0:0:0:
228,168,25814,1,0,2:0:0:0:
228,168,25893,1,0,0:0:0:0:
228,168,25972,2,0,L|320:176,1,90,4|4,2:3|2:3,0:0:0:0:
204,240,26288,2,0,P|164:216|144:172,1,90,8|4,2:0|2:3,0:0:0:0:
204,88,26604,6,0,L|296:96,2,90,4|4|8,2:3|2:3|2:0,0:0:0:0:
128,40,27078,1,0,2:0:0:0:
64,104,27235,1,4,2:3:0:0:
64,104,27314,1,4,2:3:0:0:
64,104,27393,2,0,P|36:68|24:24,2,90,4|8|4,2:3|2:0|2:0,0:0:0:0:
144,144,27867,5,0,2:0:0:0:
76,252,28025,1,4,2:3:0:0:
256,136,28183,1,8,2:0:0:0:
76,252,28341,1,0,2:0:0:0:
210,240,28499,1,4,2:3:0:0:
76,252,28656,1,4,2:3:0:0:
340,224,28814,1,8,2:0:0:0:
353,222,28893,1,4,2:3:0:0:
366,220,28972,1,4,2:0:0:0:
379,218,29051,1,4,2:3:0:0:
392,216,29130,6,0,P|396:172|388:128,1,90,4|4,2:3|2:3,0:0:0:0:
268,264,29446,2,0,P|286:304|315:338,1,90,8|0,2:0|2:0,0:0:0:0:
184,232,29762,1,0,1:0:0:0:
186,218,29841,1,0,1:0:0:0:
190,205,29920,2,0,L|206:162,1,45,4|4,2:3|2:3,0:0:0:0:
96,155,30078,1,4,2:0:0:0:
94,141,30156,1,0,2:0:0:0:
88,128,30235,1,0,2:0:0:0:
80,116,30314,1,0,2:0:0:0:
256,192,30393,12,0,31341,2:0:0:0:
434,85,31656,6,0,L|340:80,1,90,6|8,2:1|2:0,0:0:0:0:
264,124,31972,1,4,2:3:0:0:
308,204,32130,1,12,2:3:0:0:
308,204,32288,2,0,P|356:200|392:180,2,90,4|8|4,2:3|2:0|2:3,0:0:0:0:
216,204,32762,1,8,2:0:0:0:
128,176,32920,6,0,L|88:92,1,90,4|8,2:3|2:0,0:0:0:0:
148,28,33235,1,4,2:3:0:0:
220,80,33393,1,8,2:0:0:0:
220,80,33472,1,8,0:0:0:0:
220,80,33551,2,0,L|312:72,1,90,4|8,2:3|2:0,0:0:0:0:
372,156,33867,2,0,L|280:148,1,90,4|8,2:3|2:0,0:0:0:0:
64,300,34183,6,0,L|156:292,1,90,4|8,2:3|2:0,0:0:0:0:
244,284,34499,1,4,2:3:0:0:
244,284,34578,1,4,2:3:0:0:
244,284,34656,1,8,2:0:0:0:
180,216,34814,2,0,P|136:216|92:200,2,90,4|8|4,2:3|2:0|2:3,0:0:0:0:
268,196,35288,1,8,2:0:0:0:
200,40,35446,6,0,P|160:52|124:84,1,90,4|8,2:0|2:0,0:0:0:0:
292,120,35762,2,0,L|272:32,1,90,4|8,2:3|2:0,0:0:0:0:
272,32,36078,1,4,2:0:0:0:
420,84,36235,2,0,L|400:172,1,90,10|4,2:1|2:3,0:0:0:0:
400,171,36551,1,8,2:0:0:0:
316,252,36709,6,0,P|272:264|228:252,1,90,6|8,2:1|2:0,0:0:0:0:
148,216,37025,1,4,2:3:0:0:
148,216,37104,1,4,2:3:0:0:
148,216,37183,1,8,2:0:0:0:
192,140,37341,2,0,P|232:152|268:188,1,90,4|8,2:3|2:0,0:0:0:0:
104,136,37656,2,0,P|116:96|152:60,1,90,4|8,2:3|2:0,0:0:0:0:
16,156,37972,2,0,L|52:336,1,180,4|4,2:3|2:3,0:0:0:0:
128,380,38446,1,8,2:0:0:0:
212,344,38604,5,2,2:1:0:0:
184,224,38762,1,8,2:0:0:0:
216,348,38920,5,2,2:1:0:0:
268,184,39078,1,8,2:0:0:0:
220,352,39235,6,0,L|312:344,1,90,4|8,2:3|2:0,0:0:0:0:
400,332,39551,1,4,2:3:0:0:
400,332,39630,1,4,2:3:0:0:
400,332,39709,1,8,2:0:0:0:
300,264,39867,1,4,2:3:0:0:
300,264,39946,1,4,2:3:0:0:
300,264,40025,1,8,2:0:0:0:
384,236,40183,2,0,P|396:192|392:148,2,90,4|8|4,2:3|2:0|2:3,0:0:0:0:
164,212,40656,1,8,2:0:0:0:
165,198,40735,1,4,0:3:0:0:
166,184,40814,1,4,2:3:0:0:
167,170,40893,1,4,2:3:0:0:
168,156,40972,1,8,2:0:0:0:
169,142,41051,1,4,0:3:0:0:
170,128,41130,1,2,2:0:0:0:
170,128,41446,6,0,B|216:128|216:128|240:92|240:92|336:92,1,180,2|6,2:1|2:1,0:1:0:0:
460,136,41920,6,0,L|444:48,2,90,8|4|8,2:0|2:3|2:0,0:0:0:0:
480,224,42393,1,4,2:3:0:0:
380,184,42551,1,8,2:0:0:0:
380,184,42709,2,0,P|332:176|292:184,1,90,4|8,2:3|2:0,0:0:0:0:
220,272,43025,5,4,2:3:0:0:
336,248,43183,1,8,2:0:0:0:
376,360,43341,1,4,2:3:0:0:
292,320,43499,1,8,2:0:0:0:
292,320,43578,1,8,0:0:0:0:
292,320,43656,1,4,2:3:0:0:
176,360,43814,1,8,2:0:0:0:
176,360,43972,2,0,L|80:352,1,90,4|8,2:3|2:0,0:0:0:0:
36,280,44288,6,0,P|24:236|24:192,1,90,4|8,2:3|2:0,0:0:0:0:
68,112,44604,1,4,2:3:0:0:
68,112,44683,1,4,0:3:0:0:
68,112,44762,1,8,2:0:0:0:
148,156,44920,1,4,2:3:0:0:
148,156,44999,1,4,2:3:0:0:
148,156,45078,1,8,2:0:0:0:
224,108,45235,2,0,L|316:104,1,90,4|8,2:3|2:0,0:0:0:0:
440,92,45551,5,4,2:0:0:0:
440,92,45709,1,8,2:0:0:0:
364,180,45867,1,4,2:3:0:0:
364,180,46025,1,8,2:0:0:0:
440,276,46183,1,4,2:0:0:0:
440,276,46341,2,0,P|468:248|484:200,2,90,10|4|8,2:1|2:3|2:0,0:0:0:0:
368,332,46814,6,0,L|276:328,1,90,6|8,2:1|2:0,0:0:0:0:
188,324,47130,1,4,2:3:0:0:
116,268,47288,1,8,2:0:0:0:
116,268,47367,1,8,0:0:0:0:
116,268,47446,2,0,P|104:224|108:180,1,90,4|8,2:3|2:0,0:0:0:0:
216,140,47762,2,0,P|204:184|178:220,1,90,4|8,2:3|2:0,0:0:0:0:
32,248,48078,5,4,2:3:0:0:
60,119,48235,1,8,2:0:0:0:
60,119,48314,1,8,0:0:0:0:
60,119,48393,2,0,P|104:107|148:116,1,90,4|8,2:3|2:0,0:0:0:0:
224,160,48709,1,2,2:1:0:0:
392,100,48867,1,8,2:0:0:0:
224,160,49025,1,2,2:1:0:0:
328,200,49183,1,8,2:0:0:0:
248,272,49341,6,0,L|140:268,1,90,4|8,2:3|2:0,0:0:0:0:
300,328,49656,1,4,2:3:0:0:
312,324,49735,1,4,2:3:0:0:
324,320,49814,1,8,2:0:0:0:
158,268,49972,1,4,2:3:0:0:
146,264,50051,1,4,2:3:0:0:
134,260,50130,1,8,2:0:0:0:
308,224,50288,2,0,L|416:220,1,90,4|8,2:3|2:0,0:0:0:0:
180,188,50604,6,0,L|72:184,1,90,4|8,2:3|2:0,0:0:0:0:
332,144,50920,1,4,2:3:0:0:
344,140,50999,1,4,2:3:0:0:
356,136,51078,1,8,2:0:0:0:
144,40,51235,1,4,2:3:0:0:
140,52,51314,1,4,2:3:0:0:
136,64,51393,1,4,2:3:0:0:
136,76,51472,1,4,2:3:0:0:
136,88,51551,1,8,2:0:0:0:
276,136,51709,6,0,P|364:120|424:184,1,180,4|4,2:0|2:3,0:0:0:0:
273,292,52183,2,0,P|253:252|254:207,1,90,2|0,1:0|2:0,0:0:0:0:
344,232,52499,1,2,2:1:0:0:
160,188,52656,1,4,2:3:0:0:
160,188,52735,1,4,0:3:0:0:
160,188,52814,1,0,1:0:0:0:
80,340,52972,6,0,B|72:292|72:292|48:264|48:264|40:168,1,180,4|4,2:0|2:3,0:0:0:0:
100,36,53446,2,0,L|107:142,1,90,2|0,1:0|2:0,0:0:0:0:
228,100,53762,1,6,2:3:0:0:
240,95,53841,1,4,2:3:0:0:
253,91,53920,1,4,2:3:0:0:
266,89,53999,1,4,2:3:0:0:
279,89,54078,1,4,0:3:0:0:
188,192,54235,6,0,P|264:164|364:160,1,180,4|4,2:0|2:3,0:0:0:0:
244,248,54709,2,0,P|282:234|332:232,1,90,2|0,1:0|2:0,0:0:0:0:
208,316,55025,1,6,2:1:0:0:
392,280,55183,1,4,2:3:0:0:
308,360,55341,1,0,1:0:0:0:
168,252,55499,6,0,L|176:68,1,180,4|4,2:0|3:0,0:0:0:0:
320,120,55972,2,0,P|288:152|244:168,1,90,0|0,1:0|2:0,0:0:0:0:
96,120,56288,2,0,L|76:136,2,22.5,4|4|4,2:3|2:3|2:3,0:0:0:0:
248,92,56446,1,0,1:0:0:0:
248,92,56604,1,0,1:0:0:0:
248,92,56762,6,0,B|276:52|276:52|328:32|372:44|388:80|392:96,1,180,4|4,2:0|2:3,0:0:0:0:
236,184,57235,2,0,P|192:168|168:132,1,90,2|4,1:0|2:3,0:0:0:0:
320,136,57551,1,2,1:0:0:0:
236,184,57709,1,4,2:3:0:0:
316,228,57867,1,0,1:0:0:0:
240,100,58025,6,0,L|252:8,1,90,4|0,2:0|2:0,0:0:0:0:
100,88,58341,1,4,2:3:0:0:
100,88,58499,2,0,P|132:56|180:48,1,90,2|4,1:0|2:3,0:0:0:0:
32,160,58814,1,2,1:0:0:0:
32,160,58972,2,0,L|8:64,2,90,4|0|4,2:3|1:0|2:3,0:0:0:0:
256,192,59367,12,0,61656,0:0:0:0:
424,96,61972,6,0,L|316:92,1,107.999996704102,4|0,2:1|2:0,0:0:0:0:
208,88,62288,1,10,2:0:0:0:
124,156,62446,1,0,2:0:0:0:
124,156,62604,1,12,2:3:0:0:
263,252,62762,2,0,P|275:200|264:148,2,107.999996704102,12|10|0,2:3|2:0|2:0,0:0:0:0:
196,336,63235,5,12,2:3:0:0:
88,320,63393,1,0,2:0:0:0:
196,336,63551,5,10,2:0:0:0:
100,240,63709,1,0,2:0:0:0:
196,336,63867,5,12,2:3:0:0:
136,168,64025,1,12,2:3:0:0:
276,328,64183,2,0,L|384:320,1,107.999996704102,10|0,2:0|2:0,0:0:0:0:
184,264,64499,5,4,2:3:0:0:
264,256,64656,2,0,L|372:248,1,107.999996704102,2|8,2:1|2:0,0:0:0:0:
192,344,64972,5,0,2:0:0:0:
184,264,65130,2,0,L|176:156,1,107.999996704102,6|4,2:3|2:3,0:0:0:0:
264,256,65446,5,8,2:0:0:0:
184,264,65604,2,0,L|76:272,1,107.999996704102,2|4,2:1|2:3,0:0:0:0:
76,271,65920,5,0,2:0:0:0:
260,184,66078,2,0,L|368:176,1,107.999996704102,10|0,2:1|2:0,0:0:0:0:
488,72,66393,1,0,1:0:0:0:
488,72,66472,1,0,1:0:0:0:
488,72,66551,2,0,L|428:88,1,53.9999983520508,6|4,2:3|2:3,0:0:0:0:
360,40,66709,1,4,2:3:0:0:
360,40,66788,1,4,2:3:0:0:
360,40,66867,2,0,L|300:24,1,53.9999983520508,4|4,2:3|2:3,0:0:0:0:
232,88,67025,6,0,P|164:148|176:264,1,215.999993408203,4|10,2:0|2:0,0:0:0:0:
176,264,67499,1,0,0:0:0:0:
260,332,67656,2,0,L|368:324,1,107.999996704102,12|4,2:3|2:3,0:0:0:0:
484,352,67972,2,0,L|268:368,1,215.999993408203,10|12,2:0|2:3,0:0:0:0:
268,367,68446,5,0,2:0:0:0:
164,344,68604,1,10,2:0:0:0:
292,260,68762,1,12,2:3:0:0:
292,260,68841,1,4,0:3:0:0:
292,260,68920,2,0,L|400:252,1,107.999996704102,4|10,2:3|2:0,0:0:0:0:
399,252,69235,1,8,2:0:0:0:
196,268,69393,1,10,2:0:0:0:
100,220,69551,5,4,2:0:0:0:
100,220,69709,2,0,L|84:112,1,107.999996704102,2|8,2:1|2:0,0:0:0:0:
235,225,70025,1,0,2:0:0:0:
235,225,70183,2,0,L|243:279,2,53.9999983520508,6|4|4,2:3|2:3|2:3,0:0:0:0:
300,80,70499,1,8,2:0:0:0:
300,80,70656,2,0,L|408:68,1,107.999996704102,6|4,2:3|2:3,0:0:0:0:
352,156,70972,6,0,L|348:212,1,53.9999983520508,4|4,2:3|2:3,0:0:0:0:
424,140,71130,5,6,1:0:0:0:
422,157,71208,1,0,1:0:0:0:
421,175,71287,1,0,1:0:0:0:
420,193,71366,1,0,1:0:0:0:
418,211,71445,1,4,2:3:0:0:
417,229,71524,1,4,2:3:0:0:
416,247,71603,1,6,2:3:0:0:
415,265,71682,1,4,2:3:0:0:
413,283,71761,1,4,2:0:0:0:
412,301,71840,1,4,2:3:0:0:
411,319,71919,1,4,2:3:0:0:
409,337,71998,1,4,2:3:0:0:
408,355,72078,6,0,B|300:356|300:304|200:304,1,215.999993408203,4|10,2:0|2:0,0:0:0:0:
104,352,72551,1,0,2:0:0:0:
12,292,72709,2,0,L|24:180,1,107.999996704102,12|12,2:3|2:3,0:0:0:0:
96,96,73025,2,0,B|120:128|120:128|112:200,1,107.999996704102,10|0,2:0|2:0,0:0:0:0:
215,337,73341,5,12,2:3:0:0:
215,162,73499,1,0,2:0:0:0:
112,303,73656,1,10,2:0:0:0:
278,249,73814,1,0,2:0:0:0:
112,195,73972,1,12,2:3:0:0:
215,337,74130,1,12,2:3:0:0:
215,162,74288,1,10,2:0:0:0:
278,249,74446,5,4,2:3:0:0:
278,249,74525,1,4,2:3:0:0:
278,249,74604,2,0,L|392:240,1,107.999996704102,4|0,2:3|2:0,0:0:0:0:
312,320,74920,2,0,P|232:252|136:288,1,215.999993408203,10|12,2:0|2:3,0:0:0:0:
137,286,75393,1,0,0:0:0:0:
48,132,75551,1,10,2:0:0:0:
88,56,75709,5,10,2:0:0:0:
88,56,75788,1,10,2:0:0:0:
88,56,75867,1,10,2:1:0:0:
244,100,76104,1,10,2:1:0:0:
396,48,76341,1,10,2:1:0:0:
492,100,76499,1,2,1:0:0:0:
490,116,76578,1,0,1:0:0:0:
488,131,76656,1,4,2:3:0:0:
486,147,76735,1,4,2:3:0:0:
484,163,76814,1,4,2:3:0:0:
482,179,76893,1,4,2:3:0:0:
480,195,76972,1,4,2:3:0:0:
478,211,77051,1,4,2:3:0:0:
476,227,77130,6,0,P|406:215|345:249,1,144,4|2,2:0|2:0,0:0:0:0:
296,304,77604,1,4,2:3:0:0:
296,304,77762,2,0,P|232:320|164:288,1,144,10|4,0:0|2:3,0:0:0:0:
163,287,78235,1,10,0:0:0:0:
248,220,78393,1,4,2:3:0:0:
248,220,78551,2,0,L|224:76,1,144,4|4,2:3|2:3,0:0:0:0:
222,67,78946,1,4,3:0:0:0:
221,56,79025,1,10,2:0:0:0:
86,21,79183,6,0,L|109:163,1,144,10|8,2:0|2:0,0:0:0:0:
296,248,79656,2,0,P|384:248|436:180,1,180,4|8,2:0|2:0,0:0:0:0:
436,179,80130,1,0,2:0:0:0:
344,80,80288,1,4,2:3:0:0:
344,80,80446,1,4,2:3:0:0:
299,158,80604,2,0,L|296:248,1,90,8|0,2:0|2:0,0:0:0:0:
356,316,80920,5,4,2:3:0:0:
356,316,81078,2,0,B|404:316|404:336|444:336,2,90,4|8|8,2:3|2:0|2:0,0:0:0:0:
264,316,81551,1,8,0:0:0:0:
237,318,81630,1,8,0:0:0:0:
210,320,81709,1,4,2:3:0:0:
183,322,81788,1,4,2:3:0:0:
160,337,81867,1,4,2:3:0:0:
133,339,81946,1,4,2:3:0:0:
106,341,82025,1,4,2:3:0:0:
79,343,82104,1,4,2:3:0:0:
52,345,82183,5,4,2:0:0:0:
18,252,82341,1,4,2:3:0:0:
114,270,82499,1,4,2:3:0:0:
174,194,82656,5,4,2:0:0:0:
114,270,82814,1,4,2:3:0:0:
78,176,82972,1,4,2:3:0:0:
114,270,83130,5,4,2:0:0:0:
174,194,83288,1,4,2:3:0:0:
243,262,83446,1,4,2:3:0:0:
304,186,83604,5,4,2:0:0:0:
243,262,83762,1,4,2:3:0:0:
174,194,83920,1,4,2:3:0:0:
205,102,84078,5,0,1:0:0:0:
205,102,84156,1,0,1:0:0:0:
205,102,84235,1,4,2:3:0:0:
205,102,84314,1,4,2:3:0:0:
205,102,84393,2,0,B|250:82|250:82|381:110,1,180,8|4,2:0|2:1,0:0:0:0:
172,144,87078,5,8,2:0:0:0:
188,128,87156,1,4,2:3:0:0:
204,112,87235,2,0,L|296:104,2,90,4|4|8,2:3|2:3|2:0,0:0:0:0:
364,144,87709,1,0,2:0:0:0:
364,144,87788,1,0,0:0:0:0:
364,144,87867,2,0,P|376:184|372:232,1,90,4|4,2:3|2:3,0:0:0:0:
232,244,88183,2,0,P|260:213|304:193,1,90,8|4,2:0|2:3,0:0:0:0:
384,308,88499,6,0,P|343:298|303:270,2,90,4|4|8,2:3|2:3|2:0,0:0:0:0:
384,308,88972,1,0,2:0:0:0:
264,336,89130,1,4,2:3:0:0:
264,336,89209,1,4,2:3:0:0:
264,336,89288,2,0,L|156:344,2,90,4|8|4,2:3|2:0|2:0,0:0:0:0:
56,288,89762,5,4,2:3:0:0:
76,360,89920,1,4,2:3:0:0:
152,216,90078,1,8,2:0:0:0:
132,288,90236,1,0,2:0:0:0:
56,144,90393,1,4,2:3:0:0:
76,216,90551,1,4,2:3:0:0:
132,144,90709,1,8,2:0:0:0:
148,136,90788,1,8,2:0:0:0:
164,128,90867,1,4,2:0:0:0:
180,120,90946,1,4,2:3:0:0:
196,112,91025,6,0,B|225:101|225:101|296:118,1,90,4|4,2:3|2:3,0:0:0:0:
320,200,91341,2,0,L|189:169,1,90,8|0,2:0|2:0,0:0:0:0:
352,136,91656,1,8,2:0:0:0:
369,134,91735,1,8,2:0:0:0:
386,132,91814,1,4,2:3:0:0:
403,130,91893,1,4,2:3:0:0:
420,128,91972,1,8,2:0:0:0:
328,280,92130,5,4,2:0:0:0:
328,280,92209,1,0,2:0:0:0:
328,280,92288,2,0,L|420:268,2,90,4|4|8,2:3|2:3|2:0,0:0:0:0:
240,292,92762,1,0,2:0:0:0:
156,260,92920,2,0,P|140:216|140:172,1,90,4|4,2:3|2:3,0:0:0:0:
264,120,93235,2,0,P|255:166|233:204,1,90,8|4,2:0|2:3,0:0:0:0:
352,192,93551,6,0,L|440:176,2,90,4|4|8,2:3|2:3|2:0,0:0:0:0:
352,192,94025,1,0,2:0:0:0:
268,224,94183,1,4,2:3:0:0:
268,224,94262,1,4,2:3:0:0:
268,224,94341,2,0,P|232:248|204:284,2,90,4|8|4,2:3|2:0|2:0,0:0:0:0:
152,160,94814,5,4,2:3:0:0:
152,160,94972,1,4,2:3:0:0:
288,72,95130,1,8,2:0:0:0:
288,72,95288,1,0,2:0:0:0:
196,80,95446,1,4,2:3:0:0:
196,80,95604,1,4,2:3:0:0:
352,132,95762,1,8,2:0:0:0:
365,131,95841,1,8,2:0:0:0:
378,130,95920,1,4,2:0:0:0:
391,129,95999,1,4,2:3:0:0:
404,128,96078,6,0,L|496:120,1,90,4|4,2:3|2:3,0:0:0:0:
344,208,96393,2,0,L|252:200,1,90,8|0,2:0|2:0,0:0:0:0:
412,280,96709,1,8,2:0:0:0:
412,280,96788,1,8,2:0:0:0:
412,280,96867,2,0,L|452:312,1,45,4|4,2:3|2:3,0:0:0:0:
344,341,97025,2,0,L|360:383,1,45,12|0,2:0|2:0,0:0:0:0:
254,360,97183,5,0,0:0:0:0:
254,360,97262,1,0,0:0:0:0:
254,360,97341,2,0,L|244:380,4,22.5,6|0|0|0|0,2:1|2:0|2:0|2:0|2:0,0:0:0:0:
254,360,98604,5,4,2:0:0:0:
164,296,98762,1,4,2:3:0:0:
164,296,98841,1,4,2:3:0:0:
164,296,98920,1,4,2:3:0:0:
254,360,99078,5,12,2:0:0:0:
224,220,99235,1,4,2:3:0:0:
224,220,99314,1,4,2:3:0:0:
224,220,99393,1,4,2:3:0:0:
340,272,99551,2,0,L|316:280,8,22.5,0|0|0|0|0|0|0|0|6,1:0|1:0|1:0|1:0|1:0|1:0|1:0|1:0|1:0,0:0:0:0:
448,204,100025,6,0,L|464:116,2,90,8|4|8,2:0|2:3|2:0,0:0:0:0:
420,292,100499,2,0,P|328:288|256:332,1,180,4|4,2:3|2:3,0:0:0:0:
255,332,100972,1,8,2:0:0:0:
132,280,101130,2,0,L|112:192,1,90,4|8,2:0|2:0,0:0:0:0:
239,137,101446,2,0,P|227:180|200:216,1,90,4|8,2:3|2:0,0:0:0:0:
48,244,101762,1,4,2:0:0:0:
48,244,101920,2,0,L|28:156,2,90,2|4|8,2:1|2:3|2:0,0:0:0:0:
140,328,102393,6,0,P|184:316|228:316,1,90,6|8,2:1|2:0,0:0:0:0:
316,344,102709,1,4,2:3:0:0:
316,344,102788,1,4,2:3:0:0:
316,344,102867,1,8,2:0:0:0:
412,288,103025,1,4,2:3:0:0:
412,288,103104,1,4,2:3:0:0:
412,288,103183,1,8,2:0:0:0:
472,196,103341,2,0,L|472:104,1,90,4|8,2:3|2:0,0:0:0:0:
316,184,103656,6,0,P|347:152|387:132,1,90,4|8,2:3|2:0,0:0:0:0:
260,108,103972,1,4,2:3:0:0:
260,108,104051,1,4,2:3:0:0:
260,108,104130,1,8,2:0:0:0:
144,160,104288,2,0,L|52:152,1,90,2|8,2:1|2:0,0:1:0:0:
172,236,104604,1,2,2:1:0:0:
84,228,104762,1,8,2:0:0:0:
114,304,104920,6,0,P|156:320|200:320,1,90,4|8,2:3|2:0,0:0:0:0:
284,288,105235,1,4,2:3:0:0:
280,276,105314,1,4,2:3:0:0:
276,264,105393,1,8,2:0:0:0:
364,192,105551,1,4,2:3:0:0:
360,204,105630,1,4,2:3:0:0:
356,216,105709,1,8,2:0:0:0:
206,224,105867,2,0,P|240:195|284:188,1,90,4|8,2:3|2:0,0:0:0:0:
283,187,106183,5,4,2:3:0:0:
128,264,106341,1,8,2:0:0:0:
121,247,106420,1,4,0:3:0:0:
114,230,106499,1,4,2:3:0:0:
108,213,106578,1,4,2:3:0:0:
102,196,106656,1,8,2:0:0:0:
96,179,106735,1,8,2:0:0:0:
90,162,106814,1,4,2:3:0:0:
90,162,107130,6,0,L|72:100,1,45,2|2,2:0|2:0,0:0:0:0:
156,112,107288,2,0,L|171:49,1,45,2|2,2:0|2:0,0:0:0:0:
238,101,107446,1,6,2:1:0:0:
332,152,107604,5,8,2:0:0:0:
332,152,107683,1,8,2:0:0:0:
332,152,107762,2,0,L|424:148,1,90,4|8,2:3|2:0,0:0:0:0:
324,228,108078,1,4,2:3:0:0:
324,228,108156,1,0,0:0:0:0:
324,228,108235,2,0,L|236:212,2,90,8|4|8,2:0|2:3|2:0,0:0:0:0:
412,244,108709,5,4,2:3:0:0:
352,312,108867,1,8,2:0:0:0:
436,348,109025,1,4,2:3:0:0:
412,244,109183,5,8,2:0:0:0:
272,344,109341,1,4,2:3:0:0:
272,344,109420,1,4,0:3:0:0:
272,344,109499,2,0,L|176:340,2,90,8|4|10,2:0|2:3|2:0,0:0:0:0:
192,244,109972,5,6,2:3:0:0:
116,296,110130,1,8,2:0:0:0:
36,252,110288,1,4,2:3:0:0:
36,252,110367,1,4,2:3:0:0:
36,252,110446,1,8,2:0:0:0:
80,176,110604,1,4,2:3:0:0:
80,176,110683,1,4,2:3:0:0:
80,176,110762,2,0,L|72:80,2,90,8|4|8,2:0|2:3|2:0,0:0:0:0:
156,224,111235,6,0,P|200:228|244:220,1,90,4|8,2:0|2:0,0:0:0:0:
276,104,111551,2,0,P|235:122|201:151,1,90,4|8,2:3|2:0,0:0:0:0:
327,269,111867,1,4,2:0:0:0:
327,269,112025,2,0,L|320:180,2,90,2|4|8,2:1|2:3|2:0,0:0:0:0:
396,328,112499,5,6,2:1:0:0:
240,276,112656,2,0,L|144:284,1,90,8|4,2:0|2:3,0:0:0:0:
60,292,112972,1,8,2:0:0:0:
96,208,113130,1,4,2:3:0:0:
96,208,113288,2,0,P|80:164|48:136,2,90,8|4|8,2:0|2:3|2:0,0:0:0:0:
160,272,113762,1,4,2:3:0:0:
224,180,113920,1,8,2:0:0:0:
224,180,113999,1,8,0:0:0:0:
224,180,114078,2,0,L|316:184,1,90,4|8,2:3|2:0,0:0:0:0:
456,136,114393,5,2,2:1:0:0:
464,16,114551,1,8,2:0:0:0:
392,16,114709,1,2,2:1:0:0:
384,136,114867,1,8,2:0:0:0:
300,104,115025,6,0,P|256:96|208:92,1,90,4|8,2:0|2:0,0:0:0:0:
128,124,115341,2,0,L|104:84,2,45,4|4|8,2:3|2:3|2:0,0:0:0:0:
76,192,115656,2,0,L|33:172,2,45,4|4|8,2:3|2:3|2:0,0:0:0:0:
128,268,115972,2,0,P|172:264|217:256,1,90,4|8,2:3|2:0,0:0:0:0:
320,236,116288,6,0,P|364:239|409:247,1,90,4|8,2:3|2:0,0:0:0:0:
480,304,116604,1,4,2:3:0:0:
480,304,116683,1,4,2:3:0:0:
480,304,116762,1,8,2:0:0:0:
312,325,116920,1,4,2:3:0:0:
314,303,116998,1,4,2:3:0:0:
316,280,117077,1,4,2:3:0:0:
318,258,117156,1,4,2:3:0:0:
320,236,117235,1,8,2:0:0:0:
236,168,117393,6,0,P|144:164|60:184,1,180,4|4,2:0|2:3,0:0:0:0:
99,99,117867,2,0,P|147:91|187:91,1,90,2|0,1:0|2:0,0:0:0:0:
280,100,118183,1,2,2:1:0:0:
264,240,118341,1,4,2:3:0:0:
264,240,118420,1,4,2:3:0:0:
264,240,118499,1,0,1:0:0:0:
400,220,118656,6,0,B|444:212|444:212|468:76,1,180,4|4,2:0|2:3,0:0:0:0:
404,16,119130,2,0,L|388:113,1,90,2|0,1:0|2:0,0:0:0:0:
320,160,119446,1,2,2:1:0:0:
297,163,119524,1,4,2:3:0:0:
275,164,119603,1,4,2:3:0:0:
252,161,119682,1,4,2:3:0:0:
231,156,119761,1,4,2:3:0:0:
120,96,119920,6,0,P|52:104|28:204,1,180,4|4,2:0|2:3,0:0:0:0:
100,252,120393,2,0,P|144:248|188:256,1,90,2|0,1:0|2:0,0:0:0:0:
365,294,120709,2,0,P|321:298|279:314,2,90,6|4|0,0:3|2:3|1:0,2:0:0:0:
468,232,121183,6,0,L|452:52,1,180,4|4,2:0|2:3,0:0:0:0:
388,152,121656,2,0,L|380:62,1,90,0|0,1:0|2:0,0:0:0:0:
309,93,121972,2,0,L|307:71,2,22.5,0|0|0,1:0|1:0|1:0,0:0:0:0:
160,64,122130,1,0,1:0:0:0:
160,64,122288,1,0,1:0:0:0:
80,104,122446,6,0,B|40:132|40:132|40:280,1,180,4|4,2:0|2:3,0:0:0:0:
184,264,122920,2,0,P|176:216|160:176,1,90,2|4,1:0|2:3,0:0:0:0:
280,100,123235,2,0,P|272:148|256:188,2,90,2|4|0,1:0|2:3|1:0,0:0:0:0:
352,48,123709,6,0,L|448:44,1,90,4|0,2:0|0:0,0:0:0:0:
344,148,124025,1,4,2:3:0:0:
344,148,124183,2,0,P|388:132|432:124,1,90,2|4,1:0|2:3,0:0:0:0:
260,128,124499,1,2,1:0:0:0:
260,128,124656,2,0,L|236:40,2,90,4|0|4,2:3|1:0|2:0,0:0:0:0:
80,56,125288,5,0,1:0:0:0:
67,79,125366,1,0,1:0:0:0:
58,103,125445,1,4,2:3:0:0:
52,129,125524,1,4,2:3:0:0:
49,155,125603,1,4,2:3:0:0:
50,181,125682,1,4,2:3:0:0:
54,207,125761,1,4,2:3:0:0:
61,232,125840,1,4,2:3:0:0:
86,237,125919,1,4,2:3:0:0:
111,245,125998,1,4,2:3:0:0:
136,254,126077,1,8,2:0:0:0:
160,264,126156,1,4,2:3:0:0:
184,276,126235,2,0,P|272:264|348:312,1,180,2|2,3:1|3:1,0:0:0:0:
456,212,126709,2,0,P|412:215|369:231,1,90,2|0,3:1|2:0,0:0:0:0:
212,192,127025,6,0,L|156:188,1,45,2|0,2:0|2:0,0:0:0:0:
304,160,127183,2,0,L|360:156,1,45,2|0,2:0|2:0,0:0:0:0:
204,180,127341,6,0,L|148:176,1,45,2|0,2:0|2:0,0:0:0:0:
296,148,127499,2,0,L|352:144,1,45,2|0,2:0|2:0,0:0:0:0:
196,168,127656,6,0,L|84:160,1,107.999996704102,4|0,2:0|2:0,0:0:0:0:
12,116,127972,1,10,2:0:0:0:
80,64,128130,1,0,2:0:0:0:
80,64,128288,2,0,L|188:56,1,107.999996704102,12|12,2:3|2:3,0:0:0:0:
352,116,128604,2,0,L|240:108,1,107.999996704102,10|0,2:0|2:0,0:0:0:0:
88,180,128920,6,0,P|144:188|188:216,2,107.999996704102,12|0|10,2:3|2:0|2:0,0:0:0:0:
16,228,129393,1,4,2:3:0:0:
16,228,129472,1,4,0:3:0:0:
16,228,129551,2,0,L|0:120,1,107.999996704102,12|12,2:3|2:3,0:0:0:0:
48,48,129867,2,0,B|76:20|76:20|252:44,1,215.999993408203,10|4,2:0|2:3,0:0:0:0:
312,132,130341,6,0,L|201:116,2,107.999996704102,2|8|0,2:1|2:0|2:0,0:0:0:0:
396,168,130814,1,6,2:3:0:0:
396,168,130972,2,0,P|408:116|440:72,2,107.999996704102,4|8|2,2:3|2:0|2:1,0:0:0:0:
328,224,131446,6,0,P|224:252|156:332,1,215.999993408203,4|10,2:3|2:1,0:0:0:0:
155,332,131920,1,0,2:0:0:0:
32,292,132078,1,0,1:0:0:0:
33,281,132156,1,0,1:0:0:0:
34,270,132235,1,6,2:3:0:0:
35,259,132314,1,4,2:3:0:0:
36,248,132393,1,4,2:3:0:0:
38,237,132472,1,4,2:3:0:0:
40,226,132551,1,4,2:3:0:0:
42,215,132630,1,4,2:3:0:0:
44,204,132709,6,0,L|59:84,1,107.999996704102,4|0,2:0|2:0,0:0:0:0:
140,124,133025,2,0,P|240:100|352:116,1,215.999993408203,10|12,2:0|2:3,0:0:0:0:
420,172,133499,1,4,2:3:0:0:
420,172,133656,2,0,B|322:217|345:268|249:317,1,215.999993408203,10|12,2:0|2:3,0:0:0:0:
380,320,134130,6,0,L|488:324,1,107.999996704102,0|10,2:0|2:0,0:0:0:0:
324,216,134446,1,12,2:3:0:0:
324,216,134525,1,4,0:3:0:0:
324,216,134604,1,4,2:3:0:0:
136,176,134762,1,10,2:0:0:0:
136,176,134920,1,8,2:0:0:0:
180,272,135078,1,10,2:0:0:0:
252,136,135235,5,4,2:0:0:0:
252,136,135393,2,0,L|244:28,2,107.999996704102,6|8|0,2:3|2:0|2:0,0:0:0:0:
320,188,135867,2,0,B|476:200|476:200|440:248,1,215.999993408203,6|8,2:3|2:0,0:0:0:0:
356,264,136341,2,0,L|136:244,1,215.999993408203,6|4,2:3|2:3,0:0:0:0:
56,164,136814,6,0,L|44:108,1,53.9999983520508,6|0,1:0|1:0,1:0:0:0:
128,156,136972,1,0,1:0:0:0:
145,154,137050,1,0,1:0:0:0:
163,152,137129,1,4,2:3:0:0:
181,151,137208,1,4,2:3:0:0:
199,149,137287,1,2,2:1:0:0:
217,147,137366,1,4,2:3:0:0:
235,146,137445,1,4,2:0:0:0:
253,144,137524,1,4,2:3:0:0:
271,142,137603,1,4,2:3:0:0:
289,141,137682,1,4,2:3:0:0:
307,139,137762,6,0,L|432:128,1,107.999996704102,4|0,2:0|2:0,0:0:0:0:
414,129,138078,1,10,2:0:0:0:
288,216,138235,1,4,2:3:0:0:
284,220,138314,1,4,0:3:0:0:
280,224,138393,2,0,L|401:221,1,107.999996704102,12|12,2:3|2:3,0:0:0:0:
328,308,138709,2,0,L|220:310,1,107.999996704102,10|0,2:0|2:0,0:0:0:0:
48,276,139025,5,12,2:3:0:0:
120,324,139183,1,0,2:0:0:0:
96,208,139341,5,10,2:0:0:0:
120,324,139499,1,0,2:0:0:0:
16,204,139656,5,12,2:3:0:0:
156,152,139814,1,12,2:3:0:0:
156,152,139972,2,0,B|208:132|208:132|292:140|360:184,1,215.999993408203,10|4,2:0|2:3,0:0:0:0:
436,224,140446,5,0,0:0:0:0:
436,224,140604,2,0,L|452:116,1,107.999996704102,10|0,2:0|0:0,0:0:0:0:
340,272,140920,2,0,P|236:240|128:240,1,215.999993408203,12|10,2:3|2:0,0:0:0:0:
60,188,141393,5,10,2:0:0:0:
60,188,141472,1,10,2:0:0:0:
60,188,141551,2,0,B|48:76|48:76|16:120,2,161.999995056153,10|10|10,2:1|2:1|2:1,0:0:0:0:
129,239,142183,1,2,1:0:0:0:
140,239,142262,1,0,1:0:0:0:
150,238,142341,1,4,2:3:0:0:
160,237,142420,1,4,2:3:0:0:
170,236,142499,1,4,2:3:0:0:
180,235,142578,1,4,2:3:0:0:
190,234,142656,1,4,2:3:0:0:
200,233,142735,1,4,2:3:0:0:
210,232,142814,6,0,L|354:220,1,144,4|0,2:0|0:0,0:0:0:0:
412,88,143446,2,0,L|268:100,1,144,10|4,2:0|3:0,0:0:0:0:
268,99,143920,1,10,2:0:0:0:
212,148,144078,5,4,2:3:0:0:
212,148,144235,2,0,P|140:160|76:128,1,144,4|0,2:3|2:0,0:0:0:0:
0,72,144709,1,10,2:0:0:0:
0,72,144867,2,0,L|20:228,1,144,10|10,2:0|2:0,0:0:0:0:
80,280,145341,6,0,B|116:252|116:252|252:244,1,180,4|8,2:0|2:0,0:0:0:0:
250,244,145814,1,0,2:0:0:0:
144,320,145972,1,4,2:3:0:0:
144,320,146130,2,0,L|233:315,2,90,4|8|0,2:3|2:0|2:0,0:0:0:0:
72,256,146604,5,4,2:3:0:0:
72,256,146683,1,4,2:3:0:0:
72,256,146762,2,0,L|0:310,2,90,4|8|8,2:3|2:0|2:0,0:0:0:0:
144,200,147235,1,8,2:0:0:0:
170,201,147314,1,8,2:0:0:0:
196,202,147393,1,4,2:3:0:0:
222,203,147472,1,4,2:3:0:0:
245,216,147551,1,4,2:3:0:0:
271,217,147630,1,4,2:3:0:0:
297,218,147709,1,4,2:3:0:0:
323,219,147788,1,4,2:3:0:0:
346,232,147867,5,4,2:0:0:0:
391,162,148025,1,4,2:3:0:0:
399,293,148183,1,4,2:3:0:0:
468,183,148341,1,4,2:0:0:0:
476,264,148499,2,0,L|483:358,1,90,4|4,2:3|2:3,0:0:0:0:
399,293,148814,5,4,2:0:0:0:
371,369,148972,1,4,2:3:0:0:
338,241,149130,1,4,2:3:0:0:
289,364,149288,1,4,2:0:0:0:
267,286,149446,2,0,L|272:193,1,90,4|4,2:3|2:3,0:0:0:0:
228,116,149762,5,0,1:0:0:0:
228,116,149841,1,0,1:0:0:0:
228,116,149920,1,4,2:3:0:0:
228,116,149999,1,4,2:3:0:0:
228,116,150078,2,0,B|100:128|100:128|60:168,1,180,8|4,2:0|2:1,0:0:0:0:
256,192,150472,12,4,152920,0:0:0:0:
296,152,161762,5,8,2:0:0:0:
296,152,161841,1,8,2:0:0:0:
296,152,161920,2,0,L|200:148,1,90,8|8,2:0|2:0,0:0:0:0:
108,224,162235,5,8,2:0:0:0:
108,224,162314,1,8,2:0:0:0:
108,224,162472,5,8,2:0:0:0:
108,224,162551,2,0,L|197:227,1,90,8|8,2:0|2:0,0:0:0:0:
197,227,163025,6,0,P|224:240|260:264,1,72,6|2,2:0|2:0,0:0:0:0:
320,304,163341,2,0,P|352:320|388:332,1,72,2|0,2:0|2:0,0:0:0:0:
456,308,163656,2,0,L|456:164,1,144,10|0,2:0|2:0,0:0:0:0:
368,48,164288,5,0,1:0:0:0:
368,48,164446,1,2,2:0:0:0:
368,48,164604,2,0,L|292:40,1,72,2|0,2:0|2:0,0:0:0:0:
184,128,164920,2,0,L|336:112,2,144,10|0|0,2:0|2:0|1:0,0:0:0:0:
184,128,165709,5,2,2:0:0:0:
192,136,165867,2,0,L|184:208,1,72,2|0,2:0|2:0,0:0:0:0:
80,160,166183,2,0,L|96:304,2,144,10|0|0,2:0|2:0|1:0,0:0:0:0:
128,88,166972,5,0,1:0:0:0:
128,88,167130,2,0,L|204:80,1,72,2|0,2:0|1:0,0:0:0:0:
339,69,167446,1,10,2:0:0:0:
339,69,167604,1,10,2:0:0:0:
232,147,167762,2,0,P|232:183|247:217,1,72,0|10,1:0|0:0,1:0:0:0:
268,286,168078,2,0,P|316:243|302:171,2,144,4|2|8,0:1|0:0|0:0,0:0:0:0:
144,332,168867,1,0,2:0:0:0:
144,332,169025,2,0,L|72:328,1,72,2|0,2:0|2:0,0:0:0:0:
243,370,169341,2,0,L|315:374,1,72,12|0,0:3|2:0,0:0:0:0:
421,301,169656,2,2,P|431:267|450:237,1,72,2|0,0:0|0:0,0:0:0:0:
339,171,169972,2,0,P|261:169|186:145,1,144,10|0,0:0|0:0,0:0:0:0:
54,45,170604,1,12,3:0:0:0:
29,143,170761,1,0,0:0:0:0:
126,117,170920,2,0,L|197:105,1,72,2|0,0:0|0:0,0:0:0:0:
136,187,171235,2,0,P|126:259|160:319,1,144,10|2,0:0|0:0,0:0:0:0:
344,124,171867,5,8,2:0:0:0:
344,124,171946,1,8,2:0:0:0:
344,124,172025,2,0,L|420:128,1,72,8|8,2:0|2:0,0:0:0:0:
284,64,172341,1,8,2:0:0:0:
284,64,172420,1,8,2:0:0:0:
160,96,172578,1,8,2:0:0:0:
160,96,172657,1,8,2:0:0:0:
36,56,172814,2,0,L|24:20,1,36,8|8,2:0|2:0,0:0:0:0:
135,293,173130,6,0,P|239:266|317:290,1,180,12|8,2:0|2:0,0:0:0:0:
396,273,173604,2,0,L|430:188,1,90,4|8,2:3|2:0,0:0:0:0:
339,181,173920,1,4,2:3:0:0:
339,181,174078,2,0,B|346:134|326:96|326:96|232:80,1,180,8|8,2:0|2:0,0:0:0:0:
158,171,174551,6,0,L|246:154,2,90,4|8|4,2:3|2:0|2:3,0:0:0:0:
69,150,175025,1,8,2:0:0:0:
69,150,175183,2,0,P|56:108|56:60,2,90,4|8|4,2:3|2:0|2:3,0:0:0:0:
176,240,175656,6,0,L|353:207,1,180,8|8,2:0|2:0,0:0:0:0:
380,128,176130,2,0,L|291:144,1,90,4|8,2:3|2:0,0:0:0:0:
204,160,176446,1,4,2:3:0:0:
204,160,176604,2,0,L|115:176,1,90,8|4,2:0|2:3,0:0:0:0:
52,240,176920,6,0,P|40:284|40:328,1,90,8|4,2:0|2:3,0:0:0:0:
168,368,177235,2,0,P|145:328|114:297,1,90,8|4,2:0|2:3,0:0:0:0:
216,248,177551,1,8,2:0:0:0:
229,245,177630,1,4,2:3:0:0:
242,242,177709,1,4,2:3:0:0:
255,240,177788,1,4,2:3:0:0:
268,238,177867,2,0,L|397:216,1,90,8|4,2:0|2:3,0:0:0:0:
464,152,178183,6,0,P|372:144|332:72,1,180,12|8,2:0|2:0,0:0:0:0:
416,68,178656,2,0,P|370:141|284:146,1,180,4|4,2:3|2:3,0:0:0:0:
212,104,179130,2,0,L|224:12,1,90,8|4,2:0|2:3,0:0:0:0:
140,28,179446,6,0,L|48:48,1,90,8|4,2:0|2:3,0:0:0:0:
8,120,179762,1,8,2:0:0:0:
8,120,179920,2,0,P|88:140|88:224,1,180,4|4,2:3|2:3,0:0:0:0:
87,224,180393,2,0,P|124:252|148:288,1,90,8|4,2:0|2:3,0:0:0:0:
228,328,180709,6,0,L|412:320,1,180,12|8,2:0|2:0,0:0:0:0:
444,244,181183,2,0,L|264:251,1,180,4|4,2:3|2:3,0:0:0:0:
188,200,181656,2,0,P|184:156|196:112,1,90,8|4,2:0|2:3,0:0:0:0:
276,16,181972,5,4,2:0:0:0:
356,76,182130,1,0,1:0:0:0:
356,76,182209,1,0,1:0:0:0:
356,76,182288,2,0,L|448:68,1,90,4|4,2:3|2:3,0:0:0:0:
376,156,182604,1,8,2:0:0:0:
362,154,182683,1,0,1:0:0:0:
348,152,182762,1,4,2:3:0:0:
334,150,182841,1,4,2:3:0:0:
320,148,182920,1,4,2:3:0:0:
306,146,182999,1,4,2:3:0:0:
292,144,183078,1,8,2:0:0:0:
278,142,183156,1,8,2:0:0:0:
264,140,183235,6,0,L|272:48,1,90,6|2,2:0|2:0,0:0:0:0:
200,200,183551,2,0,L|192:289,1,90,10|4,2:0|2:3,0:0:0:0:
192,128,183867,2,0,L|200:36,1,90,2|12,2:0|2:3,0:0:0:0:
128,188,184183,2,0,L|120:277,1,90,10|0,2:0|2:0,0:0:0:0:
120,116,184499,2,0,L|128:24,1,90,12|0,2:3|2:0,0:0:0:0:
56,176,184814,1,10,2:0:0:0:
120,116,184972,5,4,0:3:0:0:
120,116,185051,1,4,0:3:0:0:
120,116,185130,1,4,2:3:0:0:
176,184,185288,1,12,2:3:0:0:
284,64,185446,2,0,L|380:60,1,90,10|2,2:0|2:0,0:0:0:0:
444,184,185762,5,4,2:3:0:0:
444,184,185841,1,0,2:0:0:0:
444,184,185920,2,0,L|384:168,2,45,0|0|10,2:0|2:0|2:0,0:0:0:0:
376,280,186235,1,0,2:0:0:0:
376,280,186314,1,0,2:0:0:0:
376,280,186393,2,0,L|332:236,2,45,4|0|12,2:3|2:0|2:3,0:0:0:0:
269,329,186709,1,8,2:0:0:0:
255,331,186788,1,0,2:0:0:0:
241,332,186867,1,0,2:0:0:0:
227,332,186946,1,0,2:0:0:0:
213,331,187025,2,0,P|168:328|124:336,1,90,12|0,2:3|2:0,0:0:0:0:
55,276,187341,5,10,2:0:0:0:
55,276,187420,1,0,2:0:0:0:
55,276,187499,1,0,2:0:0:0:
55,276,187578,1,0,0:0:0:0:
55,276,187656,2,0,L|66:221,3,45,10|8|0|0,2:0|2:0|1:0|1:0,3:0:0:0:
128,280,187972,2,0,L|174:271,1,45,4|4,2:3|2:3,3:0:0:0:
139,205,188130,2,0,L|185:196,1,45,4|4,2:3|2:3,3:0:0:0:
305,277,188288,5,14,2:0:0:0:
305,277,188367,1,0,2:0:0:0:
305,277,188446,1,4,2:3:0:0:
305,277,188525,1,4,2:3:0:0:
305,277,188604,1,10,2:0:0:0:
305,277,188683,1,0,2:0:0:0:
305,277,188762,1,12,2:3:0:0:
305,277,188841,1,0,2:0:0:0:
305,277,188920,2,0,L|297:330,3,45,8|0|12|0,2:0|2:0|2:3|2:0,0:0:0:0:
379,254,189235,2,0,L|398:303,3,45,10|0|4|0,2:0|2:0|2:3|2:0,0:0:0:0:
450,206,189551,5,10,2:0:0:0:
452,197,189630,1,0,2:0:0:0:
454,188,189709,1,4,2:3:0:0:
455,179,189788,1,4,2:3:0:0:
456,170,189867,1,10,2:0:0:0:
455,160,189946,1,0,0:0:0:0:
454,150,190025,1,12,2:3:0:0:
453,141,190104,1,0,0:0:0:0:
451,132,190183,1,2,1:0:0:0:
296,104,190341,2,0,P|340:96|384:104,1,90,2|0,1:0|2:0,0:0:0:0:
160,168,190656,6,0,P|248:184|336:167,1,180,6|4,2:0|2:3,0:0:0:0:
204,104,191130,2,0,P|160:96|116:104,2,90,10|0|12,2:0|2:0|2:3,0:0:0:0:
60,184,191604,1,4,2:3:0:0:
60,184,191762,2,0,L|40:96,1,90,10|12,2:0|2:3,0:0:0:0:
144,244,192078,2,0,L|240:228,2,90,0|12|10,2:0|2:3|2:0,0:0:0:0:
272,296,192551,6,0,P|372:292|424:344,1,180,2|4,2:0|2:3,0:0:0:0:
424,344,193025,1,10,2:0:0:0:
500,288,193183,2,0,P|504:204|484:108,1,180,6|4,2:0|2:3,0:0:0:0:
408,60,193656,5,10,2:0:0:0:
399,61,193735,1,0,2:0:0:0:
390,62,193814,1,0,2:0:0:0:
381,62,193893,1,0,2:0:0:0:
371,61,193972,2,0,L|329:38,3,45,12|4|4|4,2:3|2:3|2:3|2:3,0:0:0:0:
305,105,194288,2,0,L|263:128,3,45,10|0|6|0,2:0|2:0|2:0|2:0,0:0:0:0:
240,56,194604,6,0,L|188:28,2,60,0|0|0,2:0|2:0|2:0,0:0:0:0:
184,112,194920,2,0,L|132:140,2,60,10|0|0,2:0|2:0|2:0,0:0:0:0:
112,68,195235,6,0,B|84:60|84:60|88:84|88:84|64:76|64:76|68:100|68:100|28:112|8:144,1,180,12|8,1:3|2:0,0:0:0:0:
64,252,195709,6,0,P|108:244|160:240,1,90,6|0,2:0|0:0,0:0:0:0:
248,244,196025,1,4,2:3:0:0:
92,356,196183,6,0,P|128:330|173:304,1,90,10|0,2:0|2:0,0:0:0:0:
252,256,196499,1,4,2:3:0:0:
129,174,196656,6,0,P|87:159|43:148,2,90,12|8|4,2:3|2:0|2:3,0:0:0:0:
244,232,197130,6,0,P|288:232|336:224,1,90,2|4,2:0|2:3,0:0:0:0:
416,176,197446,1,10,2:0:0:0:
419,167,197525,1,0,2:0:0:0:
422,158,197604,1,0,2:0:0:0:
425,149,197683,1,0,2:0:0:0:
428,140,197762,2,0,L|454:80,3,45,4|4|4|4,2:3|2:3|2:3|2:3,0:0:0:0:
364,88,198078,2,0,L|373:23,3,45,8|0|4|0,2:0|2:0|2:0|2:0,0:0:0:0:
280,68,198393,5,2,2:0:0:0:
267,72,198472,1,0,2:0:0:0:
253,75,198551,1,4,2:3:0:0:
239,76,198630,1,4,2:3:0:0:
225,76,198709,1,10,2:0:0:0:
211,75,198788,1,0,2:0:0:0:
197,72,198867,1,0,2:0:0:0:
183,69,198946,1,0,2:0:0:0:
169,70,199025,1,12,2:3:0:0:
155,73,199104,1,4,2:3:0:0:
142,78,199183,1,4,2:3:0:0:
130,85,199262,1,4,2:3:0:0:
119,93,199341,2,0,L|72:76,1,45,10|0,2:0|2:0,0:0:0:0:
182,149,199499,6,0,B|250:161|282:233|250:304|180:324|126:317|92:268|100:204|144:204|176:221,1,360,6|0,2:0|2:0,0:0:0:0:
316,244,200288,1,10,2:0:0:0:
329,246,200367,1,10,2:0:0:0:
341,250,200446,2,0,P|364:253|388:260,1,45,4|4,0:3|0:3,0:0:0:0:
472,200,200604,2,0,B|484:108|484:108,1,90,6|0,2:0|0:0,0:0:0:0:
400,40,200920,6,0,B|376:28|376:28|304:40,1,90,2|2,2:0|2:0,0:0:0:0:
200,128,201235,2,0,B|224:140|224:140|296:128,1,90,2|2,2:0|2:0,0:0:0:0:
400,40,201551,5,2,2:0:0:0:
400,40,201630,1,2,2:0:0:0:
400,40,201709,1,2,2:0:0:0:
286,129,201867,5,2,2:0:0:0:
400,40,202025,5,2,2:0:0:0:
400,40,202104,1,2,2:0:0:0:
400,40,202183,1,4,2:3:0:0:
124,82,202341,5,4,2:3:0:0:
124,82,202420,1,4,2:3:0:0:
124,82,202499,1,6,2:0:0:0:
210,125,202656,1,0,2:0:0:0:
235,31,202814,1,12,2:3:0:0:
39,158,202972,1,12,2:3:0:0:
39,158,203051,1,4,0:3:0:0:
39,158,203130,2,0,P|93:161|146:177,1,107.999996704102,10|0,2:0|2:0,0:0:0:0:
234,215,203446,5,12,2:3:0:0:
101,275,203604,1,0,2:0:0:0:
174,152,203762,1,10,2:0:0:0:
221,295,203920,1,4,2:3:0:0:
221,295,203999,1,4,0:3:0:0:
221,295,204078,1,12,2:3:0:0:
276,139,204235,1,12,2:3:0:0:
114,200,204392,1,10,2:0:0:0:
316,238,204551,1,0,2:0:0:0:
114,200,204709,5,4,2:3:0:0:
344,208,204867,2,0,B|396:208|396:208|452:220,1,107.999996704102,2|8,2:1|2:0,0:0:0:0:
248,276,205183,1,0,2:0:0:0:
284,156,205341,1,6,2:3:0:0:
376,276,205499,1,4,2:3:0:0:
208,200,205656,1,8,2:0:0:0:
148,304,205814,1,2,2:1:0:0:
40,216,205972,2,0,L|48:96,1,107.999996704102,4|0,2:3|2:0,0:0:0:0:
120,24,206288,5,10,2:1:0:0:
48,100,206446,1,0,2:0:0:0:
144,168,206604,1,8,2:0:0:0:
154,167,206683,1,8,2:0:0:0:
164,166,206762,1,6,0:3:0:0:
174,165,206841,1,4,0:3:0:0:
184,164,206920,1,4,2:3:0:0:
194,163,206999,1,4,2:3:0:0:
204,162,207078,1,4,2:3:0:0:
214,161,207156,1,4,2:3:0:0:
224,160,207235,6,0,P|280:160|336:168,1,107.999996704102,4|0,2:0|2:0,0:0:0:0:
428,68,207551,2,0,P|320:79|212:87,1,215.999993408203,10|12,2:0|2:3,0:0:0:0:
116,100,208025,1,4,0:3:0:0:
224,172,208183,2,0,P|280:172|336:180,1,107.999996704102,10|0,2:0|2:0,0:0:0:0:
420,220,208499,5,12,2:3:0:0:
360,296,208656,1,0,2:0:0:0:
331,179,208814,1,10,2:0:0:0:
272,256,208972,1,12,2:3:0:0:
272,256,209051,1,4,0:3:0:0:
272,256,209130,1,4,2:3:0:0:
72,252,209288,1,10,2:0:0:0:
160,324,209446,5,8,2:0:0:0:
72,252,209604,1,10,2:0:0:0:
196,260,209762,5,4,2:3:0:0:
72,252,209920,2,0,L|44:148,1,107.999996704102,6|8,2:3|2:0,0:0:0:0:
104,72,210235,1,0,2:0:0:0:
192,108,210393,2,0,B|236:76|236:76|396:112,1,215.999993408203,6|8,2:3|2:0,0:0:0:0:
252,156,210867,6,0,L|357:179,1,107.999996704102,6|4,2:3|2:3,0:0:0:0:
180,184,211183,2,0,L|127:172,1,53.9999983520508,4|4,2:3|0:3,0:0:0:0:
240,228,211341,1,6,1:0:0:0:
257,231,211419,1,0,1:0:0:0:
275,235,211498,1,0,1:0:0:0:
292,239,211577,1,0,1:0:0:0:
310,243,211656,1,4,2:3:0:0:
327,247,211735,1,4,2:3:0:0:
345,251,211814,1,6,2:3:0:0:
363,255,211893,1,4,2:3:0:0:
380,259,211972,1,4,2:0:0:0:
398,263,212051,1,4,2:3:0:0:
415,267,212130,1,4,2:3:0:0:
433,270,212209,1,4,2:3:0:0:
450,274,212288,6,0,P|468:224|468:168,1,107.999996704102,4|0,2:0|2:0,0:0:0:0:
416,88,212604,1,10,2:0:0:0:
324,120,212762,1,4,2:3:0:0:
324,120,212841,1,4,0:3:0:0:
324,120,212920,2,0,L|212:112,1,107.999996704102,12|12,2:3|2:3,0:0:0:0:
136,208,213235,2,0,L|243:215,1,107.999996704102,10|0,2:0|2:0,0:0:0:0:
340,224,213551,5,12,2:3:0:0:
284,304,213709,1,0,2:0:0:0:
243,215,213867,5,10,2:0:0:0:
284,304,214025,1,0,2:0:0:0:
396,144,214183,5,12,2:3:0:0:
243,215,214341,1,12,2:3:0:0:
368,304,214499,1,10,2:0:0:0:
480,220,214656,5,4,2:3:0:0:
480,220,214735,1,4,0:3:0:0:
480,220,214814,2,0,L|472:112,1,107.999996704102,4|0,2:3|2:0,0:0:0:0:
396,52,215130,2,0,B|352:32|352:32|180:60,1,215.999993408203,10|12,2:0|2:3,0:0:0:0:
128,140,215604,2,0,L|234:122,1,107.999996704102,4|10,2:3|2:0,0:0:0:0:
332,116,215920,5,10,2:0:0:0:
332,116,215999,1,10,2:0:0:0:
332,116,216078,1,2,2:1:0:0:
300,256,216314,1,2,2:1:0:0:
234,122,216551,1,2,2:1:0:0:
396,184,216709,6,0,L|432:192,2,26.9999991760254,2|0|0,1:0|1:0|1:0,0:0:0:0:
276,56,216946,1,2,2:1:0:0:
192,208,217183,1,2,2:1:0:0:
56,176,217341,6,0,L|40:32,1,144,4|2,2:0|2:0,0:0:0:0:
144,52,217814,1,4,2:3:0:0:
144,52,217972,2,0,P|212:64|284:44,1,144,10|4,2:0|3:0,0:0:0:0:
283,44,218446,1,10,2:0:0:0:
360,104,218604,5,4,3:0:0:0:
360,104,218762,2,0,P|296:132|292:200,1,144,4|4,3:0|3:0,0:0:0:0:
456,256,219235,1,8,2:0:0:0:
456,256,219393,2,0,L|444:112,1,144,8|8,2:0|2:0,0:0:0:0:
372,60,219867,6,0,P|280:48|196:72,1,180,4|8,2:0|2:0,0:0:0:0:
197,71,220341,1,0,2:0:0:0:
96,144,220499,1,4,0:3:0:0:
96,144,220656,2,0,L|100:236,2,90,4|8|0,2:3|2:0|2:0,0:0:0:0:
256,167,221130,5,4,2:3:0:0:
256,167,221209,1,4,2:3:0:0:
256,167,221288,2,0,P|212:171|172:192,2,90,4|8|8,2:3|2:0|2:0,0:0:0:0:
400,196,221762,1,8,0:0:0:0:
400,196,221841,1,8,0:0:0:0:
400,196,221920,2,0,L|452:212,1,45,4|4,2:3|2:3,0:0:0:0:
354,296,222078,1,4,2:3:0:0:
354,296,222157,1,4,2:3:0:0:
354,296,222236,2,0,L|380:344,1,45,8|8,2:0|2:0,0:0:0:0:
252,336,222393,5,4,2:0:0:0:
220,252,222551,1,4,2:3:0:0:
160,320,222709,1,4,2:3:0:0:
84,180,222867,5,4,2:0:0:0:
144,248,223025,1,4,2:3:0:0:
176,164,223183,1,4,2:3:0:0:
312,268,223341,5,4,2:0:0:0:
280,184,223499,1,4,2:3:0:0:
220,252,223657,1,4,2:3:0:0:
240,103,223814,5,4,2:0:0:0:
280,184,223972,1,4,2:3:0:0:
333,111,224130,1,4,2:3:0:0:
384,200,224288,5,8,0:0:0:0:
384,200,224367,1,8,0:0:0:0:
384,200,224446,1,4,2:3:0:0:
384,200,224525,1,4,2:3:0:0:
384,200,224604,2,0,P|435:216|411:316,1,180,8|4,2:0|2:0,0:0:0:0:
91,153,227288,5,4,2:0:0:0:
88,130,227367,1,0,0:0:0:0:
86,107,227446,2,0,L|180:112,2,90,0|4|8,2:0|2:3|2:0,0:0:0:0:
256,116,227920,1,4,2:3:0:0:
256,116,227999,1,4,0:3:0:0:
256,116,228078,2,0,P|240:160|200:188,1,90,4|4,2:3|2:3,0:0:0:0:
328,140,228393,2,0,P|372:132|416:136,1,90,8|4,2:0|2:3,0:0:0:0:
496,180,228709,6,0,L|484:280,2,90,0|4|8,2:0|2:3|2:0,0:0:0:0:
496,180,229183,1,0,2:0:0:0:
328,232,229341,1,4,2:3:0:0:
328,232,229420,1,4,2:3:0:0:
328,232,229499,2,0,P|372:235|414:250,2,90,4|8|4,2:3|2:0|2:0,0:0:0:0:
220,260,229972,5,0,2:0:0:0:
220,260,230130,1,4,2:3:0:0:
188,124,230288,5,8,2:0:0:0:
220,260,230446,1,0,2:0:0:0:
124,192,230604,5,4,2:3:0:0:
220,260,230762,1,4,2:3:0:0:
132,276,230920,5,12,2:0:0:0:
118,275,230999,1,4,2:3:0:0:
104,274,231078,1,4,2:3:0:0:
90,273,231156,1,4,2:3:0:0:
76,272,231235,2,0,P|64:316|60:360,1,90,4|4,2:3|2:3,0:0:0:0:
220,260,231551,2,0,P|232:304|236:348,1,90,8|0,2:0|2:0,0:0:0:0:
124,196,231867,1,8,0:0:0:0:
124,196,231946,1,8,0:0:0:0:
124,196,232025,1,4,2:3:0:0:
124,196,232104,1,4,2:3:0:0:
124,196,232183,1,8,2:0:0:0:
224,116,232341,5,4,2:0:0:0:
224,116,232420,1,4,2:3:0:0:
224,116,232499,2,0,L|228:24,2,90,4|4|8,2:3|2:3|2:0,0:0:0:0:
280,216,232972,1,0,2:0:0:0:
280,216,233051,1,0,0:0:0:0:
280,216,233130,2,0,P|324:208|368:216,1,90,4|4,2:3|2:3,0:0:0:0:
240,288,233446,2,0,P|211:253|195:211,1,90,8|4,2:0|2:3,0:0:0:0:
322,286,233762,6,0,L|416:304,2,90,0|4|8,2:0|2:3|2:0,0:0:0:0:
322,286,234235,1,0,2:0:0:0:
184,336,234393,1,4,2:3:0:0:
184,336,234472,1,4,2:3:0:0:
184,336,234551,2,0,L|90:318,2,90,4|8|4,2:3|2:0|2:0,0:0:0:0:
64,232,235025,5,0,2:0:0:0:
95,319,235183,1,4,2:3:0:0:
208,192,235341,1,8,2:0:0:0:
239,279,235499,1,0,2:0:0:0:
120,164,235656,1,4,2:3:0:0:
151,251,235814,1,4,2:3:0:0:
296,212,235972,1,12,2:0:0:0:
309,209,236051,1,4,2:3:0:0:
322,206,236130,1,4,2:3:0:0:
335,203,236209,1,4,2:3:0:0:
348,200,236288,6,0,P|388:220|432:224,1,90,4|4,2:3|2:3,0:0:0:0:
372,120,236604,2,0,P|327:122|287:141,1,90,8|0,2:0|2:0,0:0:0:0:
188,224,236920,1,8,2:0:0:0:
188,224,236999,1,8,2:0:0:0:
188,224,237078,2,0,L|180:168,1,45,4|4,2:3|2:3,0:0:0:0:
128,296,237235,5,4,2:0:0:0:
161,299,237314,1,2,2:0:0:0:
194,303,237393,1,2,2:0:0:0:
227,306,237472,2,0,B|310:313|316:248|370:217|445:241|486:291|455:371,1,337.5,2|4,2:0|2:0,0:0:0:0:
256,192,238735,12,0,243551,2:0:0:0:
