osu file format v14

[General]
AudioFilename: Denkare - Gemini.mp3
AudioLeadIn: 0
PreviewTime: 127735
Countdown: 0
SampleSet: Soft
StackLeniency: 0.3
Mode: 0
LetterboxInBreaks: 1
EpilepsyWarning: 1
WidescreenStoryboard: 1

[Editor]
Bookmarks: 8604
DistanceSpacing: 1.2
BeatDivisor: 4
GridSize: 4
TimelineZoom: 1.700006

[Metadata]
Title:gemini
TitleUnicode:gemini
Artist:Denkishiki Karen Ongaku Shuudan
ArtistUnicode:電気式華憐音楽集団
Creator:Star Stream
Version:Habi's Hard
Source:双子座のパラドクス
Tags:video game rock japanese rock metal scanter HabiHolic Len [ Kuro Usagi ] -Mo- Denkare COTTON
BeatmapID:1649797
BeatmapSetID:182815

[Difficulty]
HPDrainRate:5.6
CircleSize:4
OverallDifficulty:6
ApproachRate:7.5
SliderMultiplier:1.5
SliderTickRate:2

[Events]
//Background and Video events
0,0,"bg.jpg",0,0
//Break Periods
2,10225,14253
2,87278,91305
2,153120,160937
//Storyboard Layer 0 (Background)
//Storyboard Layer 1 (Fail)
//Storyboard Layer 2 (Pass)
//Storyboard Layer 3 (Foreground)
//Storyboard Layer 4 (Overlay)
//Storyboard Sound Samples

[TimingPoints]
78,315.789473684211,4,2,2,35,1,0
8900,-100,4,2,2,5,0,0
8920,-100,4,2,2,65,0,0
13814,-100,4,2,2,80,0,0
13893,-100,4,2,2,65,0,0
18867,-100,4,2,2,80,0,0
18946,-100,4,2,2,65,0,0
20130,-100,4,2,2,65,0,0
20446,-100,4,2,2,65,0,0
23920,-100,4,2,2,80,0,0
23999,-100,4,2,2,65,0,0
28972,-100,4,2,2,80,0,0
29051,-100,4,2,2,65,0,0
31656,-100,4,2,2,80,0,0
31735,-100,4,2,2,60,0,0
36078,-100,4,2,2,80,0,0
36156,-100,4,2,2,80,0,0
36235,-100,4,2,2,60,0,0
41426,-100,4,2,2,5,0,0
41446,-100,4,2,2,60,0,0
41742,-100,4,2,2,5,0,0
41762,-100,4,2,2,60,0,0
46183,-100,4,2,2,80,0,0
46262,-100,4,2,2,80,0,0
46341,-100,4,2,2,60,0,0
51709,-100,4,2,2,60,0,0
61971,-100,4,2,2,80,0,0
61972,-100,4,2,2,80,0,0
62051,-100,4,2,2,80,0,0
62130,-100,4,2,2,65,0,0
62288,-100,4,2,2,65,0,0
67577,-100,4,2,2,5,0,0
67578,-100,4,2,2,5,0,0
67656,-100,4,2,2,65,0,0
71762,-100,4,2,2,80,0,0
71841,-100,4,2,2,65,0,0
72078,-100,4,2,2,80,0,0
72156,-100,4,2,2,80,0,0
72235,-100,4,2,2,65,0,0
72393,-100,4,2,2,65,0,0
75156,-100,4,2,2,5,0,0
75235,-100,4,2,2,65,0,0
75471,-100,4,2,2,5,0,0
75472,-100,4,2,2,5,0,0
75551,-100,4,2,2,65,0,0
77130,-100,4,2,2,80,0,0
77209,-100,4,2,2,50,0,0
79656,-100,4,2,2,60,0,0
82183,-100,4,2,2,50,0,0
82262,-100,4,2,2,50,0,0
82341,-100,4,2,2,65,0,0
82656,-100,4,2,2,80,0,0
82735,-100,4,2,2,80,0,0
82814,-100,4,2,2,65,0,0
83130,-100,4,2,2,50,0,0
83209,-100,4,2,2,50,0,0
83288,-100,4,2,2,65,0,0
83604,-100,4,2,2,80,0,0
83683,-100,4,2,2,80,0,0
83762,-100,4,2,2,65,0,0
84629,-100,4,2,2,5,0,0
84630,-100,4,2,2,5,0,0
84709,-100,4,2,2,65,0,0
87078,-100,4,2,2,60,0,0
89603,-100,4,2,2,80,0,0
89604,-100,4,2,2,80,0,0
89683,-100,4,2,2,80,0,0
89762,-100,4,2,2,60,0,0
94656,-100,4,2,2,80,0,0
94735,-100,4,2,2,80,0,0
94814,-100,4,2,2,60,0,0
98604,-100,4,2,2,80,0,0
98683,-100,4,2,2,80,0,0
98762,-100,4,2,2,60,0,0
100025,-100,4,2,1,45,0,0
101762,-100,4,2,1,80,0,0
101841,-100,4,2,1,80,0,0
101920,-100,4,2,1,45,0,0
106656,-100,4,2,2,45,0,0
106814,-100,4,2,1,45,0,0
107090,-100,4,2,1,5,0,0
107091,-100,4,2,1,5,0,0
107130,-100,4,2,1,45,0,0
111867,-100,4,2,1,80,0,0
111946,-100,4,2,1,80,0,0
112025,-100,4,2,1,45,0,0
114511,-100,4,2,1,5,0,0
114512,-100,4,2,1,5,0,0
114551,-100,4,2,1,45,0,0
114669,-100,4,2,1,5,0,0
114670,-100,4,2,1,5,0,0
114709,-100,4,2,1,45,0,0
114827,-100,4,2,1,5,0,0
114828,-100,4,2,1,5,0,0
114867,-100,4,2,1,45,0,0
117393,-100,4,2,1,60,0,0
117472,-100,4,2,2,60,0,0
121183,-100,4,2,2,80,0,0
121262,-100,4,2,2,60,0,0
123709,-100,4,2,2,80,0,0
123788,-100,4,2,2,60,0,0
127656,-100,4,2,2,80,0,0
127735,-100,4,2,2,80,0,0
127814,-100,4,2,2,65,0,0
137446,-100,4,2,2,80,0,0
137525,-100,4,2,2,65,0,0
137762,-100,4,2,2,80,0,0
137841,-100,4,2,2,65,0,0
140524,-100,4,2,2,5,0,0
140525,-100,4,2,2,5,0,0
140604,-100,4,2,2,65,0,0
140840,-100,4,2,2,5,0,0
140841,-100,4,2,2,5,0,0
140920,-100,4,2,2,65,0,0
142814,-100,4,2,2,50,0,0
145341,-100,4,2,2,60,0,0
147867,-100,4,2,2,50,0,0
147946,-100,4,2,2,50,0,0
148025,-100,4,2,2,65,0,0
148341,-100,4,2,2,80,0,0
148420,-100,4,2,2,80,0,0
148499,-100,4,2,2,65,0,0
148814,-100,4,2,2,50,0,0
148893,-100,4,2,2,50,0,0
148972,-100,4,2,2,65,0,0
149288,-100,4,2,2,80,0,0
149367,-100,4,2,2,80,0,0
149446,-100,4,2,2,65,0,0
150314,-100,4,2,2,5,0,0
150393,-100,4,2,2,65,0,0
152920,-100,4,2,2,80,0,0
152999,-100,4,2,2,80,0,0
161762,-100,4,2,2,60,0,0
163025,-133.333333333333,4,2,2,60,0,0
171867,-100,4,2,2,60,0,0
178183,-100,4,2,2,80,0,0
178262,-100,4,2,2,80,0,0
178341,-100,4,2,2,60,0,0
181972,-100,4,2,2,80,0,0
182051,-100,4,2,2,60,0,0
183235,-100,4,2,2,80,0,0
183314,-100,4,2,2,80,0,0
183393,-100,4,2,2,60,0,0
183551,-100,4,2,2,60,0,0
194446,-100,4,2,2,80,0,0
194525,-100,4,2,2,60,0,0
198235,-100,4,2,2,80,0,0
198313,-100,4,2,2,60,0,0
198314,-100,4,2,2,60,0,0
200840,-100,4,2,2,5,0,0
200841,-100,4,2,2,5,0,0
200920,-100,4,2,2,60,0,0
202499,-100,4,2,2,80,0,0
202578,-100,4,2,2,80,0,0
202656,-100,4,2,2,65,0,0
202814,-100,4,2,2,65,0,0
211972,-100,4,2,2,80,0,0
212051,-100,4,2,2,65,0,0
212288,-100,4,2,2,80,0,0
212367,-100,4,2,2,80,0,0
212446,-100,4,2,2,65,0,0
212604,-100,4,2,2,65,0,0
215366,-100,4,2,2,5,0,0
215367,-100,4,2,2,5,0,0
215446,-100,4,2,2,65,0,0
217341,-100,4,2,2,50,0,0
219867,-100,4,2,2,60,0,0
222393,-100,4,2,2,50,0,0
222472,-100,4,2,2,50,0,0
222551,-100,4,2,2,65,0,0
222867,-100,4,2,2,80,0,0
222946,-100,4,2,2,80,0,0
223025,-100,4,2,2,65,0,0
223341,-100,4,2,2,50,0,0
223420,-100,4,2,2,50,0,0
223499,-100,4,2,2,65,0,0
223814,-100,4,2,2,80,0,0
223893,-100,4,2,2,80,0,0
223972,-100,4,2,2,65,0,0
224840,-100,4,2,2,5,0,0
224841,-100,4,2,2,5,0,0
224920,-100,4,2,2,65,0,0
227446,-100,4,2,2,60,0,0
229814,-100,4,2,2,80,0,0
229893,-100,4,2,2,80,0,0
229972,-100,4,2,2,60,0,0
234866,-100,4,2,2,80,0,0
234867,-100,4,2,2,80,0,0
234946,-100,4,2,2,80,0,0
235025,-100,4,2,2,60,0,0
237235,-100,4,2,2,80,0,0
237314,-100,4,2,2,60,0,0
238656,-100,4,2,2,80,0,0
243551,-100,4,2,2,5,0,0

[Colours]
Combo1 : 79,79,255
Combo2 : 193,43,206
Combo3 : 255,115,47
Combo4 : 245,90,114

[HitObjects]
109,46,8920,5,0,1:3:0:0:
95,59,8999,1,0,1:3:0:0:
80,70,9078,2,0,L|88:114,3,37.5,4|0|4|4,2:3|2:0|2:3|2:3,0:0:0:0:
122,133,9393,2,0,L|114:177,3,37.5,4|0|4|4,2:3|2:0|2:3|2:3,0:0:0:0:
76,194,9709,2,0,L|88:271,1,75,4|4,2:3|2:3,0:0:0:0:
151,331,10025,1,4,3:0:0:0:
34,269,15078,5,4,2:0:0:0:
48,291,15551,1,4,2:3:0:0:
65,315,16183,1,4,2:3:0:0:
82,339,16814,1,4,2:3:0:0:
101,361,17446,1,4,2:3:0:0:
165,195,17604,6,0,P|224:238|298:237,1,150,4|0,2:0|2:0,0:0:0:0:
373,187,18078,2,0,L|365:148,3,37.5,0|0|4|4,1:0|1:0|2:3|2:3,0:0:0:0:
330,121,18393,2,0,L|338:82,3,37.5,0|0|4|4,1:0|1:0|2:3|2:3,0:0:0:0:
349,40,18709,1,0,1:0:0:0:
259,67,18867,6,0,B|203:78|203:78|173:104|173:104|117:115,1,150,4|0,2:0|1:0,0:0:0:0:
96,116,19262,1,0,1:0:0:0:
96,116,19341,2,0,P|103:152|95:189,1,75,4|4,2:3|2:3,0:0:0:0:
37,257,19656,1,0,2:0:0:0:
37,257,20130,6,0,B|80:294|80:294|173:281,1,150,4|4,2:0|2:3,0:0:0:0:
234,221,20604,2,0,P|275:222|308:236,1,75,8|0,2:0|2:0,0:0:0:0:
376,291,20920,2,0,L|368:334,2,37.5,4|4|4,2:3|2:3|2:3,0:0:0:0:
440,229,21235,1,8,2:0:0:0:
376,165,21393,1,4,2:3:0:0:
424,89,21551,6,0,L|341:78,1,75,0|4,2:0|2:3,0:0:0:0:
272,31,21867,2,0,L|197:40,1,75,8|0,2:0|2:0,0:0:0:0:
126,92,22183,2,0,L|133:133,2,37.5,4|4|4,2:3|2:3|2:3,0:0:0:0:
41,117,22499,2,0,L|55:195,1,75,8|4,2:0|2:0,0:0:0:0:
17,263,22814,6,0,P|68:211|140:222,1,150,0|8,2:0|2:0,0:0:0:0:
214,259,23288,1,0,2:0:0:0:
295,220,23446,1,4,2:3:0:0:
295,220,23525,1,4,0:3:0:0:
295,220,23604,2,0,P|302:179|298:143,1,75,4|8,2:3|2:0,0:0:0:0:
231,85,23920,1,4,2:0:0:0:
296,22,24078,6,0,L|452:45,2,150,0|8|4,2:0|2:0|2:3,0:0:0:0:
296,22,24867,1,4,2:3:0:0:
231,85,25025,1,8,2:0:0:0:
157,31,25183,6,0,P|144:103|186:163,1,150,4|4,2:0|2:3,0:0:0:0:
274,178,25656,2,0,L|260:267,1,75,8|0,2:0|2:0,0:0:0:0:
211,327,25972,2,0,L|217:368,2,37.5,4|4|4,2:3|2:3|2:3,0:0:0:0:
126,289,26288,1,8,2:0:0:0:
43,324,26446,1,4,2:3:0:0:
126,289,26604,6,0,P|131:246|127:210,1,75,4|4,2:3|2:3,0:0:0:0:
52,163,26920,2,0,P|47:120|51:84,1,75,8|0,2:0|2:0,0:0:0:0:
118,30,27235,1,4,2:3:0:0:
118,30,27314,1,4,2:3:0:0:
118,30,27393,2,0,L|196:48,1,75,4|8,2:3|2:0,0:0:0:0:
262,102,27709,1,4,2:0:0:0:
331,159,27867,6,0,L|491:135,2,150,0|8|4,2:0|2:0|2:3,0:0:0:0:
331,159,28657,1,4,2:3:0:0:
264,218,28814,2,0,L|185:202,1,75,8|4,2:0|2:0,0:0:0:0:
126,138,29130,6,0,P|159:203|145:276,2,150,0|8|0,2:0|2:0|1:0,0:0:0:0:
126,138,29841,1,0,1:0:0:0:
126,138,29920,1,4,2:3:0:0:
56,80,30078,2,0,L|64:36,3,37.5,4|0|0|0,2:0|2:0|2:0|2:0,0:0:0:0:
256,192,30393,12,0,31341,2:0:0:0:
26,58,31656,6,0,B|64:52|64:52|97:68,1,75,6|8,2:1|2:0,0:0:0:0:
170,120,31972,2,0,P|213:123|254:110,1,75,4|12,2:3|2:3,0:0:0:0:
318,63,32288,2,0,L|310:24,2,37.5,4|4|8,2:3|2:3|2:0,0:0:0:0:
385,119,32604,2,0,L|373:203,1,75,4|8,2:3|2:0,0:0:0:0:
364,283,32920,5,4,2:3:0:0:
287,236,33078,1,8,2:0:0:0:
281,325,33235,2,0,L|200:317,1,75,4|8,2:3|2:0,0:0:0:0:
139,256,33551,1,4,2:3:0:0:
139,256,33709,1,8,2:0:0:0:
65,307,33867,1,4,2:3:0:0:
56,164,34183,6,0,P|62:121|56:87,1,75,4|8,2:3|2:0,0:0:0:0:
128,32,34499,2,0,L|205:46,1,75,4|8,2:3|2:0,0:0:0:0:
288,100,34814,2,0,P|333:101|365:88,1,75,4|8,2:3|2:0,0:0:0:0:
432,24,35130,1,4,2:3:0:0:
504,84,35288,1,8,2:0:0:0:
442,150,35446,6,0,B|434:191|434:191|444:227,1,75,4|8,2:0|2:0,0:0:0:0:
350,302,35762,2,0,B|358:269|358:269|350:228,1,75,4|8,2:3|2:0,0:0:0:0:
268,184,36078,2,0,L|112:212,1,150,4|4,2:0|2:3,0:0:0:0:
24,32,36709,5,6,2:1:0:0:
24,32,36867,1,8,2:0:0:0:
81,104,37025,2,0,L|154:116,1,75,4|8,2:3|2:0,0:0:0:0:
216,188,37341,2,0,P|203:114|228:44,1,150,4|4,2:3|2:3,0:0:0:0:
240,28,37972,6,0,L|393:50,1,150,4|4,2:3|2:3,0:0:0:0:
465,87,38446,1,8,2:0:0:0:
403,152,38604,2,0,P|398:193|406:230,1,75,2|8,2:1|2:0,0:0:0:0:
474,282,38920,1,2,2:1:0:0:
407,342,39078,1,8,2:0:0:0:
336,280,39235,6,0,P|261:281|198:320,1,150,4|4,2:3|2:3,0:0:0:0:
116,356,39709,1,8,2:0:0:0:
116,356,39867,2,0,L|88:200,1,150,4|4,2:3|2:3,0:0:0:0:
16,152,40341,1,8,2:0:0:0:
80,80,40499,6,0,P|117:78|151:91,1,75,4|8,2:3|2:0,0:0:0:0:
200,176,40814,2,0,P|234:189|271:187,1,75,4|8,2:3|2:0,0:0:0:0:
372,168,41130,2,0,L|359:244,2,75,2|0|2,2:0|0:0|2:1,0:0:0:0:
208,37,41762,6,0,B|245:53|245:53|283:46,1,75,6|8,2:1|2:0,0:0:0:0:
364,15,42078,2,0,P|402:19|437:38,1,75,4|8,2:3|2:0,0:0:0:0:
491,105,42393,1,4,2:3:0:0:
491,105,42551,1,8,2:0:0:0:
443,181,42709,2,0,L|453:260,1,75,4|8,2:3|2:0,0:0:0:0:
404,332,43025,5,4,2:3:0:0:
329,281,43183,1,8,2:0:0:0:
267,347,43341,2,0,P|231:353|196:341,1,75,4|8,2:3|2:0,0:0:0:0:
121,290,43656,1,4,2:3:0:0:
121,290,43814,1,8,2:0:0:0:
42,334,43972,1,4,2:3:0:0:
2,253,44130,1,8,2:0:0:0:
78,205,44288,6,0,B|86:166|86:166|77:130,1,75,4|8,2:3|2:0,0:0:0:0:
167,44,44604,2,0,B|159:79|159:79|167:118,1,75,4|8,2:3|2:0,0:0:0:0:
236,176,44920,2,0,L|315:165,1,75,4|8,2:3|2:0,0:0:0:0:
375,103,45235,1,4,2:3:0:0:
448,154,45393,1,8,2:0:0:0:
390,223,45551,6,0,B|384:262|384:262|394:301,1,75,4|8,2:0|2:0,0:0:0:0:
330,361,45867,1,4,2:3:0:0:
330,361,46025,1,8,2:0:0:0:
256,308,46183,2,0,P|219:308|181:322,1,75,4|10,2:0|2:1,0:0:0:0:
108,368,46499,1,4,2:3:0:0:
5,262,46814,5,6,2:1:0:0:
79,211,46972,1,8,2:0:0:0:
79,211,47130,2,0,B|84:169|84:169|75:132,1,75,4|8,2:3|2:0,0:0:0:0:
167,57,47446,2,0,B|160:97|160:97|169:130,1,75,4|8,2:3|2:0,0:0:0:0:
241,185,47762,2,0,L|316:173,1,75,4|8,2:3|2:0,0:0:0:0:
376,106,48078,6,0,B|409:144|409:144|390:248,1,150,4|4,2:3|2:3,0:0:0:0:
362,327,48551,1,8,2:0:0:0:
284,280,48709,2,0,B|243:272|212:290,1,75,2|8,2:1|2:0,0:0:0:0:
143,350,49025,1,2,2:1:0:0:
79,286,49183,1,8,2:0:0:0:
21,355,49341,6,0,B|45:321|45:321|23:197,1,150,4|4,2:3|2:3,0:0:0:0:
81,143,49814,1,8,2:0:0:0:
147,203,49972,2,0,B|225:188|213:245|298:225,1,150,4|4,2:3|2:3,0:0:0:0:
356,164,50446,1,8,2:0:0:0:
428,216,50604,6,0,L|418:292,2,75,4|8|4,2:3|2:0|2:3,0:0:0:0:
448,127,51078,2,0,L|490:134,2,37.5,8|2|4,2:0|0:0|2:3,0:0:0:0:
386,56,51393,1,4,2:3:0:0:
304,94,51551,1,8,2:0:0:0:
189,31,51709,6,0,L|208:187,1,150,4|4,2:0|2:3,0:0:0:0:
295,199,52183,2,0,L|283:276,1,75,2|0,1:0|2:0,0:0:0:0:
216,343,52499,1,2,2:1:0:0:
216,343,52656,2,0,B|178:346|178:346|141:329,1,75,4|0,2:3|1:0,0:0:0:0:
59,361,52972,6,0,L|42:205,1,150,4|4,2:0|2:3,0:0:0:0:
99,141,53446,1,2,1:0:0:0:
172,193,53604,1,0,2:0:0:0:
247,143,53762,1,6,2:3:0:0:
247,143,53841,1,4,2:3:0:0:
247,143,53920,2,0,B|256:106|256:106|246:68,1,75,4|4,2:3|0:3,0:0:0:0:
175,19,54235,6,0,L|331:46,1,150,4|4,2:0|2:3,0:0:0:0:
397,95,54709,1,2,1:0:0:0:
473,47,54867,1,0,2:0:0:0:
477,136,55025,2,0,L|462:212,1,75,6|4,2:1|2:3,0:0:0:0:
494,294,55341,1,0,1:0:0:0:
373,225,55499,6,0,B|297:222|307:269|225:255,1,150,4|4,2:0|3:0,0:0:0:0:
160,197,55972,2,0,L|147:119,1,75,0|0,1:0|2:0,0:0:0:0:
76,67,56288,2,0,L|38:85,2,37.5,4|4|0,2:3|2:3|1:0,0:0:0:0:
156,25,56604,1,0,1:0:0:0:
271,142,56762,6,0,L|255:295,1,150,4|4,2:0|2:3,0:0:0:0:
188,351,57235,2,0,L|173:277,1,75,2|4,1:0|2:3,0:0:0:0:
159,187,57551,1,2,1:0:0:0:
159,187,57709,2,0,B|119:181|119:181|82:195,1,75,4|0,2:3|1:0,0:0:0:0:
29,263,58025,6,0,P|50:192|24:123,1,150,4|4,2:0|2:3,0:0:0:0:
79,51,58499,2,0,B|119:48|119:48|155:65,1,75,2|4,1:0|2:3,0:0:0:0:
230,103,58814,2,0,L|304:89,1,75,2|4,1:0|2:3,0:0:0:0:
376,34,59130,1,0,1:0:0:0:
437,99,59288,6,0,P|419:172|439:243,1,150,4|0,2:3|1:0,0:0:0:0:
438,242,59683,1,0,1:0:0:0:
438,242,59762,1,4,2:3:0:0:
495,311,59920,1,4,2:3:0:0:
406,325,60078,2,0,L|329:317,1,75,4|4,2:3|2:3,0:0:0:0:
283,241,60393,1,0,1:0:0:0:
226,171,60551,6,0,B|181:201|181:201|82:183,1,150,10|10,2:1|2:1,0:0:0:0:
32,111,61025,1,10,2:1:0:0:
32,111,61972,6,0,L|48:261,1,150,4|10,2:1|2:0,0:0:0:0:
106,328,62446,1,0,2:0:0:0:
106,328,62604,2,0,B|146:334|146:334|179:322,1,75,12|12,2:3|2:3,0:0:0:0:
251,268,62920,2,0,B|291:262|291:262|324:274,1,75,10|0,2:0|2:0,0:0:0:0:
369,351,63235,6,0,L|382:196,1,150,12|10,2:3|2:0,0:0:0:0:
336,122,63709,1,0,2:0:0:0:
336,122,63867,2,0,P|300:129|259:120,1,75,12|12,2:3|2:3,0:0:0:0:
204,51,64183,1,10,2:0:0:0:
204,51,64499,6,0,L|226:208,1,150,4|8,2:3|2:0,0:0:0:0:
174,275,64972,1,0,2:0:0:0:
174,275,65130,2,0,B|181:314|181:314|171:352,1,75,6|4,2:3|2:3,0:0:0:0:
23,352,65446,2,0,B|14:318|14:318|21:279,1,75,8|2,2:0|2:1,0:0:0:0:
99,312,65762,6,0,L|253:301,1,150,4|10,2:3|2:1,0:0:0:0:
314,226,66235,2,0,P|292:295|326:360,1,150,0|6,2:0|2:3,0:0:0:0:
378,286,66709,1,4,2:3:0:0:
461,126,67025,6,0,B|412:143|412:143|313:119,1,150,4|10,2:0|2:0,0:0:0:0:
255,53,67499,1,0,0:0:0:0:
174,92,67656,2,0,P|163:130|167:167,1,75,12|4,2:3|2:3,0:0:0:0:
232,227,67972,2,0,P|235:264|224:299,1,75,10|0,2:0|2:0,0:0:0:0:
151,353,68288,6,0,L|300:334,1,150,12|10,2:3|2:0,0:0:0:0:
363,270,68762,1,2,2:0:0:0:
363,270,68920,2,0,L|447:285,2,75,4|10|8,2:3|2:0|2:0,0:0:0:0:
298,206,69393,1,10,2:0:0:0:
237,139,69551,6,0,L|153:154,1,75,4|2,2:0|2:1,0:0:0:0:
84,106,69867,1,8,2:0:0:0:
84,106,70183,2,0,L|90:63,2,37.5,6|4|4,2:3|2:3|2:3,0:0:0:0:
26,176,70499,2,0,L|39:254,1,75,8|6,2:0|2:3,0:0:0:0:
103,309,70814,6,0,B|156:299|156:299|196:312|196:312|253:298,1,150,4|6,2:3|1:0,0:0:0:0:
320,241,71288,1,0,1:0:0:0:
320,241,71446,2,0,P|393:230|449:276,1,150,4|4,2:3|2:0,0:0:0:0:
460,290,72078,6,0,L|479:130,1,150,4|10,2:0|2:0,0:0:0:0:
426,66,72551,1,0,2:0:0:0:
346,108,72709,2,0,B|309:115|309:115|270:103,1,75,12|12,2:3|2:3,0:0:0:0:
194,59,73025,1,10,2:0:0:0:
120,111,73183,1,0,2:0:0:0:
49,53,73341,6,0,P|26:122|63:185,1,150,12|10,2:3|2:0,0:0:0:0:
144,221,73814,1,0,2:0:0:0:
144,221,73972,2,0,L|218:210,1,75,12|12,2:3|2:3,0:0:0:0:
296,255,74288,1,10,2:0:0:0:
397,106,74604,6,0,B|344:132|344:132|246:108,1,150,4|10,2:3|2:0,0:0:0:0:
183,55,75078,1,0,0:0:0:0:
114,112,75235,2,0,L|124:191,1,75,12|2,2:3|0:0,0:0:0:0:
196,240,75551,2,0,L|185:315,1,75,10|10,2:0|2:0,0:0:0:0:
176,358,75788,1,10,2:0:0:0:
176,358,75867,6,0,P|125:337|69:340,2,112.5,10|10|10,2:1|2:1|2:1,0:0:0:0:
264,336,76499,2,0,B|304:344|304:344|340:335,1,75,2|4,1:0|2:3,0:0:0:0:
406,277,76814,1,4,2:3:0:0:
406,277,76972,1,4,2:3:0:0:
357,103,77130,6,0,B|239:97|271:189|151:170,1,225,4|4,2:0|2:3,0:0:0:0:
65,142,77762,2,0,L|74:221,1,75,10|2,0:0|0:0,0:0:0:0:
137,280,78078,1,4,2:3:0:0:
65,333,78235,1,10,0:0:0:0:
147,369,78393,6,0,L|225:352,1,75,4|4,2:3|2:3,0:0:0:0:
284,289,78709,2,0,B|334:314|334:314|433:298,1,150,2|10,0:0|2:0,0:0:0:0:
486,230,79183,1,10,2:0:0:0:
427,161,79341,2,0,P|417:125|422:88,1,75,2|8,0:0|2:0,0:0:0:0:
495,36,79656,6,0,L|347:58,1,150,4|8,2:0|2:0,0:0:0:0:
271,108,80130,1,0,2:0:0:0:
271,108,80288,2,0,L|196:97,1,75,4|4,2:3|2:3,0:0:0:0:
125,41,80604,1,8,2:0:0:0:
48,88,80762,1,0,2:0:0:0:
110,152,80920,6,0,L|117:188,2,37.5,4|4|4,2:3|2:3|2:3,0:0:0:0:
33,200,81235,2,0,L|24:278,1,75,8|8,2:0|2:0,0:0:0:0:
86,340,81551,2,0,L|129:335,3,37.5,8|8|4|4,0:0|0:0|2:3|2:3,0:0:0:0:
161,310,81867,2,0,L|198:314,3,37.5,4|4|4|4,2:3|2:3|2:3|2:3,0:0:0:0:
233,284,82183,5,4,2:3:0:0:
300,337,82341,2,0,B|335:348|335:348|377:338,1,75,4|4,2:0|2:3,0:0:0:0:
433,257,82656,5,4,2:3:0:0:
433,257,82814,2,0,L|445:173,1,75,4|4,2:0|2:3,0:0:0:0:
379,100,83130,5,4,2:3:0:0:
298,159,83288,2,0,P|256:166|225:158,1,75,4|4,2:0|2:3,0:0:0:0:
156,82,83604,5,4,2:3:0:0:
84,147,83762,2,0,L|99:230,1,75,4|4,2:0|2:3,0:0:0:0:
62,303,84078,6,0,L|53:351,2,37.5,0|0|4,1:0|1:0|2:3,0:0:0:0:
163,287,84393,2,0,B|238:282|223:337|306:323,1,150,8|4,2:0|2:1,0:0:0:0:
256,192,84788,12,4,87078,0:0:0:0:
38,70,92130,6,0,L|59:246,1,150,4|4,2:0|2:3,0:0:0:0:
118,284,92604,2,0,P|157:289|192:276,1,75,8|0,2:0|2:0,0:0:0:0:
246,206,92920,2,0,L|234:162,2,37.5,4|4|4,2:3|2:3|2:3,0:0:0:0:
313,265,93235,2,0,L|303:349,1,75,8|4,2:0|2:3,0:0:0:0:
406,278,93551,6,0,L|397:203,1,75,4|4,2:3|2:3,0:0:0:0:
336,66,93867,2,0,L|327:140,1,75,8|0,2:0|2:0,0:0:0:0:
251,189,94183,2,0,L|259:227,2,37.5,4|4|4,2:3|2:3|2:3,0:0:0:0:
196,116,94499,1,8,2:0:0:0:
119,162,94656,1,4,2:0:0:0:
40,205,94814,6,0,L|20:42,2,150,4|8|4,2:3|2:0|2:3,0:0:0:0:
97,274,95604,1,4,2:3:0:0:
161,336,95762,2,0,B|201:345|201:345|240:336,1,75,8|4,2:0|2:0,0:0:0:0:
310,291,96078,6,0,P|383:281|443:323,2,150,4|8|8,2:3|2:0|2:0,0:0:0:0:
310,291,96788,1,8,2:0:0:0:
310,291,96867,1,4,2:3:0:0:
252,222,97025,2,0,L|257:182,3,37.5,12|0|0|0,2:0|2:0|2:0|2:0,0:0:0:0:
263,139,97341,5,2,2:1:0:0:
32,92,98604,6,0,L|24:48,2,37.5,4|2|4,2:0|0:0|2:3,0:0:0:0:
104,148,98920,1,4,2:3:0:0:
176,204,99078,2,0,L|169:240,2,37.5,12|0|4,2:0|2:0|2:3,0:0:0:0:
104,148,99393,1,4,2:3:0:0:
184,112,99551,2,0,B|224:120|224:120|260:112,1,75,0|0,1:0|1:0,0:0:0:0:
328,56,99867,5,6,1:0:0:0:
408,100,100025,1,8,2:0:0:0:
496,76,100183,2,0,L|484:156,1,75,4|8,2:3|2:0,0:0:0:0:
420,216,100499,2,0,B|344:200|352:252|264:232,1,150,4|4,2:3|2:3,0:0:0:0:
204,176,100972,1,8,2:0:0:0:
136,236,101130,6,0,L|152:320,1,75,4|8,2:0|2:0,0:0:0:0:
52,264,101446,2,0,L|37:190,1,75,4|8,2:3|2:0,0:0:0:0:
96,120,101762,2,0,B|144:144|144:144|240:128,1,150,4|4,2:0|2:3,0:0:0:0:
312,76,102235,1,8,2:0:0:0:
392,120,102393,6,0,P|400:156|393:193,1,75,6|8,2:1|2:0,0:0:0:0:
312,228,102709,2,0,P|303:264|310:301,1,75,4|8,2:3|2:0,0:0:0:0:
380,356,103025,2,0,L|228:336,1,150,4|4,2:3|2:3,0:0:0:0:
148,360,103499,1,8,2:0:0:0:
80,300,103656,6,0,B|60:224|104:224|84:148,1,150,4|4,2:3|2:3,0:0:0:0:
36,76,104130,1,8,2:0:0:0:
112,24,104288,2,0,L|192:40,1,75,2|8,2:1|2:0,0:0:0:0:
252,100,104604,2,0,L|336:84,1,75,2|8,2:1|2:0,0:0:0:0:
392,24,104920,6,0,P|374:95|401:164,1,150,4|4,2:3|2:3,0:0:0:0:
468,224,105393,1,8,2:0:0:0:
396,276,105551,2,0,L|248:256,1,150,4|4,2:3|2:3,0:0:0:0:
168,296,106025,1,8,2:0:0:0:
96,244,106183,6,0,P|87:207|94:171,1,75,4|8,2:3|2:0,0:0:0:0:
152,100,106499,2,0,L|228:120,1,75,4|8,2:3|2:0,0:0:0:0:
304,160,106814,2,0,L|384:148,2,75,4|8|2,2:3|0:0|2:0,0:0:0:0:
220,320,107446,6,0,L|140:304,1,75,6|8,2:1|2:0,0:0:0:0:
84,244,107762,2,0,B|92:204|92:204|84:168,1,75,4|8,2:3|2:0,0:0:0:0:
32,96,108078,1,4,2:3:0:0:
32,96,108235,1,8,2:0:0:0:
100,36,108393,2,0,L|180:52,1,75,4|8,2:3|2:0,0:0:0:0:
244,108,108709,6,0,L|320:96,1,75,4|8,2:3|2:0,0:0:0:0:
396,52,109025,2,0,P|408:88|400:128,1,75,4|8,2:3|2:0,0:0:0:0:
344,192,109341,2,0,P|338:228|349:263,1,75,4|8,2:3|2:0,0:0:0:0:
420,320,109656,1,4,2:3:0:0:
420,320,109972,5,6,2:3:0:0:
340,360,110130,1,8,2:0:0:0:
264,312,110288,2,0,B|224:304|224:304|188:312,1,75,4|8,2:3|2:0,0:0:0:0:
104,336,110604,2,0,B|70:343|70:343|30:335,1,75,4|8,2:3|2:0,0:0:0:0:
4,248,110920,1,4,2:3:0:0:
4,248,111078,1,8,2:0:0:0:
60,180,111235,6,0,P|68:136|60:100,1,75,4|8,2:0|2:0,0:0:0:0:
160,48,111551,2,0,P|154:84|162:121,1,75,4|8,2:3|2:0,0:0:0:0:
232,184,111867,2,0,L|320:172,1,75,4|2,2:0|2:1,0:0:0:0:
380,120,112183,1,4,2:3:0:0:
380,120,112499,5,6,2:1:0:0:
460,156,112656,1,8,2:0:0:0:
384,208,112814,2,0,P|384:248|396:284,1,75,4|8,2:3|2:0,0:0:0:0:
452,352,113130,2,0,P|392:309|321:326,1,150,4|4,2:3|2:3,0:0:0:0:
240,360,113604,1,8,2:0:0:0:
164,312,113762,6,0,L|184:160,1,150,4|4,2:3|2:3,0:0:0:0:
148,80,114235,1,8,2:0:0:0:
220,23,114393,2,0,P|257:22|290:38,1,75,2|8,2:1|2:0,0:0:0:0:
356,100,114709,2,0,P|389:116|426:114,1,75,2|8,2:1|2:0,0:0:0:0:
488,48,115025,6,0,L|464:196,1,150,4|4,2:0|2:3,0:0:0:0:
492,284,115499,1,8,2:0:0:0:
416,332,115656,2,0,B|340:312|344:360|264:344,1,150,4|4,2:3|2:3,0:0:0:0:
200,288,116130,1,8,2:0:0:0:
120,332,116288,6,0,L|100:180,1,150,4|4,2:3|2:3,0:0:0:0:
152,108,116762,1,8,2:0:0:0:
80,56,116920,2,0,L|40:72,2,37.5,4|4|4,2:3|2:3|2:3,0:0:0:0:
152,108,117235,1,8,2:0:0:0:
288,20,117393,6,0,B|260:64|260:64|280:164,1,150,4|4,2:0|2:3,0:0:0:0:
356,212,117867,2,0,L|344:292,1,75,2|0,1:0|2:0,0:0:0:0:
276,348,118183,1,2,2:1:0:0:
276,348,118341,2,0,P|240:336|200:340,1,75,4|0,2:3|1:0,0:0:0:0:
140,271,118656,6,0,P|80:313|9:297,1,150,4|4,2:0|2:3,0:0:0:0:
64,228,119130,2,0,L|52:152,1,75,2|0,1:0|2:0,0:0:0:0:
136,77,119446,2,0,L|148:152,1,75,2|4,2:1|2:3,0:0:0:0:
220,208,119762,1,4,2:3:0:0:
308,104,119920,6,0,B|384:96|376:148|456:132,1,150,4|4,2:0|2:3,0:0:0:0:
500,208,120393,2,0,P|488:244|484:288,1,75,2|0,1:0|2:0,0:0:0:0:
404,360,120709,2,0,P|399:322|387:287,1,75,6|4,0:3|2:3,0:0:0:0:
320,224,121025,1,0,1:0:0:0:
248,280,121183,6,0,B|208:304|208:304|104:288,1,150,4|4,2:0|2:3,0:0:0:0:
16,200,121656,2,0,L|96:188,1,75,0|0,1:0|2:0,0:0:0:0:
164,120,121972,2,0,L|200:128,2,37.5,0|0|0,1:0|1:0|1:0,0:0:0:0:
100,56,122288,1,0,1:0:0:0:
184,24,122446,6,0,B|232:36|232:36|336:20,1,150,4|4,2:0|2:3,0:0:0:0:
408,72,122920,2,0,P|416:112|408:152,1,75,2|4,1:0|2:3,0:0:0:0:
332,192,123235,2,0,P|324:232|332:272,1,75,2|4,1:0|2:3,0:0:0:0:
400,324,123551,1,0,1:0:0:0:
316,360,123709,6,0,L|160:340,1,150,4|4,2:0|2:3,0:0:0:0:
100,280,124183,2,0,B|108:240|108:240|100:204,1,75,2|4,1:0|2:3,0:0:0:0:
36,144,124499,2,0,B|28:104|28:104|35:70,1,75,2|4,1:0|2:3,0:0:0:0:
112,20,124814,1,0,1:0:0:0:
112,20,124972,6,0,L|264:44,1,150,4|0,2:0|1:0,0:0:0:0:
260,43,125367,1,0,1:0:0:0:
260,43,125446,1,4,2:3:0:0:
324,108,125604,1,4,2:3:0:0:
324,108,125762,2,0,L|404:100,1,75,4|4,2:3|2:3,0:0:0:0:
472,152,126078,1,8,2:0:0:0:
344,208,126235,6,0,L|184:184,1,150,2|2,3:1|3:1,0:0:0:0:
124,240,126709,1,2,3:1:0:0:
88,64,127025,2,0,L|132:68,3,37.5,2|0|2|0,2:0|2:0|2:0|2:0,0:0:0:0:
168,88,127341,2,0,L|205:84,3,37.5,2|0|2|0,2:0|2:0|2:0|2:0,0:0:0:0:
248,64,127656,6,0,B|296:88|296:88|404:64,1,150,4|10,2:0|2:0,0:0:0:0:
468,116,128130,1,0,2:0:0:0:
404,180,128288,2,0,P|400:224|408:256,1,75,12|12,2:3|2:3,0:0:0:0:
336,312,128604,2,0,L|256:300,1,75,10|0,2:0|2:0,0:0:0:0:
200,236,128920,6,0,P|136:273|63:263,1,150,12|10,2:3|2:0,0:0:0:0:
16,188,129393,1,0,2:0:0:0:
16,188,129551,2,0,L|24:104,1,75,12|12,2:3|2:3,0:0:0:0:
84,44,129867,1,10,2:0:0:0:
84,44,130183,6,0,P|145:84|216:69,1,150,4|8,2:3|2:0,0:0:0:0:
296,32,130656,1,0,2:0:0:0:
360,96,130814,2,0,B|352:136|352:136|360:172,1,75,6|4,2:3|2:3,0:0:0:0:
424,232,131130,2,0,B|432:272|432:272|424:308,1,75,8|2,2:0|2:1,0:0:0:0:
352,360,131446,6,0,P|300:309|227:317,1,150,4|10,2:3|2:1,0:0:0:0:
140,344,131920,2,0,P|67:352|15:301,1,150,0|2,2:0|2:1,0:0:0:0:
20,212,132393,1,4,2:3:0:0:
20,212,132709,6,0,L|12:136,1,75,4|0,2:0|2:0,0:0:0:0:
67,67,133025,2,0,P|128:109|201:103,1,150,10|12,2:0|2:3,0:0:0:0:
272,48,133499,1,4,2:3:0:0:
344,100,133656,2,0,L|332:176,1,75,10|0,2:0|2:0,0:0:0:0:
260,228,133972,6,0,B|184:208|188:264|100:244,1,150,12|10,2:3|2:0,0:0:0:0:
51,183,134446,2,0,P|78:253|81:328,1,150,2|10,2:0|2:0,0:0:0:0:
168,360,134920,1,8,2:0:0:0:
244,308,135078,6,0,B|284:304|284:304|320:320,1,75,10|4,2:0|2:0,0:0:0:0:
392,368,135393,1,6,2:3:0:0:
460,308,135551,2,0,P|443:235|461:163,1,150,8|6,2:0|2:3,0:0:0:0:
408,88,136025,2,0,L|328:104,1,75,4|8,2:3|2:0,0:0:0:0:
260,156,136341,6,0,L|104:132,1,150,6|4,2:3|2:3,0:0:0:0:
40,188,136814,2,0,B|48:224|48:224|40:264,1,75,6|0,1:0|1:0,0:0:0:0:
128,352,137130,2,0,B|120:314|120:314|128:278,1,75,4|2,2:3|2:1,0:0:0:0:
204,228,137446,1,4,2:0:0:0:
204,228,137762,6,0,L|360:248,1,150,4|10,2:0|2:0,0:0:0:0:
432,204,138235,1,0,2:0:0:0:
432,204,138393,2,0,P|440:164|432:128,1,75,12|12,2:3|2:3,0:0:0:0:
372,64,138709,2,0,L|284:80,1,75,10|0,2:0|2:0,0:0:0:0:
216,24,139025,6,0,B|172:56|172:56|72:40,1,150,12|10,2:3|2:0,0:0:0:0:
20,108,139499,1,0,2:0:0:0:
20,108,139656,2,0,L|32:188,1,75,12|12,2:3|2:3,0:0:0:0:
96,248,139972,1,10,2:0:0:0:
96,248,140288,6,0,B|176:236|156:288|240:268,1,150,4|10,2:3|2:0,0:0:0:0:
308,204,140762,1,0,0:0:0:0:
372,268,140920,2,0,L|360:344,1,75,12|4,2:3|2:3,0:0:0:0:
460,260,141235,2,0,L|448:185,1,75,10|10,2:0|2:0,0:0:0:0:
396,124,141472,1,10,2:0:0:0:
396,124,141551,6,0,L|416:12,2,112.5,10|10|10,2:1|2:1|2:1,0:0:0:0:
316,184,142183,2,0,L|324:220,2,37.5,2|0|4,1:0|1:0|2:3,0:0:0:0:
256,104,142499,1,4,2:3:0:0:
32,244,142814,6,0,B|156:244|92:336|236:324,1,225,4|2,2:0|2:0,0:0:0:0:
300,268,143446,2,0,B|340:264|340:264|372:280,1,75,10|0,2:0|0:0,0:0:0:0:
448,328,143762,2,0,L|464:248,1,75,4|10,3:0|2:0,0:0:0:0:
377,122,144078,6,0,L|392:196,1,75,4|4,2:3|2:3,0:0:0:0:
316,252,144393,2,0,B|240:236|248:292|160:272,1,150,2|10,0:0|2:0,0:0:0:0:
92,228,144867,1,10,2:0:0:0:
20,176,145025,2,0,P|28:136|20:100,1,75,2|10,0:0|2:0,0:0:0:0:
76,32,145341,6,0,B|128:56|128:56|220:40,1,150,4|8,2:0|2:0,0:0:0:0:
300,84,145814,1,0,2:0:0:0:
232,140,145972,2,0,L|248:216,2,75,4|4|8,2:3|2:3|2:0,0:0:0:0:
300,83,146446,2,0,P|369:64|427:107,1,150,0|4,2:0|2:3,0:0:0:0:
484,180,146920,6,0,P|476:220|476:264,1,75,8|8,2:0|2:0,0:0:0:0:
396,296,147235,2,0,P|394:258|387:221,1,75,8|4,2:0|2:3,0:0:0:0:
320,164,147551,1,4,2:3:0:0:
252,224,147709,1,4,2:3:0:0:
184,164,147867,5,4,2:0:0:0:
184,164,148025,2,0,L|104:172,1,75,4|4,2:3|2:3,0:0:0:0:
24,140,148341,1,4,2:0:0:0:
24,140,148499,2,0,L|36:220,1,75,4|4,2:3|2:3,0:0:0:0:
16,300,148814,1,4,2:0:0:0:
16,300,148972,6,0,L|92:284,1,75,4|4,2:3|2:3,0:0:0:0:
172,240,149288,1,4,2:0:0:0:
172,240,149446,2,0,P|212:256|248:256,1,75,4|4,2:3|2:3,0:0:0:0:
308,188,149762,6,0,L|280:344,2,150,0|8|4,1:0|2:0|2:1,0:0:0:0:
256,192,150551,12,4,152920,0:0:0:0:
56,112,161762,6,0,L|16:104,2,37.5,8|8|8,2:0|2:0|2:0,0:0:0:0:
136,64,162078,1,8,2:0:0:0:
136,152,162235,2,0,L|128:200,1,37.5,8|8,2:0|2:0,0:0:0:0:
56,244,162472,2,0,L|62:280,1,37.5,8|8,2:0|2:0,0:0:0:0:
132,340,162709,1,8,2:0:0:0:
132,340,163025,6,0,L|192:328,1,56.2500021457673,6|2,2:0|2:0,0:0:0:0:
256,268,163341,2,0,L|372:284,2,112.500004291535,2|10|0,2:0|2:0|2:0,0:0:0:0:
124,144,164288,6,0,P|116:112|116:84,1,56.2500021457673,0|2,1:0|2:0,0:0:0:0:
176,24,164604,2,0,L|296:40,2,112.500004291535,2|10|0,2:0|2:0|2:0,0:0:0:0:
4,116,165551,6,0,L|12:176,1,56.2500021457673,0|2,1:0|2:0,0:0:0:0:
84,228,165867,2,0,L|68:344,2,112.500004291535,2|10|0,2:0|2:0|2:0,0:0:0:0:
192,84,166814,6,0,P|219:87|247:85,1,56.2500021457673,0|0,1:0|1:0,0:0:0:0:
316,28,167130,2,0,B|352:44|352:44|424:32,1,112.500004291535,2|10,2:0|2:0,0:0:0:0:
496,88,167604,1,8,2:0:0:0:
468,172,167762,1,2,2:0:0:0:
468,172,168078,6,0,L|480:236,1,56.2500021457673,4|2,1:0|0:0,0:0:0:0:
392,252,168393,2,0,L|412:368,2,112.500004291535,2|8|2,2:0|2:0|2:0,0:0:0:0:
288,104,169341,6,0,P|260:104|232:96,1,56.2500021457673,0|0,1:0|2:0,0:0:0:0:
168,28,169656,2,0,L|52:40,2,112.500004291535,2|10|2,2:0|2:0|2:0,0:0:0:0:
64,180,170604,6,0,L|76:240,1,56.2500021457673,0|0,1:0|2:0,0:0:0:0:
160,260,170920,2,0,L|140:376,2,112.500004291535,2|10|2,2:0|2:0|2:0,0:0:0:0:
160,80,171867,6,0,L|148:36,2,37.5,8|8|8,2:0|2:0|2:0,0:0:0:0:
216,152,172183,1,8,2:0:0:0:
272,220,172341,2,0,L|284:264,2,37.5,8|8|8,2:0|2:0|0:0,0:0:0:0:
216,152,172656,1,8,2:0:0:0:
280,88,172814,2,0,L|324:96,1,37.5,8|8,2:0|2:0,0:0:0:0:
440,36,173130,6,0,B|472:76|472:76|456:184,1,150,12|8,2:0|2:0,0:0:0:0:
396,240,173604,1,4,2:3:0:0:
396,240,173762,2,0,P|356:244|320:232,1,75,8|4,2:0|2:3,0:0:0:0:
260,168,174078,2,0,P|222:163|187:174,1,75,8|4,2:0|2:3,0:0:0:0:
112,224,174393,6,0,L|88:64,2,150,8|8|8,2:0|2:0|2:0,0:0:0:0:
176,288,175183,1,4,2:3:0:0:
240,228,175341,2,0,L|313:242,1,75,8|4,2:0|2:3,0:0:0:0:
372,312,175656,6,0,P|357:239|373:166,1,150,8|8,2:0|2:0,0:0:0:0:
428,96,176130,1,4,2:3:0:0:
368,28,176288,2,0,L|288:44,1,75,8|4,2:0|2:3,0:0:0:0:
220,108,176604,2,0,L|132:92,1,75,8|4,2:0|2:3,0:0:0:0:
80,32,176920,6,0,P|107:101|101:175,1,150,8|8,2:0|2:0,0:0:0:0:
32,236,177393,1,4,2:3:0:0:
72,316,177551,2,0,L|152:304,1,75,8|4,2:0|2:3,0:0:0:0:
216,248,177867,2,0,L|292:260,1,75,8|4,2:0|2:3,0:0:0:0:
355,199,178183,6,0,P|413:245|485:236,1,150,12|8,2:0|2:0,0:0:0:0:
436,160,178656,1,4,2:3:0:0:
360,108,178814,2,0,B|324:116|324:116|284:108,1,75,8|4,2:0|2:3,0:0:0:0:
212,60,179130,2,0,B|174:52|174:52|138:60,1,75,8|4,2:0|2:3,0:0:0:0:
60,104,179446,6,0,L|76:260,1,150,8|8,2:0|2:0,0:0:0:0:
32,332,179920,1,4,2:3:0:0:
116,368,180078,2,0,P|156:368|196:360,1,75,8|4,2:0|2:3,0:0:0:0:
256,300,180393,2,0,L|336:308,1,75,8|4,2:0|2:3,0:0:0:0:
396,372,180709,6,0,B|424:328|424:328|404:232,1,150,12|8,2:0|2:0,0:0:0:0:
340,168,181183,1,4,2:3:0:0:
400,104,181341,2,0,L|480:120,2,75,8|4|8,2:0|2:3|2:0,0:0:0:0:
340,168,181814,1,4,2:3:0:0:
272,108,181972,6,0,L|192:96,1,75,4|0,2:0|1:0,0:0:0:0:
197,96,182209,1,0,1:0:0:0:
197,96,182288,1,4,2:3:0:0:
120,144,182446,1,4,2:3:0:0:
40,104,182604,6,0,L|32:56,2,37.5,8|0|4,2:0|1:0|2:3,0:0:0:0:
44,196,182920,2,0,L|37:232,2,37.5,4|4|8,2:3|2:3|2:0,0:0:0:0:
120,144,183235,6,0,L|144:296,1,150,6|10,2:0|2:0,0:0:0:0:
208,356,183709,1,4,2:3:0:0:
276,296,183867,2,0,P|316:296|352:308,1,75,2|12,2:0|2:3,0:0:0:0:
424,356,184183,2,0,L|440:280,1,75,10|0,2:0|2:0,0:0:0:0:
404,200,184499,6,0,B|348:220|348:220|252:188,1,150,12|10,2:3|2:0,0:0:0:0:
208,116,184972,1,0,2:0:0:0:
128,156,185130,2,0,L|144:240,1,75,4|12,2:3|2:3,0:0:0:0:
40,188,185446,2,0,L|25:114,1,75,10|2,2:0|2:0,0:0:0:0:
71,35,185762,6,0,P|136:73|210:70,1,150,4|10,2:3|2:0,0:0:0:0:
288,24,186235,1,0,2:0:0:0:
360,76,186393,2,0,L|340:240,1,150,12|10,2:3|2:0,0:0:0:0:
276,288,186867,1,0,2:0:0:0:
208,228,187025,6,0,P|136:212|71:247,1,150,12|10,2:3|2:0,0:0:0:0:
16,176,187499,1,0,0:0:0:0:
40,92,187656,2,0,L|80:100,3,37.5,10|8|0|0,2:0|2:0|1:0|1:0,0:0:0:0:
112,124,187972,2,0,L|156:116,3,37.5,4|4|4|4,2:3|2:3|2:3|2:3,0:0:0:0:
176,80,188288,6,0,P|237:120|310:111,1,150,14|10,2:0|2:0,0:0:0:0:
380,52,188762,1,12,2:3:0:0:
456,100,188920,2,0,B|432:136|432:136|456:244,1,150,8|10,2:0|2:0,0:0:0:0:
484,324,189393,1,4,2:3:0:0:
400,355,189551,6,0,P|326:359|269:313,1,150,10|10,2:0|2:0,0:0:0:0:
228,236,190025,1,12,2:3:0:0:
252,156,190183,1,2,1:0:0:0:
144,236,190341,1,2,1:0:0:0:
136,56,190656,6,0,B|184:80|184:80|288:64,1,150,6|4,2:0|2:3,0:0:0:0:
360,24,191130,2,0,P|394:38|431:44,1,75,10|0,2:0|2:0,0:0:0:0:
488,112,191446,2,0,L|476:268,1,150,12|8,2:3|2:0,0:0:0:0:
416,328,191920,1,12,2:3:0:0:
340,276,192078,6,0,P|300:276|264:288,1,75,0|4,2:0|2:3,0:0:0:0:
188,332,192393,2,0,L|108:320,1,75,10|0,2:0|2:0,0:0:0:0:
40,268,192709,2,0,L|28:304,2,37.5,4|4|4,2:3|2:3|2:3,0:0:0:0:
108,208,193025,1,10,2:0:0:0:
47,143,193183,6,0,P|114:176|188:174,1,150,4|4,2:0|2:3,0:0:0:0:
248,108,193656,2,0,L|224:256,2,150,10|4|10,2:0|2:3|2:0,0:0:0:0:
412,36,194604,6,0,P|412:76|424:116,1,75,0|2,2:0|0:0,0:0:0:0:
492,164,194920,2,0,L|340:144,1,150,10|4,2:0|1:3,0:0:0:0:
283,80,195393,2,0,P|248:92|211:92,1,75,0|10,0:0|2:0,0:0:0:0:
143,27,195709,6,0,P|177:94|175:168,1,150,4|4,2:0|2:3,0:0:0:0:
104,224,196183,2,0,L|28:208,1,75,10|0,2:0|2:0,0:0:0:0:
76,320,196499,2,0,L|228:296,1,150,12|8,2:3|2:0,0:0:0:0:
304,336,196972,1,12,2:3:0:0:
376,280,197130,6,0,B|352:240|352:240|376:136,1,150,0|10,2:0|2:0,0:0:0:0:
348,52,197604,1,0,2:0:0:0:
276,104,197762,2,0,L|284:148,2,37.5,4|4|4,2:3|2:3|2:3,0:0:0:0:
216,36,198078,1,8,2:0:0:0:
192,120,198235,6,0,B|120:116|128:172|40:160,1,150,6|4,2:0|2:3,0:0:0:0:
4,84,198709,2,0,L|24:248,2,150,10|12|10,2:0|2:3|2:0,0:0:0:0:
171,19,199656,6,0,P|231:62|305:60,1,150,2|8,0:0|0:0,0:0:0:0:
388,20,200130,1,0,2:0:0:0:
444,92,200288,2,0,L|480:84,2,37.5,10|8|4,2:0|2:0|0:3,0:0:0:0:
380,160,200604,1,6,2:0:0:0:
256,192,200920,12,2,202183,2:0:0:0:
487,159,202499,6,0,P|416:146|359:191,1,150,6|12,2:0|2:3,0:0:0:0:
352,280,202972,1,12,2:3:0:0:
261,268,203131,2,0,B|224:280|224:280|188:274,1,75,10|0,2:0|2:0,0:0:0:0:
143,351,203446,6,0,L|130:196,1,150,12|10,2:3|2:0,0:0:0:0:
176,122,203920,1,0,2:0:0:0:
176,122,204078,2,0,P|212:129|253:120,1,75,12|12,2:3|2:3,0:0:0:0:
308,51,204394,1,10,2:0:0:0:
308,51,204710,6,0,L|286:208,1,150,4|8,2:3|2:0,0:0:0:0:
338,275,205183,1,0,2:0:0:0:
338,275,205341,2,0,B|331:314|331:314|341:352,1,75,6|4,2:3|2:3,0:0:0:0:
489,352,205657,2,0,B|498:318|498:318|491:279,1,75,8|2,2:0|2:1,0:0:0:0:
413,312,205973,6,0,L|259:301,1,150,4|10,2:3|2:1,0:0:0:0:
198,226,206446,2,0,P|220:295|186:360,1,150,0|6,2:0|0:3,0:0:0:0:
134,286,206920,1,4,2:3:0:0:
51,126,207236,6,0,B|100:143|100:143|199:119,1,150,4|10,2:0|2:0,0:0:0:0:
257,53,207710,1,0,2:0:0:0:
338,92,207867,2,0,P|349:130|345:167,1,75,12|4,2:3|0:3,0:0:0:0:
280,227,208183,2,0,P|277:264|288:299,1,75,10|0,2:0|2:0,0:0:0:0:
361,353,208499,6,0,L|212:334,1,150,12|10,2:3|2:0,0:0:0:0:
149,270,208973,1,2,2:0:0:0:
149,270,209131,2,0,L|65:285,2,75,4|10|8,2:3|2:0|2:0,0:0:0:0:
214,206,209604,1,10,2:0:0:0:
275,139,209762,6,0,L|359:154,1,75,4|6,2:3|2:3,0:0:0:0:
428,106,210078,1,8,2:0:0:0:
428,106,210394,2,0,L|422:63,2,37.5,6|4|4,2:3|2:3|2:3,0:0:0:0:
486,176,210710,2,0,L|473:254,1,75,8|6,2:0|2:3,0:0:0:0:
409,309,211025,6,0,B|356:299|356:299|316:312|316:312|259:298,1,150,4|6,2:3|1:0,0:0:0:0:
192,241,211499,1,0,1:0:0:0:
192,241,211657,2,0,P|119:230|63:276,1,150,4|4,2:3|2:0,0:0:0:0:
52,290,212289,6,0,L|33:130,1,150,4|10,2:0|2:0,0:0:0:0:
86,66,212762,1,0,2:0:0:0:
166,108,212920,2,0,B|203:115|203:115|242:103,1,75,12|12,2:3|2:3,0:0:0:0:
318,59,213236,1,10,2:0:0:0:
392,111,213394,1,0,2:0:0:0:
463,53,213552,6,0,P|486:122|449:185,1,150,12|10,2:3|2:0,0:0:0:0:
368,221,214025,1,0,2:0:0:0:
368,221,214183,2,0,L|294:210,1,75,12|12,2:3|2:3,0:0:0:0:
216,255,214499,1,10,2:0:0:0:
115,106,214815,6,0,B|168:132|168:132|266:108,1,150,4|10,2:3|2:0,0:0:0:0:
329,55,215289,1,0,0:0:0:0:
398,112,215446,2,0,L|388:191,1,75,12|4,2:3|2:3,0:0:0:0:
316,240,215762,2,0,L|327:315,1,75,10|10,2:0|2:0,0:0:0:0:
335,359,215999,1,10,2:0:0:0:
336,358,216078,6,0,P|387:337|443:340,2,112.5,2|2|2,2:1|2:1|2:1,0:0:0:0:
248,336,216709,2,0,B|208:344|208:344|172:335,1,75,2|0,1:0|1:0,0:0:0:0:
106,277,217025,1,0,0:1:0:0:
106,277,217183,1,0,2:1:0:0:
155,103,217341,6,0,B|273:97|241:189|361:170,1,225,4|4,2:0|2:3,0:0:0:0:
447,142,217973,2,0,L|438:221,1,75,10|2,2:0|0:0,0:0:0:0:
375,280,218289,1,4,3:0:0:0:
447,333,218446,1,10,2:0:0:0:
365,369,218604,6,0,L|287:352,1,75,4|4,3:0|3:0,0:0:0:0:
228,289,218920,2,0,B|178:314|178:314|79:298,1,150,2|8,0:0|2:0,0:0:0:0:
26,230,219394,1,8,2:0:0:0:
85,161,219552,2,0,P|95:125|90:88,1,75,2|8,0:0|2:0,0:0:0:0:
17,36,219867,6,0,L|165:58,1,150,4|8,2:0|2:0,0:0:0:0:
241,108,220341,1,0,2:0:0:0:
241,108,220499,2,0,L|316:97,1,75,2|4,0:0|2:3,0:0:0:0:
387,41,220815,1,8,2:0:0:0:
464,88,220973,1,0,2:0:0:0:
402,152,221131,6,0,L|395:188,2,37.5,4|4|4,2:3|2:3|2:3,0:0:0:0:
479,200,221446,2,0,L|488:278,1,75,8|8,2:0|2:0,0:0:0:0:
426,340,221762,2,0,L|383:335,3,37.5,8|8|4|4,0:0|0:0|2:3|2:3,0:0:0:0:
351,310,222078,2,0,L|314:314,3,37.5,4|4|8|8,2:3|2:3|2:0|2:0,0:0:0:0:
279,284,222394,6,0,B|244:295|244:295|202:285,1,75,4|4,2:0|2:3,0:0:0:0:
134,233,222710,1,4,2:3:0:0:
134,233,222867,6,0,L|147:151,1,75,4|4,2:0|2:3,0:0:0:0:
204,85,223183,1,4,2:3:0:0:
278,136,223341,6,0,P|320:143|351:135,1,75,4|4,2:0|2:3,0:0:0:0:
420,75,223657,1,4,2:3:0:0:
482,141,223815,6,0,L|467:224,1,75,4|4,2:0|2:3,0:0:0:0:
450,303,224131,1,4,2:3:0:0:
450,303,224289,6,0,L|459:351,2,37.5,8|8|4,0:0|0:0|2:3,0:0:0:0:
370,261,224604,2,0,B|295:256|310:311|227:297,1,150,8|4,2:0|2:0,0:0:0:0:
256,192,225078,12,4,227446,0:0:0:0:
