osu file format v14

[General]
AudioFilename: Denkare - Gemini.mp3
AudioLeadIn: 0
PreviewTime: 127735
Countdown: 0
SampleSet: Soft
StackLeniency: 0.3
Mode: 0
LetterboxInBreaks: 1
EpilepsyWarning: 1
WidescreenStoryboard: 1

[Editor]
DistanceSpacing: 0.5
BeatDivisor: 4
GridSize: 4
TimelineZoom: 5.000003

[Metadata]
Title:gemini
TitleUnicode:gemini
Artist:Denkishiki Karen Ongaku Shuudan
ArtistUnicode:電気式華憐音楽集団
Creator:Star Stream
Version:Extra
Source:双子座のパラドクス
Tags:video game rock japanese rock metal scanter HabiHolic Len [ Kuro Usagi ] -Mo- Denkare COTTON
BeatmapID:438187
BeatmapSetID:182815

[Difficulty]
HPDrainRate:5
CircleSize:4
OverallDifficulty:9.2
ApproachRate:9.6
SliderMultiplier:2.2
SliderTickRate:1

[Events]
//Background and Video events
0,0,"bg.jpg",0,0
//Break Periods
2,153120,161253
//Storyboard Layer 0 (Background)
//Storyboard Layer 1 (Fail)
//Storyboard Layer 2 (Pass)
//Storyboard Layer 3 (Foreground)
//Storyboard Layer 4 (Overlay)
//Storyboard Sound Samples

[TimingPoints]
78,315.789473684211,4,2,2,35,1,0
8900,-100,4,2,2,5,0,0
8920,-100,4,2,2,65,0,0
13814,-100,4,2,2,80,0,0
13893,-100,4,2,2,65,0,0
18867,-100,4,2,2,80,0,0
18946,-100,4,2,2,65,0,0
23920,-100,4,2,2,80,0,0
23999,-100,4,2,2,65,0,0
28972,-100,4,2,2,80,0,0
29051,-100,4,2,2,65,0,0
31321,-100,4,2,2,5,0,0
31341,-100,4,2,2,65,0,0
31656,-83.3333333333333,4,2,2,80,0,0
31735,-83.3333333333333,4,2,2,60,0,0
36078,-83.3333333333333,4,2,2,80,0,0
36235,-83.3333333333333,4,2,2,60,0,0
41130,-200,4,2,2,60,0,0
41426,-200,4,2,2,5,0,0
41446,-100,4,2,2,60,0,0
41742,-100,4,2,2,5,0,0
41762,-83.3333333333333,4,2,2,60,0,0
46183,-83.3333333333333,4,2,2,80,0,0
46341,-83.3333333333333,4,2,2,60,0,0
55499,-133.333333333333,4,2,2,60,0,0
55972,-83.3333333333333,4,2,2,60,0,0
61972,-83.3333333333333,4,2,2,80,0,1
62130,-83.3333333333333,4,2,2,65,0,1
67577,-83.3333333333333,4,2,2,5,0,1
67656,-83.3333333333333,4,2,2,65,0,1
71762,-83.3333333333333,4,2,7,80,0,1
71841,-83.3333333333333,4,2,2,65,0,1
72078,-83.3333333333333,4,2,2,80,0,1
72235,-83.3333333333333,4,2,2,65,0,1
75156,-83.3333333333333,4,2,2,5,0,1
75235,-83.3333333333333,4,2,2,65,0,1
75471,-83.3333333333333,4,2,2,5,0,1
75551,-83.3333333333333,4,2,2,65,0,1
77130,-133.333333333333,4,2,2,80,0,1
77209,-133.333333333333,4,2,2,50,0,1
78551,-266.666666666667,4,2,2,50,0,1
79183,-133.333333333333,4,2,2,50,0,1
79656,-100,4,2,2,60,0,1
82183,-100,4,2,2,50,0,1
82341,-100,4,2,2,65,0,1
82656,-100,4,2,2,80,0,1
82814,-100,4,2,2,65,0,1
83130,-100,4,2,2,50,0,1
83288,-100,4,2,2,65,0,1
83604,-100,4,2,2,80,0,1
83762,-100,4,2,2,65,0,1
84078,-200,4,2,2,65,0,1
84629,-200,4,2,2,5,0,1
84709,-200,4,2,2,65,0,0
86288,-83.3333333333333,4,2,2,65,0,0
87078,-83.3333333333333,4,2,2,60,0,0
87551,-100,4,2,2,60,0,0
89603,-100,4,2,2,80,0,0
89762,-100,4,2,2,60,0,0
94656,-100,4,2,2,80,0,0
94814,-100,4,2,2,60,0,0
98604,-100,4,2,2,80,0,0
98762,-100,4,2,2,60,0,0
100025,-100,4,2,1,45,0,0
101762,-100,4,2,1,80,0,0
101920,-83.3333333333333,4,2,1,45,0,0
106656,-83.3333333333333,4,2,2,45,0,0
106814,-133.333333333333,4,2,1,45,0,0
107090,-133.333333333333,4,2,1,5,0,0
107130,-133.333333333333,4,2,1,45,0,0
107446,-83.3333333333333,4,2,1,45,0,0
111867,-83.3333333333333,4,2,1,80,0,0
112025,-83.3333333333333,4,2,1,45,0,0
114393,-66.6666666666667,4,2,1,45,0,0
114511,-66.6666666666667,4,2,1,5,0,0
114551,-66.6666666666667,4,2,1,45,0,0
114669,-66.6666666666667,4,2,1,5,0,0
114709,-66.6666666666667,4,2,1,45,0,0
114827,-66.6666666666667,4,2,1,5,0,0
114867,-66.6666666666667,4,2,1,45,0,0
115972,-83.3333333333333,4,2,1,45,0,0
117393,-83.3333333333333,4,2,1,60,0,0
117472,-83.3333333333333,4,2,2,60,0,0
121183,-83.3333333333333,4,2,2,80,0,0
121262,-83.3333333333333,4,2,2,60,0,0
123709,-83.3333333333333,4,2,2,80,0,0
123788,-83.3333333333333,4,2,2,60,0,0
126235,-100,4,2,2,60,0,0
127025,-76.9230769230769,4,2,2,60,0,0
127656,-76.9230769230769,4,2,2,80,0,1
127814,-76.9230769230769,4,2,2,65,0,1
137446,-76.9230769230769,4,2,7,80,0,1
137525,-76.9230769230769,4,2,2,65,0,1
137762,-76.9230769230769,4,2,2,80,0,1
137841,-76.9230769230769,4,2,2,65,0,1
140524,-76.9230769230769,4,2,2,5,0,1
140604,-76.9230769230769,4,2,2,65,0,1
140840,-76.9230769230769,4,2,2,5,0,1
140920,-76.9230769230769,4,2,2,65,0,1
142814,-133.333333333333,4,2,2,50,0,1
145341,-100,4,2,2,60,0,1
147867,-100,4,2,2,50,0,1
148025,-100,4,2,2,65,0,1
148341,-100,4,2,2,80,0,1
148499,-100,4,2,2,65,0,1
148814,-100,4,2,2,50,0,1
148972,-100,4,2,2,65,0,1
149288,-100,4,2,2,80,0,1
149446,-100,4,2,2,65,0,1
150078,-200,4,2,2,65,0,1
150314,-200,4,2,2,5,0,1
150393,-200,4,2,2,65,0,0
152920,-200,4,2,2,80,0,0
161762,-200,4,2,2,60,0,0
163341,-133.333333333333,4,2,2,60,0,0
173130,-100,4,2,2,60,0,0
178183,-100,4,2,2,80,0,0
178341,-100,4,2,2,60,0,0
181972,-100,4,2,2,80,0,0
182051,-100,4,2,2,60,0,0
183235,-100,4,2,2,80,0,0
183393,-100,4,2,2,60,0,0
190341,-133.333333333333,4,2,2,60,0,0
190656,-83.3333333333333,4,2,2,60,0,0
194446,-83.3333333333333,4,2,2,80,0,0
194525,-83.3333333333333,4,2,2,60,0,0
198235,-83.3333333333333,4,2,2,80,0,0
198313,-83.3333333333333,4,2,2,60,0,0
200840,-83.3333333333333,4,2,2,5,0,0
200920,-83.3333333333333,4,2,2,60,0,0
202183,-83.3333333333333,4,2,2,60,0,1
202499,-83.3333333333333,4,2,2,80,0,1
202656,-83.3333333333333,4,2,2,65,0,1
211972,-83.3333333333333,4,2,7,80,0,1
212051,-83.3333333333333,4,2,2,65,0,1
212288,-83.3333333333333,4,2,2,80,0,1
212446,-83.3333333333333,4,2,2,65,0,1
215366,-83.3333333333333,4,2,2,5,0,1
215446,-83.3333333333333,4,2,2,65,0,1
217341,-133.333333333333,4,2,2,50,0,1
219867,-100,4,2,2,60,0,1
222393,-100,4,2,2,50,0,1
222551,-100,4,2,2,65,0,1
222867,-100,4,2,2,80,0,1
223025,-100,4,2,2,65,0,1
223341,-100,4,2,2,50,0,1
223499,-100,4,2,2,65,0,1
223814,-100,4,2,2,80,0,1
223972,-100,4,2,2,65,0,1
224604,-200,4,2,2,65,0,0
224840,-200,4,2,2,5,0,0
224920,-200,4,2,2,65,0,0
226341,-100,4,2,2,65,0,0
227446,-83.3333333333333,4,2,2,60,0,0
229814,-83.3333333333333,4,2,2,80,0,0
229972,-83.3333333333333,4,2,2,60,0,0
234866,-83.3333333333333,4,2,2,80,0,0
235025,-83.3333333333333,4,2,2,60,0,0
237235,-83.3333333333333,4,2,2,80,0,0
237314,-83.3333333333333,4,2,2,60,0,0
237472,-200,4,2,2,60,0,0
238656,-200,4,2,2,80,0,0
243551,-200,4,2,2,5,0,0

[Colours]
Combo1 : 79,79,255
Combo2 : 193,43,206
Combo3 : 255,115,47
Combo4 : 245,90,114

[HitObjects]
256,192,78,12,0,8900,2:0:0:0:
132,92,8920,5,0,1:3:0:0:
136,96,8999,1,0,1:3:0:0:
140,100,9078,2,0,L|156:164,1,55,4|4,2:3|2:3,2:0:0:0:
356,152,9235,5,4,2:3:0:0:
356,152,9314,1,4,2:3:0:0:
356,152,9393,2,0,L|340:216,1,55,4|4,2:3|2:3,2:0:0:0:
92,320,9551,5,4,2:3:0:0:
124,316,9630,1,4,2:3:0:0:
156,312,9709,1,4,2:3:0:0:
188,308,9788,1,4,2:3:0:0:
220,304,9867,1,4,2:3:0:0:
420,316,10025,6,0,P|312:316|256:228,1,220,12|4,0:3|2:3,2:0:0:0:
296,100,10499,2,0,L|404:116,1,110,12|0,2:3|2:0,2:0:0:0:
484,156,10814,5,2,2:0:0:0:
468,196,11130,1,2,2:0:0:0:
452,236,11446,1,2,2:0:0:0:
436,276,11762,1,2,2:0:0:0:
420,316,12078,2,0,B|392:308|392:308|372:324|372:324|312:328,1,110,2|0,2:0|2:0,2:0:0:0:
88,340,12393,1,8,2:0:0:0:
192,88,12551,6,0,P|224:144|120:224,1,220,4|0,2:0|2:0,2:0:0:0:
68,124,13025,2,0,B|76:68|76:68|112:28,1,110,2|0,2:0|2:0,2:0:0:0:
342,169,13341,2,0,P|241:203|148:152,1,220,2|2,2:0|2:0,2:0:0:0:
218,31,13814,6,0,P|318:66|342:169,1,220,4|0,2:0|2:0,2:0:0:0:
137,261,14288,2,0,L|148:152,1,110,2|0,2:0|2:0,2:0:0:0:
342,169,14604,5,0,1:0:0:0:
342,169,14683,1,0,1:0:0:0:
342,169,14762,1,4,3:0:0:0:
137,261,14920,1,0,1:0:0:0:
248,348,15078,6,0,B|360:360|360:360|460:316,1,220,4|0,2:0|2:0,2:0:0:0:
500,192,15551,1,4,2:3:0:0:
488,148,16183,1,4,2:3:0:0:
476,104,16814,1,4,2:3:0:0:
464,60,17446,1,4,2:3:0:0:
364,196,17604,6,0,P|256:224|160:184,1,220,4|0,2:0|2:0,2:0:0:0:
116,80,18078,1,0,1:0:0:0:
116,80,18156,1,0,1:0:0:0:
116,80,18235,2,0,L|128:8,1,55,4|4,2:3|2:3,2:0:0:0:
336,60,18393,1,0,1:0:0:0:
352,76,18472,1,0,1:0:0:0:
368,92,18551,1,4,2:3:0:0:
381,109,18630,2,0,L|372:164,1,55,4|0,2:3|1:0,2:0:0:0:
124,304,18867,6,0,P|228:264|324:312,1,220,4|0,2:0|1:0,2:0:0:0:
333,318,19262,1,0,1:0:0:0:
346,326,19341,2,0,L|366:270,1,55,4|4,2:3|2:3,2:0:0:0:
464,232,19499,2,0,L|448:168,1,55,4|4,2:3|2:3,2:0:0:0:
500,68,19656,6,0,B|472:24|472:24|448:76|448:76|416:28|416:28|392:76,1,220,0|0,2:0|2:0,2:1:0:0:
64,200,20130,6,0,P|176:184|248:256,1,220,4|4,2:0|2:3,2:1:0:0:
260,272,20525,1,0,2:0:0:0:
273,281,20604,2,0,B|355:291|355:291|319:244,1,110,8|0,2:0|2:0,2:0:0:0:
96,72,20920,5,4,2:3:0:0:
88,104,20999,1,4,2:3:0:0:
80,136,21078,1,4,2:3:0:0:
72,168,21156,1,4,2:3:0:0:
64,200,21235,2,0,L|104:304,1,110,8|4,2:0|2:3,2:0:0:0:
307,176,21551,5,0,2:0:0:0:
269,44,21709,1,4,2:3:0:0:
64,200,21867,1,8,2:0:0:0:
261,240,22025,1,0,2:0:0:0:
204,68,22183,5,4,2:3:0:0:
204,68,22262,1,4,2:3:0:0:
204,68,22341,1,4,2:3:0:0:
64,200,22499,1,8,2:0:0:0:
335,249,22656,1,4,2:0:0:0:
96,72,22814,5,0,2:0:0:0:
64,200,22972,1,4,2:3:0:0:
312,64,23130,5,8,2:0:0:0:
64,200,23288,1,0,2:0:0:0:
204,68,23446,5,4,2:3:0:0:
64,200,23604,1,4,2:3:0:0:
420,60,23762,5,8,2:0:0:0:
366,62,23841,1,0,2:0:0:0:
312,64,23920,1,4,2:0:0:0:
258,66,23999,1,0,2:0:0:0:
204,68,24078,1,0,2:0:0:0:
64,200,24235,5,4,2:3:0:0:
96,72,24393,1,8,2:0:0:0:
140,268,24551,1,0,2:0:0:0:
228,156,24709,2,0,L|212:240,1,55,4|4,2:3|2:3,2:0:0:0:
32,124,24867,2,0,L|8:32,1,55,4|4,2:3|2:3,2:0:0:0:
326,172,25025,1,8,2:0:0:0:
130,140,25183,6,0,P|36:208|68:292,1,220,4|4,2:0|2:3,2:0:0:0:
116,308,25578,1,4,2:3:0:0:
116,308,25656,2,0,L|228:308,1,110,8|0,2:0|2:0,2:0:0:0:
452,128,25972,6,0,L|424:180,1,55,4|4,2:3|2:3,2:0:0:0:
288,260,26130,2,0,L|260:208,1,55,4|4,2:3|2:3,2:0:0:0:
161,34,26288,2,0,L|130:140,1,110,8|4,2:0|2:3,2:0:0:0:
84,308,26604,5,4,2:3:0:0:
428,308,26762,1,4,2:3:0:0:
244,88,26920,2,0,L|212:193,1,110,8|0,2:0|2:0,2:0:0:0:
172,308,27235,6,0,L|227:308,1,55,4|4,2:3|2:3,2:0:0:0:
452,128,27393,1,4,2:3:0:0:
136,112,27551,1,8,2:0:0:0:
260,308,27709,1,4,2:0:0:0:
366,188,27867,5,0,2:0:0:0:
260,308,28025,1,4,2:3:0:0:
210,222,28183,5,8,2:0:0:0:
356,286,28341,1,0,2:0:0:0:
276,148,28499,5,4,2:3:0:0:
172,308,28656,1,4,2:3:0:0:
366,188,28814,5,8,2:0:0:0:
364,136,28893,1,0,2:0:0:0:
344,88,28972,1,4,2:0:0:0:
300,56,29051,1,0,2:0:0:0:
248,48,29130,2,0,P|196:76|144:76,1,110,0|4,2:0|2:3,2:0:0:0:
264,336,29446,2,0,P|316:308|368:308,1,110,8|0,2:0|2:0,2:0:0:0:
418,128,29762,6,0,L|364:136,1,55,0|0,1:0|1:0,2:0:0:0:
93,255,29920,2,0,L|148:248,1,55,4|4,2:3|2:3,2:0:0:0:
344,216,30078,5,4,2:0:0:0:
292,204,30156,1,0,2:0:0:0:
240,188,30235,1,0,2:0:0:0:
188,176,30314,1,0,2:0:0:0:
256,192,30393,12,0,31321,2:0:0:0:
136,164,31341,6,0,L|112:112,1,55,0|0,1:0|1:0,2:0:0:0:
245,37,31499,6,0,L|240:92,1,55,0|0,1:0|1:0,2:0:0:0:
320,168,31656,6,0,B|384:152|384:152|448:168,1,131.99999597168,6|8,2:1|2:0,2:0:0:0:
503,291,31972,1,4,2:3:0:0:
437,37,32130,1,12,2:3:0:0:
284,184,32288,5,4,2:3:0:0:
284,184,32367,1,4,2:3:0:0:
284,184,32446,1,8,2:0:0:0:
436,336,32604,2,0,B|372:356|372:356|308:336,1,131.99999597168,4|8,2:3|2:0,2:0:0:0:
168,216,32920,5,4,2:3:0:0:
284,184,33078,1,8,2:0:0:0:
248,292,33235,1,4,2:3:0:0:
210,136,33393,1,8,2:0:0:0:
96,293,33551,1,4,2:3:0:0:
96,293,33630,1,4,2:3:0:0:
96,293,33709,1,8,2:0:0:0:
402,283,33867,2,0,P|336:291|274:311,1,131.99999597168,4|8,2:3|2:0,2:0:0:0:
180,348,34183,5,4,2:3:0:0:
284,184,34341,1,8,2:0:0:0:
168,216,34499,1,4,2:3:0:0:
168,216,34578,1,4,2:3:0:0:
168,216,34656,1,8,2:0:0:0:
224,104,34814,1,4,2:3:0:0:
224,104,34893,1,4,2:3:0:0:
224,104,34972,1,8,2:0:0:0:
409,184,35130,2,0,B|348:204|348:204|284:184,1,131.99999597168,4|8,2:3|2:0,2:0:0:0:
404,40,35446,5,4,2:0:0:0:
492,96,35604,1,8,2:0:0:0:
504,200,35762,1,4,2:3:0:0:
464,296,35920,1,8,2:0:0:0:
364,324,36078,1,4,2:0:0:0:
224,104,36235,1,10,2:1:0:0:
480,196,36393,2,0,P|412:196|349:204,1,131.99999597168,4|8,2:3|2:0,2:0:0:0:
32,196,36709,5,6,2:1:0:0:
116,64,36867,1,8,2:0:0:0:
176,292,37025,1,4,2:3:0:0:
176,292,37104,1,4,2:3:0:0:
176,292,37183,1,8,2:0:0:0:
360,212,37341,2,0,L|365:80,1,131.99999597168,4|8,2:3|2:0,2:0:0:0:
183,264,37656,1,4,2:3:0:0:
241,101,37814,1,8,2:0:0:0:
360,212,37972,5,4,2:3:0:0:
116,64,38130,1,8,2:0:0:0:
70,324,38288,1,4,2:3:0:0:
71,284,38367,1,4,2:3:0:0:
72,244,38446,1,8,2:0:0:0:
428,344,38604,5,2,2:1:0:0:
468,164,38762,1,8,2:0:0:0:
428,344,38920,1,2,2:1:0:0:
300,48,39078,1,8,2:0:0:0:
428,344,39235,5,4,2:3:0:0:
84,344,39393,1,8,2:0:0:0:
428,245,39551,5,4,2:3:0:0:
428,245,39630,1,4,2:3:0:0:
428,245,39709,1,8,2:0:0:0:
84,245,39867,1,4,2:3:0:0:
84,245,39946,1,4,2:3:0:0:
84,245,40025,1,8,2:0:0:0:
180,66,40183,5,4,2:3:0:0:
209,268,40341,1,8,2:0:0:0:
322,117,40499,1,4,2:3:0:0:
34,137,40656,1,8,2:0:0:0:
86,8,40814,1,4,2:3:0:0:
86,8,40893,1,4,2:3:0:0:
86,8,40972,1,8,2:0:0:0:
232,176,41130,6,0,P|284:164|336:176,1,103.125,2|0,2:0|2:0,2:0:0:0:
340,180,41446,6,2,B|360:40|360:40|388:104,1,206.25,2|0,2:1|2:1,2:1:0:0:
380,104,41762,6,0,L|244:88,1,131.99999597168,6|8,2:1|2:0,2:0:0:0:
41,72,42078,5,4,2:3:0:0:
41,72,42156,1,4,2:3:0:0:
41,72,42235,1,8,2:0:0:0:
184,20,42393,1,4,2:3:0:0:
40,264,42551,1,8,2:0:0:0:
108,160,42709,1,4,2:3:0:0:
172,324,42867,1,8,2:0:0:0:
240,220,43025,5,4,2:3:0:0:
40,264,43183,1,8,2:0:0:0:
247,227,43341,5,4,2:3:0:0:
247,227,43420,1,4,2:3:0:0:
247,227,43499,1,8,2:0:0:0:
40,264,43656,1,4,2:3:0:0:
108,160,43814,1,8,2:0:0:0:
172,324,43972,5,4,2:3:0:0:
240,220,44130,1,8,2:0:0:0:
40,264,44288,5,4,2:3:0:0:
204,136,44446,2,0,L|204:4,2,131.99999597168,8|4|8,2:0|2:3|2:0,2:0:0:0:
440,24,44920,1,4,2:3:0:0:
440,24,44999,1,4,2:3:0:0:
440,24,45078,1,8,2:0:0:0:
132,125,45235,1,4,2:3:0:0:
332,65,45393,2,0,P|334:34|332:-1,1,65.9999979858399,8|0,2:0|2:0,2:0:0:0:
409,228,45551,5,4,2:0:0:0:
236,37,45709,1,8,2:0:0:0:
180,287,45867,1,4,2:3:0:0:
404,99,46025,1,8,2:0:0:0:
220,137,46183,1,4,2:0:0:0:
341,218,46341,1,10,2:1:0:0:
149,171,46499,1,4,2:3:0:0:
463,161,46656,1,8,2:0:0:0:
38,157,46814,5,6,2:1:0:0:
128,21,46972,1,8,2:0:0:0:
253,256,47130,1,4,2:3:0:0:
380,4,47288,1,8,2:0:0:0:
480,107,47446,2,0,B|470:255,1,131.99999597168,4|8,2:3|2:0,2:0:0:0:
426,368,47762,1,4,2:3:0:0:
357,198,47920,1,8,2:0:0:0:
312,329,48078,5,4,2:3:0:0:
358,45,48235,1,8,2:0:0:0:
457,257,48393,1,4,2:3:0:0:
457,257,48472,1,4,2:3:0:0:
457,257,48551,1,8,2:0:0:0:
125,217,48709,5,2,2:1:0:0:
329,61,48867,1,8,2:0:0:0:
70,68,49025,1,2,2:1:0:0:
283,212,49183,1,8,2:0:0:0:
188,112,49341,5,4,2:3:0:0:
61,321,49499,1,8,2:0:0:0:
201,228,49656,1,4,2:3:0:0:
201,228,49735,1,4,2:3:0:0:
201,228,49814,1,8,2:0:0:0:
15,200,49972,1,4,2:3:0:0:
15,200,50051,1,4,2:3:0:0:
15,200,50130,1,8,2:0:0:0:
488,192,50288,5,4,2:3:0:0:
404,320,50446,1,8,2:0:0:0:
408,80,50604,5,4,2:3:0:0:
227,321,50762,1,8,2:0:0:0:
404,320,50920,5,4,2:3:0:0:
404,320,50999,1,4,2:3:0:0:
404,320,51078,1,8,2:0:0:0:
61,321,51235,5,4,2:3:0:0:
94,321,51314,1,4,2:3:0:0:
127,321,51393,1,4,2:3:0:0:
160,321,51472,1,4,2:3:0:0:
193,321,51551,1,8,2:0:0:0:
372,204,51709,6,0,P|352:116|220:168,1,263.99999194336,4|4,2:0|2:3,2:0:0:0:
132,220,52183,2,0,L|124:84,1,131.99999597168,2|0,1:0|2:0,2:0:0:0:
36,32,52499,1,2,2:1:0:0:
208,295,52656,1,4,2:3:0:0:
362,75,52814,1,0,1:0:0:0:
124,88,52972,6,0,P|40:152|124:252,1,263.99999194336,4|4,2:0|2:3,2:0:0:0:
270,199,53446,2,0,L|285:67,1,131.99999597168,2|0,1:0|2:0,2:0:0:0:
468,28,53762,1,6,2:3:0:0:
458,59,53841,1,4,2:3:0:0:
449,91,53920,1,4,2:3:0:0:
439,122,53999,1,4,2:3:0:0:
430,154,54078,1,4,0:3:0:0:
248,310,54235,6,0,P|344:254|398:369,1,263.99999194336,4|4,2:0|2:3,2:0:0:0:
191,357,54709,2,0,B|128:329|93:272,1,131.99999597168,2|0,1:0|2:0,2:0:0:0:
44,132,55025,1,6,2:1:0:0:
200,108,55183,1,4,2:3:0:0:
356,84,55341,1,0,1:0:0:0:
508,64,55499,6,0,L|488:240,1,165.000006294251,4|4,2:0|3:0,2:0:0:0:
356,84,55972,2,0,L|336:260,1,131.99999597168,0|0,1:0|2:0,2:0:0:0:
200,108,56288,6,0,L|172:76,2,32.99999899292,4|4|4,2:3|2:3|2:3,2:0:0:0:
341,215,56446,1,0,1:0:0:0:
136,268,56604,1,0,1:0:0:0:
248,348,56762,2,0,L|520:348,1,263.99999194336,4|4,2:0|2:3,2:0:0:0:
161,306,57235,2,0,L|23:306,1,131.99999597168,2|4,1:0|2:3,2:0:0:0:
452,64,57551,1,2,1:0:0:0:
256,100,57709,1,4,2:3:0:0:
404,216,57867,1,0,1:0:0:0:
372,32,58025,6,0,B|376:96|376:96|336:172,1,131.99999597168,4|0,2:0|2:0,2:0:0:0:
128,228,58341,1,4,2:3:0:0:
184,56,58499,1,2,1:0:0:0:
292,232,58656,1,4,2:3:0:0:
260,37,58814,5,2,1:0:0:0:
190,278,58972,1,4,2:3:0:0:
109,15,59130,1,0,1:0:0:0:
64,328,59288,6,0,P|192:280|272:360,1,263.99999194336,4|0,2:3|1:0,2:0:0:0:
309,373,59683,1,0,1:0:0:0:
348,373,59762,1,4,2:3:0:0:
385,360,59841,1,4,2:3:0:0:
413,332,59920,2,0,L|419:261,1,65.9999979858399,4|4,2:3|2:3,2:0:0:0:
347,135,60078,5,4,2:3:0:0:
344,174,60156,1,4,2:3:0:0:
341,213,60235,1,4,2:3:0:0:
338,252,60314,1,4,2:3:0:0:
335,291,60393,1,0,1:0:0:0:
186,151,60551,6,0,B|164:6|164:6|150:67,1,197.99999395752,10|0,2:1|2:1,2:0:0:0:
104,130,60867,2,0,L|114:195,1,65.9999979858399,10|0,2:1|2:0,2:0:0:0:
144,336,61025,2,0,L|280:336,1,131.99999597168,10|0,2:1|2:0,2:0:0:0:
448,204,61341,5,2,2:0:0:0:
436,204,61420,1,2,2:0:0:0:
424,204,61499,1,2,2:0:0:0:
412,204,61578,1,2,2:0:0:0:
400,204,61656,2,2,B|392:200|392:200|392:208|392:208|388:200|388:200|388:208|388:208|384:200|384:200|384:208|384:208|380:200|380:200|380:208|380:208|376:200|376:200|376:208|376:208|372:200|372:200|372:208|372:208|368:200|368:200|368:208|368:208|364:200|364:200|364:208|364:208|360:200|360:200|360:208|360:208|356:200|356:200|356:208|356:208|352:204|352:204|260:204,1,263.99999194336,2|4,2:1|2:1,2:1:0:0:
64,120,62130,5,0,2:0:0:0:
302,106,62288,1,10,2:0:0:0:
263,204,62446,1,0,2:0:0:0:
302,106,62604,5,12,2:3:0:0:
182,111,62762,1,12,2:3:0:0:
420,97,62920,1,10,2:0:0:0:
381,195,63078,1,0,2:0:0:0:
214,32,63235,5,12,2:3:0:0:
269,261,63393,1,0,2:0:0:0:
330,58,63551,1,10,2:0:0:0:
94,188,63709,1,0,2:0:0:0:
439,203,63867,1,12,2:3:0:0:
166,159,64025,1,12,2:3:0:0:
364,197,64183,2,0,L|370:66,1,131.99999597168,10|0,2:0|2:0,2:0:0:0:
178,369,64499,5,4,2:3:0:0:
97,110,64656,1,2,2:1:0:0:
55,267,64814,1,8,2:0:0:0:
195,125,64972,1,0,2:0:0:0:
55,267,65130,5,6,2:3:0:0:
316,228,65288,1,4,2:3:0:0:
39,271,65446,5,8,2:0:0:0:
256,172,65604,1,2,2:1:0:0:
39,271,65762,6,0,L|174:270,1,131.99999597168,4|0,2:3|2:0,2:0:0:0:
377,268,66078,1,10,2:1:0:0:
39,271,66235,5,0,2:0:0:0:
272,348,66393,2,0,L|300:288,1,65.9999979858399,0|0,1:0|1:0,3:0:0:0:
126,176,66551,2,0,L|192:176,1,65.9999979858399,6|4,2:3|2:3,3:1:0:0:
312,272,66709,1,4,2:3:0:0:
358,270,66788,1,4,2:3:0:0:
404,268,66867,1,4,2:3:0:0:
450,266,66946,1,4,2:3:0:0:
496,264,67025,6,0,B|490:217|490:217|468:188|468:188|464:140,1,131.99999597168,4|0,2:0|2:0,2:0:0:0:
380,40,67341,2,0,P|352:116|248:80,1,197.99999395752,10|0,2:0|2:0,2:0:0:0:
224,36,67656,2,0,L|204:184,1,131.99999597168,12|4,2:3|2:3,2:0:0:0:
331,187,67972,2,0,L|313:56,1,131.99999597168,10|0,2:0|2:0,2:0:0:0:
88,72,68288,6,0,L|105:202,1,131.99999597168,12|0,2:3|2:0,2:0:0:0:
188,272,68604,1,10,2:0:0:0:
336,188,68762,1,2,2:0:0:0:
88,72,68920,5,4,2:3:0:0:
88,72,68999,1,4,2:3:0:0:
88,72,69078,1,10,2:0:0:0:
336,188,69235,1,8,2:0:0:0:
188,272,69393,1,10,2:0:0:0:
216,24,69551,1,4,2:0:0:0:
32,312,69709,5,2,2:1:0:0:
249,206,69867,1,8,2:0:0:0:
298,344,70025,1,0,2:0:0:0:
130,232,70183,1,6,2:3:0:0:
130,232,70262,1,4,2:3:0:0:
130,232,70341,1,4,2:3:0:0:
343,262,70499,1,8,2:0:0:0:
186,344,70656,1,6,2:3:0:0:
186,344,70735,1,4,2:3:0:0:
186,344,70814,1,4,2:3:0:0:
274,179,70972,2,0,L|281:113,1,65.9999979858399,4|4,2:3|2:3,2:0:0:0:
96,40,71130,5,6,1:0:0:0:
92,68,71209,1,0,1:0:0:0:
88,96,71288,2,0,L|80:164,1,65.9999979858399,0|0,1:0|1:0,2:0:0:0:
416,344,71446,5,4,2:3:0:0:
420,316,71525,1,4,2:3:0:0:
424,288,71604,1,6,2:3:0:0:
428,260,71683,1,4,2:3:0:0:
432,232,71762,1,6,2:0:0:0:
436,200,71841,1,4,2:3:0:0:
440,176,71920,1,4,2:3:0:0:
444,148,71999,1,4,2:3:0:0:
448,120,72078,1,4,2:0:0:0:
280,56,72235,6,0,B|284:120|284:120|324:60,2,131.99999597168,0|10|0,2:0|2:0|2:0,2:0:0:0:
408,32,72709,1,12,2:3:0:0:
120,240,72867,1,12,2:3:0:0:
120,240,72946,1,4,2:3:0:0:
120,240,73025,2,0,B|184:220|184:220|248:240,1,131.99999597168,10|0,2:0|2:0,2:0:0:0:
357,141,73341,5,12,2:3:0:0:
120,240,73499,1,0,2:0:0:0:
367,301,73656,1,10,2:0:0:0:
201,102,73814,1,0,2:0:0:0:
220,361,73972,1,12,2:3:0:0:
357,141,74130,5,12,2:3:0:0:
120,240,74288,1,10,2:0:0:0:
367,301,74446,1,0,2:0:0:0:
367,301,74525,1,0,2:0:0:0:
367,301,74604,2,0,B|404:248|404:248|376:184,1,131.99999597168,4|0,2:3|2:0,2:0:0:0:
88,48,74920,6,0,P|48:104|152:152,1,197.99999395752,10|0,2:0|2:0,2:0:0:0:
164,152,75235,2,0,P|224:88|324:108,1,197.99999395752,12|0,2:3|2:0,2:0:0:0:
352,124,75551,1,10,2:0:0:0:
236,352,75709,5,10,2:0:0:0:
236,352,75788,1,10,2:0:0:0:
236,352,75867,2,0,L|232:312,1,32.99999899292,10|0,2:1|2:0,2:0:0:0:
176,32,76104,2,0,L|172:72,1,32.99999899292,10|0,2:1|2:0,2:0:0:0:
116,352,76341,2,0,L|112:312,1,32.99999899292,10|0,2:1|2:0,2:0:0:0:
40,108,76499,5,2,1:0:0:0:
37,132,76578,1,0,1:0:0:0:
35,157,76656,1,4,2:3:0:0:
32,181,76735,1,4,2:3:0:0:
30,206,76814,1,4,2:3:0:0:
27,231,76893,1,4,2:3:0:0:
25,255,76972,1,4,2:3:0:0:
22,280,77051,1,4,2:3:0:0:
20,305,77130,6,0,P|88:256|160:280,1,165.000006294251,4|2,2:0|2:0,2:0:0:0:
224,332,77604,1,4,2:3:0:0:
288,380,77762,2,0,P|376:372|432:320,1,165.000006294251,10|4,0:0|2:3,2:0:0:0:
457,244,78235,1,10,0:0:0:0:
228,237,78393,5,4,2:3:0:0:
228,237,78551,2,0,L|211:157,1,82.5000031471254,4|4,2:3|2:3,2:0:0:0:
88,42,79025,5,10,2:0:0:0:
88,42,79183,2,0,L|54:211,1,165.000006294251,10|8,2:0|2:0,2:0:0:0:
24,332,79656,6,0,P|132:296|216:352,1,220,4|8,2:0|2:0,2:0:0:0:
214,349,80130,1,0,2:0:0:0:
376,248,80288,1,4,2:3:0:0:
376,248,80446,1,4,2:3:0:0:
218,145,80604,2,0,L|202:262,1,110,8|0,2:0|2:0,2:0:0:0:
324,344,80920,5,4,2:3:0:0:
324,344,80999,1,4,2:3:0:0:
324,344,81078,1,4,2:3:0:0:
439,93,81235,1,8,2:0:0:0:
218,145,81393,1,8,2:0:0:0:
324,344,81551,5,8,0:0:0:0:
356,336,81630,1,8,0:0:0:0:
384,320,81709,1,4,2:3:0:0:
404,296,81788,1,4,2:3:0:0:
412,264,81867,1,4,2:3:0:0:
404,232,81946,1,4,2:3:0:0:
384,208,82025,1,4,2:3:0:0:
360,188,82104,1,4,2:3:0:0:
328,180,82183,5,4,2:0:0:0:
237,370,82341,1,4,2:3:0:0:
237,370,82499,1,4,2:3:0:0:
204,73,82656,5,4,2:0:0:0:
222,249,82814,1,4,2:3:0:0:
467,193,82972,1,4,2:3:0:0:
170,180,83130,5,4,2:0:0:0:
422,107,83288,1,4,2:3:0:0:
422,107,83446,1,4,2:3:0:0:
281,264,83604,5,4,2:0:0:0:
194,58,83762,1,4,2:3:0:0:
143,326,83920,1,4,2:3:0:0:
403,151,84078,6,0,L|406:103,1,27.5,0|0,1:0|1:0,1:0:0:0:
279,351,84235,2,0,L|277:378,1,27.5,4|4,2:3|2:3,2:0:0:0:
114,172,84393,6,0,B|145:153|145:153|190:142,1,82.5,8|0,2:0|2:0,2:0:0:0:
408,208,84709,6,0,P|256:224|408:300,1,440,4|8,2:1|2:0,2:0:0:0:
416,272,86051,5,8,2:0:0:0:
416,244,86130,1,4,2:3:0:0:
408,216,86209,1,4,2:3:0:0:
392,192,86288,2,0,L|336:156,1,65.9999979858399,8|8,2:0|2:0,3:0:0:0:
148,112,86446,2,0,P|175:92|205:79,1,65.9999979858399,4|4,2:3|2:3,3:0:0:0:
476,44,86604,5,8,2:0:0:0:
468,84,86683,1,8,2:0:0:0:
460,124,86762,1,4,2:3:0:0:
452,164,86841,1,4,2:3:0:0:
444,204,86920,1,4,2:3:0:0:
128,112,87078,5,8,2:0:0:0:
128,112,87156,1,4,2:3:0:0:
128,112,87235,1,4,2:3:0:0:
212,307,87393,1,4,2:3:0:0:
400,37,87551,2,0,B|408:154,1,110,8|0,2:0|2:0,2:0:0:0:
84,228,87867,5,4,2:3:0:0:
84,196,87946,1,4,2:3:0:0:
92,164,88025,1,4,2:3:0:0:
108,136,88104,1,4,2:3:0:0:
128,112,88183,2,0,P|171:140|232:146,1,110,8|4,2:0|2:3,2:0:0:0:
386,107,88499,5,4,2:3:0:0:
188,351,88656,1,4,2:3:0:0:
84,196,88814,2,0,B|73:85,1,110,8|0,2:0|2:0,2:0:0:0:
412,164,89130,5,4,2:3:0:0:
404,196,89209,1,4,2:3:0:0:
396,228,89288,2,0,L|384:104,2,110,4|8|4,2:3|2:0|2:0,2:0:0:0:
408,340,89762,5,4,2:3:0:0:
385,118,89920,1,4,2:3:0:0:
408,340,90078,5,8,2:0:0:0:
311,60,90235,1,0,2:0:0:0:
408,340,90393,5,4,2:3:0:0:
263,182,90551,1,4,2:3:0:0:
408,340,90709,5,8,2:0:0:0:
376,340,90788,1,8,2:0:0:0:
344,340,90867,1,4,2:0:0:0:
312,340,90946,1,4,2:3:0:0:
280,340,91025,5,4,2:3:0:0:
232,44,91183,1,4,2:3:0:0:
404,168,91341,1,8,2:0:0:0:
108,216,91499,1,0,2:0:0:0:
404,216,91656,5,8,2:0:0:0:
372,212,91735,1,8,2:0:0:0:
340,208,91814,2,0,L|240:192,1,55,4|4,2:3|2:3,2:0:0:0:
72,128,91972,2,0,L|172:112,1,55,8|0,2:0|2:0,2:0:0:0:
376,88,92130,2,0,L|276:72,1,55,4|0,2:0|2:0,2:0:0:0:
108,248,92288,6,0,P|172:240|208:272,1,110,4|4,2:3|2:3,2:0:0:0:
224,292,92525,1,4,2:3:0:0:
244,320,92604,2,0,L|356:296,1,110,8|0,2:0|2:0,2:0:0:0:
272,68,92920,5,4,2:3:0:0:
240,68,92999,1,4,2:3:0:0:
208,80,93078,1,4,2:3:0:0:
188,104,93156,1,4,2:3:0:0:
188,136,93235,2,0,B|222:189|222:189|276:220,1,110,8|4,2:0|2:3,2:0:0:0:
419,230,93551,5,4,2:3:0:0:
438,50,93709,1,4,2:3:0:0:
208,80,93867,2,0,P|154:79|97:72,1,110,8|0,2:0|2:0,2:0:0:0:
8,240,94183,1,4,2:3:0:0:
8,240,94262,1,4,2:3:0:0:
8,240,94341,2,0,L|136:232,2,110,4|8|4,2:3|2:0|2:0,2:0:0:0:
229,225,94814,5,4,2:3:0:0:
8,240,94972,1,4,2:3:0:0:
284,248,95130,5,8,2:0:0:0:
8,240,95288,1,0,2:0:0:0:
338,270,95446,5,4,2:3:0:0:
8,240,95604,1,4,2:3:0:0:
392,292,95762,5,8,2:0:0:0:
348,296,95841,1,8,2:0:0:0:
304,300,95920,1,4,2:0:0:0:
260,304,95999,1,4,2:3:0:0:
216,308,96078,5,4,2:3:0:0:
172,52,96235,1,4,2:3:0:0:
451,225,96393,1,8,2:0:0:0:
472,52,96551,1,0,2:0:0:0:
232,140,96709,5,8,2:0:0:0:
276,136,96788,1,8,2:0:0:0:
320,132,96867,1,4,2:3:0:0:
364,128,96946,1,4,2:3:0:0:
408,124,97025,2,0,L|400:64,1,55,12|0,2:0|2:0,2:0:0:0:
165,106,97183,2,0,L|173:46,1,55,0|0,2:0|2:0,2:0:0:0:
400,69,97341,6,0,L|372:56,4,27.5,2|0|0|0|0,2:1|2:0|2:0|2:0|2:0,2:0:0:0:
400,69,98604,5,4,2:0:0:0:
96,156,98762,1,4,2:3:0:0:
96,156,98841,1,4,2:3:0:0:
96,156,98920,1,4,2:3:0:0:
368,284,99078,1,12,2:0:0:0:
368,284,99156,1,0,2:0:0:0:
368,284,99235,2,0,L|352:200,1,55,4|4,2:3|2:3,3:0:0:0:
288,156,99393,2,0,L|272:240,1,55,4|4,2:3|2:3,2:0:0:0:
224,300,99551,6,0,L|236:336,8,27.5,0|0|0|0|0|0|0|0|6,1:0|1:0|1:0|1:0|1:0|1:0|1:0|1:0|1:0,2:0:0:0:
56,232,100025,5,8,2:0:0:0:
146,74,100183,1,4,2:3:0:0:
146,74,100262,1,4,2:3:0:0:
146,74,100341,1,8,2:0:0:0:
222,285,100499,1,4,2:3:0:0:
222,285,100578,1,4,2:3:0:0:
222,285,100657,1,8,2:0:0:0:
303,121,100814,1,4,2:3:0:0:
366,348,100972,1,8,2:0:0:0:
95,58,101130,5,4,2:0:0:0:
75,308,101288,1,8,2:0:0:0:
280,122,101446,1,4,2:3:0:0:
26,199,101604,1,8,2:0:0:0:
432,228,101762,1,4,2:0:0:0:
146,275,101920,6,0,B|135:141,1,131.99999597168,2|4,2:1|2:3,2:1:0:0:
452,314,102235,1,8,2:0:0:0:
250,354,102393,6,0,L|114:346,1,131.99999597168,6|8,2:1|2:0,2:0:0:0:
12,261,102709,1,4,2:3:0:0:
12,261,102788,1,4,2:3:0:0:
12,261,102867,1,8,2:0:0:0:
126,36,103025,1,4,2:3:0:0:
126,36,103104,1,4,2:3:0:0:
126,36,103183,1,8,2:0:0:0:
232,136,103341,6,0,L|384:132,1,131.99999597168,4|8,2:3|2:0,2:0:0:0:
196,208,103656,2,0,L|44:204,1,131.99999597168,4|8,2:3|2:0,2:0:0:0:
232,280,103972,1,4,2:3:0:0:
232,280,104051,1,4,2:3:0:0:
232,280,104130,1,8,2:0:0:0:
140,132,104288,5,2,2:1:0:0:
363,132,104446,1,8,2:0:0:0:
363,276,104604,1,2,2:1:0:0:
232,280,104762,1,8,2:0:0:0:
232,132,104920,5,4,2:3:0:0:
132,284,105078,1,8,2:0:0:0:
363,276,105235,1,4,2:3:0:0:
388,272,105314,1,4,2:3:0:0:
412,268,105393,1,8,2:0:0:0:
132,284,105551,1,4,2:3:0:0:
108,280,105630,1,4,2:3:0:0:
84,276,105709,1,8,2:0:0:0:
332,216,105867,6,0,P|389:183|455:182,1,131.99999597168,4|8,2:3|2:0,2:0:0:0:
184,224,106183,2,0,P|126:191|60:190,1,131.99999597168,4|8,2:3|2:0,2:0:0:0:
247,133,106499,5,4,2:3:0:0:
252,182,106578,1,4,2:3:0:0:
258,231,106656,1,8,2:0:0:0:
264,280,106735,1,8,2:0:0:0:
270,329,106814,2,0,P|348:352|417:338,1,144.375005507469,4|0,2:3|2:0,2:0:0:0:
418,338,107130,5,2,2:0:0:0:
435,263,107209,1,2,2:0:0:0:
451,188,107288,1,2,2:0:0:0:
467,113,107367,1,2,2:0:0:0:
482,37,107446,2,0,L|338:29,1,131.99999597168,6|8,2:1|2:0,2:0:0:0:
284,80,107683,5,0,2:0:0:0:
284,80,107762,2,0,L|140:72,1,131.99999597168,4|8,2:3|2:0,2:0:0:0:
88,116,107999,1,0,2:0:0:0:
88,116,108078,2,0,P|64:180|72:244,1,131.99999597168,4|8,2:3|2:0,2:0:0:0:
338,276,108393,2,0,P|362:212|354:148,1,131.99999597168,4|8,2:3|2:0,2:0:0:0:
238,42,108709,5,4,2:3:0:0:
166,297,108867,1,8,2:0:0:0:
434,131,109025,1,4,2:3:0:0:
161,112,109183,1,8,2:0:0:0:
426,329,109341,1,4,2:3:0:0:
240,116,109499,5,8,2:0:0:0:
263,299,109656,1,4,2:3:0:0:
420,104,109814,2,2,L|442:71,4,32.99999899292,10|2|2|2|6,2:0|2:0|2:0|2:0|2:3,2:0:0:0:
292,192,110130,5,8,2:0:0:0:
152,96,110288,1,4,2:3:0:0:
152,96,110367,1,4,2:3:0:0:
152,96,110446,1,8,2:0:0:0:
80,228,110604,1,4,2:3:0:0:
80,228,110683,1,4,2:3:0:0:
80,228,110762,1,8,2:0:0:0:
176,181,110920,2,0,P|182:246|152:304,1,131.99999597168,4|8,2:3|2:0,2:0:0:0:
45,102,111235,5,4,2:0:0:0:
80,228,111393,1,8,2:0:0:0:
249,50,111551,1,4,2:3:0:0:
284,176,111709,1,8,2:0:0:0:
141,54,111867,1,4,2:0:0:0:
176,180,112025,2,0,P|198:241|250:280,1,131.99999597168,2|4,2:1|2:3,2:1:0:0:
356,276,112341,1,8,2:0:0:0:
480,44,112499,6,0,L|336:36,1,131.99999597168,6|8,2:1|2:0,2:0:0:0:
96,188,112814,1,4,2:3:0:0:
96,188,112893,1,4,2:3:0:0:
96,188,112972,1,8,2:0:0:0:
204,108,113130,2,0,L|348:116,1,131.99999597168,4|8,2:3|2:0,2:0:0:0:
469,248,113446,2,0,L|337:240,1,131.99999597168,4|8,2:3|2:0,2:0:0:0:
228,196,113762,5,4,2:3:0:0:
354,99,113920,1,8,2:0:0:0:
127,39,114078,1,4,2:3:0:0:
127,39,114156,1,4,2:3:0:0:
127,39,114235,1,8,2:0:0:0:
496,96,114393,6,0,P|504:176|472:232,1,123.750004720688,2|0,2:1|2:0,2:1:0:0:
376,284,114551,2,0,P|356:228|368:164,1,123.750004720688,8|0,2:0|2:0,2:0:0:0:
304,88,114709,2,0,P|248:76|172:88,1,123.750004720688,2|0,2:1|2:0,2:1:0:0:
104,128,114867,1,8,2:0:0:0:
342,357,115025,5,4,2:0:0:0:
416,240,115183,5,8,2:0:0:0:
411,199,115262,1,4,2:3:0:0:
406,158,115341,1,4,2:3:0:0:
401,117,115420,1,4,2:3:0:0:
396,76,115499,1,8,2:0:0:0:
94,66,115656,1,4,2:3:0:0:
99,107,115735,1,4,2:3:0:0:
104,148,115814,1,8,2:0:0:0:
496,300,115972,6,0,L|480:152,1,131.99999597168,4|8,2:3|2:0,2:0:0:0:
16,24,116288,2,0,L|32:184,1,131.99999597168,4|8,2:3|2:0,2:0:0:0:
344,280,116604,6,0,L|337:214,1,65.9999979858399,4|4,2:3|2:3,2:0:0:0:
328,140,116762,2,0,L|321:74,1,65.9999979858399,8|0,2:0|2:0,2:0:0:0:
172,52,116920,1,4,2:3:0:0:
175,84,116999,1,4,2:3:0:0:
178,117,117078,1,4,2:3:0:0:
181,150,117156,1,4,2:3:0:0:
185,183,117235,1,8,2:0:0:0:
188,216,117314,1,4,2:3:0:0:
191,249,117393,6,0,P|96:232|124:356,1,263.99999194336,4|4,2:0|2:3,2:0:0:0:
248,336,117867,2,0,P|308:320|376:328,1,131.99999597168,2|0,1:0|2:0,2:0:0:0:
484,256,118183,1,2,2:1:0:0:
348,180,118341,1,4,2:3:0:0:
344,212,118420,1,4,2:3:0:0:
340,244,118499,1,0,1:0:0:0:
480,144,118656,6,0,P|488:56|356:76,1,263.99999194336,4|4,2:0|2:3,2:0:0:0:
252,156,119130,2,0,P|192:128|160:72,1,131.99999597168,2|0,1:0|2:0,2:0:0:0:
24,40,119446,1,2,2:1:0:0:
28,72,119525,1,4,2:3:0:0:
32,104,119604,1,4,2:3:0:0:
36,136,119683,1,4,2:3:0:0:
40,168,119762,1,4,2:3:0:0:
136,256,119920,6,0,P|264:228|392:252,1,263.99999194336,4|4,2:0|2:3,2:0:0:0:
480,228,120393,2,0,L|468:376,1,131.99999597168,2|0,1:0|2:0,2:0:0:0:
200,340,120709,1,6,0:3:0:0:
206,186,120867,1,4,2:3:0:0:
212,32,121025,1,0,1:0:0:0:
0,8,121183,6,0,L|21:271,1,263.99999194336,4|4,2:0|2:3,2:0:0:0:
228,144,121656,2,0,P|184:92|120:80,1,131.99999597168,0|0,1:0|2:0,2:0:0:0:
21,271,121972,6,0,L|0:300,2,32.99999899292,0|0|0,1:0|1:0|1:0,2:0:0:0:
123,79,122130,1,0,1:0:0:0:
100,316,122288,1,0,1:0:0:0:
144,156,122446,6,0,P|256:80|364:132,1,263.99999194336,4|4,2:0|2:3,2:0:0:0:
128,260,122920,2,0,P|72:228|40:160,1,131.99999597168,2|4,1:0|2:3,2:0:0:0:
361,129,123235,5,2,1:0:0:0:
128,260,123393,1,4,2:3:0:0:
132,52,123551,1,0,1:0:0:0:
208,180,123709,6,0,P|278:127|341:252,1,263.99999194336,4|4,2:0|2:3,2:0:0:0:
40,236,124183,1,2,1:0:0:0:
344,248,124341,1,4,2:3:0:0:
204,308,124499,5,2,1:0:0:0:
132,52,124656,1,4,2:3:0:0:
208,180,124814,1,0,1:0:0:0:
40,236,124972,6,0,L|28:104,1,131.99999597168,4|0,2:0|2:0,2:0:0:0:
256,20,125288,1,0,1:0:0:0:
256,20,125367,1,0,1:0:0:0:
256,20,125446,1,4,2:3:0:0:
260,24,125525,1,4,2:3:0:0:
264,28,125604,2,0,L|248:104,1,65.9999979858399,4|4,2:3|2:3,2:3:0:0:
468,324,125762,1,4,2:3:0:0:
466,291,125841,1,4,2:3:0:0:
464,258,125920,1,4,2:3:0:0:
462,225,125999,1,4,2:3:0:0:
460,192,126078,1,8,2:0:0:0:
458,159,126156,1,4,2:3:0:0:
456,126,126235,6,0,L|448:4,1,110,2|0,3:1|2:1,2:0:0:0:
184,152,126551,1,2,3:1:0:0:
184,152,126709,2,0,L|175:29,1,110,2|0,3:1|2:0,2:0:0:0:
328,64,127025,6,0,L|300:144,1,71.4999967269899,2|0,2:0|2:0,2:0:0:0:
48,252,127183,2,0,L|128:236,1,71.4999967269899,2|0,2:0|2:0,2:0:0:0:
328,64,127341,6,0,L|300:144,1,71.4999967269899,2|0,2:0|2:0,2:0:0:0:
40,214,127499,2,0,L|122:213,1,71.4999967269899,2|0,2:0|2:0,2:0:0:0:
384,208,127656,5,4,2:0:0:0:
104,55,127814,1,0,2:0:0:0:
180,245,127972,1,10,2:0:0:0:
224,14,128130,1,0,2:0:0:0:
46,224,128288,5,12,2:3:0:0:
281,261,128446,1,12,2:3:0:0:
141,25,128604,1,10,2:0:0:0:
113,316,128762,1,0,2:0:0:0:
357,101,128920,2,0,L|214:112,1,142.99999345398,12|0,2:3|2:0,2:0:0:0:
44,172,129235,1,10,2:0:0:0:
433,133,129393,1,0,2:0:0:0:
197,37,129551,5,12,2:3:0:0:
225,366,129709,1,12,2:3:0:0:
512,213,129867,2,0,L|369:202,1,142.99999345398,10|0,2:0|2:0,2:0:0:0:
44,172,130183,5,4,2:3:0:0:
378,120,130341,1,2,2:1:0:0:
238,220,130499,1,8,2:0:0:0:
222,49,130656,1,0,2:0:0:0:
328,264,130814,5,6,2:3:0:0:
352,22,130972,1,4,2:3:0:0:
159,170,131130,1,8,2:0:0:0:
73,18,131288,1,2,2:1:0:0:
297,165,131446,6,0,P|367:156|439:158,1,142.99999345398,4|0,2:3|2:0,2:0:0:0:
227,37,131762,1,10,2:1:0:0:
167,350,131920,1,0,2:0:0:0:
72,252,132078,6,0,L|48:184,1,71.4999967269899,0|0,1:0|1:0,2:3:0:0:
156,104,132235,2,0,L|132:172,1,71.4999967269899,6|4,2:3|2:3,2:3:0:0:
72,344,132393,1,4,2:3:0:0:
120,340,132472,1,4,2:3:0:0:
168,336,132551,1,4,2:3:0:0:
216,332,132630,1,4,2:3:0:0:
264,328,132709,5,4,2:0:0:0:
90,251,132867,1,0,2:0:0:0:
332,224,133025,2,0,L|474:236,1,142.99999345398,10|0,2:0|2:0,2:0:0:0:
153,139,133341,2,0,L|11:127,1,142.99999345398,12|4,2:3|2:3,2:0:0:0:
349,242,133656,6,0,L|491:254,1,142.99999345398,10|0,2:0|2:0,2:0:0:0:
150,181,133972,2,0,P|70:187|15:214,1,142.99999345398,12|0,2:3|2:0,2:0:0:0:
410,169,134288,1,10,2:0:0:0:
147,37,134446,1,2,2:0:0:0:
190,246,134604,1,4,2:3:0:0:
464,28,134762,5,10,2:0:0:0:
148,148,134920,1,8,2:0:0:0:
464,28,135078,5,10,2:0:0:0:
100,84,135235,1,4,2:0:0:0:
344,200,135393,5,6,2:3:0:0:
340,156,135472,1,4,2:3:0:0:
336,112,135551,1,8,2:0:0:0:
100,236,135709,5,0,2:0:0:0:
224,56,135867,1,6,2:3:0:0:
224,56,135946,1,4,2:3:0:0:
224,56,136025,1,4,2:3:0:0:
264,296,136183,5,8,2:0:0:0:
48,148,136341,1,6,2:3:0:0:
92,144,136420,1,4,2:3:0:0:
136,140,136499,1,4,2:3:0:0:
40,288,136656,6,0,L|8:360,1,71.4999967269899,4|4,2:3|2:3,2:0:0:0:
132,232,136814,1,6,1:0:0:0:
176,228,136893,1,0,1:0:0:0:
220,224,136972,1,0,1:0:0:0:
264,220,137051,1,0,1:0:0:0:
308,216,137130,6,0,L|308:292,1,71.4999967269899,4|4,2:3|2:3,3:0:0:0:
388,124,137288,2,0,L|388:200,1,71.4999967269899,6|4,2:3|2:3,3:0:0:0:
208,40,137446,1,6,2:2:0:0:
208,68,137525,1,4,2:3:0:0:
208,96,137604,1,4,2:3:0:0:
208,124,137683,1,4,2:3:0:0:
208,152,137762,6,0,B|144:120|144:120|80:152,2,142.99999345398,4|0|10,2:0|2:0|2:0,2:0:0:0:
392,268,138235,1,0,2:0:0:0:
136,304,138393,1,12,2:3:0:0:
220,184,138551,1,12,2:3:0:0:
256,376,138709,1,10,2:0:0:0:
316,168,138867,5,0,2:0:0:0:
181,358,139025,1,12,2:3:0:0:
147,144,139183,1,0,2:0:0:0:
337,375,139341,1,10,2:0:0:0:
229,88,139498,1,0,2:0:0:0:
88,240,139656,1,12,2:3:0:0:
436,191,139814,1,12,2:3:0:0:
88,240,139972,1,10,2:0:0:0:
136,92,140130,5,0,2:0:0:0:
136,92,140209,1,0,2:0:0:0:
136,92,140288,2,0,P|208:52|324:96,1,214.49999018097,4|0,2:3|2:0,2:0:0:0:
419,62,140604,6,0,B|431:173|368:162|382:270,1,214.49999018097,10|0,2:0|2:0,2:0:0:0:
304,333,140920,2,0,P|230:333|166:356,1,142.99999345398,12|4,2:3|2:3,2:0:0:0:
464,280,141235,1,10,2:0:0:0:
132,152,141393,5,10,2:0:0:0:
132,152,141472,1,10,2:0:0:0:
132,152,141551,2,0,L|94:118,1,35.749998363495,10|0,2:1|2:0,2:0:0:0:
304,200,141788,2,0,L|352:184,1,35.749998363495,10|0,2:1|2:0,2:0:0:0:
177,325,142025,2,0,L|166:374,1,35.749998363495,10|0,2:1|2:0,2:0:0:0:
228,76,142183,5,2,1:0:0:0:
223,97,142262,1,0,1:0:0:0:
218,119,142341,1,4,2:3:0:0:
214,141,142420,1,4,2:3:0:0:
209,163,142499,1,4,2:3:0:0:
204,185,142578,1,4,2:3:0:0:
200,207,142656,1,4,2:3:0:0:
195,229,142735,1,4,2:3:0:0:
191,250,142814,6,0,P|304:216|376:336,1,247.500009441376,4|2,2:0|2:0,2:0:0:0:
120,136,143446,2,0,L|104:300,1,165.000006294251,10|4,2:0|3:0,2:0:0:0:
168,360,143920,1,10,2:0:0:0:
377,304,144078,5,4,2:3:0:0:
377,304,144235,2,0,L|361:140,1,165.000006294251,4|0,2:3|2:0,2:0:0:0:
360,131,144630,1,4,2:3:0:0:
359,122,144709,1,10,2:0:0:0:
290,71,144867,6,0,B|246:143|246:143|262:223,1,165.000006294251,10|10,2:0|2:0,2:0:0:0:
176,308,145341,2,0,P|76:264|80:164,1,220,4|8,2:0|2:0,2:0:0:0:
148,88,145814,1,0,2:0:0:0:
184,184,145972,5,4,2:3:0:0:
184,184,146130,1,4,2:3:0:0:
44,76,146288,1,8,2:0:0:0:
44,76,146446,1,0,2:0:0:0:
332,64,146604,1,4,2:3:0:0:
332,64,146683,1,4,2:3:0:0:
332,64,146762,1,4,2:3:0:0:
44,76,146920,5,8,2:0:0:0:
44,76,147078,1,8,2:0:0:0:
332,64,147235,1,8,2:0:0:0:
329,93,147314,1,8,2:0:0:0:
327,122,147393,1,4,2:3:0:0:
325,151,147472,1,4,2:3:0:0:
323,180,147551,1,4,2:3:0:0:
321,209,147630,1,4,2:3:0:0:
319,238,147709,1,4,2:3:0:0:
317,268,147788,1,4,2:3:0:0:
315,297,147867,5,4,2:0:0:0:
466,226,148025,1,4,2:3:0:0:
466,226,148183,1,4,2:3:0:0:
243,172,148341,5,4,2:0:0:0:
192,321,148499,1,4,2:3:0:0:
163,120,148656,1,4,2:3:0:0:
88,367,148814,5,4,2:0:0:0:
59,166,148972,1,4,2:3:0:0:
59,166,149130,1,4,2:3:0:0:
333,111,149288,5,4,2:0:0:0:
143,224,149446,1,4,2:3:0:0:
353,300,149604,1,4,2:3:0:0:
96,104,149762,6,0,L|101:168,1,55,0|0,1:0|1:0,2:0:0:0:
116,364,149920,2,0,L|111:309,1,55,4|4,2:3|2:3,2:0:0:0:
372,188,150078,6,0,B|328:192|328:192|276:176,1,82.5,8|0,2:0|2:0,2:0:0:0:
96,104,150393,6,0,P|219:193|49:183,1,440,4|8,2:1|2:0,2:0:0:0:
96,104,151814,5,4,2:3:0:0:
187,112,151972,1,4,2:3:0:0:
220,196,152130,1,0,1:0:0:0:
160,262,152288,1,4,2:3:0:0:
72,240,152446,1,8,2:0:0:0:
64,152,152604,1,4,3:0:0:0:
140,96,152762,1,4,3:0:0:0:
98,317,152920,5,4,2:0:0:0:
128,252,161762,5,8,2:0:0:0:
128,252,161841,1,8,2:0:0:0:
128,252,161920,1,8,2:0:0:0:
88,52,162078,1,8,2:0:0:0:
36,176,162235,1,8,2:0:0:0:
36,176,162314,1,8,2:0:0:0:
220,216,162472,1,8,2:0:0:0:
220,216,162551,1,8,2:0:0:0:
84,336,162709,1,8,2:0:0:0:
288,268,163025,5,6,2:0:0:0:
220,216,163183,1,2,2:0:0:0:
220,216,163341,2,0,L|232:128,1,82.5000031471254,2|0,2:0|2:0,2:0:0:0:
120,52,163656,2,0,L|142:215,2,165.000006294251,10|0|0,2:0|2:0|1:0,2:0:0:0:
44,128,164446,5,2,2:0:0:0:
120,52,164604,1,2,2:0:0:0:
220,216,164762,1,0,2:0:0:0:
296,140,164920,2,0,L|464:120,2,165.000006294251,10|0|0,2:0|2:0|1:0,2:0:0:0:
220,216,165709,5,2,2:0:0:0:
220,216,165867,2,0,L|184:128,1,82.5000031471254,2|0,2:0|2:0,2:0:0:0:
338,207,166183,2,0,L|276:360,1,165.000006294251,10|0,2:0|2:0,2:0:0:0:
74,171,166814,5,0,1:0:0:0:
188,139,166972,1,0,1:0:0:0:
158,253,167130,1,2,2:0:0:0:
112,88,167288,1,0,1:0:0:0:
68,258,167446,1,10,2:0:0:0:
239,212,167604,1,10,2:0:0:0:
13,174,167762,2,0,P|52:166|95:164,1,82.5000031471254,0|10,2:0|2:0,2:0:0:0:
175,88,168078,6,0,L|158:253,1,165.000006294251,4|2,1:0|2:0,2:0:0:0:
45,95,168551,1,0,2:0:0:0:
96,335,168709,1,8,2:0:0:0:
96,335,168867,1,0,2:0:0:0:
275,316,169025,2,0,P|234:315|193:323,1,82.5000031471254,2|0,2:0|2:0,2:0:0:0:
352,264,169341,6,0,L|380:348,1,82.5000031471254,0|0,1:0|2:0,2:0:0:0:
158,253,169656,2,0,L|166:170,1,82.5000031471254,2|0,2:0|2:0,2:0:0:0:
260,76,169972,2,0,L|242:240,2,165.000006294251,10|2|0,2:0|2:0|1:0,2:0:0:0:
437,101,170762,5,0,2:0:0:0:
437,101,170920,2,0,L|356:88,1,82.5000031471254,2|0,2:0|2:0,2:0:0:0:
12,112,171235,2,0,L|174:138,1,165.000006294251,10|2,2:0|2:0,2:0:0:0:
12,112,171867,5,8,2:0:0:0:
12,112,171946,1,8,2:0:0:0:
12,112,172025,1,8,2:0:0:0:
218,32,172183,1,8,2:0:0:0:
56,211,172341,1,8,2:0:0:0:
56,211,172420,1,8,2:0:0:0:
262,131,172578,1,8,2:0:0:0:
262,131,172656,1,8,2:0:0:0:
69,10,172814,1,8,2:0:0:0:
69,10,172893,1,8,2:0:0:0:
460,76,173130,6,0,P|408:96|332:88,1,110,12|4,2:0|2:3,2:0:0:0:
272,64,173446,1,8,2:0:0:0:
392,8,173604,1,4,2:3:0:0:
352,224,173762,1,8,2:0:0:0:
176,168,173920,1,4,2:3:0:0:
176,168,173999,1,4,2:3:0:0:
176,168,174078,2,0,L|192:48,1,110,8|4,2:0|2:3,2:0:0:0:
48,164,174393,6,0,L|64:284,1,110,8|4,2:0|2:3,2:0:0:0:
456,308,174709,2,0,L|441:198,2,110,8|4|8,2:0|2:3|2:0,2:0:0:0:
74,277,175183,5,4,2:3:0:0:
74,277,175262,1,4,2:3:0:0:
74,277,175341,2,0,L|60:168,1,110,8|4,2:0|2:3,2:0:0:0:
128,84,175656,6,0,P|184:96|236:92,1,110,8|4,2:0|2:3,2:0:0:0:
320,68,175972,1,8,2:0:0:0:
112,92,176130,6,0,L|232:124,1,110,4|8,2:3|2:0,2:0:0:0:
360,208,176446,1,4,2:3:0:0:
216,88,176604,6,0,L|109:59,1,110,8|4,2:0|2:3,2:0:0:0:
12,172,176920,1,8,2:0:0:0:
16,192,176999,1,4,2:3:0:0:
20,212,177078,1,4,2:3:0:0:
200,236,177235,1,8,2:0:0:0:
196,256,177314,1,4,2:3:0:0:
192,276,177393,1,4,2:3:0:0:
352,96,177551,1,8,2:0:0:0:
356,116,177630,1,4,2:3:0:0:
360,136,177709,1,4,2:3:0:0:
364,156,177788,1,4,2:3:0:0:
368,176,177867,2,0,L|400:304,1,110,8|4,2:0|2:3,2:0:0:0:
184,360,178183,5,12,2:0:0:0:
144,96,178341,1,4,2:3:0:0:
60,200,178499,1,8,2:0:0:0:
80,208,178578,1,8,2:0:0:0:
100,212,178656,1,4,2:3:0:0:
120,212,178735,1,4,2:3:0:0:
140,208,178814,2,0,P|200:180|260:184,1,110,8|4,2:0|2:3,2:0:0:0:
144,96,179130,5,8,2:0:0:0:
184,360,179288,1,4,2:3:0:0:
180,68,179446,5,8,2:0:0:0:
184,360,179604,1,4,2:3:0:0:
308,220,179762,1,8,2:0:0:0:
308,220,179841,1,8,2:0:0:0:
308,220,179920,2,0,P|312:160|292:116,1,110,4|8,2:3|2:0,2:0:0:0:
56,284,180235,2,0,L|168:284,1,110,4|8,2:3|2:0,2:0:0:0:
268,320,180551,1,4,2:3:0:0:
16,164,180709,5,12,2:0:0:0:
56,284,180867,1,4,2:3:0:0:
56,92,181025,5,8,2:0:0:0:
56,92,181104,1,8,2:0:0:0:
56,92,181183,1,4,2:3:0:0:
56,284,181341,1,8,2:0:0:0:
196,204,181499,1,4,2:3:0:0:
196,204,181578,1,4,2:3:0:0:
196,204,181656,2,0,P|252:200|300:176,1,110,8|4,2:0|2:3,2:0:0:0:
46,53,181972,6,0,L|57:181,1,110,4|0,2:0|1:0,2:0:0:0:
65,182,182209,1,0,1:0:0:0:
75,201,182288,2,0,L|86:329,1,110,4|4,2:3|2:3,2:0:0:0:
356,256,182604,5,8,2:0:0:0:
313,262,182682,1,0,1:0:0:0:
270,268,182762,2,0,L|206:278,1,55,4|4,2:3|2:3,2:0:0:0:
256,348,182920,1,4,2:3:0:0:
299,342,182999,1,4,2:3:0:0:
342,336,183078,1,8,2:0:0:0:
385,330,183156,1,8,2:0:0:0:
432,324,183235,5,6,2:0:0:0:
448,216,183393,1,2,2:0:0:0:
356,256,183551,5,10,2:0:0:0:
372,148,183709,1,4,2:3:0:0:
448,216,183867,5,2,2:0:0:0:
464,108,184025,1,12,2:3:0:0:
372,148,184183,5,10,2:0:0:0:
388,40,184341,1,0,2:0:0:0:
464,108,184499,5,12,2:3:0:0:
480,0,184656,1,2,2:0:0:0:
296,80,184814,1,10,2:0:0:0:
448,216,184972,5,4,2:3:0:0:
448,216,185051,1,4,2:3:0:0:
448,216,185130,1,4,2:3:0:0:
216,40,185288,1,12,2:3:0:0:
240,264,185446,1,10,2:0:0:0:
388,40,185604,1,2,2:0:0:0:
32,128,185762,5,12,2:3:0:0:
52,120,185841,1,0,2:0:0:0:
72,116,185920,1,0,2:0:0:0:
92,116,185999,1,0,2:0:0:0:
112,120,186078,2,0,L|204:144,1,55,10|0,2:0|2:0,2:0:0:0:
328,176,186235,5,2,2:0:0:0:
356,192,186314,1,0,2:0:0:0:
364,224,186393,1,4,2:3:0:0:
360,256,186472,1,0,2:0:0:0:
344,284,186551,2,0,L|288:300,1,55,12|0,2:3|2:0,2:0:0:0:
104,348,186709,5,10,2:0:0:0:
92,304,186788,1,0,2:0:0:0:
84,260,186867,1,0,2:0:0:0:
72,216,186946,1,0,2:0:0:0:
64,172,187025,2,0,L|54:118,1,55,12|0,2:3|2:0,2:0:0:0:
268,68,187183,2,0,L|258:122,1,55,2|0,2:0|2:0,2:0:0:0:
42,46,187341,1,10,0:0:0:0:
45,60,187420,1,0,0:0:0:0:
48,74,187499,2,0,L|38:20,1,55,4|0,2:3|2:0,2:0:0:0:
184,24,187656,5,8,2:0:0:0:
172,68,187735,1,8,2:0:0:0:
164,112,187814,1,0,1:0:0:0:
152,156,187893,1,0,1:0:0:0:
144,200,187972,2,0,L|128:260,1,55,4|4,2:3|2:3,2:0:0:0:
232,156,188130,2,0,L|248:216,1,55,4|4,2:3|2:3,2:0:0:0:
56,140,188288,5,14,2:0:0:0:
56,140,188367,1,0,2:0:0:0:
56,140,188446,1,4,2:3:0:0:
56,140,188525,1,4,2:3:0:0:
56,140,188604,2,0,L|40:200,1,55,10|0,2:0|2:0,2:0:0:0:
80,56,188762,5,12,2:3:0:0:
80,56,188841,1,0,2:0:0:0:
80,56,188920,1,8,2:0:0:0:
80,56,188999,1,0,2:0:0:0:
80,56,189078,2,0,L|20:72,1,55,12|0,2:3|2:0,2:0:0:0:
168,40,189235,5,10,2:0:0:0:
168,40,189314,1,0,2:0:0:0:
168,40,189393,2,0,L|124:-3,1,55,4|0,2:3|2:0,2:0:0:0:
304,96,189551,5,10,2:0:0:0:
304,96,189630,1,0,2:0:0:0:
304,96,189709,1,4,2:3:0:0:
304,96,189788,1,4,2:3:0:0:
304,96,189867,2,0,L|420:88,1,110,10|12,2:0|2:3,2:0:0:0:
240,16,190183,5,2,1:0:0:0:
204,280,190341,2,0,P|192:240|192:200,1,82.5000031471254,2|0,1:0|2:0,2:0:0:0:
22,339,190656,6,0,P|138:296|271:328,1,263.99999194336,6|4,2:0|2:3,2:0:0:0:
360,236,191130,1,10,2:0:0:0:
128,120,191288,1,0,2:0:0:0:
246,108,191446,1,12,2:3:0:0:
246,108,191525,1,4,2:3:0:0:
246,108,191604,1,4,2:3:0:0:
207,220,191762,1,10,2:0:0:0:
177,44,191920,1,12,2:3:0:0:
134,268,192078,1,0,2:0:0:0:
283,183,192235,5,12,2:3:0:0:
100,46,192393,1,10,2:0:0:0:
134,268,192551,1,0,2:0:0:0:
315,66,192709,2,0,L|248:71,1,65.9999979858399,4|4,2:3|2:3,2:0:0:0:
57,197,192867,2,0,P|117:179|186:177,1,131.99999597168,4|8,2:3|2:0,2:0:0:0:
419,139,193183,6,0,B|396:189|396:189|424:181|424:181|393:209|393:209|421:199|421:199|385:243|374:298,1,263.99999194336,6|4,2:0|2:3,2:0:0:0:
216,340,193656,1,10,2:0:0:0:
220,312,193735,1,0,2:0:0:0:
224,284,193814,2,0,L|232:216,1,65.9999979858399,0|0,2:0|2:0,2:0:0:0:
48,104,193972,1,12,2:3:0:0:
52,132,194051,1,4,2:3:0:0:
56,160,194130,2,0,L|64:228,1,65.9999979858399,4|4,2:3|2:3,2:0:0:0:
180,112,194288,1,10,2:0:0:0:
164,76,194367,1,0,2:0:0:0:
136,48,194446,1,6,2:0:0:0:
100,32,194525,1,0,2:0:0:0:
60,28,194604,6,0,L|24:108,2,87.9999973144532,0|0|0,2:0|2:0|2:0,2:0:0:0:
248,104,194920,2,0,L|212:24,2,87.9999973144532,10|0|0,2:0|2:0|2:0,2:0:0:0:
424,32,195235,2,0,B|396:96|396:96|416:92|416:92|392:128|392:128|412:124|412:124|368:240,1,263.99999194336,12|10,1:3|2:0,2:0:0:0:
256,288,195709,6,0,P|360:240|456:336,1,263.99999194336,6|4,2:0|2:3,2:0:0:0:
140,272,196183,1,10,2:0:0:0:
132,232,196262,1,0,2:0:0:0:
124,192,196341,1,0,2:0:0:0:
344,356,196499,5,4,2:3:0:0:
76,180,196656,1,12,2:3:0:0:
88,240,196735,1,4,2:3:0:0:
100,300,196814,2,0,L|208:224,1,131.99999597168,8|4,2:0|2:3,2:0:0:0:
52,60,197130,5,2,2:0:0:0:
58,90,197209,1,0,2:0:0:0:
64,120,197288,1,4,2:3:0:0:
316,60,197446,1,10,2:0:0:0:
284,36,197525,1,0,2:0:0:0:
248,24,197604,1,0,2:0:0:0:
208,24,197683,1,0,2:0:0:0:
168,32,197762,6,0,L|176:112,1,65.9999979858399,4|4,2:3|2:3,2:0:0:0:
249,106,197920,2,0,L|256:172,1,65.9999979858399,4|4,2:3|2:3,2:0:0:0:
100,88,198078,1,8,2:0:0:0:
100,88,198156,1,0,2:0:0:0:
100,88,198235,2,0,L|108:168,1,65.9999979858399,4|0,2:0|2:0,2:0:0:0:
208,320,198393,5,2,2:0:0:0:
240,308,198472,1,0,2:0:0:0:
272,304,198551,1,4,2:3:0:0:
304,308,198630,1,4,2:3:0:0:
336,320,198709,1,10,2:0:0:0:
364,336,198788,1,0,2:0:0:0:
396,348,198867,1,0,2:0:0:0:
428,348,198946,1,0,2:0:0:0:
460,340,199025,2,0,P|480:316|488:280,1,65.9999979858399,12|4,2:3|2:3,2:0:0:0:
400,192,199183,1,4,2:3:0:0:
400,192,199262,1,4,2:3:0:0:
400,192,199341,2,0,P|380:216|372:252,1,65.9999979858399,10|0,2:0|2:0,2:0:0:0:
484,120,199499,6,0,B|388:76|388:76|396:116|396:116|304:68|164:72|76:176|88:292,1,527.999983886719,6|0,2:0|2:0,2:0:0:0:
368,312,200288,1,10,2:0:0:0:
368,312,200367,1,8,2:0:0:0:
368,312,200446,2,0,P|356:268|336:240,1,65.9999979858399,4|4,0:3|0:3,2:0:0:0:
115,180,200604,6,0,B|168:166|168:166|156:184|156:184|212:158|275:171,1,197.99999395752,6|0,2:0|2:0,2:0:0:0:
368,112,200920,6,0,L|288:104,1,65.9999979858399,2|0,2:0|2:0,2:0:0:0:
88,276,201078,2,0,L|153:282,1,65.9999979858399,2|0,2:0|2:0,2:0:0:0:
376,104,201235,6,0,L|296:96,1,65.9999979858399,2|0,2:0|2:0,2:0:0:0:
80,284,201393,2,0,L|160:292,1,65.9999979858399,2|0,2:0|2:0,2:0:0:0:
384,96,201551,5,2,2:0:0:0:
384,96,201630,1,2,2:0:0:0:
384,96,201709,2,0,L|304:88,1,65.9999979858399,2|0,2:0|2:0,2:0:0:0:
72,292,201867,1,2,2:0:0:0:
392,88,202025,5,2,2:0:0:0:
392,88,202104,1,2,2:0:0:0:
392,88,202183,2,0,L|232:72,1,131.99999597168,4|4,2:3|2:3,2:0:0:0:
144,52,202420,5,4,2:3:0:0:
144,52,202499,1,6,2:0:0:0:
229,268,202656,1,0,2:0:0:0:
357,11,202814,1,12,2:3:0:0:
87,226,202972,1,12,2:3:0:0:
221,65,203130,1,10,2:0:0:0:
347,315,203288,1,0,2:0:0:0:
428,108,203446,5,12,2:3:0:0:
276,363,203604,1,0,2:0:0:0:
148,111,203762,1,10,2:0:0:0:
65,291,203920,1,0,2:0:0:0:
332,233,204078,1,12,2:3:0:0:
39,204,204235,1,12,2:3:0:0:
377,178,204393,2,0,L|509:176,1,131.99999597168,10|0,2:0|2:0,2:0:0:0:
112,166,204709,5,4,2:3:0:0:
166,288,204867,1,2,2:1:0:0:
217,34,205025,1,8,2:0:0:0:
283,177,205183,1,0,2:0:0:0:
95,56,205341,1,6,2:3:0:0:
383,85,205499,1,4,2:3:0:0:
294,351,205656,1,8,2:0:0:0:
206,42,205814,1,2,2:1:0:0:
102,311,205972,6,0,P|168:298|233:298,1,131.99999597168,4|0,2:3|2:0,2:0:0:0:
0,254,206288,1,10,2:1:0:0:
333,135,206446,1,0,2:0:0:0:
52,16,206604,6,0,L|14:76,1,65.9999979858399,8|8,2:0|2:0,2:0:0:0:
104,149,206762,2,0,L|112:84,1,65.9999979858399,6|4,0:3|0:3,2:0:0:0:
208,32,206920,1,4,2:3:0:0:
248,32,206999,1,4,2:3:0:0:
288,40,207078,1,4,2:3:0:0:
324,52,207156,1,4,2:3:0:0:
360,72,207235,1,4,2:0:0:0:
101,191,207393,5,0,2:0:0:0:
286,239,207551,2,0,L|420:248,1,131.99999597168,10|0,2:0|2:0,2:0:0:0:
142,266,207867,2,0,L|10:257,1,131.99999597168,12|4,2:3|0:3,2:0:0:0:
314,313,208183,2,0,L|448:322,1,131.99999597168,10|0,2:0|2:0,2:0:0:0:
130,338,208499,2,0,P|65:337|0:350,1,131.99999597168,12|0,2:3|2:0,2:0:0:0:
246,365,208814,5,10,2:0:0:0:
147,144,208972,1,2,2:0:0:0:
81,265,209130,1,4,2:3:0:0:
178,71,209288,5,10,2:0:0:0:
244,292,209446,1,8,2:0:0:0:
320,30,209604,1,10,2:0:0:0:
52,76,209762,5,4,2:3:0:0:
152,344,209920,1,6,2:3:0:0:
152,344,209999,1,4,2:3:0:0:
152,344,210078,1,8,2:0:0:0:
228,152,210235,5,0,2:0:0:0:
16,184,210393,1,6,2:3:0:0:
16,184,210472,1,4,2:3:0:0:
16,184,210551,1,4,2:3:0:0:
120,240,210709,5,8,2:0:0:0:
144,80,210867,1,6,2:3:0:0:
144,80,210946,1,4,2:3:0:0:
144,80,211025,1,4,2:3:0:0:
16,184,211183,5,0,2:0:0:0:
184,328,211341,1,6,1:0:0:0:
220,312,211420,1,0,1:0:0:0:
260,304,211499,1,0,1:0:0:0:
300,300,211578,1,0,1:0:0:0:
340,300,211656,2,0,L|328:372,1,65.9999979858399,4|4,2:3|2:3,3:0:0:0:
432,256,211814,2,0,L|420:328,1,65.9999979858399,6|4,2:3|2:3,3:0:0:0:
284,132,211972,1,6,2:0:0:0:
278,164,212051,1,4,2:3:0:0:
273,197,212130,1,4,2:3:0:0:
267,229,212209,1,4,2:3:0:0:
262,262,212288,1,4,2:0:0:0:
460,56,212446,5,0,2:0:0:0:
460,56,212525,1,0,2:0:0:0:
460,56,212604,2,0,P|392:56|328:32,1,131.99999597168,10|0,2:0|2:0,2:0:0:0:
112,136,212920,1,12,2:3:0:0:
148,32,213078,1,12,2:3:0:0:
365,245,213235,1,10,2:0:0:0:
320,108,213393,1,0,2:0:0:0:
124,244,213551,5,12,2:3:0:0:
224,92,213709,1,0,2:0:0:0:
259,366,213867,1,10,2:0:0:0:
326,139,214025,1,0,2:0:0:0:
38,176,214183,1,12,2:3:0:0:
428,180,214341,1,12,2:3:0:0:
124,244,214499,2,0,P|172:212|244:212,1,131.99999597168,10|0,2:0|2:0,2:0:0:0:
380,248,214814,6,0,L|352:384,1,131.99999597168,4|0,2:3|2:0,2:0:0:0:
76,296,215130,2,0,L|115:102,1,197.99999395752,10|0,2:0|2:0,2:0:0:0:
176,56,215446,2,0,P|240:72|304:56,1,131.99999597168,12|4,2:3|2:3,2:0:0:0:
446,104,215762,1,10,2:0:0:0:
104,28,215920,5,10,2:0:0:0:
104,28,215999,1,10,2:0:0:0:
104,28,216078,1,2,2:1:0:0:
176,284,216314,1,2,2:1:0:0:
240,28,216551,1,2,2:1:0:0:
56,136,216709,6,0,L|24:132,4,32.99999899292,2|0|0|0|0,1:0|1:0|1:0|1:0|1:0,2:0:0:0:
145,211,216946,1,2,2:1:0:0:
196,64,217183,1,2,2:1:0:0:
76,264,217341,6,0,P|112:324|200:344,1,165.000006294251,4|2,2:0|2:0,2:0:0:0:
280,324,217814,1,4,2:3:0:0:
328,260,217972,2,0,L|328:92,1,165.000006294251,10|4,2:0|3:0,2:0:0:0:
268,40,218446,1,10,2:0:0:0:
96,108,218604,5,4,3:0:0:0:
96,108,218762,2,0,P|160:168|236:164,1,165.000006294251,4|4,3:0|3:0,2:0:0:0:
436,56,219235,1,8,2:0:0:0:
436,56,219393,2,0,L|420:224,1,165.000006294251,8|8,2:0|2:0,2:0:0:0:
364,316,219867,6,0,P|316:340|260:336,1,110,4|0,2:0|2:0,2:0:0:0:
180,302,220183,1,8,2:0:0:0:
363,304,220341,6,0,P|272:251|180:303,1,220,0|4,2:0|2:3,2:0:0:0:
364,292,220814,6,0,B|372:236|372:236|360:184,1,110,8|0,2:0|2:0,2:0:0:0:
308,112,221130,5,4,2:3:0:0:
308,112,221209,1,4,2:3:0:0:
308,112,221288,1,4,2:3:0:0:
252,180,221446,1,8,2:0:0:0:
396,120,221604,1,8,2:0:0:0:
164,48,221762,1,8,0:0:0:0:
160,68,221841,1,8,0:0:0:0:
156,88,221920,2,0,L|140:192,1,55,4|4,2:3|2:3,2:0:0:0:
56,196,222078,1,4,2:3:0:0:
60,216,222156,1,4,2:3:0:0:
64,236,222235,2,0,L|80:340,1,55,8|8,2:0|2:0,2:0:0:0:
136,344,222393,5,4,2:0:0:0:
391,245,222551,1,4,2:3:0:0:
391,245,222709,1,4,2:3:0:0:
158,109,222867,5,4,2:0:0:0:
211,349,223025,1,4,2:3:0:0:
444,182,223183,1,4,2:3:0:0:
373,319,223341,5,4,2:0:0:0:
331,86,223499,1,4,2:3:0:0:
331,86,223656,1,4,2:3:0:0:
184,250,223814,5,4,2:0:0:0:
422,102,223972,1,4,2:3:0:0:
157,27,224130,1,4,2:3:0:0:
103,346,224288,6,0,L|157:344,1,55,8|8,0:0|0:0,2:0:0:0:
347,266,224446,2,0,L|292:267,1,55,4|4,2:3|2:3,2:0:0:0:
108,244,224604,2,0,P|112:200|136:168,1,82.5000031471254,8|0,2:0|2:0,2:0:0:0:
300,188,224920,6,0,P|177:277|347:267,1,440,4|8,2:0|2:0,2:0:0:0:
351,272,226262,1,8,2:0:0:0:
351,272,226341,2,0,L|363:336,1,55,4|4,0:3|0:3,0:3:0:0:
424,180,226499,5,8,0:0:0:0:
424,180,226578,1,8,0:0:0:0:
424,180,226656,2,0,L|436:244,1,55,4|4,2:3|2:3,3:0:0:0:
308,88,226814,6,0,L|287:57,1,27.5,2|0,2:0|2:0,2:0:0:0:
308,88,226893,6,0,L|292:53,1,27.5,2|0,2:0|2:0,2:0:0:0:
308,88,226972,6,0,L|298:51,1,27.5,2|0,2:0|2:0,2:0:0:0:
308,88,227051,6,0,L|305:50,1,27.5,2|0,2:0|2:0,2:0:0:0:
308,88,227130,6,0,L|319:164,1,55,10|0,2:0|2:0,2:0:0:0:
208,218,227288,2,0,L|200:163,1,55,4|0,2:0|2:0,2:0:0:0:
492,52,227446,6,0,P|428:60|364:36,1,131.99999597168,0|4,2:0|2:3,2:0:0:0:
168,96,227762,1,8,2:0:0:0:
244,20,227920,1,0,2:0:0:0:
56,160,228078,1,4,2:3:0:0:
80,172,228156,1,4,2:3:0:0:
104,176,228235,1,4,2:3:0:0:
132,176,228314,1,4,2:3:0:0:
160,172,228393,2,0,B|192:224|192:224|184:296,1,131.99999597168,8|4,2:0|2:3,2:0:0:0:
20,320,228709,5,0,2:0:0:0:
56,160,228867,1,4,2:3:0:0:
56,160,228946,1,4,0:3:0:0:
56,160,229025,2,0,L|88:32,1,131.99999597168,8|0,2:0|2:0,2:0:0:0:
456,224,229341,1,4,2:3:0:0:
456,224,229420,1,4,2:3:0:0:
456,224,229499,2,0,L|424:352,2,131.99999597168,4|8|4,2:3|2:0|2:0,2:0:0:0:
408,112,229972,5,0,2:0:0:0:
456,224,230130,1,4,2:3:0:0:
304,160,230288,5,8,2:0:0:0:
456,224,230446,1,0,2:0:0:0:
232,240,230604,5,4,2:3:0:0:
456,224,230762,1,4,2:3:0:0:
184,336,230920,6,0,L|252:332,1,65.9999979858399,12|0,2:0|2:0,2:0:0:0:
388,264,231078,2,0,L|320:268,1,65.9999979858399,4|0,2:3|2:0,2:0:0:0:
96,288,231235,5,0,2:0:0:0:
248,332,231393,1,4,2:3:0:0:
136,192,231551,5,8,2:0:0:0:
248,332,231709,1,0,2:0:0:0:
216,124,231867,5,8,0:0:0:0:
216,124,231946,1,8,0:0:0:0:
216,124,232025,1,4,2:3:0:0:
216,124,232104,1,4,2:3:0:0:
216,124,232183,2,0,L|224:192,1,65.9999979858399,8|0,2:0|2:0,2:0:0:0:
316,80,232341,2,0,L|308:148,1,65.9999979858399,4|0,2:0|2:0,2:0:0:0:
40,80,232499,5,0,2:0:0:0:
136,192,232656,1,4,2:3:0:0:
136,192,232735,1,4,0:3:0:0:
136,192,232814,2,0,B|124:256|124:256|156:316,1,131.99999597168,8|0,2:0|2:0,2:0:0:0:
436,240,233130,1,4,2:3:0:0:
432,212,233209,1,4,2:3:0:0:
428,184,233288,1,4,2:3:0:0:
424,156,233367,1,4,2:3:0:0:
420,128,233446,2,0,L|396:268,1,131.99999597168,8|4,2:0|2:3,2:0:0:0:
484,80,233762,5,0,2:0:0:0:
312,152,233920,1,4,2:3:0:0:
312,152,233999,1,4,2:3:0:0:
312,152,234078,2,0,P|244:160|188:132,1,131.99999597168,8|0,2:0|2:0,2:0:0:0:
376,39,234393,1,4,2:3:0:0:
376,39,234472,1,4,2:3:0:0:
376,39,234551,2,0,P|311:44|260:84,2,131.99999597168,4|8|4,2:3|2:0|2:0,2:0:0:0:
100,80,235025,5,0,2:0:0:0:
188,132,235183,1,4,2:3:0:0:
168,24,235341,1,8,2:0:0:0:
112,240,235499,1,0,2:0:0:0:
36,136,235656,1,4,2:3:0:0:
232,208,235814,1,4,2:3:0:0:
408,112,235972,1,12,2:0:0:0:
408,112,236051,1,0,2:0:0:0:
408,112,236130,1,4,2:3:0:0:
408,112,236209,1,0,2:0:0:0:
408,112,236288,5,0,2:0:0:0:
271,350,236446,1,4,2:3:0:0:
242,77,236604,1,8,2:0:0:0:
425,280,236762,1,0,2:0:0:0:
158,223,236920,1,8,2:0:0:0:
158,223,236999,1,8,2:0:0:0:
158,223,237078,2,0,L|136:160,1,65.9999979858399,4|4,2:3|2:3,2:0:0:0:
40,320,237235,1,4,2:0:0:0:
104,324,237314,1,2,2:0:0:0:
168,328,237393,1,2,2:0:0:0:
236,332,237472,6,0,P|336:240|157:244,1,412.5,2|4,2:0|2:0,2:0:0:0:
256,192,238735,12,0,243551,2:0:0:0:
