osu file format v14

[General]
AudioFilename: audio.mp3
AudioLeadIn: 0
PreviewTime: 52502
Countdown: 0
SampleSet: Normal
StackLeniency: 0.7
Mode: 0
LetterboxInBreaks: 0
WidescreenStoryboard: 0

[Editor]
DistanceSpacing: 1.1
BeatDivisor: 4
GridSize: 4
TimelineZoom: 2

[Metadata]
Title:Gareki no Yume
TitleUnicode:瓦礫の夢
Artist:Denkishiki Karen Ongaku Shuudan
ArtistUnicode:電気式華憐音楽集団
Creator:Xexxar
Version:Revenge
Source:サクラノモリ†ドリーマーズ
Tags:Sakura no Mori Dreamers moonstone eroge visual novel game opening tv size op
BeatmapID:987953
BeatmapSetID:461291

[Difficulty]
HPDrainRate:5.5
CircleSize:4
OverallDifficulty:8
ApproachRate:10
SliderMultiplier:2.2
SliderTickRate:1

[Events]
//Background and Video events
0,0,"mottoeroge.jpg",0,0
//Break Periods
//Storyboard Layer 0 (Background)
//Storyboard Layer 1 (Fail)
//Storyboard Layer 2 (Pass)
//Storyboard Layer 3 (Foreground)
//Storyboard Sound Samples

[TimingPoints]
6424,375,4,1,0,100,1,0
6424,-66.6666666666667,4,1,0,100,0,0
22174,-200,4,2,0,100,0,0
24424,-285.714285714286,4,2,0,100,0,0
30424,-66.6666666666667,4,1,0,100,0,0
33424,-285.714285714286,4,2,0,100,0,0
36424,-66.6666666666667,4,1,0,100,0,0
41674,-100,4,1,0,100,0,0
42424,-66.6666666666667,4,1,0,100,0,0
51424,-100,4,1,0,100,0,0
52549,-66.6666666666667,4,1,0,100,0,0
52924,-66.6666666666667,4,1,0,100,0,1
64549,-66.6666666666667,4,1,0,100,0,0
64924,-66.6666666666667,4,1,0,100,0,1
76924,-76.9230769230769,4,1,0,100,0,0
79924,-62.5,4,1,0,100,0,0
82924,-76.9230769230769,4,1,0,100,0,0
85924,-62.5,4,1,0,100,0,0
88924,-62.5,4,1,0,100,0,0

[HitObjects]
87,49,6424,6,0,B|75:97|75:97|94:222,1,165.000006294251
111,302,6705,1,0,0:0:0:0:
87,49,6986,1,0,0:0:0:0:
92,211,7174,2,0,P|64:218|37:218,2,55.0000020980836
140,200,7361,1,0,0:0:0:0:
188,220,7455,1,0,0:0:0:0:
210,266,7549,2,0,B|238:295|238:295|380:304,1,165.000006294251
416,223,7830,1,0,0:0:0:0:
408,384,7924,5,0,0:0:0:0:
424,68,8205,1,0,0:0:0:0:
408,384,8486,1,0,0:0:0:0:
355,172,8674,2,0,P|306:158|192:179,1,165.000006294251
129,252,8955,1,0,0:0:0:0:
51,194,9049,1,0,0:0:0:0:
36,164,9111,1,0,0:0:0:0:
29,131,9174,1,0,0:0:0:0:
30,98,9236,1,0,0:0:0:0:
42,67,9299,1,0,0:0:0:0:
63,42,9361,1,0,0:0:0:0:
92,26,9424,6,0,B|155:28|155:28|190:15|190:15|280:18,1,165.000006294251
353,25,9705,1,0,0:0:0:0:
132,126,9986,1,0,0:0:0:0:
310,206,10174,1,0,0:0:0:0:
210,326,10268,2,0,P|153:275|214:258,1,165.000006294251
314,377,10549,1,0,0:0:0:0:
309,126,10736,1,0,0:0:0:0:
310,206,10830,1,0,0:0:0:0:
239,168,10924,6,0,B|199:143|199:143|75:146,1,165.000006294251
24,224,11205,1,0,0:0:0:0:
308,46,11486,1,0,0:0:0:0:
437,170,11674,2,0,P|451:256|430:336,1,165.000006294251
335,363,11955,1,0,0:0:0:0:
279,248,12049,2,0,L|281:185,2,55.0000020980836
216,358,12236,2,0,P|191:368|159:374,2,55.0000020980836
61,279,12424,6,0,P|44:240|60:174,1,82.5000031471254
79,103,12611,1,0,0:0:0:0:
84,96,12705,2,0,L|170:88,1,82.5000031471254
282,17,12892,1,0,0:0:0:0:
347,87,12986,2,0,L|433:82,1,82.5000031471254
416,314,13174,5,0,0:0:0:0:
416,314,13267,1,0,0:0:0:0:
416,314,13361,2,0,P|427:274|417:217,1,82.5000031471254
262,94,13549,2,0,L|263:178,1,82.5000031471254
196,359,13736,2,0,P|162:370|109:361,1,82.5000031471254
20,276,13924,5,0,0:0:0:0:
29,194,14017,1,0,0:0:0:0:
34,111,14111,1,0,0:0:0:0:
22,29,14205,1,0,0:0:0:0:
97,60,14299,2,0,B|114:100|114:100|105:177,1,82.5000031471254
337,60,14486,1,0,0:0:0:0:
337,60,14861,6,0,P|350:105|346:155,1,82.5000031471254
202,325,15049,2,0,L|97:333,1,82.5000031471254
375,273,15236,2,0,L|480:281,1,82.5000031471254
147,235,15424,5,0,0:0:0:0:
75,194,15517,1,0,0:0:0:0:
63,112,15611,1,0,0:0:0:0:
107,42,15705,1,0,0:0:0:0:
187,24,15799,2,0,L|281:29,1,82.5000031471254
0,18,15986,1,0,0:0:0:0:
0,18,16361,5,0,0:0:0:0:
14,56,16455,1,0,0:0:0:0:
42,86,16549,2,0,P|76:166|56:278,1,165.000006294251
16,324,16830,1,0,0:0:0:0:
22,329,16924,6,0,L|141:340,1,82.5000031471254
269,343,17111,1,0,0:0:0:0:
348,286,17205,2,0,L|445:295,1,82.5000031471254
359,151,17392,1,0,0:0:0:0:
354,144,17486,2,0,P|348:90|360:56,1,82.5000031471254
504,255,17674,5,0,0:0:0:0:
504,255,17767,1,0,0:0:0:0:
504,255,17861,2,0,P|510:309|498:343,1,82.5000031471254
312,368,18049,2,0,L|206:371,1,82.5000031471254
3,316,18236,2,0,L|109:313,1,82.5000031471254
268,288,18424,5,0,0:0:0:0:
289,209,18517,1,0,0:0:0:0:
266,129,18611,1,0,0:0:0:0:
299,53,18705,1,0,0:0:0:0:
216,61,18799,1,0,0:0:0:0:
410,353,18986,1,0,0:0:0:0:
410,353,19361,1,0,0:0:0:0:
317,372,19455,5,0,0:0:0:0:
414,347,19549,2,0,P|427:302|418:234,1,82.5000031471254
311,210,19736,2,0,L|225:215,1,82.5000031471254
79,344,19924,5,0,0:0:0:0:
32,276,20017,1,0,0:0:0:0:
23,193,20111,1,0,0:0:0:0:
54,116,20205,1,0,0:0:0:0:
20,40,20299,1,0,0:0:0:0:
168,372,20486,1,0,0:0:0:0:
168,372,20861,6,0,L|265:376,1,82.5000031471254
381,347,21049,1,0,0:0:0:0:
403,323,21111,1,0,0:0:0:0:
417,292,21174,1,0,0:0:0:0:
430,250,21236,1,0,0:0:0:0:
430,205,21299,1,0,0:0:0:0:
422,162,21361,1,0,0:0:0:0:
402,121,21424,5,0,0:0:0:0:
402,121,22174,1,0,0:0:0:0:
440,37,22549,1,0,0:0:0:0:
364,203,22924,2,0,L|373:306,1,82.5
379,380,23486,1,0,0:0:0:0:
280,180,23674,2,0,L|286:260,1,55
296,361,23955,1,0,0:0:0:0:
273,99,24236,1,0,0:0:0:0:
208,309,24424,6,0,B|176:331|176:331|54:339,1,153.999995300293
61,338,25361,1,0,0:0:0:0:
19,260,25549,1,0,0:0:0:0:
91,50,25924,1,0,0:0:0:0:
91,50,26674,1,0,0:0:0:0:
79,147,26861,1,0,0:0:0:0:
219,306,27049,1,0,0:0:0:0:
231,209,27236,1,0,0:0:0:0:
369,123,27424,5,0,0:0:0:0:
369,123,28174,2,0,P|377:151|378:170,1,38.4999988250733
376,257,28549,2,0,L|372:306,1,38.4999988250733
466,210,28924,2,0,P|480:178|469:121,1,76.9999976501466
313,31,29674,1,0,0:0:0:0:
313,31,29861,1,0,0:0:0:0:
310,163,30049,1,0,0:0:0:0:
182,273,30236,1,0,0:0:0:0:
98,28,30424,6,0,L|88:203,1,165.000006294251
85,275,30705,1,0,0:0:0:0:
79,357,30799,1,0,0:0:0:0:
153,322,30892,2,0,P|230:307|324:338,1,165.000006294251
386,368,31174,2,0,B|414:340|414:340|424:222,1,82.5000031471254
426,170,31361,1,0,0:0:0:0:
426,170,31455,1,0,0:0:0:0:
426,170,32111,5,0,0:0:0:0:
356,214,32205,1,0,0:0:0:0:
284,254,32299,1,0,0:0:0:0:
220,201,32392,2,0,B|199:148|199:148|204:34,1,165.000006294251
279,4,32674,1,0,0:0:0:0:
270,355,32861,1,0,0:0:0:0:
270,355,32955,1,0,0:0:0:0:
31,198,33424,6,0,P|18:130|45:42,1,153.999995300293
129,21,34361,1,0,0:0:0:0:
191,94,34549,2,0,L|189:180,1,76.9999976501466
187,266,35111,1,0,0:0:0:0:
210,248,35299,1,0,0:0:0:0:
120,219,35486,1,0,0:0:0:0:
302,270,35674,2,0,P|304:290|303:319,1,38.4999988250733
219,357,36049,1,0,0:0:0:0:
387,363,36236,1,0,0:0:0:0:
392,64,36424,6,0,L|391:252,1,165.000006294251
440,295,36705,1,0,0:0:0:0:
476,220,36799,1,0,0:0:0:0:
391,228,36892,2,0,P|294:244|209:220,1,165.000006294251
150,256,37174,2,0,B|132:294|132:294|133:344,1,82.5000031471254
123,112,37361,1,0,0:0:0:0:
123,112,37455,1,0,0:0:0:0:
123,112,38111,5,0,0:0:0:0:
204,100,38205,1,0,0:0:0:0:
285,88,38299,1,0,0:0:0:0:
254,164,38392,2,0,P|245:221|281:341,1,165.000006294251
348,353,38674,2,0,L|441:354,1,82.5000031471254
111,352,38861,1,0,0:0:0:0:
111,352,38955,1,0,0:0:0:0:
111,352,39049,2,0,P|79:360|46:361,2,55.0000020980836
176,284,39236,6,0,P|200:205|176:97,1,165.000006294251
134,50,39517,1,0,0:0:0:0:
197,127,39611,2,0,L|290:130,1,82.5000031471254
127,360,39986,5,0,0:0:0:0:
176,284,40079,1,0,0:0:0:0:
122,366,40173,2,0,P|77:376|39:371,1,82.5000031471254
446,187,40549,5,0,0:0:0:0:
429,313,40642,1,0,0:0:0:0:
447,180,40736,2,0,L|446:85,1,82.5000031471254
68,85,41111,5,0,0:0:0:0:
194,56,41205,1,0,0:0:0:0:
63,92,41299,2,0,P|52:131|61:197,1,82.5000031471254
126,282,41486,2,0,L|230:285,1,82.5000031471254
382,282,41674,6,0,P|430:179|397:49,2,220
293,284,42517,1,0,0:0:0:0:
388,290,42611,2,0,L|483:295,1,82.5000031471254
97,266,42986,5,0,0:0:0:0:
189,234,43079,1,0,0:0:0:0:
92,269,43174,2,0,L|-3:274,1,82.5000031471254
414,173,43549,5,0,0:0:0:0:
297,150,43642,1,0,0:0:0:0:
422,176,43736,2,0,L|517:181,1,82.5000031471254
92,86,44111,5,0,0:0:0:0:
224,46,44205,1,0,0:0:0:0:
82,90,44299,2,0,L|-13:95,1,82.5000031471254
173,141,44486,2,0,P|194:176|191:240,1,82.5000031471254
63,351,44674,5,0,0:0:0:0:
63,351,45424,5,0,0:0:0:0:
144,354,45517,1,0,0:0:0:0:
226,357,45611,2,0,P|244:321|248:245,1,82.5000031471254
47,29,45986,5,0,0:0:0:0:
46,119,46079,1,0,0:0:0:0:
46,209,46173,2,0,P|90:219|142:205,1,82.5000031471254
415,198,46549,5,0,0:0:0:0:
373,69,46642,1,0,0:0:0:0:
417,206,46736,2,0,P|428:265|421:314,1,82.5000031471254
55,24,47111,5,0,0:0:0:0:
247,18,47205,1,0,0:0:0:0:
47,29,47299,2,0,P|35:68|40:114,1,82.5000031471254
177,196,47486,2,0,L|272:192,1,82.5000031471254
377,94,47674,2,0,L|282:98,1,82.5000031471254
18,190,47861,2,0,P|6:230|11:273,1,82.5000031471254
146,343,48049,1,0,0:0:0:0:
244,347,48142,1,0,0:0:0:0:
343,351,48236,1,0,0:0:0:0:
442,356,48330,1,0,0:0:0:0:
393,269,48424,5,0,0:0:0:0:
381,170,48986,1,0,0:0:0:0:
406,74,49549,1,0,0:0:0:0:
475,144,50111,1,0,0:0:0:0:
314,101,50674,5,0,0:0:0:0:
221,65,50861,1,0,0:0:0:0:
236,162,51049,1,0,0:0:0:0:
204,255,51236,1,0,0:0:0:0:
391,35,51424,6,0,B|408:78|408:78|397:203,1,165
230,356,51986,1,0,0:0:0:0:
236,162,52174,1,0,0:0:0:0:
76,259,52361,2,0,L|10:261,1,55
307,302,52549,6,0,P|319:265|307:214,1,82.5000031471254
82,48,52736,2,0,L|-3:52,1,82.5000031471254
408,129,52924,5,0,0:0:0:0:
408,129,53017,2,0,P|431:178|413:318,1,165.000006294251
282,372,53299,2,0,L|200:375,1,82.5000031471254
76,281,53486,1,0,0:0:0:0:
113,120,53580,1,0,0:0:0:0:
70,275,53674,2,0,L|61:182,1,82.5000031471254
165,57,53861,6,0,B|187:94|187:94|191:142,1,82.5000031471254
100,364,54049,2,0,L|17:368,1,82.5000031471254
207,323,54236,2,0,L|291:321,1,82.5000031471254
461,275,54424,5,0,0:0:0:0:
469,267,54517,2,0,P|489:204|466:80,1,165.000006294251
427,25,54799,2,0,L|333:22,1,82.5000031471254
281,234,54986,1,0,0:0:0:0:
276,70,55080,1,0,0:0:0:0:
285,227,55174,2,0,P|297:188|291:143,1,82.5000031471254
199,29,55361,6,0,P|156:27|112:41,1,82.5000031471254
33,201,55549,2,0,L|51:374,1,165.000006294251
144,384,55830,1,0,0:0:0:0:
121,231,55924,6,0,L|110:144,1,82.5000031471254
101,50,56111,1,0,0:0:0:0:
201,201,56205,2,0,B|206:244|206:244|180:289,1,82.5000031471254,0|0,0:3|0:3,0:3:0:0:
44,299,56392,1,0,0:0:0:0:
234,345,56486,2,0,B|275:369|275:369|401:375,1,165.000006294251,0|0,0:3|0:3,0:3:0:0:
468,314,56767,1,0,0:0:0:0:
335,193,56861,6,0,P|327:156|344:99,1,82.5000031471254
430,25,57049,2,0,L|522:30,1,82.5000031471254
370,272,57236,2,0,P|329:276|289:267,1,82.5000031471254
43,21,57424,5,0,0:0:0:0:
34,31,57517,2,0,B|11:79|11:79|16:214,1,165.000006294251
93,337,57799,2,0,P|176:353|267:347,1,165.000006294251
327,283,58080,2,0,B|339:244|339:244|329:183,1,82.5000031471254
304,116,58267,1,0,0:0:0:0:
350,37,58361,1,0,0:0:0:0:
439,19,58455,1,0,0:0:0:0:
508,77,58549,6,0,P|521:118|511:167,2,55.0000020980836
261,37,58736,2,0,L|149:45,1,82.5000031471254
417,129,58924,5,0,0:0:0:0:
427,142,59017,2,0,B|449:187|449:187|444:328,1,165.000006294251
255,349,59299,2,0,P|208:357|163:350,1,82.5000031471254
216,120,59486,1,0,0:0:0:0:
225,115,59580,2,0,B|268:101|268:101|423:105,1,165.000006294251
145,155,59861,6,0,P|136:130|154:64,1,82.5000031471254
305,197,60049,1,0,0:0:0:0:
305,197,60142,1,0,0:0:0:0:
305,197,60236,2,0,L|303:294,1,82.5000031471254
72,289,60424,5,0,0:0:0:0:
19,223,60517,2,0,P|13:154|30:111,1,82.5000031471254
135,16,60705,1,0,0:0:0:0:
223,20,60799,2,0,L|322:24,1,82.5000031471254
370,242,60986,2,0,P|410:252|521:171,1,165.000006294251
421,159,61267,1,0,0:0:0:0:
323,318,61361,6,0,L|194:328,1,82.5000031471254
56,309,61549,2,0,P|44:270|62:212,1,82.5000031471254
117,118,61736,2,0,P|120:94|112:54,2,55.0000020980836
168,240,61924,5,0,0:0:0:0:
178,246,62017,2,0,L|379:229,1,165.000006294251
415,46,62299,2,0,P|451:145|412:220,1,165.000006294251
414,288,62580,1,0,0:0:0:0:
414,288,62674,1,0,0:0:0:0:
34,62,62955,5,0,0:0:0:0:
29,70,63049,2,0,P|10:146|36:251,1,165.000006294251
83,311,63330,1,0,0:0:0:0:
90,317,63424,6,0,L|265:321,1,165.000006294251
352,218,63705,1,0,0:0:0:0:
414,288,63799,2,0,P|425:324|414:367,1,82.5000031471254
178,294,63986,1,0,0:0:0:0:
142,210,64080,1,0,0:0:0:0:
162,121,64174,1,0,0:0:0:0:
229,61,64267,1,0,0:0:0:0:
319,51,64361,1,0,0:0:0:0:
391,105,64455,1,0,0:0:0:0:
432,186,64549,6,0,P|469:194|522:182,1,82.5000031471254
130,38,64736,2,0,P|98:60|75:109,1,82.5000031471254
93,353,64924,6,0,B|126:378|126:378|236:382,1,82.5000031471254
354,381,65111,1,0,0:0:0:0:
427,316,65205,2,0,L|513:319,1,82.5000031471254
309,225,65392,1,0,0:0:0:0:
302,214,65486,2,0,P|296:181|313:118,1,82.5000031471254
503,30,65674,1,0,0:0:0:0:
500,111,65767,1,0,0:0:0:0:
450,177,65861,6,0,P|494:195|554:176,1,82.5000031471254
321,338,66049,2,0,L|209:343,1,82.5000031471254
55,286,66236,2,0,P|36:250|42:196,1,82.5000031471254
263,22,66424,6,0,B|292:58|292:58|299:215,1,165.000006294251
424,330,66705,2,0,P|462:338|508:333,1,82.5000031471254
275,260,66892,1,0,0:0:0:0:
238,341,66986,2,0,L|144:345,1,82.5000031471254
17,204,67174,1,0,0:0:0:0:
17,122,67267,1,0,0:0:0:0:
16,39,67361,6,0,P|51:24|103:27,1,82.5000031471254
154,262,67549,2,0,L|155:359,1,82.5000031471254
184,128,67736,2,0,B|185:87|185:87|231:32,1,82.5000031471254
421,57,67924,6,0,B|445:91|445:91|445:189,1,82.5000031471254
448,288,68111,1,0,0:0:0:0:
327,371,68205,2,0,P|288:377|207:351,1,82.5000031471254
155,262,68392,1,0,0:0:0:0:
285,223,68486,2,0,P|291:181|280:129,1,82.5000031471254
81,53,68674,1,0,0:0:0:0:
81,53,68767,1,0,0:0:0:0:
81,53,68861,6,0,P|37:49|-17:60,1,82.5000031471254
149,263,69049,2,0,P|158:303|148:360,1,82.5000031471254
234,47,69236,2,0,P|276:37|320:40,1,82.5000031471254
459,211,69424,6,0,B|464:264|464:264|439:316|439:316|446:378,2,165.000006294251
447,114,69892,1,0,0:0:0:0:
373,262,69986,2,0,B|356:299|356:299|361:343,1,82.5000031471254
259,177,70174,1,0,0:0:0:0:
303,60,70267,1,0,0:0:0:0:
254,187,70361,2,0,L|160:190,1,82.5000031471254
22,301,70549,6,0,P|11:341|15:382,1,82.5000031471254
210,104,70736,2,0,P|218:63|209:22,1,82.5000031471254
211,332,70924,6,0,B|259:349|259:349|426:347,1,165.000006294251
477,224,71205,2,0,P|488:184|480:124,1,82.5000031471254
447,57,71392,1,0,0:0:0:0:
373,265,71486,2,0,L|372:367,1,82.5000031471254
266,157,71674,1,0,0:0:0:0:
210,85,71767,1,0,0:0:0:0:
124,117,71861,6,0,P|85:128|36:117,1,82.5000031471254
347,112,72049,2,0,P|361:160|345:207,1,82.5000031471254
203,329,72236,1,0,0:0:0:0:
113,339,72330,1,0,0:0:0:0:
23,350,72424,6,0,P|-8:280|21:174,1,165.000006294251
352,361,72705,2,0,L|456:366,1,82.5000031471254
263,257,72892,1,0,0:0:0:0:
202,184,72986,2,0,P|194:158|205:92,1,82.5000031471254
359,36,73174,1,0,0:0:0:0:
359,36,73267,1,0,0:0:0:0:
359,36,73361,6,0,P|399:30|438:42,1,82.5000031471254
352,361,73549,2,0,L|262:365,1,82.5000031471254
6,315,73736,2,0,L|96:311,1,82.5000031471254
305,281,73924,5,0,0:0:0:0:
333,195,74017,1,0,0:0:0:0:
290,114,74111,2,0,P|281:71|297:18,1,82.5000031471254
133,217,74299,2,0,L|30:220,1,82.5000031471254
401,270,74486,2,0,L|504:273,1,82.5000031471254
95,304,74674,2,0,P|87:344|100:393,1,82.5000031471254
269,221,74861,2,0,P|276:187|264:120,1,82.5000031471254
112,60,75049,2,0,L|9:57,1,82.5000031471254
16,279,75236,5,0,0:0:0:0:
23,170,75330,1,0,0:0:0:0:
16,292,75424,6,0,B|52:313|52:313|199:321,1,165.000006294251
269,221,75705,1,0,0:0:0:0:
384,279,75799,2,0,P|394:319|384:364,1,82.5000031471254
16,292,75986,2,0,P|6:252|16:207,1,82.5000031471254
132,13,76174,5,0,0:0:0:0:
221,18,76267,1,0,0:0:0:0:
311,24,76361,1,0,0:0:0:0:
401,30,76455,1,0,0:0:0:0:
491,36,76549,2,0,P|503:85|492:131,1,82.5000031471254
13,116,76736,2,0,P|9:75|21:35,1,82.5000031471254
256,336,76924,6,0,B|300:352|300:352|435:336,1,142.99999345398
173,248,77205,2,0,P|137:302|148:384,1,142.99999345398
312,243,77486,2,0,L|303:132,1,71.4999967269899
79,59,77674,6,0,L|242:50,1,142.99999345398
19,156,77955,2,0,P|5:233|23:316,1,142.99999345398
107,347,78236,2,0,L|182:343,1,71.4999967269899
406,242,78424,6,0,B|412:205|412:205|390:130,1,71.4999967269899
340,106,78611,1,0,0:0:0:0:
335,304,78705,2,0,B|369:332|369:332|490:340,1,142.99999345398
273,245,78986,2,0,P|252:284|253:326,1,71.4999967269899
502,266,79174,6,0,P|520:154|495:57,1,214.49999018097
335,304,79549,2,0,L|335:361,2,47.6666644846599
422,203,79736,2,0,P|426:167|408:95,1,71.4999967269899
17,57,79924,5,0,0:0:0:0:
63,139,80017,2,0,P|81:220|56:340,1,176
160,351,80299,2,0,L|254:354,1,88
370,337,80486,1,0,0:0:0:0:
316,234,80580,1,0,0:0:0:0:
432,235,80674,5,0,0:0:0:0:
308,234,80767,2,0,B|283:174|283:174|296:55,1,176
445,15,81049,1,0,0:0:0:0:
439,125,81142,1,0,0:0:0:0:
432,235,81236,1,0,0:0:0:0:
370,337,81330,2,0,P|411:353|472:346,1,88
178,335,81517,2,0,B|140:373|140:373|5:377,1,176
225,263,81799,2,0,P|236:222|224:161,1,88
8,66,81986,2,0,L|120:63,1,88
317,73,82174,5,0,0:0:0:0:
365,147,82267,2,0,P|384:247|346:339,1,176
178,335,82549,1,0,0:0:0:0:
143,336,82611,1,0,0:0:0:0:
107,337,82674,1,0,0:0:0:0:
72,338,82736,1,0,0:0:0:0:
31,303,82799,1,0,0:0:0:0:
21,251,82861,1,0,0:0:0:0:
44,203,82924,6,0,B|57:159|57:159|22:28,1,142.99999345398
100,262,83205,2,0,L|200:260,1,71.4999967269899
135,138,83392,1,0,0:0:0:0:
263,196,83486,2,0,P|283:263|275:320,1,71.4999967269899
140,360,83674,6,0,L|42:363,1,71.4999967269899
360,333,83861,2,0,L|458:330,1,71.4999967269899
491,208,84049,1,0,0:0:0:0:
491,78,84142,1,0,0:0:0:0:
490,218,84236,2,0,P|454:225|393:214,1,71.4999967269899
308,22,84424,6,0,L|309:184,1,142.99999345398
278,294,84705,2,0,P|242:307|166:299,1,71.4999967269899
61,240,84892,1,0,0:0:0:0:
56,232,84986,2,0,P|51:178|63:129,1,71.4999967269899
165,24,85174,6,0,L|364:20,2,142.99999345398
42,69,85642,1,0,0:0:0:0:
140,158,85736,1,0,0:0:0:0:
221,110,85830,1,0,0:0:0:0:
190,239,85924,5,0,0:0:0:0:
272,187,86017,2,0,P|316:172|393:205,1,88
414,309,86205,1,0,0:0:0:0:
324,268,86299,2,0,P|316:312|328:354,1,88
465,189,86486,2,0,L|467:101,1,88
274,82,86674,5,0,0:0:0:0:
420,44,86767,1,0,0:0:0:0:
263,85,86861,2,0,B|251:128|251:128|264:184,1,88
328,354,87049,5,0,0:0:0:0:
512,328,87142,1,0,0:0:0:0:
320,356,87236,2,0,B|276:363|276:363|203:348,1,88
37,263,87424,5,0,0:0:0:0:
107,367,87517,1,0,0:0:0:0:
34,256,87611,2,0,P|24:204|37:156,1,88
191,11,87799,6,0,L|188:132,1,88
241,362,87986,2,0,B|284:371|284:371|328:364,1,88
426,161,88174,5,0,0:0:0:0:
427,369,88267,1,0,0:0:0:0:
425,144,88361,2,0,L|424:34,1,88
275,207,88549,5,0,0:0:0:0:
429,270,88642,1,0,0:0:0:0:
192,265,88736,5,0,0:0:0:0:
457,270,88830,1,0,0:0:0:0:
182,161,88924,5,0,0:0:0:0:
