osu file format v14

[General]
AudioFilename: Audio.mp3
AudioLeadIn: 0
PreviewTime: 116548
Countdown: 0
SampleSet: Soft
StackLeniency: 0.2
Mode: 0
LetterboxInBreaks: 0
EpilepsyWarning: 1
WidescreenStoryboard: 1

[Editor]
DistanceSpacing: 1.1
BeatDivisor: 6
GridSize: 4
TimelineZoom: 2.799999

[Metadata]
Title:Gareki no Yume
TitleUnicode:瓦礫の夢
Artist:Denkishiki Karen Ongaku Shuudan
ArtistUnicode:電気式華憐音楽集団
Creator:Dored
Version:Otosaka's Debris Extra
Source:サクラノモリ†ドリーマーズ
Tags:Sakura no Mori Dreamers Denkare Japanese Metal Rock Jrock J-rock Eroge Galgame Visual Novel Video Game VN Opening OP Full Version Moonstone Misure LMT Otosaka-Yu Suzuki_1112 Lunala Rin Sa Rin_Sa Bellicose yf_bmp
BeatmapID:2197053
BeatmapSetID:1037741

[Difficulty]
HPDrainRate:5
CircleSize:4
OverallDifficulty:9
ApproachRate:9.5
SliderMultiplier:2.2
SliderTickRate:1

[Events]
//Background and Video events
0,0,"Madoka.jpg",0,0
//Break Periods
//Storyboard Layer 0 (Background)
//Storyboard Layer 1 (Fail)
//Storyboard Layer 2 (Pass)
//Storyboard Layer 3 (Foreground)
Sprite,Foreground,Centre,"SB\output\004F_2S.png",0,0 MX,0,15121,18121,574.5 MY,0,15121,18121,292 S,0,15121,,0.4 F,0,15121,,1 MX,0,14371,,583.5 MY,0,14371,,300 F,0,14371,,0.1 F,0,14427,,0 MX,0,14483,,575.5 MY,0,14483,,283 F,0,14483,,0.1 F,0,14539,,0 MX,0,14595,,575.5 MY,0,14595,,302 F,0,14595,,0.1 F,0,14651,,0 MX,0,14707,,572.5 MY,0,14707,,303 F,0,14707,,0.1 F,0,14763,,0 MX,0,14819,,569.5 MY,0,14819,,287 F,0,14819,,0.1 F,0,14875,,0 MX,0,14931,,573.5 MY,0,14931,,294 F,0,14931,,0.1 F,0,14987,,0 MX,0,15043,,573.5 MY,0,15043,,300 F,0,15043,,0.1 F,0,15099,,0
Sprite,Foreground,Centre,"SB\output\0074_2S.png",0,0 MX,0,15121,18121,587.9445 MY,0,15121,18121,292 S,0,15121,,0.4 F,0,15121,,1 MX,0,14371,,597.9445 MY,0,14371,,306 F,0,14371,,0.1 F,0,14405,,0 MX,0,14439,,591.9445 MY,0,14439,,286 F,0,14439,,0.1 F,0,14473,,0 MX,0,14507,,595.9445 MY,0,14507,,301 F,0,14507,,0.1 F,0,14541,,0 MX,0,14575,,598.9445 MY,0,14575,,280 F,0,14575,,0.1 F,0,14609,,0 MX,0,14643,,591.9445 MY,0,14643,,292 F,0,14643,,0.1 F,0,14677,,0 MX,0,14711,,595.9445 MY,0,14711,,295 F,0,14711,,0.1 F,0,14745,,0 MX,0,14779,,587.9445 MY,0,14779,,284 F,0,14779,,0.1 F,0,14813,,0 MX,0,14847,,581.9445 MY,0,14847,,291 F,0,14847,,0.1 F,0,14881,,0 MX,0,14915,,584.9445 MY,0,14915,,298 F,0,14915,,0.1 F,0,14949,,0 MX,0,14983,,588.9445 MY,0,14983,,295 F,0,14983,,0.1 F,0,15017,,0 MX,0,15051,,582.9445 MY,0,15051,,290 F,0,15051,,0.1 F,0,15085,,0 MX,0,15119,,585.9445 MY,0,15119,,295 F,0,15119,,0.1
Sprite,Foreground,Centre,"SB\output\006F_2S.png",0,0 MX,0,15121,18121,601.3889 MY,0,15121,18121,292 S,0,15121,,0.4 F,0,15121,,1 MX,0,14371,,607.3889 MY,0,14371,,280 F,0,14371,,0.1 F,0,14420,,0 MX,0,14469,,594.3889 MY,0,14469,,303 F,0,14469,,0.1 F,0,14518,,0 MX,0,14567,,608.3889 MY,0,14567,,287 F,0,14567,,0.1 F,0,14616,,0 MX,0,14665,,599.3889 MY,0,14665,,283 F,0,14665,,0.1 F,0,14714,,0 MX,0,14763,,594.3889 MY,0,14763,,290 F,0,14763,,0.1 F,0,14812,,0 MX,0,14861,,605.3889 MY,0,14861,,294 F,0,14861,,0.1 F,0,14910,,0 MX,0,14959,,600.3889 MY,0,14959,,286 F,0,14959,,0.1 F,0,15008,,0 MX,0,15057,,607.3889 MY,0,15057,,297 F,0,15057,,0.1 F,0,15106,,0
Sprite,Foreground,Centre,"SB\output\0073_2S.png",0,0 MX,0,15121,18121,614.8333 MY,0,15121,18121,292 S,0,15121,,0.4 F,0,15121,,1 MX,0,14371,,624.8333 MY,0,14371,,297 F,0,14371,,0.1 F,0,14428,,0 MX,0,14485,,617.8333 MY,0,14485,,284 F,0,14485,,0.1 F,0,14542,,0 MX,0,14599,,624.8333 MY,0,14599,,302 F,0,14599,,0.1 F,0,14656,,0 MX,0,14713,,604.8333 MY,0,14713,,300 F,0,14713,,0.1 F,0,14770,,0 MX,0,14827,,606.8333 MY,0,14827,,295 F,0,14827,,0.1 F,0,14884,,0 MX,0,14941,,620.8333 MY,0,14941,,286 F,0,14941,,0.1 F,0,14998,,0 MX,0,15055,,622.8333 MY,0,15055,,291 F,0,15055,,0.1 F,0,15112,,0
Sprite,Foreground,Centre,"SB\output\0061_2S.png",0,0 MX,0,15121,18121,628.2778 MY,0,15121,18121,292 S,0,15121,,0.4 F,0,15121,,1 MX,0,14371,,634.2778 MY,0,14371,,301 F,0,14371,,0.1 F,0,14425,,0 MX,0,14479,,616.2778 MY,0,14479,,298 F,0,14479,,0.1 F,0,14533,,0 MX,0,14587,,633.2778 MY,0,14587,,282 F,0,14587,,0.1 F,0,14641,,0 MX,0,14695,,637.2778 MY,0,14695,,284 F,0,14695,,0.1 F,0,14749,,0 MX,0,14803,,627.2778 MY,0,14803,,292 F,0,14803,,0.1 F,0,14857,,0 MX,0,14911,,624.2778 MY,0,14911,,295 F,0,14911,,0.1 F,0,14965,,0 MX,0,15019,,627.2778 MY,0,15019,,298 F,0,15019,,0.1 F,0,15073,,0
Sprite,Foreground,Centre,"SB\output\006B_2S.png",0,0 MX,0,15121,18121,641.7222 MY,0,15121,18121,292 S,0,15121,,0.4 F,0,15121,,1 MX,0,14371,,649.7222 MY,0,14371,,299 F,0,14371,,0.1 F,0,14430,,0 MX,0,14489,,653.7222 MY,0,14489,,286 F,0,14489,,0.1 F,0,14548,,0 MX,0,14607,,641.7222 MY,0,14607,,296 F,0,14607,,0.1 F,0,14666,,0 MX,0,14725,,636.7222 MY,0,14725,,286 F,0,14725,,0.1 F,0,14784,,0 MX,0,14843,,648.7222 MY,0,14843,,285 F,0,14843,,0.1 F,0,14902,,0 MX,0,14961,,634.7222 MY,0,14961,,283 F,0,14961,,0.1 F,0,15020,,0 MX,0,15079,,643.7222 MY,0,15079,,295 F,0,15079,,0.1
Sprite,Foreground,Centre,"SB\output\0061_2S.png",0,0 MX,0,15121,18121,655.1667 MY,0,15121,18121,292 S,0,15121,,0.4 F,0,15121,,1 MX,0,14371,,667.1667 MY,0,14371,,283 F,0,14371,,0.1 F,0,14424,,0 MX,0,14477,,667.1667 MY,0,14477,,279 F,0,14477,,0.1 F,0,14530,,0 MX,0,14583,,665.1667 MY,0,14583,,296 F,0,14583,,0.1 F,0,14636,,0 MX,0,14689,,645.1667 MY,0,14689,,283 F,0,14689,,0.1 F,0,14742,,0 MX,0,14795,,646.1667 MY,0,14795,,294 F,0,14795,,0.1 F,0,14848,,0 MX,0,14901,,664.1667 MY,0,14901,,291 F,0,14901,,0.1 F,0,14954,,0 MX,0,15007,,648.1667 MY,0,15007,,295 F,0,15007,,0.1 F,0,15060,,0 MX,0,15113,,656.1667 MY,0,15113,,287 F,0,15113,,0.1
Sprite,Foreground,Centre,"SB\output\002D_2S.png",0,0 MX,0,15121,18121,668.6111 MY,0,15121,18121,292 S,0,15121,,0.4 F,0,15121,,1 MX,0,14371,,653.6111 MY,0,14371,,287 F,0,14371,,0.1 F,0,14424,,0 MX,0,14477,,677.6111 MY,0,14477,,279 F,0,14477,,0.1 F,0,14530,,0 MX,0,14583,,662.6111 MY,0,14583,,297 F,0,14583,,0.1 F,0,14636,,0 MX,0,14689,,679.6111 MY,0,14689,,303 F,0,14689,,0.1 F,0,14742,,0 MX,0,14795,,665.6111 MY,0,14795,,292 F,0,14795,,0.1 F,0,14848,,0 MX,0,14901,,663.6111 MY,0,14901,,292 F,0,14901,,0.1 F,0,14954,,0 MX,0,15007,,668.6111 MY,0,15007,,284 F,0,15007,,0.1 F,0,15060,,0 MX,0,15113,,664.6111 MY,0,15113,,291 F,0,15113,,0.1
Sprite,Foreground,Centre,"SB\output\0059_2S.png",0,0 MX,0,15121,18121,682.0555 MY,0,15121,18121,292 S,0,15121,,0.4 F,0,15121,,1 MX,0,14371,,685.0555 MY,0,14371,,280 F,0,14371,,0.1 F,0,14431,,0 MX,0,14491,,688.0555 MY,0,14491,,289 F,0,14491,,0.1 F,0,14551,,0 MX,0,14611,,693.0555 MY,0,14611,,282 F,0,14611,,0.1 F,0,14671,,0 MX,0,14731,,686.0555 MY,0,14731,,294 F,0,14731,,0.1 F,0,14791,,0 MX,0,14851,,689.0555 MY,0,14851,,296 F,0,14851,,0.1 F,0,14911,,0 MX,0,14971,,683.0555 MY,0,14971,,285 F,0,14971,,0.1 F,0,15031,,0 MX,0,15091,,676.0555 MY,0,15091,,293 F,0,15091,,0.1
Sprite,Foreground,Centre,"SB\output\0075_2S.png",0,0 MX,0,15121,18121,695.5 MY,0,15121,18121,292 S,0,15121,,0.4 F,0,15121,,1 MX,0,14371,,709.5 MY,0,14371,,294 F,0,14371,,0.1 F,0,14412,,0 MX,0,14453,,682.5 MY,0,14453,,285 F,0,14453,,0.1 F,0,14494,,0 MX,0,14535,,703.5 MY,0,14535,,293 F,0,14535,,0.1 F,0,14576,,0 MX,0,14617,,698.5 MY,0,14617,,292 F,0,14617,,0.1 F,0,14658,,0 MX,0,14699,,705.5 MY,0,14699,,282 F,0,14699,,0.1 F,0,14740,,0 MX,0,14781,,695.5 MY,0,14781,,285 F,0,14781,,0.1 F,0,14822,,0 MX,0,14863,,700.5 MY,0,14863,,294 F,0,14863,,0.1 F,0,14904,,0 MX,0,14945,,696.5 MY,0,14945,,292 F,0,14945,,0.1 F,0,14986,,0 MX,0,15027,,697.5 MY,0,15027,,298 F,0,15027,,0.1 F,0,15068,,0 MX,0,15109,,692.5 MY,0,15109,,286 F,0,15109,,0.1
Sprite,Foreground,Centre,"SB\output\0042_1L.png",0,0 MX,0,172386,172516,-430,195 MX,10,172516,173086,195,245 MY,0,173136,,230 S,0,172386,172516,1.2,0.2 S,10,172516,173086,0.2,0.12
Sprite,Foreground,Centre,"SB\output\0065_1L.png",0,0 MX,0,172386,172516,-180,236.6667 MX,10,172516,173086,236.6667,270 MY,0,173136,,230 S,0,172386,172516,1.2,0.2 S,10,172516,173086,0.2,0.12
Sprite,Foreground,Centre,"SB\output\0061_1L.png",0,0 MX,0,172386,172516,70,278.3333 MX,10,172516,173086,278.3333,295 MY,0,173136,,230 S,0,172386,172516,1.2,0.2 S,10,172516,173086,0.2,0.12
Sprite,Foreground,Centre,"SB\output\0074_1L.png",0,0 MX,0,172386,172516,320 MX,10,172516,173086,320 MY,0,173136,,230 S,0,172386,172516,1.2,0.2 S,10,172516,173086,0.2,0.12
Sprite,Foreground,Centre,"SB\output\006D_1L.png",0,0 MX,0,172386,172516,570,361.6667 MX,10,172516,173086,361.6667,345 MY,0,173136,,230 S,0,172386,172516,1.2,0.2 S,10,172516,173086,0.2,0.12
Sprite,Foreground,Centre,"SB\output\0061_1L.png",0,0 MX,0,172386,172516,820,403.3333 MX,10,172516,173086,403.3333,370 MY,0,173136,,230 S,0,172386,172516,1.2,0.2 S,10,172516,173086,0.2,0.12
Sprite,Foreground,Centre,"SB\output\0070_1L.png",0,0 MX,0,172386,172516,1070,445 MX,10,172516,173086,445,395 MY,0,173136,,230 S,0,172386,172516,1.2,0.2 S,10,172516,173086,0.2,0.12
Sprite,Foreground,Centre,"SB\output\004F_1S.png",0,0 F,0,172586,,1 MY,0,172586,172641,450,350 MY,10,172641,172886,350,290 MX,0,173136,,250.8571 S,0,173136,,0.4 F,0,173136,,0
Sprite,Foreground,Centre,"SB\output\0074_1S.png",0,0 F,0,172614,,1 MY,0,172614,172669,450,350 MY,10,172669,172914,350,290 MX,0,173136,,266.2222 S,0,173136,,0.4 F,0,173136,,0
Sprite,Foreground,Centre,"SB\output\006F_1S.png",0,0 F,0,172638,,1 MY,0,172638,172693,450,350 MY,10,172693,172938,350,290 MX,0,173136,,281.5873 S,0,173136,,0.4 F,0,173136,,0
Sprite,Foreground,Centre,"SB\output\0073_1S.png",0,0 F,0,172661,,1 MY,0,172661,172716,450,350 MY,10,172716,172961,350,290 MX,0,173136,,296.9524 S,0,173136,,0.4 F,0,173136,,0
Sprite,Foreground,Centre,"SB\output\0061_1S.png",0,0 F,0,172680,,1 MY,0,172680,172735,450,350 MY,10,172735,172980,350,290 MX,0,173136,,312.3175 S,0,173136,,0.4 F,0,173136,,0
Sprite,Foreground,Centre,"SB\output\006B_1S.png",0,0 F,0,172697,,1 MY,0,172697,172752,450,350 MY,10,172752,172997,350,290 MX,0,173136,,327.6825 S,0,173136,,0.4 F,0,173136,,0
Sprite,Foreground,Centre,"SB\output\0061_1S.png",0,0 F,0,172712,,1 MY,0,172712,172767,450,350 MY,10,172767,173012,350,290 MX,0,173136,,343.0476 S,0,173136,,0.4 F,0,173136,,0
Sprite,Foreground,Centre,"SB\output\002D_1S.png",0,0 F,0,172725,,1 MY,0,172725,172780,450,350 MY,10,172780,173025,350,290 MX,0,173136,,358.4127 S,0,173136,,0.4 F,0,173136,,0
Sprite,Foreground,Centre,"SB\output\0059_1S.png",0,0 F,0,172736,,1 MY,0,172736,172791,450,350 MY,10,172791,173036,350,290 MX,0,173136,,373.7778 S,0,173136,,0.4 F,0,173136,,0
Sprite,Foreground,Centre,"SB\output\0075_1S.png",0,0 F,0,172746,,1 MY,0,172746,172801,450,350 MY,10,172801,173046,350,290 MX,0,173136,,389.1429 S,0,173136,,0.4 F,0,173136,,0
//Storyboard Sound Samples

[TimingPoints]
6111,375,4,2,1,40,1,0
6111,-200,4,2,1,40,0,0
11829,-333.333333333333,4,2,1,70,0,0
12111,-66.6666666666667,4,2,1,70,0,0
13611,-58.8235294117647,4,2,1,70,0,0
14361,-76.9230769230769,4,2,1,70,0,0
15111,-66.6666666666667,4,2,1,70,0,0
16611,-58.8235294117647,4,2,1,70,0,0
17361,-76.9230769230769,4,2,1,70,0,0
18111,-83.3333333333333,4,2,1,75,0,0
20173,-66.6666666666667,4,2,1,75,0,0
20736,-133.333333333333,4,2,1,75,0,0
21673,-66.6666666666667,4,2,1,75,0,0
22142,-58.8235294117647,4,2,1,75,0,0
22423,-133.333333333333,4,2,1,75,0,0
22611,-83.3333333333333,4,2,1,75,0,0
24673,-66.6666666666667,4,2,1,75,0,0
25236,-133.333333333333,4,2,1,75,0,0
26173,-66.6666666666667,4,2,1,75,0,0
26548,-100,4,2,1,75,0,0
27111,-1000,4,2,1,70,0,0
30111,-1000,4,2,1,65,0,0
32361,-250,4,2,1,65,0,0
33111,-200,4,2,1,65,0,0
34236,-1000,4,2,1,65,0,0
35361,-250,4,2,1,65,0,0
36111,-100,4,2,1,70,0,0
39111,-200,4,2,1,70,0,0
40236,-1000,4,2,1,70,0,0
40986,-250,4,2,1,70,0,0
41361,-200,4,2,1,70,0,0
42111,-200,4,2,1,70,0,0
56361,-100,4,2,1,75,0,0
57111,-66.6666666666667,4,2,1,75,0,0
58611,-76.9230769230769,4,2,1,75,0,1
67611,-71.4285714285714,4,2,1,75,0,1
68173,-133.333333333333,4,2,1,75,0,1
68236,-133.333333333333,4,2,2,75,0,1
68361,-71.4285714285714,4,2,1,75,0,1
69954,-66.6666666666667,4,2,1,75,0,1
70611,-100,4,2,1,75,0,1
70798,-66.6666666666667,4,2,1,75,0,1
75111,-133.333333333333,4,2,1,75,0,1
75298,-66.6666666666667,4,2,1,75,0,1
76236,-133.333333333333,4,2,1,75,0,1
76423,-66.6666666666667,4,2,1,75,0,1
79611,-83.3333333333333,4,2,1,75,0,1
81111,-76.9230769230769,4,2,1,75,0,1
82611,-83.3333333333333,4,2,1,75,0,0
84673,-66.6666666666667,4,2,1,75,0,0
85236,-133.333333333333,4,2,1,75,0,0
86173,-66.6666666666667,4,2,1,75,0,0
86736,-58.8235294117647,4,2,1,75,0,0
86923,-133.333333333333,4,2,1,75,0,0
87111,-83.3333333333333,4,2,1,75,0,0
89173,-66.6666666666667,4,2,1,75,0,0
89736,-133.333333333333,4,2,1,75,0,0
90673,-66.6666666666667,4,2,1,75,0,0
91048,-100,4,2,1,75,0,0
91611,-100,4,2,1,70,0,0
105861,-200,4,2,1,70,0,0
114861,-100,4,2,1,75,0,0
115611,-66.6666666666667,4,2,1,70,0,0
117111,-76.9230769230769,4,2,1,70,0,1
126111,-71.4285714285714,4,2,1,70,0,1
128454,-66.6666666666667,4,2,1,70,0,1
129111,-100,4,2,1,70,0,1
129298,-66.6666666666667,4,2,1,70,0,1
133611,-133.333333333333,4,2,1,70,0,1
133798,-66.6666666666667,4,2,1,70,0,1
134736,-133.333333333333,4,2,1,70,0,1
134923,-66.6666666666667,4,2,1,70,0,1
138111,-83.3333333333333,4,2,1,70,0,1
139611,-76.9230769230769,4,2,1,70,0,1
141111,-100,4,2,1,70,0,0
145798,-100,4,2,1,70,0,0
159111,-66.6666666666667,4,2,1,75,0,0
165111,-50,4,2,1,75,0,1
168111,-100,4,2,1,75,0,0
168673,-100,4,2,1,70,0,0
170173,-66.6666666666667,4,2,1,70,0,0
170361,-66.6666666666667,4,2,1,70,0,1
171111,-66.6666666666667,4,2,1,75,0,0
174111,-100,4,2,1,65,0,0
183111,-71.4285714285714,4,2,1,65,0,0
183673,-133.333333333333,4,2,1,65,0,0
183954,-71.4285714285714,4,2,1,65,0,0
184611,-71.4285714285714,4,2,1,70,0,0
185736,-100,4,2,1,75,0,0
186111,-100,4,2,1,75,0,1
186298,-66.6666666666667,4,2,1,75,0,1
190611,-133.333333333333,4,2,1,75,0,1
190798,-66.6666666666667,4,2,1,75,0,1
191736,-133.333333333333,4,2,1,75,0,1
191923,-66.6666666666667,4,2,1,75,0,1
195111,-83.3333333333333,4,2,1,75,0,1
196611,-76.9230769230769,4,2,1,75,0,1
198111,-100,4,2,1,70,0,0
200736,-66.6666666666667,4,2,1,70,0,0
201111,-100,4,2,1,70,0,0
204111,-76.9230769230769,4,2,1,70,0,0
216017,-100,4,2,1,5,0,0
216111,-100,4,2,1,70,0,0

[Colours]
Combo1 : 125,66,89
Combo2 : 91,4,187
Combo3 : 11,36,181
Combo4 : 74,117,105
SliderTrackOverride : 10,0,20

[HitObjects]
132,377,6111,6,0,P|82:338|141:204,1,220,2|2,0:0|0:0,0:0:0:0:
210,222,7236,1,0,0:0:0:0:
256,288,7611,1,2,0:0:0:0:
380,377,9111,6,0,P|430:338|371:204,1,220,2|2,0:0|0:0,0:0:0:0:
302,222,10236,1,0,0:0:0:0:
256,288,10611,1,2,0:0:0:0:
404,57,11829,6,0,L|363:64,1,32.99999899292,2|0,0:0|0:0,0:0:0:0:
308,62,12111,6,0,B|406:96|364:3|522:79,1,165.000006294251,4|0,1:2|0:0,0:0:0:0:
512,200,12392,2,0,P|422:195|456:103,1,165.000006294251,0|0,1:0|0:0,0:0:0:0:
490,125,12673,1,0,1:0:0:0:
421,321,12861,5,8,0:0:0:0:
421,321,12954,2,0,B|347:329|347:329|340:337|340:337|218:348,1,165.000006294251,8|0,0:0|1:0,0:0:0:0:
215,201,13236,2,0,B|283:251|283:251|241:379,1,165.000006294251,0|0,1:0|1:0,0:0:0:0:
33,354,13517,1,0,1:0:0:0:
33,354,13611,6,0,B|5:296|20:202|61:255|95:151|31:50,2,280.500005350113,6|8|8,1:2|0:0|0:0,0:0:0:0:
10,348,14361,2,2,P|115:362|140:220,1,214.49999018097,14|0,0:0|1:0,0:1:0:0:
192,44,14736,5,8,0:0:0:0:
192,44,14798,1,8,0:0:0:0:
192,44,14861,1,8,0:3:0:0:
192,44,14923,1,8,0:3:0:0:
192,44,14986,1,4,0:3:0:0:
192,44,15048,1,4,0:3:0:0:
192,44,15111,6,0,B|73:25|73:25|36:57,1,165.000006294251,6|0,1:2|0:0,0:0:0:0:
0,143,15392,2,0,B|79:135|79:135|86:127|86:127|160:119,1,165.000006294251,0|0,1:0|0:0,0:0:0:0:
241,115,15673,1,0,1:0:0:0:
442,236,15861,5,8,0:0:0:0:
379,178,15954,2,0,P|357:255|448:328,1,165.000006294251,8|0,0:0|1:0,0:0:0:0:
497,333,16236,2,0,B|394:325|445:376|296:350,1,165.000006294251,0|0,1:0|1:0,0:0:0:0:
214,376,16517,1,0,1:0:0:0:
214,376,16611,6,0,B|258:267|121:208|121:208|131:263|85:320,2,280.500005350113,4|8|8,1:2|0:0|0:0,0:0:0:0:
41,235,17361,2,2,P|126:237|174:107,1,214.49999018097,14|0,0:0|1:0,0:1:0:0:
312,83,17736,5,8,0:0:0:0:
312,83,17798,1,8,0:0:0:0:
312,83,17861,1,8,0:0:0:0:
312,83,17923,1,8,0:0:0:0:
312,83,17986,1,8,0:0:0:0:
312,83,18048,1,8,0:0:0:0:
312,83,18111,6,0,L|221:77,1,65.9999979858399,6|8,1:2|0:0,0:0:0:0:
360,19,18298,2,0,L|426:24,1,65.9999979858399,0|8,1:0|0:0,0:0:0:0:
480,128,18486,2,0,P|502:85|495:44,1,65.9999979858399,0|8,1:0|0:0,0:0:0:0:
386,166,18673,2,0,P|390:198|408:225,1,65.9999979858399,0|8,1:0|0:0,0:0:0:0:
485,329,18861,5,0,1:0:0:0:
485,329,18954,2,0,P|455:316|422:318,1,65.9999979858399,8|0,0:0|1:0,0:0:0:0:
289,331,19142,1,8,0:0:0:0:
289,331,19235,2,0,P|314:311|329:282,1,65.9999979858399,0|8,1:0|0:0,0:0:0:0:
386,166,19423,2,0,P|390:134|380:103,1,65.9999979858399,0|8,1:0|0:0,0:0:0:0:
124,138,19611,5,4,1:2:0:0:
170,154,19704,1,0,1:0:0:0:
201,191,19798,1,0,1:0:0:0:
236,161,19892,1,0,1:0:0:0:
283,147,19986,1,0,1:0:0:0:
20,359,20173,6,2,B|159:389|199:190|82:164|11:233|64:293,1,330.000012588501,10|0,0:0|1:0,0:1:0:0:
213,332,20642,1,0,1:0:0:0:
213,332,20736,2,2,B|246:330|246:330|265:338|265:338|327:335,1,82.5000031471254,10|0,0:0|1:0,0:1:0:0:
124,138,21111,5,4,1:2:0:0:
121,219,21204,1,0,1:0:0:0:
194,258,21298,1,0,1:0:0:0:
271,230,21392,1,0,1:0:0:0:
283,147,21486,1,0,1:0:0:0:
474,88,21673,6,2,B|431:67|378:14|378:14|452:138|446:239,1,330.000012588501,10|8,0:0|0:3,0:1:0:0:
496,303,22142,1,4,0:3:0:0:
496,303,22236,2,0,P|404:288|371:285,1,93.500001783371,4|0,1:0|0:0,0:0:0:0:
312,294,22423,6,0,L|316:315,1,20.6250007867813,8|0,0:0|0:0,0:0:0:0:
297,295,22517,2,0,L|301:316,1,20.6250007867813,8|0,0:0|0:0,0:0:0:0:
280,293,22611,6,0,P|227:288|193:252,1,65.9999979858399,6|8,1:2|0:0,0:0:0:0:
59,330,22798,2,0,P|107:308|129:264,1,65.9999979858399,0|8,1:0|0:0,0:0:0:0:
153,196,22986,2,0,P|163:206|144:198,1,65.9999979858399,0|8,1:0|0:0,0:0:0:0:
129,108,23173,2,0,L|117:41,1,65.9999979858399,0|8,1:0|0:0,0:0:0:0:
232,91,23361,6,0,P|285:96|319:132,1,65.9999979858399,0|8,1:0|0:0,0:0:0:0:
453,54,23548,2,0,P|405:76|383:120,1,65.9999979858399,0|8,1:0|0:0,0:0:0:0:
359,188,23736,2,0,P|349:178|368:186,1,65.9999979858399,0|8,1:0|0:0,0:0:0:0:
383,276,23923,2,0,L|395:343,1,65.9999979858399,0|8,1:0|0:0,0:0:0:0:
170,380,24111,5,4,1:2:0:0:
183,333,24204,1,0,1:0:0:0:
164,288,24298,1,0,1:0:0:0:
169,241,24392,1,0,1:0:0:0:
152,195,24486,1,0,1:0:0:0:
76,350,24673,6,2,B|39:370|39:370|4:300|4:300|31:226|31:226|90:273,1,247.500009441376,10|0,0:0|0:0,0:1:0:0:
250,279,25048,1,0,1:0:0:0:
250,279,25142,1,0,1:0:0:0:
250,279,25236,2,2,L|340:274,1,82.5000031471254,10|0,0:0|1:0,0:1:0:0:
152,195,25611,5,4,1:2:0:0:
68,255,25704,1,0,1:0:0:0:
164,288,25798,1,0,1:0:0:0:
76,350,25892,1,0,1:0:0:0:
170,380,25986,1,0,1:0:0:0:
502,213,26173,6,2,B|437:253|377:227|404:182|327:144|242:219,1,247.500009441376,10|0,0:0|0:0,0:1:0:0:
196,173,26548,2,0,P|194:217|210:239,1,55,0|0,1:0|1:0,0:0:0:0:
309,62,26736,5,8,0:0:0:0:
277,50,26798,1,8,0:0:0:0:
245,57,26861,1,8,0:3:0:0:
218,76,26923,1,8,0:3:0:0:
186,82,26986,1,4,0:3:0:0:
154,72,27048,1,4,0:3:0:0:
85,43,27111,6,0,L|41:46,2,44,4|0|8,1:2|3:0|0:3,0:0:0:0:
120,118,28892,1,4,0:3:0:0:
88,198,29173,1,8,0:3:0:0:
73,184,29361,5,8,0:3:0:0:
46,268,29642,1,4,0:3:0:0:
78,348,29923,1,0,1:0:0:0:
95,31,30111,6,0,L|139:28,2,44,4|0|0,1:2|3:0|3:0,0:0:0:0:
197,76,31986,1,8,0:3:0:0:
271,120,32361,6,0,L|316:117,3,44,0|4|4|4,3:0|0:3|0:3|0:3,0:0:0:0:
464,20,33111,6,0,P|452:46|465:142,2,110,4|8|2,1:2|0:1|3:2,0:0:0:0:
464,20,34048,1,8,0:1:0:0:
391,183,34236,6,0,L|370:181,2,22,2|2|2,0:0|3:2|0:0,0:0:0:0:
503,258,35361,6,0,L|460:256,3,44,2|8|8|4,3:2|0:1|0:3|0:3,0:0:0:0:
311,165,36111,5,6,1:2:0:0:
328,346,36298,5,0,1:0:0:0:
339,333,36392,1,0,1:0:0:0:
328,325,36486,1,0,1:0:0:0:
317,336,36579,1,0,1:0:0:0:
279,239,36767,5,0,1:0:0:0:
359,233,36861,1,0,1:0:0:0:
381,246,37048,5,0,1:0:0:0:
258,257,37142,1,0,1:0:0:0:
187,43,37798,5,0,1:0:0:0:
198,51,37892,1,0,1:0:0:0:
187,64,37986,1,0,1:0:0:0:
176,54,38079,1,0,1:0:0:0:
233,145,38267,5,0,1:0:0:0:
153,151,38361,1,0,1:0:0:0:
131,138,38548,5,0,1:0:0:0:
254,127,38642,1,0,1:0:0:0:
46,333,39111,6,0,P|88:333|175:358,2,110,4|8|2,1:2|0:1|3:2,0:0:0:0:
46,333,40048,1,8,0:1:0:0:
223,266,40236,6,0,L|219:242,1,22,2|2,1:2|3:2,0:0:0:0:
256,178,40798,1,8,0:3:0:0:
165,194,40986,6,0,L|116:199,1,44,2|4,0:2|0:3,0:0:0:0:
301,290,41361,6,0,L|365:283,3,55,2|8|8|4,1:2|0:1|0:3|0:3,0:0:0:0:
229,137,42111,5,6,1:2:0:0:
410,120,42298,5,0,1:0:0:0:
397,109,42392,1,0,1:0:0:0:
389,120,42486,1,0,1:0:0:0:
400,131,42579,1,0,1:0:0:0:
303,169,42767,5,0,1:0:0:0:
297,89,42861,1,0,1:0:0:0:
310,67,43048,5,0,1:0:0:0:
321,190,43142,1,0,1:0:0:0:
107,261,43798,5,0,1:0:0:0:
115,250,43892,1,0,1:0:0:0:
128,261,43986,1,0,1:0:0:0:
118,272,44079,1,0,1:0:0:0:
209,215,44267,5,0,1:0:0:0:
215,295,44361,1,0,1:0:0:0:
202,317,44548,5,0,1:0:0:0:
191,193,44642,1,0,1:0:0:0:
284,247,44736,5,8,0:3:0:0:
304,245,44798,1,8,0:3:0:0:
323,243,44861,1,4,0:3:0:0:
341,242,44923,2,0,L|380:237,1,27.5,12|0,0:0|0:0,0:0:0:0:
455,106,45111,5,2,1:2:0:0:
405,120,45204,1,0,1:0:0:0:
358,108,45298,1,0,1:0:0:0:
329,70,45392,1,0,1:0:0:0:
464,91,45673,5,2,1:2:0:0:
388,100,45766,1,0,1:0:0:0:
330,152,45860,1,0,1:0:0:0:
310,221,45954,1,0,1:0:0:0:
475,75,46236,5,10,0:0:0:0:
388,100,46329,1,8,0:0:0:0:
307,78,46423,1,8,0:0:0:0:
252,13,46517,1,8,0:0:0:0:
485,60,46798,5,10,1:3:0:0:
376,72,46891,1,8,1:3:0:0:
292,132,46985,1,4,1:3:0:0:
260,233,47079,1,4,1:3:0:0:
471,282,47361,6,2,B|368:275|404:350|276:327,1,192.5,14|0,0:0|0:0,0:1:0:0:
57,278,48111,5,6,1:2:0:0:
107,264,48204,1,0,1:0:0:0:
154,276,48298,1,0,1:0:0:0:
183,314,48392,1,0,1:0:0:0:
48,293,48673,5,2,1:2:0:0:
124,284,48766,1,0,1:0:0:0:
182,232,48860,1,0,1:0:0:0:
202,163,48954,1,0,1:0:0:0:
37,309,49236,5,10,0:0:0:0:
124,284,49329,1,8,0:0:0:0:
205,306,49423,1,8,0:0:0:0:
260,371,49517,1,8,0:0:0:0:
27,324,49798,5,10,1:3:0:0:
136,312,49891,1,8,1:3:0:0:
220,252,49985,1,4,1:3:0:0:
252,151,50079,1,4,1:3:0:0:
41,102,50361,6,2,B|144:109|108:34|236:57,1,192.5,14|0,0:0|0:0,0:1:0:0:
388,166,51111,5,6,1:2:0:0:
396,115,51204,1,0,1:0:0:0:
347,108,51298,1,0,1:0:0:0:
339,159,51391,1,0,1:0:0:0:
282,335,51673,5,2,1:2:0:0:
350,343,51766,1,0,1:0:0:0:
360,276,51860,1,0,1:0:0:0:
291,267,51953,1,0,1:0:0:0:
87,199,52236,5,10,0:0:0:0:
74,286,52329,1,8,0:0:0:0:
159,299,52423,1,8,0:0:0:0:
173,210,52516,1,8,0:0:0:0:
277,25,52798,5,10,1:3:0:0:
172,9,52891,1,8,1:3:0:0:
156,111,52985,1,4,1:3:0:0:
263,128,53078,1,4,1:3:0:0:
473,252,53361,6,2,B|496:236|496:236|423:251,1,82.5,14|0,0:0|0:0,0:1:0:0:
427,161,53736,5,10,0:0:0:0:
420,215,53829,1,8,0:0:0:0:
414,270,53923,1,8,0:0:0:0:
408,325,54017,1,8,0:0:0:0:
353,361,54111,5,2,1:2:0:0:
71,141,54673,1,2,1:2:0:0:
428,153,55236,1,2,1:2:0:0:
132,353,55798,1,2,1:2:0:0:
254,18,56361,6,0,B|236:67|275:99|275:99|256:133,1,110,6|8,1:2|0:3,0:0:0:0:
221,234,56736,1,0,1:0:0:0:
288,354,56923,1,4,0:3:0:0:
45,135,57111,6,2,B|12:102|12:102|1:29|93:-13,1,165.000006294251,6|0,1:2|0:0,0:1:0:0:
123,157,57392,2,2,B|111:201|111:201|53:247|-29:189,1,165.000006294251,6|0,1:2|0:0,0:1:0:0:
105,77,57673,2,2,B|149:64|149:64|218:92|209:193,1,165.000006294251,6|6,1:2|1:2,0:1:0:0:
111,346,58048,5,8,0:0:0:0:
126,299,58141,1,8,0:0:0:0:
160,263,58235,1,10,0:0:0:0:
205,244,58329,1,8,0:0:0:0:
254,246,58423,1,10,0:0:0:0:
298,269,58516,1,8,0:0:0:0:
315,309,58611,6,0,B|194:291|223:386|77:335,1,214.49999018097,6|2,1:2|1:2,0:0:0:0:
11,313,58986,2,0,P|6:363|28:400,1,71.4999967269899,8|0,0:0|0:0,0:0:0:0:
110,345,59173,6,0,B|135:197|135:197|61:129,1,214.49999018097,2|0,1:2|1:0,0:0:0:0:
27,58,59548,1,10,0:0:0:0:
18,63,59642,1,0,1:0:0:0:
11,67,59736,2,0,B|71:60|71:60|87:66|87:66|192:53,1,142.99999345398,2|10,1:2|0:3,0:0:0:0:
430,41,60111,6,0,B|392:26|392:26|336:57|321:128|389:183,1,214.49999018097,6|2,1:2|1:2,0:0:0:0:
428,229,60486,2,0,P|374:250|346:240,1,71.4999967269899,8|0,0:0|0:0,0:0:0:0:
452,319,60673,1,2,1:2:0:0:
452,319,60767,6,0,B|393:269|312:289|312:289|347:328|328:370,1,214.49999018097,0|10,1:0|0:0,0:0:0:0:
250,343,61142,1,8,0:3:0:0:
250,343,61236,6,0,L|169:348,1,71.4999967269899,10|8,0:3|0:3,0:0:0:0:
107,354,61423,2,0,L|23:359,1,71.4999967269899,4|4,0:3|0:3,0:0:0:0:
159,144,61611,6,0,B|114:104|114:104|143:219,1,142.99999345398,6|2,1:0|0:0,0:0:0:0:
117,259,61892,2,0,P|78:240|63:210,1,71.4999967269899,2|8,1:2|0:0,0:0:0:0:
175,22,62079,5,2,0:0:0:0:
175,22,62173,2,0,B|302:0|244:111|418:55,1,214.49999018097,2|0,1:2|1:0,0:0:0:0:
438,123,62548,2,0,P|460:55|448:34,1,71.4999967269899,10|0,0:0|0:0,0:0:0:0:
359,144,62736,2,0,P|406:197|431:197,1,71.4999967269899,2|0,1:2|1:0,0:0:0:0:
457,384,62923,5,10,0:3:0:0:
465,310,63017,1,8,0:3:0:0:
470,231,63111,6,0,B|504:201|504:201|406:174|319:260,1,214.49999018097,6|0,1:2|1:0,0:0:0:0:
320,326,63486,2,0,B|355:332|355:332|414:303,1,71.4999967269899,8|0,0:0|0:0,0:0:0:0:
261,264,63673,6,0,B|217:262|178:209|178:209|215:372,1,214.49999018097,0|0,1:0|1:0,0:0:0:0:
67,362,64048,1,8,0:0:0:0:
67,362,64142,1,0,1:0:0:0:
67,362,64236,6,0,B|97:359|97:359|105:363|105:363|167:357,1,71.4999967269899,2|0,1:2|1:0,0:0:0:0:
118,144,64423,2,0,L|123:97,1,35.749998363495,10|0,0:0|0:0,0:0:0:0:
101,150,64517,2,0,L|106:103,1,35.749998363495,8|0,0:0|0:0,0:0:0:0:
82,156,64611,6,0,B|161:148|181:91|157:35|157:35|109:-2,1,214.49999018097,6|2,1:0|1:2,0:0:0:0:
13,235,64986,2,0,P|48:235|104:259,1,71.4999967269899,8|0,0:0|0:0,0:0:0:0:
275,357,65173,6,0,B|281:251|281:251|276:245|276:245|281:116,1,214.49999018097,2|0,1:2|1:0,0:0:0:0:
444,44,65548,2,0,P|455:70|413:69,1,71.4999967269899,10|0,0:0|0:0,0:0:0:0:
207,62,65736,6,0,L|357:49,1,142.99999345398,2|8,1:2|0:3,0:0:0:0:
469,183,66017,2,0,L|474:131,1,35.749998363495,8|0,0:3|0:0,0:0:0:0:
479,197,66111,6,0,B|429:163|365:180|365:180|438:207|422:293,1,214.49999018097,6|2,1:2|1:2,0:0:0:0:
415,328,66486,2,0,P|468:316|499:283,1,71.4999967269899,8|0,0:0|0:0,0:0:0:0:
345,258,66673,2,0,B|226:241|278:317|119:284,1,214.49999018097,2|0,1:2|1:0,0:0:0:0:
74,160,67048,2,0,P|98:179|96:230,1,71.4999967269899,10|0,0:0|0:0,0:0:0:0:
13,331,67236,2,0,P|17:300|62:276,1,71.4999967269899,10|8,0:3|0:3,0:0:0:0:
28,79,67423,2,0,L|133:74,1,71.4999967269899,6|4,0:3|0:3,0:0:0:0:
257,40,67611,6,0,B|201:15|201:15|219:126|219:126|292:166,1,230.99999295044,6|0,1:0|1:0,0:0:0:0:
339,193,67986,2,0,L|435:182,1,76.9999976501466,8|0,0:0|0:0,0:0:0:0:
451,337,68173,6,0,L|507:342,1,41.2500015735627,8|0,0:0|3:0,0:0:0:0:
416,334,68361,2,0,B|402:242|402:242|417:205|417:205|400:84,1,230.99999295044,4|0,1:0|1:0,0:0:0:0:
433,9,68736,2,0,B|475:55|475:55|436:16|365:19,1,153.999995300293,8|8,0:0|0:3,0:0:0:0:
269,153,69017,1,8,0:3:0:0:
269,153,69111,6,0,B|143:141|191:262|64:240,1,230.99999295044,4|0,1:0|1:0,0:0:0:0:
64,264,69486,2,0,P|8:224|45:138,1,153.999995300293,8|0,0:0|1:0,0:0:0:0:
269,153,69767,1,0,1:0:0:0:
195,123,69861,5,8,0:3:0:0:
146,67,69954,2,0,P|207:140|151:345,1,247.500009441376,8|10,0:3|0:0,0:0:0:0:
142,347,70329,5,8,0:0:0:0:
212,306,70422,1,10,0:0:0:0:
293,312,70516,1,8,0:0:0:0:
361,362,70611,6,0,L|436:355,1,55,6|0,1:2|0:0,0:0:0:0:
480,211,70798,2,0,L|470:293,1,82.5000031471254,8|2,0:0|0:0,0:0:0:0:
501,185,70986,5,0,1:0:0:0:
426,171,71079,1,0,1:0:0:0:
348,155,71173,2,0,L|358:236,1,82.5000031471254,10|0,0:0|0:0,0:0:0:0:
329,45,71361,5,0,1:0:0:0:
404,31,71454,1,0,1:0:0:0:
482,15,71548,2,0,L|471:96,1,82.5000031471254,10|0,0:0|1:0,0:0:0:0:
267,207,71736,5,2,0:0:0:0:
267,207,71829,2,0,L|128:222,2,82.5000031471254,0|10|0,1:0|0:0|0:0,0:0:0:0:
251,303,72111,6,0,B|132:315|132:315|93:352,1,165.000006294251,6|8,1:0|0:0,0:0:0:0:
88,363,72392,1,2,0:0:0:0:
21,315,72486,5,0,1:0:0:0:
43,241,72579,1,0,1:0:0:0:
62,167,72673,2,0,L|47:73,1,82.5000031471254,10|0,0:0|0:0,0:0:0:0:
122,0,72861,5,0,1:0:0:0:
144,74,72954,1,0,1:0:0:0:
163,148,73048,1,10,0:0:0:0:
188,224,73142,6,0,L|387:241,1,165.000006294251,0|0,1:0|1:0,0:0:0:0:
416,283,73423,2,0,P|442:249|434:191,1,82.5000031471254,8|0,0:0|0:0,0:0:0:0:
373,49,73611,6,0,B|323:-6|323:-6|345:121,1,165.000006294251,6|10,1:2|0:0,0:0:0:0:
412,122,73892,2,0,L|502:113,1,82.5000031471254,2|0,0:0|1:0,0:0:0:0:
352,238,74079,5,2,1:2:0:0:
308,307,74173,2,0,L|144:293,1,165.000006294251,10|0,0:0|1:0,0:0:0:0:
73,337,74454,1,0,1:0:0:0:
59,356,74548,6,0,P|28:299|35:262,1,82.5000031471254,10|0,0:0|1:0,0:0:0:0:
68,211,74736,2,0,P|86:148|117:127,1,82.5000031471254,2|0,0:0|1:0,0:0:0:0:
183,145,74923,2,0,P|240:113|277:121,1,82.5000031471254,10|0,0:0|0:0,0:0:0:0:
436,148,75111,6,0,L|443:94,1,41.2500015735627,6|0,1:0|0:0,0:0:0:0:
345,19,75298,2,0,L|354:129,1,82.5000031471254,8|0,0:0|0:0,0:0:0:0:
461,281,75486,1,0,1:0:0:0:
461,281,75579,1,0,1:0:0:0:
461,281,75673,6,0,L|245:294,1,165.000006294251,8|0,0:0|1:0,0:0:0:0:
261,314,75954,1,0,1:0:0:0:
231,338,76048,2,0,L|241:227,1,82.5000031471254,8|0,0:0|1:0,0:0:0:0:
254,113,76236,6,0,L|179:118,1,41.2500015735627,2|0,0:0|1:2,0:0:0:0:
49,199,76423,2,0,L|175:213,1,82.5000031471254,10|0,0:0|0:0,0:0:0:0:
335,136,76611,6,0,P|318:53|229:30,1,165.000006294251,6|8,1:2|0:0,0:0:0:0:
171,27,76892,1,2,0:0:0:0:
171,27,76986,2,0,L|89:17,1,82.5000031471254,0|0,1:0|1:0,0:0:0:0:
31,118,77173,6,0,L|246:101,1,165.000006294251,10|0,0:0|1:0,0:0:0:0:
216,186,77454,1,0,1:0:0:0:
234,268,77548,1,10,0:0:0:0:
285,334,77642,6,0,P|219:349|155:261,1,165.000006294251,0|0,1:0|1:0,0:0:0:0:
234,268,77923,2,0,P|275:253|342:278,1,82.5000031471254,8|0,0:0|0:0,0:0:0:0:
433,299,78111,6,0,L|425:205,1,82.5000031471254,6|0,1:0|0:0,0:0:0:0:
477,52,78298,2,0,L|483:134,1,82.5000031471254,8|2,0:0|0:0,0:0:0:0:
501,264,78486,5,0,1:0:0:0:
433,299,78579,1,0,1:0:0:0:
367,336,78673,2,0,L|246:332,1,82.5000031471254,10|0,0:0|0:0,0:0:0:0:
312,258,78861,5,0,1:0:0:0:
234,268,78954,1,0,1:0:0:0:
185,200,79048,5,10,0:0:0:0:
107,210,79141,1,8,0:0:0:0:
85,286,79236,6,0,L|-10:297,1,82.5000031471254,10|8,0:3|0:3,0:0:0:0:
123,353,79423,2,0,L|204:343,1,82.5000031471254,6|4,0:3|0:3,0:0:0:0:
312,258,79611,5,6,1:2:0:0:
364,252,79704,1,0,1:0:0:0:
401,217,79798,1,0,1:0:0:0:
411,172,79892,1,0,1:0:0:0:
400,125,79986,2,0,L|469:134,1,65.9999979858399,8|0,0:0|1:0,0:0:0:0:
379,20,80173,2,0,L|310:29,1,65.9999979858399,8|0,0:0|1:0,0:0:0:0:
257,157,80361,5,0,1:0:0:0:
228,158,80454,1,0,1:0:0:0:
200,159,80548,1,0,1:0:0:0:
172,161,80642,1,0,1:0:0:0:
144,162,80736,1,8,0:3:0:0:
115,164,80829,1,8,0:3:0:0:
87,165,80923,1,6,0:3:0:0:
59,167,81017,1,6,0:3:0:0:
16,188,81111,6,0,B|76:138|76:138|98:276,1,214.49999018097,2|2,1:2|1:2,0:0:0:0:
102,347,81486,2,0,P|49:332|32:301,1,71.4999967269899,10|0,0:0|1:0,0:0:0:0:
99,197,81673,2,0,P|152:212|169:243,1,71.4999967269899,10|0,0:0|1:0,0:0:0:0:
265,368,81861,6,0,B|257:279|257:279|266:258|266:258|252:113,1,214.49999018097,2|0,1:2|1:0,0:0:0:0:
466,72,82236,5,8,0:0:0:0:
424,14,82330,1,8,0:0:0:0:
355,36,82424,1,8,0:0:0:0:
355,107,82518,1,8,0:0:0:0:
424,130,82611,6,0,L|508:122,1,65.9999979858399,6|8,1:2|0:0,0:0:0:0:
416,234,82798,2,0,L|350:240,1,65.9999979858399,0|8,1:0|0:0,0:0:0:0:
256,156,82986,2,0,P|263:218|246:252,1,65.9999979858399,0|8,1:0|0:0,0:0:0:0:
198,321,83173,2,0,P|191:259|208:225,1,65.9999979858399,0|8,1:0|0:0,0:0:0:0:
251,59,83361,5,0,1:0:0:0:
251,59,83454,2,0,P|205:56|179:42,1,65.9999979858399,8|0,0:0|1:0,0:0:0:0:
130,125,83642,1,8,0:0:0:0:
130,125,83736,2,0,P|99:90|91:62,1,65.9999979858399,0|8,1:0|0:0,0:0:0:0:
0,87,83923,2,0,P|3:40|16:14,1,65.9999979858399,0|8,1:0|0:0,0:0:0:0:
350,21,84111,5,4,1:2:0:0:
357,69,84204,1,0,1:0:0:0:
340,115,84298,1,0,1:0:0:0:
303,146,84392,1,0,1:0:0:0:
255,155,84486,1,0,1:0:0:0:
503,311,84673,6,2,B|419:293|411:187|411:187|370:318|242:272,1,330.000012588501,10|0,0:0|1:0,0:1:0:0:
119,297,85142,1,0,1:0:0:0:
187,253,85236,2,2,B|207:291|207:291|188:349,1,82.5000031471254,10|0,0:0|1:0,0:1:0:0:
255,155,85611,5,4,1:2:0:0:
298,86,85704,1,0,1:0:0:0:
374,56,85798,1,0,1:0:0:0:
453,75,85892,1,0,1:0:0:0:
506,135,85986,1,0,1:0:0:0:
194,328,86173,6,2,B|59:357|59:357|137:241|137:241|67:155,1,330.000012588501,10|8,0:0|0:3,0:1:0:0:
43,101,86642,1,4,0:3:0:0:
43,101,86736,2,0,B|46:82|46:82|132:96,1,93.500001783371,4|0,1:0|0:0,0:0:0:0:
268,42,86923,6,0,L|271:81,1,20.6250007867813,8|0,0:0|0:0,0:0:0:0:
286,41,87017,2,0,L|289:80,1,20.6250007867813,8|0,0:0|0:0,0:0:0:0:
307,39,87111,6,0,B|336:49|336:49|386:42,1,65.9999979858399,6|8,1:2|0:0,0:0:0:0:
459,78,87298,2,0,L|465:-17,1,65.9999979858399,0|8,1:0|0:0,0:0:0:0:
481,155,87486,2,0,B|452:165|452:165|402:158,1,65.9999979858399,0|8,1:0|0:0,0:0:0:0:
329,194,87673,2,0,L|323:99,1,65.9999979858399,0|8,1:0|0:0,0:0:0:0:
221,264,87861,6,0,P|271:266|307:288,1,65.9999979858399,0|8,1:0|0:0,0:0:0:0:
383,362,88048,2,0,L|380:273,1,65.9999979858399,0|8,1:0|0:0,0:0:0:0:
329,194,88236,2,0,P|279:192|243:170,1,65.9999979858399,0|8,1:0|0:0,0:0:0:0:
167,96,88423,2,0,L|170:185,1,65.9999979858399,0|8,1:0|0:0,0:0:0:0:
103,327,88611,5,4,1:2:0:0:
50,270,88704,1,0,1:0:0:0:
130,258,88798,1,0,1:0:0:0:
104,344,88892,1,0,1:0:0:0:
80,195,88986,1,0,1:0:0:0:
167,96,89173,6,2,B|89:162|1:114|1:114|48:83|43:-13,1,247.500009441376,10|0,0:0|0:0,0:1:0:0:
140,0,89548,1,0,1:0:0:0:
140,0,89642,1,0,1:0:0:0:
140,0,89736,2,2,P|212:9|226:36,1,82.5000031471254,10|0,0:0|1:0,0:1:0:0:
409,57,90111,5,4,1:2:0:0:
348,103,90204,1,0,1:0:0:0:
480,87,90298,1,0,1:0:0:0:
408,40,90392,1,0,1:0:0:0:
421,142,90486,1,0,1:0:0:0:
486,319,90673,6,2,B|518:289|518:289|357:310|357:310|294:358,1,247.500009441376,10|0,0:0|0:0,0:1:0:0:
260,380,91048,2,0,P|247:327|257:307,1,55,0|0,1:0|1:0,0:0:0:0:
166,261,91236,5,8,0:0:0:0:
186,268,91298,1,8,0:0:0:0:
206,264,91361,1,8,0:3:0:0:
222,252,91423,1,8,0:3:0:0:
242,248,91486,1,4,0:3:0:0:
263,254,91548,1,4,0:3:0:0:
324,335,91611,6,0,B|320:238|320:238|328:223|328:223|323:102,1,220,4|8,1:2|0:0,0:0:0:0:
323,117,92173,1,0,0:0:0:0:
479,75,92361,2,0,P|474:122|407:169,1,110,2|0,1:2|1:0,0:0:0:0:
263,54,92736,2,0,P|318:37|405:95,1,165,10|0,0:0|0:0,0:0:0:0:
481,217,93111,6,0,B|366:237|383:115|240:178,1,220,2|10,1:2|0:0,0:0:0:0:
276,164,93673,1,0,0:0:0:0:
46,181,93861,1,2,1:2:0:0:
71,107,94048,1,0,1:0:0:0:
70,255,94236,2,0,P|121:200|107:138,1,110,8|8,0:0|0:3,0:0:0:0:
71,107,94517,1,4,0:3:0:0:
71,107,94611,6,0,B|36:137|23:209|70:256|70:256|131:328,1,220,6|8,1:2|0:0,0:0:0:0:
161,359,95173,1,0,0:0:0:0:
404,274,95361,6,0,P|426:231|392:168,1,110,0|0,1:2|1:0,0:0:0:0:
275,321,95736,2,0,B|367:304|335:371|431:354,1,165,8|0,0:0|0:0,0:0:0:0:
434,384,96111,6,0,B|393:322|393:323|393:323|406:162,1,220,2|8,1:2|0:0,0:0:0:0:
97,66,96861,5,0,1:2:0:0:
97,66,96954,1,0,1:2:0:0:
97,66,97048,1,0,1:0:0:0:
97,66,97142,1,0,1:0:0:0:
97,66,97236,2,0,L|214:59,1,110,8|8,0:0|0:0,0:0:0:0:
385,47,97517,1,0,1:2:0:0:
317,5,97611,6,0,B|292:54|292:54|333:127,1,110,4|0,1:2|0:0,0:0:0:0:
395,235,97986,2,0,B|420:186|420:186|379:113,1,110,8|0,0:0|0:0,0:0:0:0:
212,189,98361,2,0,L|338:183,1,110,2|0,1:2|1:0,0:0:0:0:
460,86,98736,2,0,P|358:66|310:123,1,165,10|0,0:0|0:0,0:0:0:0:
177,262,99111,6,0,B|128:241|121:174|121:174|65:205|6:180,1,220,2|10,1:2|0:0,0:0:0:0:
14,183,99673,1,0,0:0:0:0:
82,11,99861,2,0,P|51:71|83:127,1,110,2|0,1:2|1:0,0:0:0:0:
155,69,100236,1,8,0:0:0:0:
91,283,100423,1,8,0:3:0:0:
91,283,100517,1,4,0:3:0:0:
91,283,100611,6,0,B|206:245|180:361|310:318,1,220,6|8,1:2|0:0,0:0:0:0:
266,242,101173,1,0,0:0:0:0:
352,380,101361,2,0,P|370:310|350:268,1,110,0|0,1:2|1:0,0:0:0:0:
234,102,101736,2,0,B|307:97|307:97|329:112|329:112|412:107,1,165,8|0,0:0|0:0,0:0:0:0:
412,72,102111,6,0,B|287:71|327:154|187:125,1,220,2|8,1:2|0:0,0:0:0:0:
368,290,102861,1,0,1:2:0:0:
313,292,102954,1,0,1:2:0:0:
258,294,103048,1,0,1:0:0:0:
203,297,103142,1,0,1:0:0:0:
148,299,103236,1,8,0:0:0:0:
46,362,103423,1,8,0:0:0:0:
46,362,103517,1,8,0:0:0:0:
46,362,103611,5,2,1:2:0:0:
53,279,103704,1,0,1:0:0:0:
29,257,103798,1,0,1:0:0:0:
41,176,103892,1,0,1:0:0:0:
158,0,104174,5,2,1:2:0:0:
165,93,104267,1,0,1:0:0:0:
139,118,104361,1,0,1:0:0:0:
152,209,104455,1,0,1:0:0:0:
326,373,104736,5,10,0:0:0:0:
333,274,104829,1,8,0:0:0:0:
305,248,104923,1,8,0:0:0:0:
319,153,105017,1,8,0:0:0:0:
455,0,105299,5,10,1:3:0:0:
463,110,105392,1,8,1:3:0:0:
432,139,105486,1,4,1:3:0:0:
447,247,105580,1,4,1:3:0:0:
346,63,105861,6,2,B|318:43|318:43|218:58|218:58|197:89,1,165,14|0,0:0|0:0,0:1:0:0:
18,108,106611,5,6,1:2:0:0:
101,106,106704,1,0,1:0:0:0:
120,80,106798,1,0,1:0:0:0:
202,83,106892,1,0,1:0:0:0:
484,137,107174,5,2,1:2:0:0:
392,153,107267,1,0,1:0:0:0:
364,130,107361,1,0,1:0:0:0:
275,152,107455,1,0,1:0:0:0:
39,271,107736,5,10,0:0:0:0:
138,267,107829,1,8,0:0:0:0:
161,237,107923,1,8,0:0:0:0:
257,241,108017,1,8,0:0:0:0:
497,345,108299,5,10,1:3:0:0:
388,364,108392,1,8,1:3:0:0:
356,336,108486,1,4,1:3:0:0:
250,362,108580,1,4,1:3:0:0:
484,248,108861,6,2,B|478:272|478:272|464:193|464:193|488:125,1,165,14|0,0:0|0:0,0:1:0:0:
397,35,109611,5,6,1:2:0:0:
375,54,109704,1,0,1:0:0:0:
365,93,109798,1,0,1:0:0:0:
375,141,109892,1,0,1:0:0:0:
350,78,110173,5,2,1:2:0:0:
306,111,110267,1,0,1:0:0:0:
248,131,110361,1,0,1:0:0:0:
177,130,110454,1,0,1:0:0:0:
301,169,110736,5,10,0:0:0:0:
301,235,110829,1,8,0:0:0:0:
330,306,110923,1,8,0:0:0:0:
384,356,111017,1,8,0:0:0:0:
253,277,111298,5,10,1:3:0:0:
191,313,111392,1,8,1:3:0:0:
100,335,111486,1,4,1:3:0:0:
11,343,111579,1,4,1:3:0:0:
62,41,111861,6,2,B|46:38|22:47|22:47|53:45|76:58,1,82.5,14|0,0:0|0:0,0:1:0:0:
0,85,112236,5,10,0:0:0:0:
52,86,112330,1,8,0:0:0:0:
101,74,112424,1,8,0:0:0:0:
143,41,112517,1,8,0:0:0:0:
232,28,112611,5,2,1:2:0:0:
179,338,113173,1,2,1:2:0:0:
404,118,113736,1,2,1:2:0:0:
92,164,114298,1,2,1:2:0:0:
371,310,114861,6,0,B|407:318|407:318|436:291|487:294,1,110,6|8,1:2|0:3,0:0:0:0:
466,370,115236,1,0,1:0:0:0:
401,223,115423,1,4,0:3:0:0:
202,356,115611,6,2,B|126:348|126:348|121:340|121:340|-12:327,1,165.000006294251,6|0,1:2|0:0,0:1:0:0:
234,287,115892,2,2,B|158:279|158:279|153:271|153:271|20:258,1,165.000006294251,6|0,1:2|0:0,0:1:0:0:
265,216,116173,2,2,B|189:208|189:208|184:200|184:200|51:187,1,165.000006294251,6|6,1:2|1:2,0:1:0:0:
410,27,116548,5,8,0:0:0:0:
407,68,116641,1,8,0:0:0:0:
404,109,116735,1,10,0:0:0:0:
398,146,116829,1,8,0:0:0:0:
357,143,116923,1,10,0:0:0:0:
316,140,117016,1,8,0:0:0:0:
275,136,117111,6,0,B|357:124|357:124|377:268,1,214.49999018097,6|2,1:2|1:2,0:0:0:0:
340,322,117486,2,0,P|373:332|409:327,1,71.4999967269899,8|0,0:0|0:0,0:0:0:0:
461,207,117673,6,0,B|348:186|382:292|218:237,1,214.49999018097,2|0,1:2|1:0,0:0:0:0:
163,356,118048,1,10,0:0:0:0:
153,363,118142,1,0,1:0:0:0:
143,370,118236,2,0,B|123:276|123:276|172:235,1,142.99999345398,2|10,1:2|0:3,0:0:0:0:
258,248,118517,1,8,0:3:0:0:
251,257,118611,6,0,B|241:149|241:149|245:140|245:140|234:27,1,214.49999018097,6|2,1:2|1:2,0:0:0:0:
123,33,118986,2,0,B|102:14|102:14|173:19,1,71.4999967269899,8|0,0:0|0:0,0:0:0:0:
320,152,119173,1,2,1:2:0:0:
320,152,119267,2,0,B|349:108|349:108|185:125,1,214.49999018097,0|10,1:0|0:0,0:0:0:0:
109,257,119642,1,0,0:0:0:0:
109,257,119736,6,0,B|115:236|115:236|99:178,1,71.4999967269899,10|8,0:3|0:3,0:0:0:0:
30,57,119923,2,0,B|24:78|24:78|40:136,1,71.4999967269899,4|4,0:3|0:3,0:0:0:0:
9,350,120111,6,0,B|72:342|72:342|87:349|87:349|163:340,1,142.99999345398,6|2,1:0|0:0,0:0:0:0:
226,379,120392,2,0,P|234:332|224:287,1,71.4999967269899,2|8,1:2|0:0,0:0:0:0:
188,124,120579,1,2,0:0:0:0:
129,63,120673,2,0,P|115:163|230:199,1,214.49999018097,2|0,1:2|1:0,0:0:0:0:
271,132,121048,6,0,P|259:79|219:50,1,71.4999967269899,10|0,0:0|0:0,0:0:0:0:
364,154,121236,2,0,P|392:108|385:59,1,71.4999967269899,2|0,1:2|1:0,0:0:0:0:
425,221,121423,2,0,P|478:209|507:169,1,71.4999967269899,10|8,0:3|0:3,0:0:0:0:
483,45,121611,6,0,B|458:-11|382:-8|382:-8|251:9,1,214.49999018097,6|0,1:2|1:0,0:0:0:0:
198,49,121986,2,0,P|169:24|216:12,1,71.4999967269899,8|0,0:0|0:0,0:0:0:0:
271,132,122173,6,0,B|281:160|271:193|271:193|308:242|308:242|268:291|290:351,1,214.49999018097,0|0,1:0|1:0,0:0:0:0:
372,309,122548,1,8,0:0:0:0:
372,309,122642,1,0,1:0:0:0:
372,309,122736,6,0,P|415:320|484:283,1,71.4999967269899,2|0,1:2|1:0,0:0:0:0:
168,164,122923,2,0,L|203:161,1,35.749998363495,10|0,0:0|0:0,0:0:0:0:
104,169,123017,2,0,L|139:166,1,35.749998363495,8|0,0:0|0:0,0:0:0:0:
70,169,123111,6,0,B|122:113|122:113|77:193|122:279,1,214.49999018097,6|2,1:0|1:2,0:0:0:0:
168,44,123486,2,0,P|107:29|78:41,1,71.4999967269899,8|0,0:0|0:0,0:0:0:0:
0,194,123673,6,0,B|124:225|88:115|240:173,1,214.49999018097,2|0,1:2|1:0,0:0:0:0:
276,301,124048,2,0,P|230:312|181:289,1,71.4999967269899,10|0,0:0|0:0,0:0:0:0:
266,109,124236,6,0,P|275:185|196:249,1,142.99999345398,2|8,1:2|0:3,0:0:0:0:
167,333,124517,2,0,L|129:330,1,35.749998363495,8|0,0:3|0:0,0:0:0:0:
186,355,124611,6,0,B|162:196|162:196|225:142,1,214.49999018097,6|2,1:2|1:2,0:0:0:0:
266,109,124986,2,0,L|358:112,1,71.4999967269899,8|0,0:0|0:0,0:0:0:0:
510,47,125173,1,2,1:2:0:0:
510,47,125267,6,0,B|456:30|456:30|415:43|415:43|366:25|366:25|284:46,1,214.49999018097,0|10,1:0|0:0,0:0:0:0:
70,66,125736,2,0,B|35:132|35:132|111:188,1,142.99999345398,10|6,0:3|0:3,0:0:0:0:
143,109,126017,1,4,0:3:0:0:
0,222,126111,6,0,P|83:176|236:194,1,230.99999295044,6|0,1:0|1:0,0:0:0:0:
487,162,126486,2,0,P|412:163|339:116,1,153.999995300293,8|8,0:0|0:0,0:0:0:0:
337,111,126767,1,8,0:0:0:0:
291,47,126861,6,0,P|391:54|347:188,1,230.99999295044,4|0,1:0|1:0,0:0:0:0:
512,259,127236,2,0,B|407:245|407:245|360:287,1,153.999995300293,8|8,0:0|0:3,0:0:0:0:
356,293,127517,1,8,0:3:0:0:
491,337,127611,6,0,B|409:341|409:341|366:307|366:307|265:314,1,230.99999295044,4|0,1:0|1:0,0:0:0:0:
179,257,127986,2,0,B|156:296|170:336|170:336|160:298|196:263,1,153.999995300293,8|0,0:0|1:0,0:0:0:0:
176,180,128267,1,0,1:0:0:0:
104,154,128361,5,8,0:3:0:0:
25,172,128454,2,0,B|125:145|102:27|102:27|108:93|43:117,1,247.500009441376,8|10,0:3|0:0,0:0:0:0:
11,41,128829,5,8,0:0:0:0:
75,88,128923,1,10,0:0:0:0:
161,86,129017,1,8,0:0:0:0:
236,62,129111,6,0,L|227:-13,1,55,6|0,1:2|0:0,0:0:0:0:
363,14,129298,2,0,L|372:95,1,82.5000031471254,8|2,0:0|0:0,0:0:0:0:
387,208,129486,5,0,1:0:0:0:
401,284,129579,1,0,1:0:0:0:
420,359,129673,2,0,L|510:326,1,82.5000031471254,10|0,0:0|0:0,0:0:0:0:
497,85,129861,5,0,1:0:0:0:
483,161,129954,1,0,1:0:0:0:
464,236,130048,2,0,L|374:203,1,82.5000031471254,10|0,0:0|1:0,0:0:0:0:
310,174,130236,5,2,0:0:0:0:
310,174,130329,2,0,L|267:284,2,82.5000031471254,0|10|0,1:0|0:0|0:0,0:0:0:0:
325,312,130611,6,0,L|132:371,1,165.000006294251,6|8,1:0|0:0,0:0:0:0:
149,366,130892,1,2,0:0:0:0:
0,233,130986,5,0,1:0:0:0:
76,213,131079,1,0,1:0:0:0:
152,188,131173,2,0,L|178:290,1,82.5000031471254,10|0,0:0|0:0,0:0:0:0:
89,284,131361,5,0,1:0:0:0:
69,204,131454,1,0,1:0:0:0:
49,128,131548,1,10,0:0:0:0:
23,49,131642,2,0,L|180:0,1,165.000006294251,0|0,1:0|1:0,0:0:0:0:
273,101,131923,2,0,B|234:113|234:113|195:77,1,82.5000031471254,8|0,0:0|0:0,0:0:0:0:
328,24,132111,6,0,L|483:135,1,165.000006294251,6|10,1:2|0:0,0:0:0:0:
499,189,132392,2,0,P|442:195|407:168,1,82.5000031471254,0|0,0:0|1:0,0:0:0:0:
462,120,132579,5,2,1:2:0:0:
350,143,132673,2,0,P|369:243|444:269,1,165.000006294251,10|0,0:0|1:0,0:0:0:0:
496,364,132954,1,0,1:0:0:0:
506,356,133048,6,0,B|465:346|465:346|388:362,1,82.5000031471254,10|0,0:0|1:0,0:0:0:0:
338,266,133236,2,0,B|379:276|379:276|456:260,1,82.5000031471254,2|0,0:0|1:0,0:0:0:0:
335,355,133423,2,0,B|294:345|294:345|217:361,1,82.5000031471254,10|0,0:0|0:0,0:0:0:0:
173,262,133611,6,0,L|248:271,1,41.2500015735627,6|0,1:0|0:0,0:0:0:0:
251,181,133798,2,0,L|138:168,1,82.5000031471254,8|0,0:0|0:0,0:0:0:0:
71,317,133986,5,0,1:0:0:0:
71,317,134079,1,0,1:0:0:0:
71,317,134173,2,0,B|78:240|78:240|65:223|65:223|75:119,1,165.000006294251,8|0,0:0|1:0,0:0:0:0:
77,130,134454,1,0,1:0:0:0:
81,101,134548,2,0,L|-11:123,1,82.5000031471254,8|0,0:0|1:0,0:0:0:0:
168,80,134736,6,0,P|172:50|160:34,1,41.2500015735627,2|0,0:0|1:2,0:0:0:0:
4,0,134923,2,0,L|96:22,1,82.5000031471254,10|0,0:0|0:0,0:0:0:0:
359,165,135111,6,0,P|263:164|197:244,1,165.000006294251,6|8,1:2|0:0,0:0:0:0:
154,267,135392,1,2,0:0:0:0:
154,267,135486,2,0,L|60:257,1,82.5000031471254,0|0,1:0|1:0,0:0:0:0:
216,360,135673,6,0,B|240:249|240:249|200:185,1,165.000006294251,10|0,0:0|1:0,0:0:0:0:
167,41,135954,1,0,1:0:0:0:
241,61,136048,1,10,0:0:0:0:
315,85,136142,6,0,B|420:66|381:137|505:97,1,165.000006294251,0|0,1:0|1:0,0:0:0:0:
510,20,136423,2,0,P|452:16|404:43,1,82.5000031471254,8|0,0:0|0:0,0:0:0:0:
348,164,136611,6,0,L|360:310,1,82.5000031471254,6|0,1:0|0:0,0:0:0:0:
455,324,136798,2,0,L|448:241,1,82.5000031471254,8|2,0:0|0:0,0:0:0:0:
339,343,136986,5,0,1:0:0:0:
339,343,137079,1,0,1:0:0:0:
339,343,137173,2,0,L|206:341,1,82.5000031471254,10|0,0:0|0:0,0:0:0:0:
163,210,137361,5,0,1:0:0:0:
167,289,137454,1,0,1:0:0:0:
146,379,137548,5,10,0:0:0:0:
142,300,137641,1,8,0:0:0:0:
86,235,137736,6,0,L|-31:240,1,82.5000031471254,10|8,0:3|0:3,0:0:0:0:
120,102,137923,2,0,L|202:98,1,82.5000031471254,6|4,0:3|0:3,0:0:0:0:
308,207,138111,5,6,1:2:0:0:
369,216,138204,1,0,1:0:0:0:
427,192,138298,1,0,1:0:0:0:
452,132,138392,1,0,1:0:0:0:
432,72,138486,6,0,P|447:127|471:144,1,65.9999979858399,8|0,0:0|1:0,0:0:0:0:
490,283,138673,2,0,L|473:367,1,65.9999979858399,8|0,0:0|1:0,0:0:0:0:
217,362,138861,5,0,1:0:0:0:
214,324,138954,1,0,1:0:0:0:
212,286,139048,1,0,1:0:0:0:
210,249,139142,1,0,1:0:0:0:
208,211,139236,1,8,0:3:0:0:
206,173,139329,1,8,0:3:0:0:
204,136,139423,1,6,0:3:0:0:
202,98,139517,1,6,0:3:0:0:
297,67,139611,6,0,B|219:71|219:71|171:47|171:47|61:53,1,214.49999018097,2|0,1:2|1:0,0:0:0:0:
17,76,139986,2,0,P|11:41|25:9,1,71.4999967269899,10|0,0:0|1:0,0:0:0:0:
80,131,140173,2,0,P|85:165|72:198,1,71.4999967269899,10|0,0:0|1:0,0:0:0:0:
53,371,140361,6,0,B|3:333|30:278|30:278|96:262|119:337,1,214.49999018097,2|0,1:2|1:0,0:0:0:0:
382,361,140736,5,8,0:0:0:0:
451,339,140830,1,8,0:0:0:0:
451,268,140924,1,8,0:0:0:0:
377,237,141018,1,8,0:0:0:0:
336,301,141111,1,4,1:2:0:0:
256,192,141204,12,0,145517,0:0:0:0:
468,222,145798,5,8,0:0:0:0:
392,228,145892,1,8,0:0:0:0:
348,159,145986,5,8,0:0:0:0:
424,153,146080,1,8,0:0:0:0:
436,293,146267,5,8,0:0:0:0:
360,299,146361,1,8,0:0:0:0:
384,87,146548,5,8,0:0:0:0:
460,81,146642,1,8,0:0:0:0:
176,241,147111,6,0,L|45:233,1,110,6|0,1:2|1:0,0:0:0:0:
8,180,147392,1,0,1:0:0:0:
8,180,147486,1,2,1:2:0:0:
8,180,147579,1,0,1:0:0:0:
244,301,147767,5,0,1:0:0:0:
266,218,147861,2,0,L|260:142,1,55,2|0,1:2|0:0,0:0:0:0:
321,276,148048,5,0,1:0:0:0:
343,193,148142,2,0,L|337:117,1,55,0|2,1:0|0:0,0:0:0:0:
338,138,148798,5,0,1:0:0:0:
338,138,148891,1,0,1:0:0:0:
338,138,148985,1,0,1:2:0:0:
376,65,149079,2,0,L|495:61,1,110,0|0,1:0|1:0,0:0:0:0:
296,67,149361,2,0,L|186:70,1,110,0|0,1:2|1:0,0:0:0:0:
332,0,149642,1,0,1:0:0:0:
420,294,150111,6,0,P|358:339|289:314,1,110,6|0,1:2|1:0,0:0:0:0:
266,288,150392,1,0,1:0:0:0:
246,288,150486,1,2,1:2:0:0:
226,288,150579,1,0,1:0:0:0:
107,121,150768,5,0,1:0:0:0:
84,195,150861,2,0,P|139:193|164:180,1,55,2|0,1:2|0:0,0:0:0:0:
216,11,151048,5,0,1:0:0:0:
239,85,151142,2,0,P|184:83|159:70,1,55,0|2,1:0|0:0,0:0:0:0:
184,83,151798,5,0,1:0:0:0:
196,102,151892,1,0,1:0:0:0:
207,122,151986,1,0,1:2:0:0:
260,186,152079,2,0,B|253:265|253:265|213:302,1,110,0|0,1:0|1:0,0:0:0:0:
345,197,152361,2,0,B|336:275|336:275|369:319,1,110,0|0,1:2|1:0,0:0:0:0:
289,342,152642,1,0,1:0:0:0:
434,55,153111,6,0,L|281:63,1,110,6|0,1:2|1:0,0:0:0:0:
250,32,153392,1,0,1:0:0:0:
246,67,153486,1,2,1:2:0:0:
257,100,153579,1,0,1:0:0:0:
456,209,153767,5,0,1:0:0:0:
393,254,153861,2,0,P|378:209|385:180,1,55,2|0,1:2|0:0,0:0:0:0:
279,224,154048,5,0,1:0:0:0:
216,179,154142,2,0,P|201:224|208:253,1,55,0|2,1:0|0:0,0:0:0:0:
201,230,154798,5,0,1:0:0:0:
213,270,154892,1,0,1:0:0:0:
251,298,154986,1,0,1:2:0:0:
201,358,155079,2,0,L|73:349,1,110,0|0,1:0|1:0,0:0:0:0:
103,262,155361,2,0,L|212:269,1,110,0|0,1:2|1:0,0:0:0:0:
116,171,155642,1,0,1:0:0:0:
431,331,156111,6,0,B|460:287|460:287|441:190,1,110,6|0,1:2|1:0,0:0:0:0:
368,264,156392,1,0,1:0:0:0:
368,264,156486,1,2,1:2:0:0:
368,264,156579,1,0,1:0:0:0:
421,68,156767,5,0,1:0:0:0:
421,68,156861,2,0,P|446:69|480:84,1,55,2|0,1:2|0:0,0:0:0:0:
320,160,157048,5,0,1:0:0:0:
320,160,157142,2,0,P|345:159|379:144,1,55,0|2,1:0|0:0,0:0:0:0:
372,148,157798,5,0,1:0:0:0:
299,140,157892,1,0,1:0:0:0:
236,177,157986,1,0,1:2:0:0:
226,250,158079,2,0,P|224:311|167:345,1,110,0|0,1:0|1:0,0:0:0:0:
76,295,158361,2,0,P|78:234|135:200,1,110,0|0,1:2|1:0,0:0:0:0:
151,272,158642,1,0,1:0:0:0:
317,320,158736,5,8,0:3:0:0:
331,328,158798,1,4,0:3:0:0:
346,336,158861,1,0,1:0:0:0:
361,345,158923,2,0,L|418:343,1,55,8|0,0:0|0:0,0:0:0:0:
389,166,159111,6,2,P|436:271|516:246,1,165.000006294251,6|8,1:2|0:0,0:1:0:0:
392,86,159392,2,2,P|277:74|259:155,1,165.000006294251,2|0,0:0|1:0,0:1:0:0:
464,128,159673,1,10,0:0:0:0:
380,251,159861,6,2,B|290:263|308:206|172:240,1,165.000006294251,2|8,1:2|0:0,0:1:0:0:
144,317,160142,2,2,P|177:201|138:109,1,165.000006294251,2|0,1:2|1:0,0:1:0:0:
121,88,160423,1,10,0:0:0:0:
55,340,160611,6,2,B|114:337|114:337|155:361|155:361|273:355,1,165.000006294251,6|8,1:0|0:0,0:1:0:0:
245,169,160892,1,2,0:0:0:0:
245,169,160986,2,0,B|208:152|208:152|162:161,1,82.5000031471254,0|0,1:0|1:0,0:0:0:0:
323,341,161173,1,10,0:0:0:0:
323,341,161361,5,2,1:2:0:0:
371,302,161454,1,0,1:0:0:0:
429,299,161548,1,8,0:0:0:0:
502,263,161642,2,2,P|413:272|331:197,1,165.000006294251,2|0,1:2|1:0,0:1:0:0:
316,161,161923,1,10,0:0:0:0:
166,160,162111,6,2,B|207:215|207:215|198:290|106:302,1,165.000006294251,6|8,1:2|0:0,0:1:0:0:
121,88,162392,2,2,B|148:24|148:24|217:-5|274:68,1,165.000006294251,2|0,0:0|1:2,0:1:0:0:
83,160,162673,2,2,L|-3:195,1,82.5000031471254,10|0,0:0|0:0,0:1:0:0:
18,26,162861,5,2,1:2:0:0:
12,108,162954,1,0,1:0:0:0:
6,190,163048,1,8,0:0:0:0:
0,272,163142,2,2,P|77:257|182:320,1,165.000006294251,2|0,1:2|1:0,0:1:0:0:
228,325,163423,2,2,L|358:309,1,82.5000031471254,10|0,0:0|0:0,0:1:0:0:
491,228,163611,6,2,B|445:220|412:238|412:238|379:199|293:212,1,165.000006294251,6|8,1:0|0:0,0:1:0:0:
350,0,163892,2,2,B|366:43|398:63|398:63|380:111|435:179,1,165.000006294251,2|0,0:0|1:0,0:1:0:0:
254,172,164173,2,2,P|296:125|302:50,1,82.5000031471254,10|0,0:0|0:0,0:1:0:0:
512,42,164361,6,2,B|455:43|388:3|388:3|353:137|353:137|258:118|258:118|217:209|134:190,1,495.000018882752,0|10,1:0|0:0,0:1:0:0:
80,363,165111,5,6,1:2:0:0:
169,269,165204,1,10,0:0:0:0:
54,244,165298,2,0,L|-12:249,2,55,2|0|8,1:2|0:0|0:0,0:0:0:0:
188,384,165486,6,0,L|282:373,2,55,2|0|8,1:2|0:0|0:0,0:0:0:0:
317,282,165673,2,0,P|343:369|333:391,1,110,2|8,1:2|0:0,0:0:0:0:
239,151,165861,5,2,1:2:0:0:
239,151,165954,2,0,B|281:148|281:148|305:159|305:159|384:154,1,110,10|0,0:0|1:0,0:0:0:0:
491,154,166142,1,10,0:0:0:0:
446,275,166236,6,0,L|391:278,2,55,2|0|8,1:2|0:0|0:0,0:0:0:0:
379,19,166423,2,0,L|434:22,2,55,2|0|8,1:2|0:0|0:0,0:0:0:0:
245,254,166611,5,6,1:2:0:0:
158,242,166704,1,10,0:0:0:0:
90,187,166798,1,2,1:0:0:0:
68,105,166892,5,10,0:0:0:0:
101,186,166985,1,2,1:0:0:0:
86,272,167079,1,10,0:0:0:0:
41,349,167173,5,2,1:0:0:0:
92,280,167266,1,10,0:0:0:0:
171,250,167361,6,0,P|209:255|263:236,2,55,2|0|8,1:2|0:0|0:0,0:0:0:0:
268,342,167548,2,0,P|298:318|323:267,2,55,2|0|8,1:2|0:0|0:0,0:0:0:0:
421,362,167736,2,0,P|420:306|386:230,1,110,2|8,1:2|0:0,0:0:0:0:
244,119,167923,2,0,P|292:146|375:154,1,110,0|8,1:0|0:0,0:0:0:0:
476,36,168111,5,6,1:2:0:0:
469,116,168204,1,2,0:0:0:0:
464,194,168298,2,0,L|516:190,2,36.6666666666667,2|0|0,0:0|0:0|0:0,0:0:0:0:
403,72,168486,5,2,0:0:0:0:
390,70,168548,1,2,0:0:0:0:
379,69,168611,1,2,0:0:0:0:
366,67,168673,6,0,L|297:72,1,55,6|0,1:2|0:0,0:0:0:0:
246,22,168861,1,2,0:0:0:0:
246,22,168954,1,2,0:0:0:0:
183,83,169048,6,0,L|120:87,2,36.6666666666667,2|0|0,0:0|0:0|0:0,0:0:0:0:
69,126,169236,6,0,P|61:73|73:37,1,55,6|0,1:2|0:0,0:0:0:0:
146,209,169423,5,2,0:0:0:0:
123,218,169486,1,2,0:0:0:0:
101,228,169548,1,2,0:0:0:0:
78,236,169611,6,0,L|19:230,2,36.6666666666667,2|0|0,0:0|0:0|0:0,0:0:0:0:
223,360,169798,6,0,L|267:357,5,36.6666666666667,6|0|0|0|0|0,1:2|0:0|0:0|0:0|0:0|0:0,0:0:0:0:
181,340,170173,2,0,L|312:331,1,110.000004196167,2|0,0:0|0:0,0:0:0:0:
321,329,170361,6,0,L|388:325,2,55.0000020980836,6|0|0,1:2|0:0|0:0,0:0:0:0:
393,127,170548,2,0,L|389:60,2,55.0000020980836,10|0|0,0:3|0:0|0:0,0:0:0:0:
191,55,170736,2,0,L|124:59,2,55.0000020980836,6|0|0,0:3|0:0|0:0,0:0:0:0:
119,257,170923,2,0,L|123:324,2,55.0000020980836,6|0|0,0:3|0:0|0:0,0:0:0:0:
428,288,171111,6,2,B|337:280|368:242|263:237,1,165.000006294251,6|0,1:2|0:0,0:1:0:0:
476,47,171392,2,2,B|514:129|466:121|514:215,1,165.000006294251,6|0,1:2|0:0,0:1:0:0:
263,113,171673,2,2,B|315:38|332:84|389:-4,2,165.000006294251,6|6|0,1:2|1:2|0:0,0:1:0:0:
509,206,172142,6,2,B|466:121|514:129|476:47,1,165.000006294251,6|0,1:2|0:0,0:1:0:0:
330,333,172423,1,6,1:2:0:0:
488,340,172611,6,2,B|458:320|458:320|276:338,1,165.000006294251,6|0,1:2|0:0,0:1:0:0:
184,185,172892,2,2,B|214:205|214:205|396:187,1,165.000006294251,6|0,1:2|0:0,0:1:0:0:
158,41,173173,2,2,B|128:21|128:21|-54:39,1,165.000006294251,6|6,1:2|1:2,0:1:0:0:
329,332,173548,5,8,0:0:0:0:
321,251,173641,1,8,0:0:0:0:
270,187,173735,1,10,0:0:0:0:
192,164,173829,1,8,0:0:0:0:
115,188,173923,1,10,0:0:0:0:
63,251,174016,1,8,0:0:0:0:
54,329,174111,5,6,1:0:0:0:
54,329,174486,5,0,1:0:0:0:
54,329,174861,5,0,1:0:0:0:
54,329,175236,5,0,1:2:0:0:
54,329,175611,5,2,1:2:0:0:
54,329,175986,5,0,1:2:0:0:
54,329,176361,5,0,1:0:0:0:
54,329,176736,5,0,1:2:0:0:
452,313,177111,5,6,1:2:0:0:
452,313,177486,5,0,1:0:0:0:
452,313,177861,5,0,1:0:0:0:
452,313,178236,5,0,1:2:0:0:
452,313,178611,5,2,1:2:0:0:
452,313,178986,5,0,1:0:0:0:
452,313,179361,5,0,1:0:0:0:
452,313,179736,5,0,1:2:0:0:
238,0,180111,5,6,1:2:0:0:
238,0,180486,5,0,1:0:0:0:
238,0,180861,5,0,1:0:0:0:
238,0,181236,5,0,1:2:0:0:
238,0,181611,5,2,1:2:0:0:
238,0,181986,5,0,1:0:0:0:
238,0,182361,5,0,1:0:0:0:
238,0,182736,5,0,1:2:0:0:
452,307,183111,6,0,B|434:139|434:139|366:177,1,230.99999295044,6|0,1:2|1:0,0:0:0:0:
318,209,183486,2,0,L|221:202,1,76.9999976501466,8|0,0:0|0:0,0:0:0:0:
143,348,183673,2,0,L|190:345,1,41.2500015735627,8|0,0:0|0:0,0:0:0:0:
233,325,183861,5,0,1:0:0:0:
233,325,183954,2,0,B|134:306|190:398|34:345,1,153.999995300293,0|0,1:0|1:0,0:0:0:0:
21,158,184236,2,0,B|129:165|129:165|163:209,1,153.999995300293,8|8,0:0|0:3,0:0:0:0:
168,225,184517,1,4,0:3:0:0:
98,258,184611,6,0,P|196:297|229:179,1,230.99999295044,4|0,1:0|1:0,0:0:0:0:
233,325,184986,2,0,L|403:312,1,153.999995300293,8|0,0:0|1:0,0:0:0:0:
417,309,185267,1,0,1:0:0:0:
435,384,185361,6,0,B|440:296|440:296|467:258|467:258|473:135,1,230.99999295044,8|4,0:3|0:3,0:0:0:0:
462,89,185736,5,10,0:0:0:0:
399,145,185829,1,8,0:0:0:0:
331,93,185923,1,10,0:0:0:0:
357,12,186017,1,8,0:0:0:0:
441,11,186111,6,0,P|478:10|517:23,1,55,6|0,1:2|0:0,0:0:0:0:
331,93,186298,2,0,P|276:95|192:61,1,82.5000031471254,8|2,0:0|0:0,0:0:0:0:
220,10,186486,5,0,1:0:0:0:
235,99,186579,1,0,1:0:0:0:
251,190,186673,2,0,L|146:174,1,82.5000031471254,10|0,0:0|0:0,0:0:0:0:
103,325,186861,5,0,1:0:0:0:
88,236,186954,1,0,1:0:0:0:
72,145,187048,2,0,L|177:161,1,82.5000031471254,10|0,0:0|1:0,0:0:0:0:
327,237,187236,5,2,0:0:0:0:
327,237,187329,2,0,P|329:152|316:123,2,82.5000031471254,0|10|0,1:0|0:0|0:0,0:0:0:0:
275,346,187611,6,0,B|348:342|348:342|367:353|367:353|446:347,1,165.000006294251,6|8,1:0|0:0,0:0:0:0:
460,346,187892,1,2,0:0:0:0:
480,218,187986,5,0,1:0:0:0:
404,229,188079,1,0,1:0:0:0:
327,237,188173,2,0,L|210:227,1,82.5000031471254,10|0,0:0|0:0,0:0:0:0:
483,136,188361,5,0,1:0:0:0:
407,147,188454,1,0,1:0:0:0:
330,155,188548,1,10,0:0:0:0:
336,80,188642,2,0,B|266:73|266:73|252:59|252:59|172:52,1,165.000006294251,0|0,1:0|1:0,0:0:0:0:
77,169,188923,2,0,B|119:177|119:177|172:145,1,82.5000031471254,8|0,0:0|0:0,0:0:0:0:
97,84,189111,6,0,L|154:313,1,165.000006294251,6|10,1:2|0:0,0:0:0:0:
106,324,189392,2,0,P|62:287|59:234,1,82.5000031471254,2|0,0:0|1:0,0:0:0:0:
153,156,189579,1,2,1:2:0:0:
153,156,189673,2,0,P|226:214|171:327,1,165.000006294251,10|0,0:0|1:0,0:0:0:0:
336,354,189954,1,0,1:0:0:0:
336,354,190048,6,0,L|427:350,1,82.5000031471254,10|0,0:0|1:0,0:0:0:0:
372,263,190236,2,0,L|463:259,1,82.5000031471254,2|0,0:0|1:0,0:0:0:0:
408,168,190423,2,0,L|499:164,1,82.5000031471254,10|0,0:0|0:0,0:0:0:0:
331,33,190611,6,0,P|335:63|342:84,1,41.2500015735627,6|0,1:0|0:0,0:0:0:0:
237,107,190798,2,0,P|235:63|204:5,1,82.5000031471254,8|0,0:0|0:0,0:0:0:0:
116,176,190986,1,0,1:0:0:0:
116,176,191079,1,0,1:0:0:0:
116,176,191173,6,0,B|203:151|190:226|313:187,1,165.000006294251,8|0,0:0|1:0,0:0:0:0:
145,331,191454,1,0,1:0:0:0:
145,331,191548,2,0,P|136:280|149:245,1,82.5000031471254,8|0,0:0|1:0,0:0:0:0:
256,324,191736,6,0,L|256:384,1,41.2500015735627,2|0,0:0|1:2,0:0:0:0:
367,331,191923,2,0,P|376:280|363:245,1,82.5000031471254,10|0,0:0|0:0,0:0:0:0:
423,108,192111,6,0,B|399:131|399:131|238:113,1,165.000006294251,6|8,1:2|0:0,0:0:0:0:
268,43,192392,1,2,0:0:0:0:
268,43,192486,2,0,L|349:52,1,82.5000031471254,0|0,1:0|1:0,0:0:0:0:
275,196,192673,2,0,P|193:133|233:48,1,165.000006294251,10|0,0:0|1:0,0:0:0:0:
191,9,192954,1,0,1:0:0:0:
161,164,193048,1,10,0:0:0:0:
161,164,193142,6,0,B|137:141|137:141|-24:159,1,165.000006294251,0|0,1:0|1:0,0:0:0:0:
16,237,193423,2,0,L|1:115,1,82.5000031471254,8|0,0:0|0:0,0:0:0:0:
71,40,193611,6,0,P|86:91|61:148,1,82.5000031471254,6|0,1:0|0:0,0:0:0:0:
186,329,193798,2,0,P|171:278|196:221,1,82.5000031471254,8|2,0:0|0:0,0:0:0:0:
275,196,193986,1,0,1:0:0:0:
314,260,194079,1,0,1:0:0:0:
355,326,194173,2,0,L|484:317,1,82.5000031471254,10|0,0:0|0:0,0:0:0:0:
456,190,194361,5,0,1:0:0:0:
417,126,194454,1,0,1:0:0:0:
347,164,194548,5,10,0:0:0:0:
386,228,194641,1,8,0:0:0:0:
456,190,194736,6,0,P|492:153|476:87,1,82.5000031471254,10|8,0:3|0:3,0:0:0:0:
378,57,194923,2,0,P|342:94|358:160,1,82.5000031471254,6|4,0:3|0:3,0:0:0:0:
311,328,195111,5,6,1:2:0:0:
267,303,195204,1,0,1:0:0:0:
218,299,195298,1,0,1:0:0:0:
171,308,195392,1,0,1:0:0:0:
134,329,195486,2,0,L|148:242,1,65.9999979858399,8|0,0:0|1:0,0:0:0:0:
47,345,195673,2,0,L|61:258,1,65.9999979858399,8|0,0:0|1:0,0:0:0:0:
131,10,195861,5,0,1:0:0:0:
149,38,195954,1,0,1:0:0:0:
151,67,196048,1,0,1:0:0:0:
169,95,196141,1,0,1:0:0:0:
172,123,196236,1,8,0:3:0:0:
190,151,196329,1,8,0:3:0:0:
192,180,196423,1,6,0:3:0:0:
210,208,196516,1,6,0:3:0:0:
288,244,196611,6,0,B|222:187|132:218|132:218|154:252|137:316,1,214.49999018097,2|2,1:2|1:2,0:0:0:0:
131,351,196986,2,0,P|82:330|69:294,1,71.4999967269899,10|0,0:0|1:0,0:0:0:0:
131,351,197173,2,0,P|152:302|137:267,1,71.4999967269899,10|0,0:0|1:0,0:0:0:0:
96,114,197361,6,0,B|30:78|30:78|238:103,1,214.49999018097,2|0,1:2|1:0,0:0:0:0:
397,29,197736,5,8,0:0:0:0:
398,154,197830,1,8,0:0:0:0:
326,56,197924,1,8,0:0:0:0:
441,94,198018,1,8,0:0:0:0:
325,130,198111,6,0,B|314:170|314:170|352:311,2,165,6|2|10,1:2|1:2|0:3,0:0:0:0:
512,341,198861,6,0,B|409:325|409:325|384:370|318:366,2,165,6|2|8,1:0|1:2|0:3,0:0:0:0:
502,358,199517,1,4,0:3:0:0:
465,255,199611,6,0,B|357:236|357:236|338:267|349:307,2,165,6|2|10,1:2|1:2|0:3,0:0:0:0:
486,256,200267,1,8,0:3:0:0:
403,168,200361,6,0,B|334:159|334:159|317:167|317:167|206:152,1,165,6|0,1:0|1:0,0:0:0:0:
183,212,200736,6,0,P|162:167|164:142,2,55.0000020980836,8|8|0,0:0|0:0|1:0,0:0:0:0:
214,85,200923,2,0,P|167:124|164:170,1,82.5000031471254,8|0,0:0|0:0,0:0:0:0:
285,338,201111,6,0,L|110:332,1,165,6|0,1:2|1:2,0:0:0:0:
54,370,201486,2,0,P|50:305|106:260,1,110,8|8,0:3|0:3,0:0:0:0:
97,259,201767,1,8,0:3:0:0:
183,212,201861,6,0,L|358:206,1,165,4|0,1:0|1:2,0:0:0:0:
414,244,202236,2,0,P|418:179|362:134,1,110,0|8,0:0|0:3,0:0:0:0:
371,133,202517,1,4,0:3:0:0:
408,48,202611,6,0,B|366:42|328:71|328:71|371:41|443:81,1,165,4|0,1:2|1:2,0:0:0:0:
371,133,202986,2,0,P|290:136|256:89,1,110,8|8,0:3|0:3,0:0:0:0:
260,103,203267,1,8,0:3:0:0:
241,22,203361,5,4,1:0:0:0:
241,22,203454,2,0,B|145:15|191:88|40:47,1,165,0|8,1:2|0:0,0:0:0:0:
26,8,203829,1,8,0:0:0:0:
63,81,203923,1,8,0:0:0:0:
55,163,204017,1,8,0:0:0:0:
9,230,204111,6,0,P|50:245|122:212,1,71.4999967269899,6|0,1:2|0:0,0:0:0:0:
106,341,204298,1,8,0:0:0:0:
106,341,204392,2,0,P|145:322|173:248,1,71.4999967269899,2|0,0:0|1:0,0:0:0:0:
260,360,204579,1,0,1:0:0:0:
260,360,204673,2,0,P|275:319|242:246,1,71.4999967269899,10|0,0:0|0:0,0:0:0:0:
209,167,204861,6,0,B|243:188|243:188|396:178,1,142.99999345398,2|8,1:2|0:0,0:0:0:0:
487,51,205142,2,0,B|453:30|453:30|300:40,1,142.99999345398,0|0,1:0|1:0,0:0:0:0:
454,222,205423,2,0,L|446:98,1,71.4999967269899,10|0,0:0|0:0,0:0:0:0:
264,23,205611,6,0,P|269:72|304:101,1,71.4999967269899,6|0,1:0|0:0,0:0:0:0:
209,167,205798,1,8,0:0:0:0:
209,167,205892,2,0,P|247:198|292:193,1,71.4999967269899,2|0,0:0|1:0,0:0:0:0:
254,316,206079,1,0,1:0:0:0:
254,316,206173,2,0,P|303:311|332:276,1,71.4999967269899,10|0,0:0|0:0,0:0:0:0:
447,332,206361,6,0,P|379:290|306:304,1,142.99999345398,2|8,1:2|0:0,0:0:0:0:
191,257,206642,1,0,0:0:0:0:
191,257,206736,2,0,L|90:267,1,71.4999967269899,0|0,1:0|1:0,0:0:0:0:
211,384,206923,1,8,0:0:0:0:
5,133,207111,5,4,1:2:0:0:
13,213,207204,1,0,1:2:0:0:
78,163,207298,5,8,0:0:0:0:
97,170,207392,1,0,1:2:0:0:
115,163,207486,1,0,1:2:0:0:
134,170,207580,1,0,1:2:0:0:
153,165,207673,1,8,0:0:0:0:
172,172,207767,1,0,1:2:0:0:
275,300,207861,5,0,1:2:0:0:
283,220,207954,1,0,1:2:0:0:
210,250,208048,5,8,0:0:0:0:
191,257,208142,1,0,1:2:0:0:
230,121,208236,5,0,1:2:0:0:
222,41,208329,1,0,1:2:0:0:
295,71,208423,5,8,0:0:0:0:
314,78,208517,1,0,1:2:0:0:
499,213,208611,5,0,1:2:0:0:
507,133,208704,1,0,1:2:0:0:
434,163,208798,5,8,0:0:0:0:
415,170,208892,1,0,1:2:0:0:
397,163,208986,1,0,1:2:0:0:
378,170,209080,1,0,1:2:0:0:
359,165,209173,1,8,0:0:0:0:
340,172,209267,1,0,1:2:0:0:
237,300,209361,5,0,1:2:0:0:
229,220,209454,1,0,1:2:0:0:
302,250,209548,5,8,0:0:0:0:
321,257,209642,1,0,1:2:0:0:
412,356,209736,5,8,0:0:0:0:
334,354,209829,5,8,0:0:0:0:
255,350,209923,5,8,0:0:0:0:
176,344,210017,5,8,0:0:0:0:
97,342,210111,5,4,1:2:0:0:
256,192,210204,12,0,216017,0:0:0:0:
104,52,216111,5,8,0:0:0:0:
204,45,216204,5,8,0:0:0:0:
301,40,216298,5,8,0:0:0:0:
398,33,216392,5,8,0:0:0:0:
