osu file format v14

[General]
AudioFilename: Audio.mp3
AudioLeadIn: 0
PreviewTime: 116548
Countdown: 0
SampleSet: Soft
StackLeniency: 0.7
Mode: 0
LetterboxInBreaks: 0
EpilepsyWarning: 1
WidescreenStoryboard: 1

[Editor]
DistanceSpacing: 1
BeatDivisor: 4
GridSize: 16
TimelineZoom: 1

[Metadata]
Title:Gareki no Yume
TitleUnicode:瓦礫の夢
Artist:Denkishiki Karen Ongaku Shuudan
ArtistUnicode:電気式華憐音楽集団
Creator:Dored
Version:Normal
Source:サクラノモリ†ドリーマーズ
Tags:Sakura no Mori Dreamers Denkare Japanese Metal Rock Jrock J-rock Eroge Galgame Visual Novel Video Game VN Opening OP Full Version Moonstone Misure LMT Otosaka-Yu Suzuki_1112 Lunala Rin Sa Rin_Sa Bellicose yf_bmp
BeatmapID:2169499
BeatmapSetID:1037741

[Difficulty]
HPDrainRate:4
CircleSize:3.5
OverallDifficulty:4.5
ApproachRate:5.5
SliderMultiplier:0.999999999999998
SliderTickRate:1

[Events]
//Background and Video events
0,0,"Hatsune.jpg",0,0
//Break Periods
2,27311,31986
2,141311,145986
2,174310,181986
2,201311,202986
2,207311,208986
//Storyboard Layer 0 (Background)
//Storyboard Layer 1 (Fail)
//Storyboard Layer 2 (Pass)
//Storyboard Layer 3 (Foreground)
Sprite,Foreground,Centre,"SB\output\0044_2S.png",0,0 MX,0,15121,18121,600 MY,0,15121,18121,292 S,0,15121,,0.4 F,0,15121,,1 MX,0,14371,,609 MY,0,14371,,300 F,0,14371,,0.1 F,0,14427,,0 MX,0,14483,,601 MY,0,14483,,283 F,0,14483,,0.1 F,0,14539,,0 MX,0,14595,,601 MY,0,14595,,302 F,0,14595,,0.1 F,0,14651,,0 MX,0,14707,,598 MY,0,14707,,303 F,0,14707,,0.1 F,0,14763,,0 MX,0,14819,,595 MY,0,14819,,287 F,0,14819,,0.1 F,0,14875,,0 MX,0,14931,,599 MY,0,14931,,294 F,0,14931,,0.1 F,0,14987,,0 MX,0,15043,,599 MY,0,15043,,300 F,0,15043,,0.1 F,0,15099,,0
Sprite,Foreground,Centre,"SB\output\006F_2S.png",0,0 MX,0,15121,18121,617.5 MY,0,15121,18121,292 S,0,15121,,0.4 F,0,15121,,1 MX,0,14371,,627.5 MY,0,14371,,306 F,0,14371,,0.1 F,0,14405,,0 MX,0,14439,,621.5 MY,0,14439,,286 F,0,14439,,0.1 F,0,14473,,0 MX,0,14507,,625.5 MY,0,14507,,301 F,0,14507,,0.1 F,0,14541,,0 MX,0,14575,,628.5 MY,0,14575,,280 F,0,14575,,0.1 F,0,14609,,0 MX,0,14643,,621.5 MY,0,14643,,292 F,0,14643,,0.1 F,0,14677,,0 MX,0,14711,,625.5 MY,0,14711,,295 F,0,14711,,0.1 F,0,14745,,0 MX,0,14779,,617.5 MY,0,14779,,284 F,0,14779,,0.1 F,0,14813,,0 MX,0,14847,,611.5 MY,0,14847,,291 F,0,14847,,0.1 F,0,14881,,0 MX,0,14915,,614.5 MY,0,14915,,298 F,0,14915,,0.1 F,0,14949,,0 MX,0,14983,,618.5 MY,0,14983,,295 F,0,14983,,0.1 F,0,15017,,0 MX,0,15051,,612.5 MY,0,15051,,290 F,0,15051,,0.1 F,0,15085,,0 MX,0,15119,,615.5 MY,0,15119,,295 F,0,15119,,0.1
Sprite,Foreground,Centre,"SB\output\0072_2S.png",0,0 MX,0,15121,18121,635 MY,0,15121,18121,292 S,0,15121,,0.4 F,0,15121,,1 MX,0,14371,,641 MY,0,14371,,280 F,0,14371,,0.1 F,0,14420,,0 MX,0,14469,,628 MY,0,14469,,303 F,0,14469,,0.1 F,0,14518,,0 MX,0,14567,,642 MY,0,14567,,287 F,0,14567,,0.1 F,0,14616,,0 MX,0,14665,,633 MY,0,14665,,283 F,0,14665,,0.1 F,0,14714,,0 MX,0,14763,,628 MY,0,14763,,290 F,0,14763,,0.1 F,0,14812,,0 MX,0,14861,,639 MY,0,14861,,294 F,0,14861,,0.1 F,0,14910,,0 MX,0,14959,,634 MY,0,14959,,286 F,0,14959,,0.1 F,0,15008,,0 MX,0,15057,,641 MY,0,15057,,297 F,0,15057,,0.1 F,0,15106,,0
Sprite,Foreground,Centre,"SB\output\0065_2S.png",0,0 MX,0,15121,18121,652.5 MY,0,15121,18121,292 S,0,15121,,0.4 F,0,15121,,1 MX,0,14371,,662.5 MY,0,14371,,297 F,0,14371,,0.1 F,0,14428,,0 MX,0,14485,,655.5 MY,0,14485,,284 F,0,14485,,0.1 F,0,14542,,0 MX,0,14599,,662.5 MY,0,14599,,302 F,0,14599,,0.1 F,0,14656,,0 MX,0,14713,,642.5 MY,0,14713,,300 F,0,14713,,0.1 F,0,14770,,0 MX,0,14827,,644.5 MY,0,14827,,295 F,0,14827,,0.1 F,0,14884,,0 MX,0,14941,,658.5 MY,0,14941,,286 F,0,14941,,0.1 F,0,14998,,0 MX,0,15055,,660.5 MY,0,15055,,291 F,0,15055,,0.1 F,0,15112,,0
Sprite,Foreground,Centre,"SB\output\0064_2S.png",0,0 MX,0,15121,18121,670 MY,0,15121,18121,292 S,0,15121,,0.4 F,0,15121,,1 MX,0,14371,,676 MY,0,14371,,301 F,0,14371,,0.1 F,0,14425,,0 MX,0,14479,,658 MY,0,14479,,298 F,0,14479,,0.1 F,0,14533,,0 MX,0,14587,,675 MY,0,14587,,282 F,0,14587,,0.1 F,0,14641,,0 MX,0,14695,,679 MY,0,14695,,284 F,0,14695,,0.1 F,0,14749,,0 MX,0,14803,,669 MY,0,14803,,292 F,0,14803,,0.1 F,0,14857,,0 MX,0,14911,,666 MY,0,14911,,295 F,0,14911,,0.1 F,0,14965,,0 MX,0,15019,,669 MY,0,15019,,298 F,0,15019,,0.1 F,0,15073,,0
Sprite,Foreground,Centre,"SB\output\0042_1L.png",0,0 MX,0,172386,172516,-430,195 MX,10,172516,173086,195,245 MY,0,173136,,230 S,0,172386,172516,1.2,0.2 S,10,172516,173086,0.2,0.12
Sprite,Foreground,Centre,"SB\output\0065_1L.png",0,0 MX,0,172386,172516,-180,236.6667 MX,10,172516,173086,236.6667,270 MY,0,173136,,230 S,0,172386,172516,1.2,0.2 S,10,172516,173086,0.2,0.12
Sprite,Foreground,Centre,"SB\output\0061_1L.png",0,0 MX,0,172386,172516,70,278.3333 MX,10,172516,173086,278.3333,295 MY,0,173136,,230 S,0,172386,172516,1.2,0.2 S,10,172516,173086,0.2,0.12
Sprite,Foreground,Centre,"SB\output\0074_1L.png",0,0 MX,0,172386,172516,320 MX,10,172516,173086,320 MY,0,173136,,230 S,0,172386,172516,1.2,0.2 S,10,172516,173086,0.2,0.12
Sprite,Foreground,Centre,"SB\output\006D_1L.png",0,0 MX,0,172386,172516,570,361.6667 MX,10,172516,173086,361.6667,345 MY,0,173136,,230 S,0,172386,172516,1.2,0.2 S,10,172516,173086,0.2,0.12
Sprite,Foreground,Centre,"SB\output\0061_1L.png",0,0 MX,0,172386,172516,820,403.3333 MX,10,172516,173086,403.3333,370 MY,0,173136,,230 S,0,172386,172516,1.2,0.2 S,10,172516,173086,0.2,0.12
Sprite,Foreground,Centre,"SB\output\0070_1L.png",0,0 MX,0,172386,172516,1070,445 MX,10,172516,173086,445,395 MY,0,173136,,230 S,0,172386,172516,1.2,0.2 S,10,172516,173086,0.2,0.12
Sprite,Foreground,Centre,"SB\output\0044_1S.png",0,0 F,0,172586,,1 MY,0,172586,172641,450,350 MY,10,172641,172886,350,290 MX,0,173136,,280 S,0,173136,,0.4 F,0,173136,,0
Sprite,Foreground,Centre,"SB\output\006F_1S.png",0,0 F,0,172644,,1 MY,0,172644,172699,450,350 MY,10,172699,172944,350,290 MX,0,173136,,300 S,0,173136,,0.4 F,0,173136,,0
Sprite,Foreground,Centre,"SB\output\0072_1S.png",0,0 F,0,172689,,1 MY,0,172689,172744,450,350 MY,10,172744,172989,350,290 MX,0,173136,,320 S,0,173136,,0.4 F,0,173136,,0
Sprite,Foreground,Centre,"SB\output\0065_1S.png",0,0 F,0,172722,,1 MY,0,172722,172777,450,350 MY,10,172777,173022,350,290 MX,0,173136,,340 S,0,173136,,0.4 F,0,173136,,0
Sprite,Foreground,Centre,"SB\output\0064_1S.png",0,0 F,0,172746,,1 MY,0,172746,172801,450,350 MY,10,172801,173046,350,290 MX,0,173136,,360 S,0,173136,,0.4 F,0,173136,,0
//Storyboard Sound Samples

[TimingPoints]
6111,375,4,2,1,40,1,0
11829,-100,4,2,1,70,0,0
12111,-100,4,2,1,70,0,1
12204,-100,4,2,1,70,0,0
18111,-100,4,2,1,75,0,0
27111,-100,4,2,1,70,0,0
30111,-100,4,2,1,65,0,0
33111,-100,4,2,1,60,0,0
36111,-100,4,2,1,70,0,0
39111,-100,4,2,1,60,0,0
42111,-100,4,2,1,70,0,0
56361,-100,4,2,1,75,0,0
58611,-100,4,2,1,75,0,1
67611,-100,4,2,1,75,0,0
70611,-100,4,2,1,75,0,1
82611,-100,4,2,1,75,0,0
91611,-100,4,2,1,70,0,0
114861,-100,4,2,1,75,0,0
117111,-100,4,2,1,75,0,1
126111,-100,4,2,1,75,0,0
129111,-100,4,2,1,75,0,1
141111,-100,4,2,1,75,0,0
145798,-100,4,2,1,70,0,0
159111,-100,4,2,1,75,0,0
165111,-100,4,2,1,75,0,1
168111,-100,4,2,1,75,0,0
168673,-100,4,2,1,70,0,0
170361,-100,4,2,1,70,0,1
171111,-100,4,2,1,75,0,0
174111,-100,4,2,1,65,0,0
184611,-100,4,2,1,70,0,0
185736,-100,4,2,1,75,0,0
186111,-100,4,2,1,75,0,1
198111,-100,4,2,1,70,0,0
216017,-100,4,2,1,5,0,0
216111,-100,4,2,1,70,0,0

[Colours]
Combo1 : 125,66,89
Combo2 : 91,4,187
Combo3 : 11,36,181
Combo4 : 74,117,105
SliderTrackOverride : 10,0,20

[HitObjects]
464,288,6111,5,2,0:0:0:0:
354,120,6861,2,0,L|255:137,2,99.9999999999998,2|0|2,0:0|0:0|0:0,0:0:0:0:
48,288,9111,5,2,0:0:0:0:
158,120,9861,2,0,L|256:137,2,99.9999999999998,2|0|2,0:0|0:0|0:0,0:0:0:0:
158,120,12111,6,0,P|151:83|144:46,2,74.9999999999999,4|0|0,1:2|1:0|1:0,0:0:0:0:
201,144,12861,2,0,P|259:100|332:110,1,150,8|0,0:0|1:0,0:0:0:0:
368,145,13611,2,0,P|404:138|441:131,2,74.9999999999999,6|8|8,1:2|0:0|0:0,0:0:0:0:
360,194,14361,1,14,0:0:0:0:
188,297,15111,6,0,P|181:333|174:370,2,74.9999999999999,6|0|0,1:2|1:0|1:0,0:0:0:0:
224,263,15861,2,0,P|150:250|76:236,1,150,8|0,0:0|1:0,0:0:0:0:
70,187,16611,2,0,P|37:204|0:206,2,74.9999999999999,4|8|8,1:2|0:0|0:0,0:0:0:0:
92,142,17361,1,14,0:0:0:0:
291,133,18111,6,0,P|298:170|305:207,2,74.9999999999999,6|10|2,1:2|0:0|1:2,0:0:0:0:
349,51,19048,2,0,L|357:1,2,49.9999999999999,2|0|2,1:0|1:0|1:0,0:0:0:0:
385,85,19611,2,0,P|432:95|465:132,1,99.9999999999998,4|0,1:2|1:0,0:0:0:0:
488,177,20173,2,0,P|478:226|470:275,1,99.9999999999998,10|0,0:0|1:0,0:0:0:0:
444,318,20736,1,10,0:0:0:0:
352,357,21111,6,0,P|302:347|253:339,1,99.9999999999998,4|0,1:2|1:0,0:0:0:0:
216,308,21673,2,0,P|183:344|135:355,1,99.9999999999998,10|8,0:0|0:3,0:0:0:0:
93,328,22236,1,4,1:0:0:0:
76,229,22611,6,0,P|39:236|2:243,2,74.9999999999999,6|10|2,1:2|0:0|1:2,0:0:0:0:
168,190,23548,2,0,L|218:198,2,49.9999999999999,2|0|2,1:0|1:0|1:0,0:0:0:0:
136,152,24111,2,0,P|120:105|134:58,1,99.9999999999998,4|0,1:2|1:0,0:0:0:0:
176,30,24673,2,0,P|225:39|274:47,1,99.9999999999998,10|0,0:0|1:0,0:0:0:0:
320,27,25236,1,10,0:0:0:0:
410,70,25611,6,0,B|440:98|440:98|425:154,1,99.9999999999998,4|0,1:2|1:0,0:0:0:0:
381,176,26173,2,0,P|377:225|404:266,1,99.9999999999998,10|0,0:0|1:0,0:0:0:0:
449,286,26736,1,8,0:0:0:0:
389,366,27111,5,4,1:2:0:0:
83,48,33111,5,4,1:2:0:0:
198,211,33861,2,0,P|218:256|208:304,1,99.9999999999998,2|2,3:2|0:0,0:0:0:0:
109,313,34611,2,0,P|88:267|98:219,1,99.9999999999998,2|2,3:2|0:0,0:0:0:0:
140,128,35361,1,2,3:2:0:0:
291,261,36111,6,0,P|254:296|206:303,2,99.9999999999998,6|0|0,1:2|1:0|1:0,0:0:0:0:
352,70,37611,2,0,P|389:35|437:28,2,99.9999999999998,2|0|0,0:0|1:0|1:0,0:0:0:0:
487,219,39111,5,4,1:2:0:0:
291,261,39861,2,0,P|282:212|274:163,1,99.9999999999998,2|2,3:2|1:2,0:0:0:0:
175,180,40611,2,0,P|184:229|192:278,1,99.9999999999998,2|2,3:2|0:2,0:0:0:0:
256,354,41361,1,2,1:2:0:0:
388,201,42111,6,0,P|437:209|486:218,2,99.9999999999998,6|0|0,1:2|1:0|1:0,0:0:0:0:
256,49,43611,2,0,P|305:58|354:66,2,99.9999999999998,2|0|0,0:0|1:0|1:0,0:0:0:0:
216,18,44548,2,0,P|167:13|124:37,1,99.9999999999998,0|12,1:0|0:0,0:0:0:0:
108,85,45111,5,2,1:2:0:0:
97,237,45673,1,2,1:2:0:0:
239,295,46236,1,10,0:0:0:0:
338,177,46798,1,10,1:3:0:0:
256,49,47361,2,0,L|176:55,2,49.9999999999999,14|2|2,0:0|0:0|0:0,0:0:0:0:
355,41,48111,5,6,1:2:0:0:
437,169,48673,1,2,1:2:0:0:
309,251,49236,1,10,0:0:0:0:
227,123,49798,1,10,1:3:0:0:
99,205,50361,2,0,P|108:254|116:303,1,99.9999999999998,14|0,0:0|0:0,0:0:0:0:
200,357,51111,5,6,1:2:0:0:
309,251,51673,1,2,1:2:0:0:
227,123,52236,1,10,0:0:0:0:
336,17,52798,1,10,1:3:0:0:
418,145,53361,2,0,P|467:145|507:118,1,99.9999999999998,14|10,0:0|0:0,0:0:0:0:
438,47,54111,5,2,1:2:0:0:
321,139,54673,1,2,1:2:0:0:
428,243,55236,1,2,1:2:0:0:
311,335,55798,1,2,1:2:0:0:
204,231,56361,2,0,L|154:239,1,49.9999999999999,6|8,1:2|0:3,0:0:0:0:
120,276,56736,2,0,L|70:267,1,49.9999999999999,0|4,1:0|0:3,0:0:0:0:
43,225,57111,6,0,P|36:262|29:299,2,74.9999999999999,6|6|6,1:2|1:2|1:2,0:0:0:0:
20,181,57861,2,0,P|0:136|7:87,1,99.9999999999998,6|10,1:2|0:0,0:0:0:0:
106,76,58611,6,0,P|113:39|120:2,2,74.9999999999999,6|2|2,1:2|1:2|1:2,0:0:0:0:
189,130,59548,1,10,0:0:0:0:
189,130,59736,2,0,L|238:138,1,49.9999999999999,2|10,1:2|0:3,0:0:0:0:
280,165,60111,2,0,P|313:148|350:146,2,74.9999999999999,6|2|2,1:2|1:2|1:2,0:0:0:0:
208,234,61048,2,0,L|159:242,1,49.9999999999999,10|10,0:0|0:3,0:0:0:0:
112,331,61611,6,0,P|75:324|38:317,2,74.9999999999999,6|2|2,1:0|1:2|1:2,0:0:0:0:
211,332,62548,2,0,L|219:381,2,49.9999999999999,10|2|10,0:0|1:2|0:3,0:0:0:0:
258,315,63111,2,0,P|285:290|300:256,2,74.9999999999999,6|0|0,1:2|1:0|1:0,0:0:0:0:
208,234,64048,1,8,0:0:0:0:
208,234,64236,2,0,L|200:185,1,49.9999999999999,2|10,1:2|0:0,0:0:0:0:
224,140,64611,6,0,P|261:147|298:154,2,74.9999999999999,6|2|2,1:0|1:2|1:2,0:0:0:0:
256,45,65548,1,10,0:0:0:0:
256,45,65736,2,0,L|305:37,1,49.9999999999999,2|8,1:2|0:3,0:0:0:0:
351,17,66111,2,0,P|388:18|421:35,2,74.9999999999999,6|2|2,1:2|1:2|1:2,0:0:0:0:
363,116,67048,2,0,L|355:165,2,49.9999999999999,10|10|6,0:0|0:3|0:3,0:0:0:0:
412,125,67611,6,0,P|461:133|510:142,1,99.9999999999998,6|8,1:0|0:0,0:0:0:0:
448,220,68361,1,4,1:0:0:0:
511,298,68736,1,8,0:0:0:0:
448,376,69111,2,0,P|398:376|358:348,1,99.9999999999998,4|8,1:0|0:0,0:0:0:0:
295,270,69861,1,8,0:3:0:0:
214,329,70236,2,0,L|164:333,1,49.9999999999999,10|10,0:0|0:0,0:0:0:0:
114,329,70611,6,0,P|81:346|44:348,2,74.9999999999999,6|2|10,1:2|0:0|0:0,0:0:0:0:
161,241,71548,1,10,0:0:0:0:
161,241,71736,2,0,L|112:233,1,49.9999999999999,2|10,0:0|0:0,0:0:0:0:
72,203,72111,2,0,P|35:210|-2:217,2,74.9999999999999,6|2|10,1:0|0:0|0:0,0:0:0:0:
140,129,73048,2,0,L|148:80,1,49.9999999999999,10|2,0:0|0:0,0:0:0:0:
72,13,73611,6,0,P|35:20|-2:27,2,74.9999999999999,6|2|10,1:2|0:0|0:0,0:0:0:0:
148,80,74548,2,0,L|140:129,2,49.9999999999999,10|2|10,0:0|0:0|0:0,0:0:0:0:
176,38,75111,2,0,P|224:27|269:47,1,99.9999999999998,6|0,1:0|1:0,0:0:0:0:
314,137,75861,1,0,1:0:0:0:
247,211,76236,2,0,L|255:260,1,49.9999999999999,2|10,0:0|0:0,0:0:0:0:
248,310,76611,6,0,P|211:303|174:296,2,74.9999999999999,6|2|10,1:2|0:0|0:0,0:0:0:0:
329,368,77548,1,10,0:0:0:0:
329,368,77736,2,0,L|378:360,1,49.9999999999999,2|8,0:0|0:0,0:0:0:0:
416,327,78111,2,0,P|453:328|486:345,2,74.9999999999999,6|2|10,1:0|0:0|0:0,0:0:0:0:
353,248,79048,2,0,L|345:199,2,49.9999999999999,10|10|6,0:0|0:3|0:3,0:0:0:0:
401,235,79611,6,0,P|450:225|499:217,1,99.9999999999998,6|8,1:2|0:0,0:0:0:0:
500,117,80361,1,0,1:0:0:0:
414,67,80736,1,8,0:3:0:0:
328,117,81111,1,2,1:2:0:0:
235,61,81486,1,10,0:0:0:0:
156,117,81861,2,0,B|137:163|137:163|157:208,1,99.9999999999998,2|8,1:2|0:0,0:0:0:0:
255,233,82611,6,0,P|292:226|329:219,2,74.9999999999999,6|10|2,1:2|0:0|1:2,0:0:0:0:
255,333,83548,2,0,L|304:341,2,49.9999999999999,2|0|2,1:0|1:0|1:0,0:0:0:0:
208,351,84111,2,0,P|164:373|115:367,1,99.9999999999998,4|0,1:2|1:0,0:0:0:0:
72,340,84673,2,0,P|63:290|53:241,1,99.9999999999998,10|0,0:0|1:0,0:0:0:0:
14,211,85236,1,10,0:0:0:0:
32,112,85611,6,0,P|81:103|130:93,1,99.9999999999998,4|0,1:2|1:0,0:0:0:0:
168,126,86173,2,0,P|201:89|249:78,1,99.9999999999998,10|8,0:0|0:3,0:0:0:0:
298,88,86736,1,4,1:0:0:0:
392,55,87111,6,0,P|374:22|345:0,2,74.9999999999999,6|10|2,1:2|0:0|1:2,0:0:0:0:
448,137,88048,2,0,L|497:128,2,49.9999999999999,2|0|2,1:0|1:0|1:0,0:0:0:0:
422,180,88611,2,0,P|372:188|323:198,1,99.9999999999998,4|0,1:2|1:0,0:0:0:0:
288,233,89173,2,0,P|239:239|195:216,1,99.9999999999998,10|0,0:0|1:0,0:0:0:0:
159,182,89736,1,10,0:0:0:0:
68,224,90111,6,0,P|59:273|49:322,1,99.9999999999998,4|0,1:2|1:0,0:0:0:0:
80,361,90673,2,0,P|121:334|170:336,1,99.9999999999998,10|0,0:0|1:0,0:0:0:0:
217,356,91236,1,8,0:0:0:0:
313,328,91611,6,0,P|361:338|411:347,1,99.9999999999998,4|8,1:2|0:0,0:0:0:0:
492,288,92361,2,0,P|481:239|472:189,1,99.9999999999998,2|10,1:2|0:0,0:0:0:0:
411,112,93111,2,0,P|454:88|503:93,2,99.9999999999998,2|10|2,1:2|0:0|1:2,0:0:0:0:
372,204,94236,1,8,0:0:0:0:
277,166,94611,6,0,P|287:117|296:67,2,99.9999999999998,6|8|0,1:2|0:0|1:2,0:0:0:0:
238,258,95736,1,8,0:0:0:0:
158,318,96111,2,0,P|109:323|65:299,1,99.9999999999998,2|8,1:2|0:0,0:0:0:0:
22,209,96861,1,0,1:2:0:0:
84,130,97236,2,0,L|133:121,1,49.9999999999999,8|8,0:0|0:0,0:0:0:0:
183,135,97611,6,0,P|186:85|218:48,1,99.9999999999998,4|8,1:2|0:0,0:0:0:0:
310,78,98361,2,0,P|307:127|276:165,1,99.9999999999998,2|10,1:2|0:0,0:0:0:0:
238,258,99111,2,0,P|286:268|331:248,2,99.9999999999998,2|10|2,1:2|0:0|1:2,0:0:0:0:
158,318,100236,1,8,0:0:0:0:
95,239,100611,6,0,P|62:275|57:324,2,99.9999999999998,6|8|0,1:2|0:0|1:2,0:0:0:0:
158,318,101736,1,8,0:0:0:0:
249,357,102111,2,0,P|298:348|347:338,1,99.9999999999998,2|8,1:2|0:0,0:0:0:0:
442,368,102861,1,0,1:2:0:0:
471,272,103236,2,0,L|466:222,1,49.9999999999999,8|8,0:0|0:0,0:0:0:0:
459,172,103611,5,2,1:2:0:0:
325,239,104173,1,2,1:2:0:0:
200,156,104736,1,10,0:0:0:0:
65,222,105298,1,10,1:3:0:0:
131,357,105861,2,0,L|180:348,2,49.9999999999999,14|2|2,0:0|0:0|0:0,0:0:0:0:
31,370,106611,5,6,1:2:0:0:
65,222,107173,1,2,1:2:0:0:
213,256,107736,1,10,0:0:0:0:
247,108,108298,1,10,1:3:0:0:
395,142,108861,2,0,P|425:103|428:53,1,99.9999999999998,14|0,0:0|0:0,0:0:0:0:
348,0,109611,5,6,1:2:0:0:
247,108,110173,1,2,1:2:0:0:
318,237,110736,1,10,0:0:0:0:
217,344,111298,1,10,1:3:0:0:
84,281,111861,2,0,P|74:231|64:182,1,99.9999999999998,14|10,0:0|0:0,0:0:0:0:
98,88,112611,5,2,1:2:0:0:
247,108,113173,1,2,1:2:0:0:
396,128,113736,1,2,1:2:0:0:
376,277,114298,1,2,1:2:0:0:
396,128,114861,2,0,L|346:136,1,49.9999999999999,6|8,1:2|0:3,0:0:0:0:
306,166,115236,2,0,L|256:157,1,49.9999999999999,0|4,1:0|0:3,0:0:0:0:
247,108,115611,6,0,P|240:71|233:34,2,74.9999999999999,6|6|6,1:2|1:2|1:2,0:0:0:0:
256,157,116361,2,0,P|211:178|162:171,1,99.9999999999998,6|10,1:2|0:0,0:0:0:0:
86,105,117111,6,0,P|79:68|72:31,2,74.9999999999999,6|2|2,1:2|1:2|1:2,0:0:0:0:
67,204,118048,1,10,0:0:0:0:
67,204,118236,2,0,L|17:212,1,49.9999999999999,2|10,1:2|0:3,0:0:0:0:
8,261,118611,2,0,P|0:297|7:333,2,74.9999999999999,6|2|2,1:2|1:2|1:2,0:0:0:0:
100,298,119548,2,0,L|108:348,1,49.9999999999999,10|10,0:0|0:3,0:0:0:0:
204,320,120111,6,0,P|211:283|218:246,2,74.9999999999999,6|2|2,1:0|1:2|1:2,0:0:0:0:
303,328,121048,2,0,L|311:377,2,49.9999999999999,10|2|10,0:0|1:2|0:3,0:0:0:0:
346,303,121611,2,0,P|380:316|417:315,2,74.9999999999999,6|0|0,1:2|1:0|1:0,0:0:0:0:
397,217,122548,1,8,0:0:0:0:
397,217,122736,2,0,L|447:209,1,49.9999999999999,2|10,1:2|0:0,0:0:0:0:
495,217,123111,6,0,P|502:254|509:291,2,74.9999999999999,6|2|2,1:0|1:2|1:2,0:0:0:0:
468,120,124048,1,10,0:0:0:0:
468,120,124236,2,0,L|476:70,1,49.9999999999999,2|8,1:2|0:3,0:0:0:0:
440,34,124611,2,0,P|403:27|366:20,2,74.9999999999999,6|2|2,1:2|1:2|1:2,0:0:0:0:
371,108,125548,2,0,L|322:100,2,49.9999999999999,10|10|6,0:0|0:3|0:3,0:0:0:0:
378,157,126111,6,0,P|349:197|303:213,1,99.9999999999998,6|8,1:0|0:0,0:0:0:0:
217,159,126861,1,4,1:0:0:0:
228,61,127236,1,8,0:0:0:0:
148,2,127611,2,0,P|99:10|50:19,1,99.9999999999998,4|8,1:0|0:0,0:0:0:0:
1,106,128361,1,8,0:3:0:0:
52,191,128736,2,0,L|47:240,1,49.9999999999999,10|10,0:0|0:0,0:0:0:0:
80,278,129111,6,0,P|42:274|5:271,2,74.9999999999999,6|2|10,1:2|0:0|0:0,0:0:0:0:
167,327,130048,1,10,0:0:0:0:
167,327,130236,2,0,L|216:318,1,49.9999999999999,2|10,0:0|0:0,0:0:0:0:
255,286,130611,2,0,P|272:253|274:216,2,74.9999999999999,6|2|10,1:0|0:0|0:0,0:0:0:0:
175,225,131548,2,0,L|170:176,1,49.9999999999999,10|2,0:0|0:0,0:0:0:0:
222,89,132111,6,0,P|228:52|235:15,2,74.9999999999999,6|2|10,1:2|0:0|0:0,0:0:0:0:
319,112,133048,2,0,L|328:63,2,49.9999999999999,10|2|10,0:0|0:0|0:0,0:0:0:0:
348,153,133611,2,0,P|388:180|437:177,1,99.9999999999998,6|0,1:0|1:0,0:0:0:0:
510,246,134361,1,0,1:0:0:0:
438,316,134736,2,0,L|388:324,1,49.9999999999999,2|10,0:0|0:0,0:0:0:0:
346,296,135111,6,0,P|353:333|360:370,2,74.9999999999999,6|2|10,1:2|0:0|0:0,0:0:0:0:
246,296,136048,1,10,0:0:0:0:
246,296,136236,2,0,L|237:345,1,49.9999999999999,2|8,0:0|0:0,0:0:0:0:
192,368,136611,2,0,P|155:375|119:367,2,74.9999999999999,6|2|10,1:0|0:0|0:0,0:0:0:0:
155,274,137548,2,0,L|147:225,2,49.9999999999999,10|10|6,0:0|0:3|0:3,0:0:0:0:
104,272,138111,6,0,P|55:262|6:254,1,99.9999999999998,6|8,1:2|0:0,0:0:0:0:
6,153,138861,1,0,1:0:0:0:
78,82,139236,1,8,0:3:0:0:
179,82,139611,1,2,1:2:0:0:
250,153,139986,1,10,0:0:0:0:
321,82,140361,2,0,B|367:62|367:62|412:82,1,99.9999999999998,2|8,1:2|0:0,0:0:0:0:
483,153,141111,5,4,1:2:0:0:
129,153,147111,5,6,1:2:0:0:
210,95,147486,1,2,1:2:0:0:
268,176,147861,1,2,1:2:0:0:
187,234,148236,1,2,0:0:0:0:
245,315,148611,2,0,B|298:328|346:295|334:276|377:242|426:256,1,200,2|0,0:0|1:2,0:0:0:0:
472,61,150111,5,6,1:2:0:0:
376,92,150486,1,2,1:2:0:0:
291,37,150861,1,2,1:2:0:0:
195,68,151236,1,2,0:0:0:0:
110,13,151611,2,0,P|29:54|69:134,1,200,2|0,0:0|1:2,0:0:0:0:
211,276,153111,5,6,1:2:0:0:
154,358,153486,1,2,1:2:0:0:
58,330,153861,1,2,1:2:0:0:
55,230,154236,1,2,0:0:0:0:
150,194,154611,2,0,B|199:175|244:207|244:207|285:175|340:195,1,200,2|0,0:0|1:2,0:0:0:0:
504,308,156111,5,6,1:2:0:0:
413,351,156486,1,2,1:2:0:0:
330,293,156861,1,2,1:2:0:0:
339,195,157236,1,2,0:0:0:0:
428,153,157611,2,0,B|459:121|466:64|429:26|383:14|347:45,1,200,2|0,0:0|1:2,0:0:0:0:
160,96,159111,6,0,P|124:89|87:82,2,74.9999999999999,6|2|10,1:2|0:0|0:0,0:0:0:0:
192,135,159861,2,0,P|228:128|265:121,2,74.9999999999999,2|2|10,1:2|1:2|0:0,0:0:0:0:
174,182,160611,2,0,P|138:175|101:168,2,74.9999999999999,6|2|10,1:0|0:0|0:0,0:0:0:0:
205,221,161361,2,0,P|212:257|219:294,1,74.9999999999999,2|2,1:2|1:2,0:0:0:0:
343,304,162111,6,0,P|327:337|331:374,2,74.9999999999999,6|2|10,1:2|0:0|0:0,0:0:0:0:
389,286,162861,2,0,P|422:301|459:297,2,74.9999999999999,2|2|10,1:2|1:2|0:0,0:0:0:0:
371,240,163611,2,0,P|386:206|382:169,2,74.9999999999999,6|2|10,1:0|0:0|0:0,0:0:0:0:
325,258,164361,2,0,P|275:262|225:266,1,99.9999999999998,0|0,1:0|0:0,0:0:0:0:
174,182,165111,5,6,1:2:0:0:
84,226,165486,2,0,P|93:275|100:324,2,99.9999999999998,2|0|0,1:2|1:0|1:0,0:0:0:0:
32,141,166611,1,6,1:2:0:0:
122,97,166986,1,2,1:0:0:0:
174,182,167361,2,0,P|224:182|264:154,1,99.9999999999998,2|0,1:2|1:2,0:0:0:0:
304,62,168111,5,6,1:2:0:0:
436,129,168673,1,6,1:2:0:0:
338,240,169236,1,6,1:2:0:0:
470,307,169798,1,6,1:2:0:0:
338,240,170361,2,0,P|288:239|248:267,1,99.9999999999998,6|4,1:2|0:3,0:0:0:0:
152,299,171111,6,0,P|145:335|138:372,2,74.9999999999999,6|6|6,1:2|1:2|1:2,0:0:0:0:
112,268,171861,2,0,P|76:281|41:293,2,74.9999999999999,6|6|6,1:2|1:2|1:2,0:0:0:0:
119,218,172611,2,0,P|90:194|61:169,2,74.9999999999999,6|6|6,1:2|1:2|1:2,0:0:0:0:
165,199,173361,2,0,P|218:126|145:72,1,200,6|6,1:2|1:0,0:0:0:0:
145,71,183111,5,6,1:2:0:0:
232,120,183486,2,0,P|281:112|330:103,1,99.9999999999998,8|0,0:0|1:0,0:0:0:0:
421,60,184236,1,8,0:0:0:0:
487,134,184611,2,0,P|501:181|487:229,1,99.9999999999998,4|8,1:0|0:0,0:0:0:0:
422,302,185361,1,8,0:3:0:0:
324,278,185736,2,0,L|315:327,1,49.9999999999999,10|10,0:0|0:0,0:0:0:0:
272,353,186111,6,0,P|309:360|346:367,2,74.9999999999999,6|2|10,1:2|0:0|0:0,0:0:0:0:
192,293,187048,1,10,0:0:0:0:
192,293,187236,2,0,L|143:302,1,49.9999999999999,2|10,0:0|0:0,0:0:0:0:
92,304,187611,2,0,P|77:338|79:375,2,74.9999999999999,6|2|10,1:0|0:0|0:0,0:0:0:0:
120,208,188548,2,0,L|111:159,1,49.9999999999999,10|2,0:0|0:0,0:0:0:0:
89,60,189111,6,0,P|52:66|15:73,2,74.9999999999999,6|2|10,1:2|0:0|0:0,0:0:0:0:
184,89,190048,2,0,L|233:80,2,49.9999999999999,10|2|10,0:0|0:0|0:0,0:0:0:0:
201,136,190611,2,0,P|239:167|251:214,1,99.9999999999998,6|0,1:0|1:0,0:0:0:0:
192,293,191361,1,0,1:0:0:0:
272,353,191736,2,0,L|321:344,1,49.9999999999999,2|10,0:0|0:0,0:0:0:0:
352,305,192111,6,0,P|386:320|423:318,2,74.9999999999999,6|2|10,1:2|0:0|0:0,0:0:0:0:
404,219,193048,1,10,0:0:0:0:
404,219,193236,2,0,L|413:170,1,49.9999999999999,2|8,0:0|0:0,0:0:0:0:
425,121,193611,2,0,P|462:127|499:134,2,74.9999999999999,6|2|10,1:0|0:0|0:0,0:0:0:0:
342,63,194548,2,0,L|334:14,2,49.9999999999999,10|10|6,0:0|0:3|0:3,0:0:0:0:
312,103,195111,6,0,P|267:123|218:116,1,99.9999999999998,6|8,1:2|0:0,0:0:0:0:
144,48,195861,1,0,1:0:0:0:
76,122,196236,1,8,0:3:0:0:
150,190,196611,1,2,1:2:0:0:
82,264,196986,1,10,0:0:0:0:
156,332,197361,2,0,B|202:352|202:352|247:332,1,99.9999999999998,2|8,1:2|0:0,0:0:0:0:
338,288,198111,6,0,P|345:324|352:361,2,74.9999999999999,6|2|10,1:2|1:2|0:3,0:0:0:0:
382,264,198861,2,0,P|389:228|396:191,2,74.9999999999999,6|2|8,1:0|1:2|0:3,0:0:0:0:
424,290,199611,2,0,P|431:326|438:363,2,74.9999999999999,6|2|10,1:2|1:2|0:3,0:0:0:0:
468,266,200361,1,6,1:0:0:0:
329,119,201111,5,6,1:2:0:0:
183,119,204111,6,0,P|151:100|114:100,2,74.9999999999999,6|2|10,1:2|0:0|0:0,0:0:0:0:
232,112,204861,2,0,P|250:80|250:43,2,74.9999999999999,2|0|10,1:2|1:0|0:0,0:0:0:0:
239,161,205611,2,0,P|270:179|307:179,2,74.9999999999999,6|2|10,1:0|0:0|0:0,0:0:0:0:
190,168,206361,1,2,1:2:0:0:
308,329,207111,5,4,1:2:0:0:
256,192,210111,5,4,1:2:0:0:
256,192,210204,12,8,216111,0:0:0:0:
