osu file format v14

[General]
AudioFilename: Audio.mp3
AudioLeadIn: 0
PreviewTime: 116548
Countdown: 0
SampleSet: Soft
StackLeniency: 0.3
Mode: 0
LetterboxInBreaks: 0
EpilepsyWarning: 1
WidescreenStoryboard: 1

[Editor]
DistanceSpacing: 1.4
BeatDivisor: 4
GridSize: 4
TimelineZoom: 1.8

[Metadata]
Title:Gareki no Yume
TitleUnicode:瓦礫の夢
Artist:Denkishiki Karen Ongaku Shuudan
ArtistUnicode:電気式華憐音楽集団
Creator:Dored
Version:Misure's Insane
Source:サクラノモリ†ドリーマーズ
Tags:Sakura no Mori Dreamers Denkare Japanese Metal Rock Jrock J-rock Eroge Galgame Visual Novel Video Game VN Opening OP Full Version Moonstone Misure LMT Otosaka-Yu Suzuki_1112 Lunala Rin Sa Rin_Sa Bellicose yf_bmp
BeatmapID:2219332
BeatmapSetID:1037741

[Difficulty]
HPDrainRate:5.1
CircleSize:4.1
OverallDifficulty:8.1
ApproachRate:9.1
SliderMultiplier:1.4
SliderTickRate:1

[Events]
//Background and Video events
0,0,"Mahoro.jpg",0,0
//Break Periods
2,30311,32527
2,141311,145214
2,175061,182527
//Storyboard Layer 0 (Background)
//Storyboard Layer 1 (Fail)
//Storyboard Layer 2 (Pass)
//Storyboard Layer 3 (Foreground)
Sprite,Foreground,Centre,"SB\output\004D_2S.png",0,0 MX,0,15121,18121,599.5 MY,0,15121,18121,292 S,0,15121,,0.4 F,0,15121,,1 MX,0,14371,,608.5 MY,0,14371,,300 F,0,14371,,0.1 F,0,14427,,0 MX,0,14483,,600.5 MY,0,14483,,283 F,0,14483,,0.1 F,0,14539,,0 MX,0,14595,,600.5 MY,0,14595,,302 F,0,14595,,0.1 F,0,14651,,0 MX,0,14707,,597.5 MY,0,14707,,303 F,0,14707,,0.1 F,0,14763,,0 MX,0,14819,,594.5 MY,0,14819,,287 F,0,14819,,0.1 F,0,14875,,0 MX,0,14931,,598.5 MY,0,14931,,294 F,0,14931,,0.1 F,0,14987,,0 MX,0,15043,,598.5 MY,0,15043,,300 F,0,15043,,0.1 F,0,15099,,0
Sprite,Foreground,Centre,"SB\output\0069_2S.png",0,0 MX,0,15121,18121,613.7 MY,0,15121,18121,292 S,0,15121,,0.4 F,0,15121,,1 MX,0,14371,,623.7 MY,0,14371,,306 F,0,14371,,0.1 F,0,14405,,0 MX,0,14439,,617.7 MY,0,14439,,286 F,0,14439,,0.1 F,0,14473,,0 MX,0,14507,,621.7 MY,0,14507,,301 F,0,14507,,0.1 F,0,14541,,0 MX,0,14575,,624.7 MY,0,14575,,280 F,0,14575,,0.1 F,0,14609,,0 MX,0,14643,,617.7 MY,0,14643,,292 F,0,14643,,0.1 F,0,14677,,0 MX,0,14711,,621.7 MY,0,14711,,295 F,0,14711,,0.1 F,0,14745,,0 MX,0,14779,,613.7 MY,0,14779,,284 F,0,14779,,0.1 F,0,14813,,0 MX,0,14847,,607.7 MY,0,14847,,291 F,0,14847,,0.1 F,0,14881,,0 MX,0,14915,,610.7 MY,0,14915,,298 F,0,14915,,0.1 F,0,14949,,0 MX,0,14983,,614.7 MY,0,14983,,295 F,0,14983,,0.1 F,0,15017,,0 MX,0,15051,,608.7 MY,0,15051,,290 F,0,15051,,0.1 F,0,15085,,0 MX,0,15119,,611.7 MY,0,15119,,295 F,0,15119,,0.1
Sprite,Foreground,Centre,"SB\output\0073_2S.png",0,0 MX,0,15121,18121,627.9 MY,0,15121,18121,292 S,0,15121,,0.4 F,0,15121,,1 MX,0,14371,,633.9 MY,0,14371,,280 F,0,14371,,0.1 F,0,14420,,0 MX,0,14469,,620.9 MY,0,14469,,303 F,0,14469,,0.1 F,0,14518,,0 MX,0,14567,,634.9 MY,0,14567,,287 F,0,14567,,0.1 F,0,14616,,0 MX,0,14665,,625.9 MY,0,14665,,283 F,0,14665,,0.1 F,0,14714,,0 MX,0,14763,,620.9 MY,0,14763,,290 F,0,14763,,0.1 F,0,14812,,0 MX,0,14861,,631.9 MY,0,14861,,294 F,0,14861,,0.1 F,0,14910,,0 MX,0,14959,,626.9 MY,0,14959,,286 F,0,14959,,0.1 F,0,15008,,0 MX,0,15057,,633.9 MY,0,15057,,297 F,0,15057,,0.1 F,0,15106,,0
Sprite,Foreground,Centre,"SB\output\0075_2S.png",0,0 MX,0,15121,18121,642.1 MY,0,15121,18121,292 S,0,15121,,0.4 F,0,15121,,1 MX,0,14371,,652.1 MY,0,14371,,297 F,0,14371,,0.1 F,0,14428,,0 MX,0,14485,,645.1 MY,0,14485,,284 F,0,14485,,0.1 F,0,14542,,0 MX,0,14599,,652.1 MY,0,14599,,302 F,0,14599,,0.1 F,0,14656,,0 MX,0,14713,,632.1 MY,0,14713,,300 F,0,14713,,0.1 F,0,14770,,0 MX,0,14827,,634.1 MY,0,14827,,295 F,0,14827,,0.1 F,0,14884,,0 MX,0,14941,,648.1 MY,0,14941,,286 F,0,14941,,0.1 F,0,14998,,0 MX,0,15055,,650.1 MY,0,15055,,291 F,0,15055,,0.1 F,0,15112,,0
Sprite,Foreground,Centre,"SB\output\0072_2S.png",0,0 MX,0,15121,18121,656.3 MY,0,15121,18121,292 S,0,15121,,0.4 F,0,15121,,1 MX,0,14371,,662.3 MY,0,14371,,301 F,0,14371,,0.1 F,0,14425,,0 MX,0,14479,,644.3 MY,0,14479,,298 F,0,14479,,0.1 F,0,14533,,0 MX,0,14587,,661.3 MY,0,14587,,282 F,0,14587,,0.1 F,0,14641,,0 MX,0,14695,,665.3 MY,0,14695,,284 F,0,14695,,0.1 F,0,14749,,0 MX,0,14803,,655.3 MY,0,14803,,292 F,0,14803,,0.1 F,0,14857,,0 MX,0,14911,,652.3 MY,0,14911,,295 F,0,14911,,0.1 F,0,14965,,0 MX,0,15019,,655.3 MY,0,15019,,298 F,0,15019,,0.1 F,0,15073,,0
Sprite,Foreground,Centre,"SB\output\0065_2S.png",0,0 MX,0,15121,18121,670.5 MY,0,15121,18121,292 S,0,15121,,0.4 F,0,15121,,1 MX,0,14371,,678.5 MY,0,14371,,299 F,0,14371,,0.1 F,0,14430,,0 MX,0,14489,,682.5 MY,0,14489,,286 F,0,14489,,0.1 F,0,14548,,0 MX,0,14607,,670.5 MY,0,14607,,296 F,0,14607,,0.1 F,0,14666,,0 MX,0,14725,,665.5 MY,0,14725,,286 F,0,14725,,0.1 F,0,14784,,0 MX,0,14843,,677.5 MY,0,14843,,285 F,0,14843,,0.1 F,0,14902,,0 MX,0,14961,,663.5 MY,0,14961,,283 F,0,14961,,0.1 F,0,15020,,0 MX,0,15079,,672.5 MY,0,15079,,295 F,0,15079,,0.1
Sprite,Foreground,Centre,"SB\output\0042_1L.png",0,0 MX,0,172386,172516,-430,195 MX,10,172516,173086,195,245 MY,0,173136,,230 S,0,172386,172516,1.2,0.2 S,10,172516,173086,0.2,0.12
Sprite,Foreground,Centre,"SB\output\0065_1L.png",0,0 MX,0,172386,172516,-180,236.6667 MX,10,172516,173086,236.6667,270 MY,0,173136,,230 S,0,172386,172516,1.2,0.2 S,10,172516,173086,0.2,0.12
Sprite,Foreground,Centre,"SB\output\0061_1L.png",0,0 MX,0,172386,172516,70,278.3333 MX,10,172516,173086,278.3333,295 MY,0,173136,,230 S,0,172386,172516,1.2,0.2 S,10,172516,173086,0.2,0.12
Sprite,Foreground,Centre,"SB\output\0074_1L.png",0,0 MX,0,172386,172516,320 MX,10,172516,173086,320 MY,0,173136,,230 S,0,172386,172516,1.2,0.2 S,10,172516,173086,0.2,0.12
Sprite,Foreground,Centre,"SB\output\006D_1L.png",0,0 MX,0,172386,172516,570,361.6667 MX,10,172516,173086,361.6667,345 MY,0,173136,,230 S,0,172386,172516,1.2,0.2 S,10,172516,173086,0.2,0.12
Sprite,Foreground,Centre,"SB\output\0061_1L.png",0,0 MX,0,172386,172516,820,403.3333 MX,10,172516,173086,403.3333,370 MY,0,173136,,230 S,0,172386,172516,1.2,0.2 S,10,172516,173086,0.2,0.12
Sprite,Foreground,Centre,"SB\output\0070_1L.png",0,0 MX,0,172386,172516,1070,445 MX,10,172516,173086,445,395 MY,0,173136,,230 S,0,172386,172516,1.2,0.2 S,10,172516,173086,0.2,0.12
Sprite,Foreground,Centre,"SB\output\004D_1S.png",0,0 F,0,172586,,1 MY,0,172586,172641,450,350 MY,10,172641,172886,350,290 MX,0,173136,,279.4286 S,0,173136,,0.4 F,0,173136,,0
Sprite,Foreground,Centre,"SB\output\0069_1S.png",0,0 F,0,172634,,1 MY,0,172634,172689,450,350 MY,10,172689,172934,350,290 MX,0,173136,,295.6571 S,0,173136,,0.4 F,0,173136,,0
Sprite,Foreground,Centre,"SB\output\0073_1S.png",0,0 F,0,172673,,1 MY,0,172673,172728,450,350 MY,10,172728,172973,350,290 MX,0,173136,,311.8857 S,0,173136,,0.4 F,0,173136,,0
Sprite,Foreground,Centre,"SB\output\0075_1S.png",0,0 F,0,172704,,1 MY,0,172704,172759,450,350 MY,10,172759,173004,350,290 MX,0,173136,,328.1143 S,0,173136,,0.4 F,0,173136,,0
Sprite,Foreground,Centre,"SB\output\0072_1S.png",0,0 F,0,172728,,1 MY,0,172728,172783,450,350 MY,10,172783,173028,350,290 MX,0,173136,,344.3429 S,0,173136,,0.4 F,0,173136,,0
Sprite,Foreground,Centre,"SB\output\0065_1S.png",0,0 F,0,172746,,1 MY,0,172746,172801,450,350 MY,10,172801,173046,350,290 MX,0,173136,,360.5714 S,0,173136,,0.4 F,0,173136,,0
//Storyboard Sound Samples

[TimingPoints]
6111,375,4,2,1,40,1,0
6111,-133.333333333333,4,2,1,40,0,0
7611,-200,4,2,1,40,0,0
9111,-133.333333333333,4,2,1,40,0,0
10611,-200,4,2,1,40,0,0
11829,-50,4,2,1,70,0,0
12111,-50,4,2,1,80,0,0
14361,-40,4,2,1,80,0,0
15111,-50,4,2,1,80,0,0
17361,-40,4,2,1,80,0,0
18111,-50,4,2,1,80,0,0
20173,-66.6666666666667,4,2,1,80,0,0
20736,-50,4,2,1,80,0,0
21673,-66.6666666666667,4,2,1,80,0,0
22236,-50,4,2,1,80,0,0
24673,-66.6666666666667,4,2,1,80,0,0
25236,-50,4,2,1,80,0,0
26173,-66.6666666666667,4,2,1,80,0,0
26736,-50,4,2,1,80,0,0
27111,-200,4,2,1,60,0,0
30111,-200,4,2,1,40,0,0
36111,-66.6666666666667,4,2,1,70,0,0
39111,-200,4,2,1,40,0,0
42111,-66.6666666666667,4,2,1,70,0,0
45111,-100,4,2,1,50,0,0
45673,-100,4,2,1,60,0,0
46236,-100,4,2,1,70,0,0
46798,-100,4,2,1,80,0,0
48111,-100,4,2,1,50,0,0
48673,-100,4,2,1,60,0,0
49236,-100,4,2,1,70,0,0
49798,-100,4,2,1,80,0,0
51111,-100,4,2,1,50,0,0
51673,-100,4,2,1,60,0,0
52236,-100,4,2,1,70,0,0
52798,-100,4,2,1,80,0,0
54111,-100,4,2,1,60,0,0
56361,-100,4,2,1,75,0,0
58048,-100,4,2,1,80,0,0
58611,-50,4,2,1,85,0,1
67611,-66.6666666666667,4,2,1,70,0,0
67892,-100,4,2,1,85,0,0
68361,-50,4,2,1,70,0,0
68642,-66.6666666666667,4,2,1,85,0,0
69111,-40,4,2,1,70,0,0
69392,-50,4,2,1,85,0,0
69861,-100,4,2,1,70,0,0
70048,-66.6666666666667,4,2,1,75,0,0
70236,-50,4,2,1,80,0,0
70423,-40,4,2,1,90,0,0
70611,-50,4,2,1,85,0,1
82611,-50,4,2,1,80,0,0
84673,-66.6666666666667,4,2,1,80,0,0
85236,-50,4,2,1,80,0,0
86173,-66.6666666666667,4,2,1,80,0,0
86736,-50,4,2,1,80,0,0
89173,-66.6666666666667,4,2,1,80,0,0
89736,-50,4,2,1,80,0,0
90673,-66.6666666666667,4,2,1,80,0,0
91236,-50,4,2,1,80,0,0
91611,-66.6666666666667,4,2,1,75,0,0
103611,-100,4,2,1,50,0,0
104173,-100,4,2,1,60,0,0
104736,-100,4,2,1,70,0,0
105298,-100,4,2,1,80,0,0
105861,-200,4,2,1,80,0,0
106611,-100,4,2,1,50,0,0
107173,-100,4,2,1,60,0,0
107736,-100,4,2,1,70,0,0
108298,-100,4,2,1,80,0,0
109611,-100,4,2,1,50,0,0
110173,-100,4,2,1,60,0,0
110736,-100,4,2,1,70,0,0
111298,-100,4,2,1,80,0,0
112611,-100,4,2,1,60,0,0
114861,-66.6666666666667,4,2,1,75,0,0
116173,-50,4,2,1,75,0,0
116548,-100,4,2,1,80,0,0
117111,-50,4,2,1,85,0,1
126111,-66.6666666666667,4,2,1,70,0,0
126392,-100,4,2,1,85,0,0
126861,-50,4,2,1,70,0,0
127142,-66.6666666666667,4,2,1,85,0,0
127611,-40,4,2,1,70,0,0
127892,-50,4,2,1,85,0,0
128361,-100,4,2,1,70,0,0
128548,-66.6666666666667,4,2,1,75,0,0
128736,-50,4,2,1,80,0,0
128923,-40,4,2,1,90,0,0
129111,-50,4,2,1,85,0,1
141111,-100,4,2,1,60,0,0
147111,-66.6666666666667,4,2,1,65,0,0
159111,-50,4,2,1,80,0,0
163611,-40,4,2,1,80,0,0
165111,-50,4,2,1,85,0,1
168111,-33.3333333333333,4,2,1,75,0,0
168298,-33.3333333333333,4,2,1,55,0,0
168673,-33.3333333333333,4,2,1,75,0,0
168861,-33.3333333333333,4,2,1,55,0,0
169236,-33.3333333333333,4,2,1,75,0,0
169423,-33.3333333333333,4,2,1,55,0,0
169798,-33.3333333333333,4,2,1,75,0,0
169986,-33.3333333333333,4,2,1,55,0,0
170361,-33.3333333333333,4,2,1,75,0,0
171111,-50,4,2,1,85,0,1
171861,-66.6666666666667,4,2,1,75,0,1
172611,-50,4,2,1,85,0,1
173361,-66.6666666666667,4,2,1,75,0,1
174111,-200,4,2,1,65,0,1
174486,-200,4,2,1,55,0,1
174861,-200,4,2,1,45,0,0
183111,-66.6666666666667,4,2,1,70,0,1
183204,-66.6666666666667,4,2,1,70,0,0
183392,-100,4,2,1,85,0,0
183861,-50,4,2,1,70,0,0
184142,-66.6666666666667,4,2,1,85,0,0
184611,-40,4,2,1,70,0,0
184892,-50,4,2,1,85,0,0
185361,-40,4,2,1,75,0,0
185736,-33.3333333333333,4,2,1,85,0,0
185923,-33.3333333333333,4,2,1,90,0,0
186111,-50,4,2,1,85,0,1
198111,-50,4,2,1,70,0,0
204111,-50,4,2,1,80,0,1
209736,-50,4,2,1,90,0,1
210111,-100,4,2,1,70,0,0
210204,-100,4,2,1,60,0,0
210861,-100,4,2,1,55,0,0
211611,-100,4,2,1,50,0,0
212361,-100,4,2,1,45,0,0
213111,-100,4,2,1,40,0,0
213861,-100,4,2,1,35,0,0
214611,-100,4,2,1,30,0,0
215361,-100,4,2,1,25,0,0
215923,-100,4,2,1,20,0,0
216111,-66.6666666666667,4,2,1,75,0,1
216392,-66.6666666666667,4,2,1,75,0,0

[Colours]
Combo1 : 125,66,89
Combo2 : 91,4,187
Combo3 : 11,36,181
Combo4 : 74,117,105
SliderTrackOverride : 10,0,20

[HitObjects]
203,141,6111,6,0,B|187:56|158:23|158:23|159:78|176:102,1,210.000008010865,2|2,0:0|0:0,0:0:0:0:
125,285,7236,5,0,0:0:0:0:
12,211,7611,6,0,B|38:217|54:202|54:202|97:216|133:182|133:182|161:220|200:217,1,210,2|0,0:0|0:0,0:0:0:0:
309,141,9111,6,0,B|325:56|354:23|354:23|353:78|336:102,1,210.000008010865,2|2,0:0|0:0,0:0:0:0:
321,285,10236,1,0,0:0:0:0:
512,207,10611,6,0,B|486:201|470:216|470:216|427:202|391:236|391:236|363:198|324:201,1,210,2|0,0:0|0:0,0:0:0:0:
311,219,11829,6,0,B|311:206|299:200|299:200|312:186|291:179|291:179|303:160|303:160|283:146|283:146|297:126|290:108,1,140,2|0,0:0|0:0,0:0:0:0:
310,89,12111,6,0,P|263:136|200:115,1,140,4|0,1:2|0:0,0:0:0:0:
189,142,12392,2,0,P|124:125|110:60,1,140,0|0,1:0|0:0,0:0:0:0:
81,66,12673,2,0,P|75:32|94:4,1,70,0|0,1:0|0:0,0:0:0:0:
81,155,12861,5,8,0:0:0:0:
81,155,12955,2,0,P|54:177|20:174,1,70,8|0,0:0|0:0,0:0:0:0:
1,263,13142,1,0,1:0:0:0:
1,263,13236,2,0,P|27:285|61:282,1,70,0|0,1:0|0:0,0:0:0:0:
204,231,13423,1,0,1:0:0:0:
218,279,13516,1,0,1:0:0:0:
207,296,13611,6,0,P|177:355|111:353,1,140,6|0,1:2|0:0,0:0:0:0:
218,279,13892,2,0,P|274:313|329:276,1,140,8|0,0:0|0:0,0:0:0:0:
204,231,14173,2,0,P|178:210|165:178,1,70,8|0,0:0|0:0,0:0:0:0:
196,88,14361,6,2,B|238:43|277:69|277:69|257:114|209:101,1,175,14|0,0:0|1:0,0:1:0:0:
114,113,14642,5,0,1:0:0:0:
114,113,14736,2,0,L|60:135,5,58.3333333333333,8|8|8|8|4|4,0:0|0:0|0:3|0:3|0:3|0:3,0:0:0:0:
31,53,15111,6,0,P|94:74|141:27,1,140,6|0,1:2|0:0,0:0:0:0:
224,139,15392,2,0,P|161:160|114:114,1,140,0|0,1:0|0:0,0:0:0:0:
65,209,15673,2,0,P|49:240|56:274,1,70,0|0,1:0|0:0,0:0:0:0:
98,376,15861,5,8,0:0:0:0:
98,376,15955,2,0,P|71:354|37:357,1,70,8|0,0:0|0:0,0:0:0:0:
156,301,16142,1,0,1:0:0:0:
156,301,16236,2,0,P|182:279|216:282,1,70,0|0,1:0|0:0,0:0:0:0:
331,361,16423,1,0,1:0:0:0:
362,323,16516,1,0,1:0:0:0:
357,309,16611,6,0,P|348:243|286:222,1,140,4|0,1:2|0:0,0:0:0:0:
368,209,16892,2,0,P|375:143|439:123,1,140,8|0,0:0|0:0,0:0:0:0:
284,135,17173,2,0,P|261:108|228:97,1,70,8|0,0:0|0:0,0:0:0:0:
344,68,17361,6,2,B|299:26|325:-13|325:-13|370:7|357:54,1,175,14|0,0:0|1:0,0:1:0:0:
438,123,17642,5,0,1:0:0:0:
438,123,17736,2,0,L|452:66,5,58.3333333333333,8|8|8|8|8|8,0:0|0:0|0:0|0:0|0:0|0:0,0:0:0:0:
505,177,18111,6,0,P|419:164|395:203,1,140,6|0,1:2|1:0,0:0:0:0:
401,278,18392,2,0,P|333:223|292:245,1,140,10|8,0:0|0:0,0:0:0:0:
260,312,18673,2,0,P|228:230|182:229,1,140,2|0,1:2|1:0,0:0:0:0:
26,207,18954,5,8,0:0:0:0:
37,159,19048,1,0,1:0:0:0:
81,138,19142,1,8,0:0:0:0:
128,149,19236,2,0,P|175:196|238:175,1,140,0|0,1:0|1:0,0:0:0:0:
208,93,19517,5,8,0:0:0:0:
208,93,19611,2,0,L|199:23,4,70,4|0|0|0|0,1:2|1:0|1:0|1:0|1:0,0:0:0:0:
405,93,20173,6,2,P|339:171|238:174,1,210.000008010865,10|0,0:0|1:0,0:1:0:0:
167,232,20643,1,0,1:0:0:0:
167,232,20736,2,2,P|233:218|278:267,1,140,10|0,0:0|1:0,0:1:0:0:
413,328,21111,6,0,L|426:259,4,70,4|0|0|0|0,1:2|1:0|1:0|1:0|1:0,0:0:0:0:
266,366,21673,6,2,P|199:288|98:285,1,210.000008010865,10|8,0:0|0:3,0:1:0:0:
27,228,22143,1,4,0:3:0:0:
27,228,22236,2,0,P|93:242|138:193,1,140,4|8,1:0|0:0,0:0:0:0:
138,102,22517,1,8,0:0:0:0:
95,124,22611,6,0,P|48:77|69:14,1,140,6|0,1:2|1:0,0:0:0:0:
138,102,22892,2,0,P|155:37|220:24,1,140,10|8,0:0|0:0,0:0:0:0:
178,128,23173,2,0,P|242:110|286:160,1,140,2|0,1:2|1:0,0:0:0:0:
254,269,23454,5,8,0:0:0:0:
284,307,23548,1,0,1:0:0:0:
333,306,23642,1,8,0:0:0:0:
372,277,23736,2,0,L|509:248,1,140,0|0,1:0|1:0,0:0:0:0:
478,173,24017,5,8,0:0:0:0:
478,173,24111,2,0,L|409:159,4,70,4|0|0|0|0,1:2|1:0|1:0|1:0|1:0,0:0:0:0:
354,20,24673,6,2,P|288:98|186:100,1,210.000008010865,10|0,0:0|1:0,0:1:0:0:
141,16,25142,1,0,1:0:0:0:
141,15,25236,2,2,P|178:70|245:67,1,140,10|0,0:0|1:0,0:1:0:0:
317,188,25611,6,0,L|248:202,4,70,4|0|0|0|0,1:2|1:0|1:0|1:0|1:0,0:0:0:0:
229,335,26173,6,2,P|163:257|61:255,1,210.000008010865,10|0,0:0|1:0,0:1:0:0:
16,340,26642,1,0,1:0:0:0:
16,340,26736,2,0,P|53:285|120:288,1,140,8|8,0:0|0:3,0:0:0:0:
149,384,27111,5,4,1:2:0:0:
256,192,27204,12,4,30111,1:2:0:0:
326,259,33111,6,0,P|299:236|296:202,1,70,4|8,1:2|0:1,0:0:0:0:
346,120,33861,5,2,3:2:0:0:
307,210,34236,1,2,0:0:0:0:
219,253,34611,1,2,3:2:0:0:
122,236,34986,1,2,0:0:0:0:
58,161,35361,1,2,3:2:0:0:
51,179,36111,6,0,B|101:165|101:165|106:166|106:166|109:160|109:160|149:149,1,105.000004005432,6|0,1:2|1:0,0:0:0:0:
263,55,36486,5,0,1:0:0:0:
250,95,36579,1,0,1:0:0:0:
383,155,36767,1,0,1:0:0:0:
354,124,36860,1,0,1:0:0:0:
236,210,37048,1,0,1:0:0:0:
277,199,37141,1,0,1:0:0:0:
277,199,37798,5,0,1:0:0:0:
381,279,37986,1,0,1:0:0:0:
368,239,38079,1,0,1:0:0:0:
493,178,38267,1,0,1:0:0:0:
472,210,38360,1,0,1:0:0:0:
354,124,38548,1,0,1:0:0:0:
395,135,38641,1,0,1:0:0:0:
437,310,39111,6,0,P|414:283|380:280,1,70,4|8,1:2|0:1,0:0:0:0:
298,330,39861,5,2,3:2:0:0:
388,291,40236,1,2,1:2:0:0:
431,203,40611,1,2,3:2:0:0:
414,106,40986,1,2,0:2:0:0:
339,42,41361,1,2,1:2:0:0:
352,30,42111,6,0,B|360:80|360:80|363:84|363:84|360:89|360:89|366:131,1,105.000004005432,6|0,1:2|1:0,0:0:0:0:
263,225,42486,5,0,1:0:0:0:
223,212,42579,1,0,1:0:0:0:
150,117,42767,1,0,1:0:0:0:
110,130,42860,1,0,1:0:0:0:
49,231,43048,1,0,1:0:0:0:
9,218,43141,1,0,1:0:0:0:
9,218,43798,5,0,1:0:0:0:
110,320,43986,1,0,1:0:0:0:
150,307,44079,1,0,1:0:0:0:
223,212,44267,1,0,1:0:0:0:
263,225,44360,1,0,1:0:0:0:
320,327,44548,1,0,1:0:0:0:
360,314,44641,1,0,1:0:0:0:
395,335,44736,6,0,L|385:368,3,35.0000013351441,8|8|4|12,0:3|0:3|0:3|0:0,0:0:0:0:
472,271,45111,5,6,1:2:0:0:
467,251,45204,1,0,1:0:0:0:
462,231,45298,1,0,1:0:0:0:
458,211,45391,1,0,1:0:0:0:
512,121,45673,5,2,1:2:0:0:
478,118,45766,1,0,1:0:0:0:
444,114,45861,1,0,1:0:0:0:
411,111,45954,1,0,1:0:0:0:
353,0,46236,5,10,0:0:0:0:
334,45,46329,1,8,0:0:0:0:
315,90,46424,1,8,0:0:0:0:
296,135,46517,1,8,0:0:0:0:
148,137,46798,5,10,1:3:0:0:
196,178,46891,1,8,1:3:0:0:
244,218,46986,1,4,1:3:0:0:
292,259,47079,1,4,1:3:0:0:
290,374,47361,6,2,B|382:320|382:320|393:311|393:311|406:307|406:307|472:270,1,210,14|0,0:0|0:0,0:1:0:0:
346,229,48111,5,6,1:2:0:0:
328,239,48204,1,0,1:0:0:0:
310,249,48298,1,0,1:0:0:0:
292,259,48391,1,0,1:0:0:0:
245,351,48673,5,2,1:2:0:0:
223,323,48766,1,0,1:0:0:0:
201,300,48861,1,0,1:0:0:0:
179,276,48954,1,0,1:0:0:0:
55,292,49236,5,10,0:0:0:0:
79,253,49329,1,8,0:0:0:0:
105,211,49424,1,8,0:0:0:0:
131,170,49517,1,8,0:0:0:0:
49,44,49798,5,10,1:3:0:0:
111,58,49891,1,8,1:3:0:0:
171,76,49986,1,4,1:3:0:0:
231,92,50079,1,4,1:3:0:0:
336,0,50361,6,2,B|332:38|359:60|359:60|324:96|342:137|342:137|321:156|325:190,1,210,14|0,0:0|0:0,0:1:0:0:
400,255,51111,5,6,1:2:0:0:
405,272,51204,1,0,1:0:0:0:
411,292,51298,1,0,1:0:0:0:
418,312,51391,1,0,1:0:0:0:
325,190,51673,5,2,1:2:0:0:
330,156,51766,1,0,1:0:0:0:
336,122,51861,1,0,1:0:0:0:
343,90,51954,1,0,1:0:0:0:
203,269,52236,5,10,0:0:0:0:
251,263,52329,1,8,0:0:0:0:
293,288,52423,1,8,0:0:0:0:
305,335,52516,1,8,0:0:0:0:
204,123,52798,5,10,1:3:0:0:
172,178,52891,1,8,1:3:0:0:
108,190,52986,1,4,1:3:0:0:
57,151,53079,1,4,1:3:0:0:
244,9,53361,6,2,B|278:20|295:43|295:43|300:32|300:32|323:41|349:35|361:19,1,140,14|10,0:0|0:0,0:1:0:0:
399,52,53829,1,8,0:0:0:0:
408,100,53923,1,8,0:0:0:0:
383,142,54017,1,8,0:0:0:0:
334,146,54111,1,2,1:2:0:0:
279,377,54673,5,2,1:2:0:0:
231,15,55236,5,2,1:2:0:0:
435,301,55798,5,2,1:2:0:0:
96,256,56361,5,6,1:2:0:0:
293,226,56548,1,8,0:3:0:0:
175,104,56736,1,0,1:0:0:0:
229,384,56923,1,4,0:3:0:0:
91,163,57111,6,2,P|65:113|38:71,2,105,6|6|6,1:2|1:2|1:2,0:1:0:0:
86,364,57861,1,6,1:2:0:0:
0,303,58048,5,8,0:0:0:0:
37,271,58142,1,8,0:0:0:0:
85,261,58236,1,10,0:0:0:0:
131,275,58330,1,8,0:0:0:0:
174,297,58424,1,10,0:0:0:0:
221,285,58517,1,8,0:0:0:0:
255,251,58611,6,0,B|365:226|365:226|386:244,1,140,6|0,1:2|0:0,0:0:0:0:
482,336,58892,2,0,B|369:342|369:342|352:321,1,140,2|0,1:2|0:0,0:0:0:0:
453,187,59173,1,2,1:2:0:0:
453,187,59267,2,0,P|468:253|435:313,1,140,0|0,1:0|1:0,0:0:0:0:
306,370,59548,6,0,P|323:340|353:322,1,70,10|0,0:0|0:0,0:0:0:0:
495,342,59736,2,0,P|468:320|434:313,1,70,2|0,1:2|1:0,0:0:0:0:
365,179,59923,2,0,P|368:214|386:244,1,70,10|8,0:3|0:3,0:0:0:0:
392,78,60111,5,6,1:2:0:0:
392,78,60204,2,0,B|404:54|404:54|304:108,1,140,0|2,1:0|1:2,0:0:0:0:
165,143,60486,2,0,P|180:207|245:220,1,140,8|2,0:0|1:2,0:0:0:0:
286,143,60767,2,0,L|266:4,1,140,0|0,1:0|1:0,0:0:0:0:
187,118,61048,2,0,L|207:257,1,140,10|10,0:0|0:3,0:0:0:0:
188,358,61329,1,8,0:3:0:0:
136,345,61423,1,4,0:3:0:0:
108,357,61517,1,4,0:3:0:0:
60,346,61611,6,0,L|75:206,1,140,6|2,1:0|0:0,0:0:0:0:
32,79,61892,1,2,1:2:0:0:
32,79,61986,2,0,B|58:104|58:104|91:108,1,70,8|2,0:0|0:0,0:0:0:0:
187,118,62173,1,2,1:2:0:0:
187,118,62267,2,0,B|288:73|288:73|288:102,1,140,0|0,1:0|1:0,0:0:0:0:
382,8,62548,6,0,L|391:77,1,70,10|0,0:0|0:0,0:0:0:0:
506,112,62736,2,0,P|483:138|452:154,1,70,2|0,1:2|1:0,0:0:0:0:
337,206,62924,2,0,P|366:226|401:231,1,70,10|8,0:3|0:3,0:0:0:0:
464,325,63111,5,6,1:2:0:0:
464,325,63204,2,0,B|394:322|471:311|329:352,1,140,0|0,1:0|1:0,0:0:0:0:
241,254,63486,2,0,B|278:313|249:240|284:384,1,140,8|0,0:0|1:0,0:0:0:0:
151,320,63767,2,0,P|220:312|285:285,1,140,0|0,1:0|1:0,0:0:0:0:
173,369,64048,2,0,P|108:342|39:334,1,140,8|2,0:0|1:2,0:0:0:0:
16,232,64329,1,0,1:0:0:0:
18,197,64423,1,10,0:0:0:0:
71,176,64517,1,8,0:0:0:0:
110,215,64611,6,0,P|177:208|210:150,1,140,6|0,1:0|0:0,0:0:0:0:
94,90,64892,2,0,L|25:74,2,70,2|8|0,1:2|0:0|0:0,0:0:0:0:
179,28,65173,1,2,1:2:0:0:
179,28,65267,2,0,B|220:-5|220:-5|184:74,1,140,0|0,1:0|1:0,0:0:0:0:
123,179,65548,2,0,L|260:153,1,140,10|2,0:0|1:2,0:0:0:0:
421,42,65829,1,0,1:0:0:0:
409,99,65923,1,8,0:3:0:0:
387,107,66017,1,8,0:3:0:0:
334,92,66111,6,0,B|360:201|360:201|385:163,1,140,6|0,1:2|0:0,0:0:0:0:
422,266,66392,1,2,1:2:0:0:
422,266,66486,2,0,L|285:235,1,140,8|2,0:0|1:2,0:0:0:0:
375,178,66767,2,0,L|511:147,1,140,0|0,1:0|1:0,0:0:0:0:
478,323,67048,2,0,P|414:345|357:308,1,140,10|10,0:0|0:3,0:0:0:0:
273,339,67329,1,8,0:3:0:0:
253,325,67423,1,6,0:3:0:0:
202,333,67517,1,4,0:3:0:0:
162,377,67611,6,0,L|141:273,1,105.000004005432,6|0,1:0|0:0,0:0:0:0:
109,353,67892,2,0,L|115:318,1,35,0|8,1:0|0:0,0:0:0:0:
76,122,68173,2,0,L|70:157,1,35,8|8,0:0|0:0,0:0:0:0:
0,213,68361,6,0,L|137:184,1,140,4|0,1:0|0:0,0:0:0:0:
67,108,68642,2,0,L|58:159,1,52.5000020027161,0|8,1:0|0:0,0:0:0:0:
376,32,68923,2,0,L|384:83,1,52.5000020027161,8|8,0:3|0:3,0:0:0:0:
478,133,69111,6,0,L|306:97,1,175,4|0,1:0|0:0,0:0:0:0:
390,21,69392,2,0,L|400:91,1,70,0|8,1:0|0:0,0:0:0:0:
408,320,69673,1,0,1:0:0:0:
408,320,69767,1,0,1:0:0:0:
408,320,69861,6,0,L|385:293,1,35,8|8,0:3|0:3,0:0:0:0:
306,340,70048,2,0,L|261:311,1,52.5000020027161,0|0,1:0|1:0,0:0:0:0:
107,353,70236,2,0,L|170:322,1,70,10|8,0:0|0:0,0:0:0:0:
82,260,70423,2,0,L|152:207,1,87.5,10|8,0:0|0:0,0:0:0:0:
77,140,70611,6,0,L|43:5,2,140,6|8|0,1:2|0:0|1:0,0:0:0:0:
1,201,71079,1,0,1:0:0:0:
1,201,71173,2,0,P|-17:267|10:329,1,140,10|0,0:0|1:0,0:0:0:0:
131,306,71454,1,0,1:0:0:0:
131,306,71548,6,0,P|111:277|81:259,1,70,10|0,0:0|1:0,0:0:0:0:
261,224,71736,2,0,P|242:252|212:270,1,70,2|0,0:0|1:0,0:0:0:0:
374,340,71923,2,0,P|354:311|324:293,1,70,10|0,0:0|0:0,0:0:0:0:
420,207,72111,6,0,B|514:171|514:171|498:207,1,140,6|8,1:0|0:0,0:0:0:0:
509,309,72392,1,2,0:0:0:0:
509,309,72486,2,0,L|442:288,1,70,0|0,1:0|1:0,0:0:0:0:
324,293,72673,2,0,L|337:153,1,140,10|0,0:0|1:0,0:0:0:0:
216,204,72954,1,0,1:0:0:0:
216,204,73048,2,0,L|228:272,1,70,10|0,0:0|1:0,0:0:0:0:
266,367,73236,6,0,B|228:367|228:367|199:383,2,70,2|0|8,0:0|1:0|0:0,0:0:0:0:
127,161,73611,6,0,P|73:203|6:196,1,140,6|10,1:2|0:0,0:0:0:0:
43,115,73892,1,2,0:0:0:0:
43,115,73986,2,0,L|29:46,1,70,0|2,1:0|1:2,0:0:0:0:
145,22,74173,2,0,L|127:161,1,140,10|0,0:0|1:0,0:0:0:0:
216,204,74454,1,0,1:0:0:0:
244,164,74548,1,10,0:0:0:0:
291,151,74642,1,0,1:0:0:0:
332,183,74736,6,0,P|297:178|269:158,1,70,2|0,0:0|1:0,0:0:0:0:
267,0,74923,2,0,P|264:34|277:66,1,70,10|0,0:0|0:0,0:0:0:0:
374,95,75111,6,0,B|398:73|398:73|503:49,2,140,6|8|0,1:0|0:0|1:0,0:0:0:0:
332,183,75579,1,0,1:0:0:0:
332,183,75673,2,0,P|343:215|367:241,1,70,8|0,0:0|0:0,0:0:0:0:
470,245,75861,5,0,1:0:0:0:
507,213,75954,1,0,1:0:0:0:
483,171,76048,2,0,P|463:199|455:233,1,70,8|0,0:0|1:0,0:0:0:0:
509,327,76236,2,0,B|466:326|443:354|443:354|422:381|385:380,1,140,2|10,0:0|0:0,0:0:0:0:
180,384,76611,6,0,L|150:247,1,140,6|8,1:2|0:0,0:0:0:0:
61,274,76892,1,2,0:0:0:0:
61,274,76986,2,0,P|51:307|48:342,1,70,0|0,1:0|1:0,0:0:0:0:
150,247,77173,2,0,P|81:243|31:196,1,140,10|0,0:0|1:0,0:0:0:0:
45,109,77454,1,0,1:0:0:0:
91,92,77548,1,10,0:0:0:0:
137,109,77642,1,0,1:0:0:0:
162,150,77736,2,0,L|184:83,1,70,2|0,0:0|1:0,0:0:0:0:
212,0,77923,1,8,0:0:0:0:
369,242,78111,6,0,P|307:209|238:202,2,140,6|8|0,1:0|0:0|1:0,0:0:0:0:
417,162,78579,1,0,1:0:0:0:
417,162,78673,2,0,L|494:135,1,70,10|0,0:0|0:0,0:0:0:0:
346,100,78861,2,0,L|357:30,1,70,0|0,1:0|1:0,0:0:0:0:
463,0,79048,5,10,0:0:0:0:
463,0,79142,1,8,0:0:0:0:
463,0,79236,2,0,L|482:138,1,140,10|6,0:3|0:3,0:0:0:0:
453,215,79517,1,4,0:3:0:0:
506,276,79611,6,0,P|475:293|441:296,1,70,6|0,1:2|1:0,0:0:0:0:
366,216,79798,2,0,P|297:215|247:168,2,140,0|8|8,1:0|0:0|0:0,0:0:0:0:
348,318,80267,1,0,1:0:0:0:
348,318,80361,2,0,P|333:349|333:384,1,70,0|0,1:0|1:0,0:0:0:0:
455,362,80548,2,0,P|455:327|441:296,1,70,0|0,1:0|1:0,0:0:0:0:
339,296,80736,1,8,0:3:0:0:
313,316,80829,1,8,0:3:0:0:
268,291,80923,1,6,0:3:0:0:
202,328,81017,1,6,0:3:0:0:
113,314,81111,6,0,L|84:176,1,140,2|0,1:2|1:0,0:0:0:0:
103,313,81392,2,0,L|116:244,1,70,2|10,1:2|0:0,0:0:0:0:
40,2,81673,5,10,0:0:0:0:
40,2,81767,1,0,1:0:0:0:
1,77,81862,2,0,P|69:80|117:32,2,140,2|0|8,1:2|1:0|0:0,0:0:0:0:
21,114,82329,1,8,0:0:0:0:
0,162,82423,1,8,0:0:0:0:
52,223,82517,1,8,0:0:0:0:
6,248,82611,6,0,L|37:384,1,140,6|0,1:2|1:0,0:0:0:0:
71,319,82892,2,0,P|137:308|185:356,1,140,10|8,0:0|0:0,0:0:0:0:
178,278,83173,2,0,P|224:228|290:240,1,140,2|0,1:2|1:0,0:0:0:0:
339,354,83454,5,8,0:0:0:0:
368,314,83548,1,0,1:0:0:0:
417,310,83642,1,8,0:0:0:0:
452,344,83736,2,0,L|470:205,1,140,0|0,1:0|1:0,0:0:0:0:
406,151,84017,5,8,0:0:0:0:
406,151,84111,2,0,B|390:82,4,70,4|0|0|0|0,1:2|1:0|1:0|1:0|1:0,0:0:0:0:
368,314,84673,6,2,P|266:311|200:233,1,210.000008010865,10|0,0:0|1:0,0:1:0:0:
134,289,85143,1,0,1:0:0:0:
134,289,85236,2,2,P|68:275|23:324,1,140,10|0,0:0|1:0,0:1:0:0:
104,136,85611,6,0,B|119:67,4,70,4|0|0|0|0,1:2|1:0|1:0|1:0|1:0,0:0:0:0:
134,289,86173,6,2,P|236:286|302:208,1,210.000008010865,10|8,0:0|0:3,0:1:0:0:
368,264,86643,1,4,0:3:0:0:
368,264,86736,2,0,P|434:250|479:299,1,140,4|8,1:0|0:0,0:0:0:0:
511,193,87017,1,8,0:0:0:0:
484,151,87111,6,0,L|511:13,1,140,6|0,1:2|1:0,0:0:0:0:
453,78,87392,2,0,P|387:64|371:0,1,140,10|8,0:0|0:0,0:0:0:0:
345,82,87673,2,0,P|300:131|236:113,1,140,2|0,1:2|1:0,0:0:0:0:
166,20,87954,5,8,0:0:0:0:
119,0,88048,1,0,1:0:0:0:
87,37,88142,1,8,0:0:0:0:
99,84,88236,2,0,L|236:113,1,140,0|0,1:0|1:0,0:0:0:0:
199,195,88517,5,8,0:0:0:0:
199,195,88611,2,0,B|130:210,4,70,4|0|0|0|0,1:2|1:0|1:0|1:0|1:0,0:0:0:0:
175,384,89173,6,2,P|109:306|8:303,1,210.000008010865,10|0,0:0|1:0,0:1:0:0:
8,216,89642,1,0,1:0:0:0:
8,216,89736,2,2,B|-5:170|-11:136|-11:136|3:159|14:188,1,140,10|0,0:0|1:0,0:1:0:0:
158,89,90111,6,0,B|225:110,4,70,4|0|0|0|0,1:2|1:0|1:0|1:0|1:0,0:0:0:0:
158,282,90673,6,2,P|224:204|325:201,1,210.000008010865,10|0,0:0|1:0,0:1:0:0:
325,114,91142,1,0,1:0:0:0:
325,114,91236,2,0,B|338:68|344:34|344:34|330:57|319:86,1,140,8|8,0:0|0:3,0:0:0:0:
271,315,91611,5,4,1:2:0:0:
275,319,91798,1,0,0:0:0:0:
279,315,91986,1,8,0:0:0:0:
275,311,92173,1,0,0:0:0:0:
151,251,92361,2,0,P|170:299|176:351,1,105.000004005432,2|0,1:2|1:0,0:0:0:0:
148,150,92736,2,0,P|154:98|173:49,1,105.000004005432,10|0,0:0|0:0,0:0:0:0:
271,315,93111,6,0,P|188:257|94:294,2,210.000008010865,2|10|2,1:2|0:0|1:2,0:0:0:0:
505,207,94048,1,0,1:0:0:0:
389,115,94236,2,0,P|399:139|405:164,1,52.5000020027161,8|0,0:0|0:0,0:0:0:0:
417,246,94423,2,0,P|406:270|400:295,1,52.5000020027161,8|4,0:3|0:3,0:0:0:0:
440,375,94611,6,0,P|388:382|342:358,1,105.000004005432,6|0,1:2|0:0,0:0:0:0:
193,284,94986,2,0,P|244:291|290:267,1,105.000004005432,8|0,0:0|0:0,0:0:0:0:
310,53,95361,1,0,1:2:0:0:
259,125,95548,1,0,1:0:0:0:
187,74,95736,1,8,0:0:0:0:
238,2,95923,1,0,0:0:0:0:
338,194,96111,6,0,P|287:206|239:227,1,105.000004005432,2|0,1:2|0:0,0:0:0:0:
100,93,96486,2,0,P|123:138|171:158,1,105.000004005432,8|0,0:0|0:0,0:0:0:0:
233,335,96861,1,0,1:2:0:0:
190,304,96954,1,0,1:2:0:0:
137,301,97048,1,0,1:0:0:0:
95,333,97142,1,0,1:0:0:0:
85,384,97236,1,8,0:0:0:0:
29,268,97423,2,0,P|18:243|4:221,1,52.5000020027161,8|0,0:0|1:2,0:0:0:0:
25,140,97611,6,0,P|75:129|110:91,2,105.000004005432,4|0|8,1:2|0:0|0:0,0:0:0:0:
29,37,98173,1,0,0:0:0:0:
196,139,98361,2,0,P|145:128|110:90,1,105.000004005432,2|0,1:2|1:0,0:0:0:0:
336,171,98736,2,0,P|285:181|250:219,1,105.000004005432,10|0,0:0|0:0,0:0:0:0:
364,52,99111,5,2,1:2:0:0:
415,124,99298,1,0,0:0:0:0:
487,73,99486,1,10,0:0:0:0:
436,1,99673,1,0,0:0:0:0:
362,203,99861,2,0,P|412:215|460:236,1,105.000004005432,2|0,1:2|1:0,0:0:0:0:
415,124,100236,1,8,0:0:0:0:
197,154,100423,1,8,0:3:0:0:
197,154,100517,1,4,0:3:0:0:
197,154,100611,6,0,P|264:227|361:204,1,210.000008010865,6|8,1:2|0:0,0:0:0:0:
294,137,101173,1,0,0:0:0:0:
351,297,101361,2,0,P|311:329|259:328,1,105.000004005432,0|0,1:2|1:0,0:0:0:0:
203,169,101736,2,0,P|242:136|294:137,1,105.000004005432,8|0,0:0|0:0,0:0:0:0:
177,270,102111,5,2,1:2:0:0:
35,181,102298,1,0,0:0:0:0:
203,169,102487,1,8,0:0:0:0:
73,277,102673,1,0,0:0:0:0:
114,113,102861,1,0,1:2:0:0:
157,144,102954,1,0,1:2:0:0:
210,147,103048,1,0,1:0:0:0:
250,113,103142,1,0,1:0:0:0:
261,62,103236,1,8,0:0:0:0:
355,150,103423,2,0,P|345:174|338:199,1,52.5000020027161,8|8,0:0|0:0,0:0:0:0:
369,286,103611,5,2,1:2:0:0:
389,291,103704,1,0,1:0:0:0:
409,296,103798,1,0,1:0:0:0:
429,301,103891,1,0,1:0:0:0:
240,224,104173,5,2,1:2:0:0:
273,216,104266,1,0,1:0:0:0:
306,208,104361,1,0,1:0:0:0:
339,200,104454,1,0,1:0:0:0:
97,283,104736,5,10,0:0:0:0:
144,294,104829,1,8,0:0:0:0:
191,305,104923,1,8,0:0:0:0:
238,316,105016,1,8,0:0:0:0:
0,201,105298,5,10,1:3:0:0:
60,186,105392,1,8,1:3:0:0:
120,171,105486,1,4,1:3:0:0:
180,156,105580,1,4,1:3:0:0:
39,57,105861,6,0,L|46:91,1,35,14|2,0:0|0:0,0:0:0:0:
91,270,106236,1,2,0:0:0:0:
319,117,106611,5,6,1:2:0:0:
330,136,106705,1,0,1:0:0:0:
330,158,106799,1,0,1:0:0:0:
319,176,106892,1,0,1:0:0:0:
192,285,107173,5,2,1:2:0:0:
207,254,107267,1,0,1:0:0:0:
241,243,107361,1,0,1:0:0:0:
273,259,107454,1,0,1:0:0:0:
405,383,107736,5,10,0:0:0:0:
357,380,107830,1,8,0:0:0:0:
333,338,107924,1,8,0:0:0:0:
355,295,108017,1,8,0:0:0:0:
419,107,108298,5,10,1:3:0:0:
426,170,108392,1,8,1:3:0:0:
374,205,108486,1,4,1:3:0:0:
319,176,108579,1,4,1:3:0:0:
151,210,108861,6,2,B|150:177|170:151|170:151|202:191|202:242|176:288,1,210,14|0,0:0|0:0,0:1:0:0:
102,382,109611,5,6,1:2:0:0:
84,370,109704,1,0,1:0:0:0:
64,362,109798,1,0,1:0:0:0:
43,361,109891,1,0,1:0:0:0:
101,234,110173,5,2,1:2:0:0:
76,258,110266,1,0,1:0:0:0:
42,270,110361,1,0,1:0:0:0:
7,269,110454,1,0,1:0:0:0:
190,191,110736,5,10,0:0:0:0:
156,154,110829,1,8,0:0:0:0:
109,138,110923,1,8,0:0:0:0:
62,152,111017,1,8,0:0:0:0:
304,0,111298,5,10,1:3:0:0:
279,58,111392,1,8,1:3:0:0:
220,82,111486,1,4,1:3:0:0:
160,62,111579,1,4,1:3:0:0:
248,384,111861,5,14,0:0:0:0:
156,154,112048,1,2,0:0:0:0:
296,151,112236,1,10,0:0:0:0:
335,123,112329,1,8,0:0:0:0:
374,151,112423,1,8,0:0:0:0:
368,200,112517,1,8,0:0:0:0:
335,236,112610,1,2,1:2:0:0:
335,236,113173,5,2,1:2:0:0:
335,236,113736,5,2,1:2:0:0:
335,236,114298,5,2,1:2:0:0:
335,236,114861,5,6,1:2:0:0:
297,146,115048,1,8,0:3:0:0:
172,90,115236,1,0,1:0:0:0:
59,209,115423,1,4,0:3:0:0:
128,372,115611,6,2,P|163:335|214:335,1,105.000004005432,6|0,1:2|0:0,0:1:0:0:
212,356,115892,2,2,B|240:351|261:359|261:359|275:378|308:384,1,105.000004005432,6|0,1:2|0:0,0:1:0:0:
318,307,116173,2,2,B|297:240|295:201|295:201|315:224,1,140,6|6,1:2|1:2,0:1:0:0:
447,178,116548,5,8,0:0:0:0:
492,163,116642,1,8,0:0:0:0:
500,114,116736,1,10,0:0:0:0:
483,68,116829,1,8,0:0:0:0:
436,50,116923,1,10,0:0:0:0:
389,67,117017,1,8,0:0:0:0:
374,108,117111,6,0,P|310:121|279:63,1,140,6|0,1:2|0:0,0:0:0:0:
199,156,117391,2,0,L|174:18,1,140,2|0,1:2|0:0,0:0:0:0:
262,215,117673,1,2,1:2:0:0:
262,215,117767,2,0,L|125:190,1,140,0|0,1:0|1:0,0:0:0:0:
46,118,118048,6,0,P|32:150|36:184,1,70,10|0,0:0|0:0,0:0:0:0:
17,308,118236,2,0,P|44:287|79:282,1,70,2|0,1:2|1:0,0:0:0:0:
178,231,118423,2,0,P|146:217|124:189,1,70,10|8,0:3|0:3,0:0:0:0:
203,22,118611,5,6,1:2:0:0:
203,22,118704,2,0,B|191:133|191:133|179:107,1,140,0|2,1:0|1:2,0:0:0:0:
178,231,118986,2,0,B|202:220|228:216|228:216|264:238|313:229,1,140,8|2,0:0|1:2,0:0:0:0:
388,152,119267,2,0,B|282:115|282:115|300:136,1,140,0|0,1:0|1:0,0:0:0:0:
300,321,119548,2,0,L|436:288,1,140,10|10,0:0|0:3,0:0:0:0:
512,212,119829,1,8,0:3:0:0:
483,169,119923,1,4,0:3:0:0:
506,142,120017,1,4,0:3:0:0:
490,88,120111,6,0,B|473:15|473:15|450:76,1,140,6|2,1:0|0:0,0:0:0:0:
388,152,120392,1,2,1:2:0:0:
388,152,120486,2,0,L|377:221,2,70,8|2|2,0:0|0:0|1:2,0:0:0:0:
348,53,120767,2,0,P|291:89|228:64,1,140,0|0,1:0|1:0,0:0:0:0:
114,124,121048,6,0,P|142:142|177:142,1,70,10|0,0:0|0:0,0:0:0:0:
210,231,121236,2,0,P|240:215|257:185,1,70,2|0,1:2|1:0,0:0:0:0:
228,64,121423,2,0,P|229:29|212:0,1,70,10|8,0:3|0:3,0:0:0:0:
24,68,121611,5,6,1:2:0:0:
24,68,121704,2,0,B|3:106|3:106|36:197,1,140,0|0,1:0|1:0,0:0:0:0:
114,124,121986,2,0,B|205:99|205:99|230:137,1,140,8|0,0:0|1:0,0:0:0:0:
136,263,122267,2,0,L|114:124,1,140,0|0,1:0|1:0,0:0:0:0:
46,285,122548,2,0,B|28:380|28:380|63:355,1,140,8|2,0:0|1:2,0:0:0:0:
175,353,122829,1,0,1:0:0:0:
194,367,122923,1,10,0:0:0:0:
237,342,123017,1,8,0:0:0:0:
288,372,123111,6,0,L|425:344,1,140,6|0,1:0|0:0,0:0:0:0:
315,276,123392,2,0,P|307:242|295:206,2,70,2|8|0,1:2|0:0|0:0,0:0:0:0:
407,258,123673,1,2,1:2:0:0:
407,258,123767,2,0,P|451:306|511:280,1,140,0|0,1:0|1:0,0:0:0:0:
382,168,124048,2,0,P|393:81|403:29,1,140,10|2,0:0|1:2,0:0:0:0:
261,38,124329,1,0,1:0:0:0:
212,6,124423,1,8,0:3:0:0:
190,16,124517,1,8,0:3:0:0:
164,64,124611,6,0,B|299:29,1,140,6|0,1:2|0:0,0:0:0:0:
227,170,124892,1,2,1:2:0:0:
227,170,124986,2,0,B|126:140|126:140|165:171,1,140,8|2,0:0|1:2,0:0:0:0:
237,255,125267,2,0,P|295:220|308:153,1,140,0|0,1:0|1:0,0:0:0:0:
227,170,125548,2,0,B|124:208|124:208|111:197|101:187,1,140,10|10,0:0|0:3,0:0:0:0:
17,276,125829,1,8,0:3:0:0:
31,296,125923,1,6,0:3:0:0:
17,349,126017,1,4,0:3:0:0:
47,384,126111,6,0,P|93:360|145:361,1,105.000004005432,6|0,1:0|0:0,0:0:0:0:
235,344,126392,2,0,L|229:379,1,35,0|8,1:0|0:0,0:0:0:0:
95,152,126673,2,0,L|101:187,1,35,8|8,0:0|0:0,0:0:0:0:
29,67,126861,6,0,P|85:105|153:99,1,140,4|0,1:0|0:0,0:0:0:0:
87,139,127142,2,0,L|78:190,1,52.5000020027161,0|8,1:0|0:0,0:0:0:0:
417,251,127423,2,0,L|409:302,1,52.5000020027161,8|8,0:3|0:3,0:0:0:0:
500,344,127611,6,0,P|415:334|345:384,1,175,4|0,1:0|0:0,0:0:0:0:
388,239,127892,2,0,L|398:309,1,70,0|8,1:0|0:0,0:0:0:0:
499,40,128173,1,0,1:0:0:0:
499,40,128267,1,0,1:0:0:0:
499,40,128361,6,0,B|488:54|488:54|470:59,1,35,8|8,0:3|0:3,0:0:0:0:
436,143,128548,2,0,B|409:134|409:134|396:113,1,52.5000020027161,0|0,1:0|1:0,0:0:0:0:
310,173,128736,2,0,B|291:146|291:146|289:109,1,70,10|8,0:0|0:0,0:0:0:0:
182,78,128923,2,0,B|204:38|204:38|239:16,1,87.5,10|8,0:0|0:0,0:0:0:0:
71,0,129111,6,0,L|96:137,1,140,6|8,1:2|0:0,0:0:0:0:
76,237,129392,1,2,0:0:0:0:
76,237,129486,2,0,P|47:216|15:202,1,70,0|0,1:0|1:0,0:0:0:0:
96,137,129673,2,0,P|153:99|220:109,1,140,10|0,0:0|1:0,0:0:0:0:
302,188,129954,1,0,1:0:0:0:
302,188,130048,6,0,P|298:223|281:253,1,70,10|0,0:0|1:0,0:0:0:0:
203,343,130236,2,0,P|169:341|139:324,1,70,2|0,0:0|1:0,0:0:0:0:
174,188,130423,2,0,P|177:223|195:253,1,70,10|0,0:0|0:0,0:0:0:0:
290,365,130611,6,0,P|351:337|408:372,1,140,6|8,1:0|0:0,0:0:0:0:
483,314,130892,1,2,0:0:0:0:
483,314,130986,2,0,B|491:244,1,70,0|0,1:0|1:0,0:0:0:0:
420,180,131173,2,0,P|362:215|301:187,1,140,10|0,0:0|1:0,0:0:0:0:
293,95,131454,1,0,1:0:0:0:
293,95,131548,2,0,P|320:73|354:71,1,70,10|0,0:0|1:0,0:0:0:0:
457,94,131736,5,2,0:0:0:0:
449,47,131829,1,0,1:0:0:0:
441,0,131922,1,8,0:0:0:0:
224,154,132111,6,0,P|155:154|109:103,2,140,6|10|0,1:2|0:0|1:0,0:0:0:0:
194,69,132579,1,2,1:2:0:0:
194,69,132673,2,0,L|204:0,1,70,10|0,0:0|0:0,0:0:0:0:
24,55,132861,1,0,1:0:0:0:
11,101,132954,1,0,1:0:0:0:
19,149,133048,6,0,P|29:182|51:209,1,70,10|0,0:0|1:0,0:0:0:0:
61,309,133236,2,0,P|27:314|0:336,1,70,2|0,0:0|1:0,0:0:0:0:
51,209,133423,2,0,P|85:216|119:210,1,70,10|0,0:0|0:0,0:0:0:0:
195,320,133611,6,0,B|171:307|146:301|146:301|108:320|60:308,2,140,6|8|0,1:0|0:0|1:0,0:0:0:0:
210,223,134079,1,0,1:0:0:0:
210,223,134173,2,0,L|224:154,1,70,8|0,0:0|0:0,0:0:0:0:
173,0,134361,5,0,1:0:0:0:
143,38,134454,1,0,1:0:0:0:
174,76,134548,2,0,P|189:45|191:11,1,70,8|0,0:0|1:0,0:0:0:0:
95,128,134736,2,0,P|28:122|0:62,1,140,2|10,0:0|0:0,0:0:0:0:
0,314,135111,6,0,B|33:287|79:272|79:272|95:294|118:301,1,140,6|8,1:2|0:0,0:0:0:0:
218,247,135392,1,2,0:0:0:0:
218,247,135486,2,0,P|190:225|156:219,1,70,0|0,1:0|1:0,0:0:0:0:
139,384,135673,2,0,B|245:351|245:351|234:378,1,140,10|0,0:0|1:0,0:0:0:0:
337,356,135954,1,0,1:0:0:0:
337,356,136048,2,0,P|325:267|320:216,1,140,10|2,0:0|0:0,0:0:0:0:
318,126,136329,1,0,1:0:0:0:
318,126,136423,1,8,0:0:0:0:
512,249,136611,6,0,P|474:304|411:277,2,140,6|8|0,1:0|0:0|1:0,0:0:0:0:
477,153,137079,1,0,1:0:0:0:
477,153,137173,2,0,P|444:165|414:184,1,70,10|0,0:0|0:0,0:0:0:0:
365,22,137361,2,0,P|383:51|396:84,1,70,0|0,1:0|1:0,0:0:0:0:
320,217,137548,5,10,0:0:0:0:
305,229,137642,1,8,0:0:0:0:
270,233,137736,1,10,0:3:0:0:
226,211,137829,1,8,0:3:0:0:
171,198,137923,1,6,0:3:0:0:
115,227,138017,1,4,0:3:0:0:
93,305,138111,6,0,P|81:272|75:237,1,70,6|0,1:2|1:0,0:0:0:0:
180,286,138298,1,0,1:0:0:0:
180,286,138392,1,0,1:0:0:0:
156,374,138486,2,0,P|118:361|22:334,2,140,8|8|0,0:0|0:0|1:0,0:0:0:0:
239,346,138954,1,0,1:0:0:0:
265,301,139048,1,0,1:0:0:0:
259,250,139142,1,0,1:0:0:0:
226,211,139235,1,8,0:3:0:0:
214,160,139329,1,8,0:3:0:0:
247,121,139423,1,6,0:3:0:0:
298,117,139517,1,6,0:3:0:0:
333,153,139611,6,0,L|304:15,1,140,2|0,1:2|1:0,0:0:0:0:
324,150,139892,2,0,L|337:81,1,70,0|10,1:0|0:0,0:0:0:0:
475,152,140173,5,10,0:0:0:0:
475,152,140267,1,0,1:0:0:0:
508,231,140361,2,0,B|464:244|432:225|432:225|402:232|377:251,1,140,2|0,1:2|1:0,0:0:0:0:
296,280,140642,1,0,1:0:0:0:
291,272,140736,5,8,0:0:0:0:
265,301,140829,1,8,0:0:0:0:
213,290,140923,1,8,0:0:0:0:
157,338,141017,1,8,0:0:0:0:
77,313,141111,1,4,1:2:0:0:
148,230,145798,5,8,0:0:0:0:
153,238,145892,1,8,0:0:0:0:
158,246,145986,1,8,0:0:0:0:
163,254,146080,1,8,0:0:0:0:
277,79,146267,2,0,B|257:81|257:81|244:73,1,35,8|8,0:0|0:0,0:0:0:0:
343,266,146548,2,0,B|351:248|351:248|364:240,1,35,8|8,0:0|0:0,0:0:0:0:
364,240,147111,6,0,L|351:344,1,105.000004005432,6|0,1:2|1:0,0:0:0:0:
430,373,147392,1,0,1:0:0:0:
430,373,147486,2,0,P|452:359|477:350,1,52.5000020027161,2|0,1:2|1:0,0:0:0:0:
499,225,147767,2,0,P|476:210|452:202,1,52.5000020027161,0|2,1:0|1:2,0:0:0:0:
372,103,148048,2,0,P|394:89|419:80,1,52.5000020027161,0|0,1:0|1:0,0:0:0:0:
418,80,148797,5,0,1:0:0:0:
402,81,148891,1,0,1:0:0:0:
387,74,148985,1,0,1:2:0:0:
377,61,149079,1,0,1:0:0:0:
257,102,149267,2,0,P|259:127|258:153,1,52.5000020027161,0|0,1:0|1:2,0:0:0:0:
357,232,149548,2,0,P|377:216|400:205,1,52.5000020027161,0|0,1:0|1:0,0:0:0:0:
401,204,150111,5,6,1:2:0:0:
352,353,150298,5,0,1:0:0:0:
342,340,150392,1,0,1:0:0:0:
327,333,150486,1,2,1:2:0:0:
311,334,150580,1,0,1:0:0:0:
217,249,150768,2,0,P|194:263|177:282,1,52.5000020027161,0|2,1:0|1:2,0:0:0:0:
53,305,151048,2,0,P|54:331|62:355,1,52.5000020027161,0|0,1:0|1:0,0:0:0:0:
62,355,151798,5,0,1:0:0:0:
75,345,151892,1,0,1:0:0:0:
82,330,151986,1,0,1:2:0:0:
81,314,152080,1,0,1:0:0:0:
141,204,152267,2,0,P|131:179|115:158,1,52.5000020027161,0|0,1:0|1:2,0:0:0:0:
108,32,152548,2,0,P|87:15|63:5,1,52.5000020027161,0|0,1:0|1:0,0:0:0:0:
63,5,153111,5,6,1:2:0:0:
71,185,153298,2,0,P|91:168|115:158,1,52.5000020027161,0|0,1:0|1:0,0:0:0:0:
160,96,153486,2,0,P|184:105|205:121,1,52.5000020027161,2|0,1:2|1:0,0:0:0:0:
331,127,153767,2,0,P|334:152|331:178,1,52.5000020027161,0|2,1:0|1:2,0:0:0:0:
413,274,154048,2,0,P|392:290|368:300,1,52.5000020027161,0|0,1:0|1:0,0:0:0:0:
368,299,154798,6,0,L|417:316,1,52.5000020027161,0|0,1:0|1:0,0:0:0:0:
289,290,154986,2,0,L|338:272,1,52.5000020027161,0|0,1:2|1:0,0:0:0:0:
133,221,155267,2,0,L|182:238,1,52.5000020027161,0|0,1:0|1:2,0:0:0:0:
17,345,155548,2,0,L|66:327,1,52.5000020027161,0|0,1:0|1:0,0:0:0:0:
66,327,156111,5,6,1:2:0:0:
133,221,156298,1,0,1:0:0:0:
126,195,156392,1,0,1:0:0:0:
119,169,156486,1,2,1:2:0:0:
112,143,156580,1,0,1:0:0:0:
196,50,156767,1,0,1:0:0:0:
220,61,156861,1,2,1:2:0:0:
318,138,157048,1,0,1:0:0:0:
342,127,157142,1,0,1:0:0:0:
342,127,157798,5,0,1:0:0:0:
366,135,157892,1,0,1:0:0:0:
358,159,157986,1,0,1:2:0:0:
334,151,158080,1,0,1:0:0:0:
314,26,158267,1,0,1:0:0:0:
314,26,158361,1,0,1:2:0:0:
378,274,158548,1,0,1:0:0:0:
378,274,158642,1,0,1:0:0:0:
378,274,158736,6,0,P|391:261|404:251,2,35.0000013351441,8|4|0,0:3|0:3|1:0,0:0:0:0:
365,315,158923,2,0,P|343:300|319:290,1,52.5000020027161,8|0,0:0|0:0,0:0:0:0:
289,332,159111,6,2,B|260:215|260:215|251:233,1,140,6|8,1:2|0:0,0:1:0:0:
183,292,159392,2,2,B|164:290|146:274|146:274|103:297|50:286,1,140,2|0,0:0|1:0,0:1:0:0:
72,131,159673,2,2,P|88:162|100:196,1,70,10|0,0:0|0:0,0:1:0:0:
187,129,159861,6,2,P|180:68|240:78,1,140,2|8,1:2|0:0,0:1:0:0:
255,195,160142,2,2,B|278:190|304:169|304:169|345:192|384:171,1,140,2|0,1:2|1:0,0:1:0:0:
349,86,160423,1,10,0:0:0:0:
222,372,160611,6,2,P|180:245|177:236,1,140,6|8,1:0|0:0,0:1:0:0:
293,282,160892,2,2,B|352:234|394:236|394:236|382:259,1,140,2|0,0:0|1:0,0:1:0:0:
379,383,161173,2,2,P|348:365|314:358,1,70,10|0,0:0|0:0,0:1:0:0:
279,202,161361,6,2,P|314:259|382:260,1,140,2|8,1:2|0:0,0:1:0:0:
475,236,161642,2,2,B|465:173|457:136|457:136|451:154|446:173,1,140,2|0,1:2|1:0,0:1:0:0:
450,322,161923,1,10,0:0:0:0:
359,88,162111,6,2,P|355:26|415:36,1,140,6|8,1:2|0:0,0:1:0:0:
446,173,162392,1,2,0:0:0:0:
446,173,162486,2,2,B|419:182|393:174|393:174|361:185|361:185|337:173|310:174,1,140,0|10,1:0|0:0,0:1:0:0:
258,100,162766,1,0,0:0:0:0:
198,171,162861,6,2,L|238:304,1,140,2|8,1:2|0:0,0:1:0:0:
103,381,163142,2,2,P|72:324|122:284,1,140,2|0,1:2|1:0,0:1:0:0:
193,378,163423,1,10,0:0:0:0:
100,189,163611,6,2,B|49:154|49:154|61:74|61:74|92:63,2,175,6|8|0,1:0|0:0|1:0,0:1:0:0:
198,171,164079,1,0,1:0:0:0:
198,171,164173,2,2,B|183:91|183:91|179:85|179:85|180:76|180:76|167:0,2,175,10|0|8,0:0|1:0|0:0,0:1:0:0:
291,123,164642,2,0,B|318:100|370:110|370:110|383:73|383:73|407:86|434:73,1,175,0|2,1:0|1:2,0:0:0:0:
486,0,164923,1,10,0:0:0:0:
487,219,165111,5,6,1:2:0:0:
487,219,165204,2,0,P|457:199|425:186,2,70,10|2|10,0:0|1:2|0:0,0:0:0:0:
497,318,165486,1,2,1:2:0:0:
468,357,165579,1,10,0:0:0:0:
419,365,165673,1,2,1:0:0:0:
376,340,165767,1,10,0:0:0:0:
329,354,165861,6,0,P|322:319|312:286,3,70,2|10|2|10,1:2|0:0|1:0|0:0,0:0:0:0:
223,237,166236,2,0,P|213:270|206:304,3,70,2|10|2|10,1:2|0:0|1:0|0:0,0:0:0:0:
276,137,166611,5,6,1:2:0:0:
236,108,166704,1,10,0:0:0:0:
186,108,166798,1,2,1:0:0:0:
151,142,166892,1,10,0:0:0:0:
147,190,166986,2,0,P|115:174|82:164,1,70,2|10,1:0|0:0,0:0:0:0:
61,1,167173,2,0,P|76:32|86:65,1,70,2|10,1:0|0:0,0:0:0:0:
11,228,167361,5,2,1:0:0:0:
11,276,167454,1,10,0:0:0:0:
48,308,167548,1,2,1:0:0:0:
96,310,167641,1,10,0:0:0:0:
138,285,167736,2,0,P|172:292|204:304,1,70,2|8,1:2|0:0,0:0:0:0:
330,257,167923,1,0,1:0:0:0:
400,308,168017,1,8,0:0:0:0:
362,340,168111,6,2,L|391:132,1,210.000008010865,6|0,1:2|0:0,0:1:0:0:
150,340,168673,2,2,L|121:132,1,210.000008010865,6|0,1:2|0:0,0:1:0:0:
108,124,169236,2,2,L|137:331,1,210.000008010865,6|0,1:2|0:0,0:1:0:0:
375,331,169798,2,2,L|404:124,1,210.000008010865,6|0,1:2|0:0,0:1:0:0:
404,123,170361,5,6,1:2:0:0:
347,193,170548,1,8,0:3:0:0:
273,34,170736,1,4,0:3:0:0:
215,297,170923,1,4,0:3:0:0:
10,171,171111,6,2,B|46:170|63:146|63:146|100:161|131:136|131:136|148:176|184:186,2,210,6|6|6,1:2|1:2|1:2,0:1:0:0:
219,106,171861,5,6,1:2:0:0:
102,254,172142,1,6,1:2:0:0:
80,8,172423,1,6,1:2:0:0:
204,188,172611,6,2,P|110:163|0:138,2,210,6|6|6,1:2|1:2|1:2,0:1:0:0:
316,1,173361,6,2,P|336:49|342:101,1,105.000004005432,6|8,1:2|0:0,0:1:0:0:
322,135,173642,1,8,0:0:0:0:
329,156,173736,1,10,0:0:0:0:
302,197,173829,1,8,0:0:0:0:
337,234,173923,1,10,0:0:0:0:
286,300,174017,1,8,0:0:0:0:
337,378,174111,6,0,P|370:361|400:348,2,70,6|0|0,1:0|1:0|1:0,0:0:0:0:
40,46,183111,6,0,L|63:148,1,105.000004005432,6|0,1:2|1:0,0:0:0:0:
139,107,183392,2,0,L|145:72,1,35,0|8,1:0|0:0,0:0:0:0:
207,261,183673,2,0,L|239:274,1,35,8|8,0:0|0:0,0:0:0:0:
320,334,183861,6,0,L|187:378,1,140,0|0,1:0|1:0,0:0:0:0:
239,274,184142,2,0,L|251:223,1,52.5000020027161,0|8,1:0|0:0,0:0:0:0:
465,58,184423,2,0,L|413:77,1,52.5000020027161,8|4,0:3|0:3,0:0:0:0:
332,136,184611,6,0,L|497:191,1,175,4|0,1:0|1:0,0:0:0:0:
415,76,184892,2,0,L|398:7,1,70,0|8,1:0|0:0,0:0:0:0:
224,14,185173,2,0,L|209:82,1,70,0|0,1:0|1:0,0:0:0:0:
377,225,185361,6,0,P|359:146|279:150,1,175,8|4,0:3|0:3,0:0:0:0:
129,210,185642,1,4,0:3:0:0:
123,234,185736,1,10,0:0:0:0:
140,269,185829,1,8,0:0:0:0:
191,280,185923,1,10,0:0:0:0:
244,226,186017,1,8,0:0:0:0:
190,146,186111,6,0,B|197:97|173:61|173:61|175:30|186:11,2,140,6|8|0,1:2|0:0|1:0,0:0:0:0:
129,210,186579,1,0,1:0:0:0:
129,210,186673,2,0,L|0:155,1,140,10|0,0:0|1:0,0:0:0:0:
59,280,186954,1,0,1:0:0:0:
59,280,187048,6,0,B|42:312|42:312|45:346,1,70,10|0,0:0|1:0,0:0:0:0:
193,189,187236,2,0,B|166:208|166:208|129:210,1,70,2|0,0:0|1:0,0:0:0:0:
202,360,187423,2,0,B|175:341|175:341|138:338,1,70,10|0,0:0|0:0,0:0:0:0:
281,312,187611,6,0,B|319:302|319:302|372:337|372:337|407:327,1,140,6|8,1:0|0:0,0:0:0:0:
505,319,187892,1,2,0:0:0:0:
505,319,187986,2,0,P|505:353|489:384,1,70,0|0,1:0|1:0,0:0:0:0:
448,242,188173,2,0,B|423:139|423:139|438:108,1,140,10|0,0:0|1:0,0:0:0:0:
469,0,188454,1,0,1:0:0:0:
469,0,188548,2,0,P|438:17|404:20,1,70,10|0,0:0|1:0,0:0:0:0:
274,43,188736,5,2,0:0:0:0:
292,87,188829,1,0,1:0:0:0:
338,99,188923,1,8,0:0:0:0:
407,326,189111,6,0,B|353:301|313:299|313:299|280:329,1,140,6|10,1:2|0:0,0:0:0:0:
177,288,189392,1,2,0:0:0:0:
177,288,189486,2,0,P|186:316|198:354,1,70,0|2,1:0|1:2,0:0:0:0:
79,383,189673,2,0,L|92:243,1,140,10|0,0:0|1:0,0:0:0:0:
222,197,189954,1,0,1:0:0:0:
250,157,190048,1,10,0:0:0:0:
240,108,190142,1,0,1:0:0:0:
203,75,190236,6,0,P|170:87|139:103,1,70,2|0,0:0|1:0,0:0:0:0:
40,85,190423,2,0,P|23:54|11:21,1,70,10|0,0:0|0:0,0:0:0:0:
0,204,190611,6,0,B|37:189|63:185|63:185|99:207|134:199,2,140,6|8|0,1:0|0:0|1:0,0:0:0:0:
48,299,191079,1,0,1:0:0:0:
48,299,191173,2,0,P|37:332|32:366,1,70,8|0,0:0|0:0,0:0:0:0:
217,328,191361,5,0,1:0:0:0:
185,291,191454,1,0,1:0:0:0:
143,315,191548,2,0,P|171:335|205:343,1,70,8|0,0:0|1:0,0:0:0:0:
306,361,191736,2,0,B|344:317|326:264|326:264|309:278|305:292,1,140,2|10,0:0|0:0,0:0:0:0:
218,52,192111,6,0,B|254:65|281:84|281:84|307:65|343:54,1,140,6|8,1:2|0:0,0:0:0:0:
447,32,192392,1,2,0:0:0:0:
447,32,192486,2,0,L|432:112,1,70,0|0,1:0|1:0,0:0:0:0:
414,209,192673,2,0,B|317:181|317:181|351:161,1,140,10|0,0:0|1:0,0:0:0:0:
210,185,192954,1,0,1:0:0:0:
210,185,193048,2,0,P|224:216|234:250,1,70,10|0,0:0|1:0,0:0:0:0:
99,347,193236,2,0,P|130:332|164:322,1,70,2|0,0:0|1:0,0:0:0:0:
124,233,193423,2,0,P|92:218|58:208,1,70,8|0,0:0|0:0,0:0:0:0:
10,116,193611,6,0,P|72:89|88:23,2,140,6|8|0,1:0|0:0|1:0,0:0:0:0:
59,209,194079,1,0,1:0:0:0:
59,209,194173,2,0,P|45:241|37:275,1,70,10|0,0:0|0:0,0:0:0:0:
99,347,194361,1,0,1:0:0:0:
132,312,194454,1,0,1:0:0:0:
180,306,194548,1,10,0:0:0:0:
224,344,194642,1,8,0:0:0:0:
270,323,194736,2,0,P|335:297|401:275,1,140,10|6,0:3|0:3,0:0:0:0:
512,361,195017,1,4,0:3:0:0:
512,361,195111,6,0,P|500:327|486:294,1,70,6|0,1:2|1:0,0:0:0:0:
477,201,195298,2,0,P|417:170|418:103,2,140,0|8|8,1:0|0:0|0:0,0:0:0:0:
401,274,195767,1,0,1:0:0:0:
401,274,195861,2,0,P|368:287|339:306,1,70,0|0,1:0|1:0,0:0:0:0:
300,204,196048,1,0,1:0:0:0:
286,183,196142,1,0,1:0:0:0:
249,167,196236,1,8,0:3:0:0:
200,177,196329,1,8,0:3:0:0:
169,214,196423,1,6,0:3:0:0:
95,213,196517,1,6,0:3:0:0:
40,149,196611,6,0,L|11:11,1,140,2|0,1:2|1:0,0:0:0:0:
30,148,196892,2,0,L|43:79,1,70,2|10,1:2|0:0,0:0:0:0:
6,317,197173,5,10,0:0:0:0:
6,317,197267,1,0,1:0:0:0:
6,317,197361,2,0,P|36:299|69:289,1,70,2|0,1:2|1:0,0:0:0:0:
2,291,197548,2,0,B|15:299|21:308|21:308|54:305|85:326|85:326|106:323|131:326,1,140,0|8,1:0|0:0,0:0:0:0:
279,254,197829,1,8,0:0:0:0:
330,280,197923,1,8,0:0:0:0:
360,255,198017,1,8,0:0:0:0:
382,265,198111,6,0,B|364:154|364:154|351:178,1,140,6|0,1:2|0:0,0:0:0:0:
356,99,198392,2,0,P|348:133|342:167,1,70,2|8,1:2|0:3,0:0:0:0:
99,104,198673,1,10,0:3:0:0:
99,104,198767,1,8,0:3:0:0:
99,104,198861,6,0,B|151:75|196:68|196:68|207:76|229:85,1,140,6|0,1:0|0:0,0:0:0:0:
200,19,199142,2,0,P|207:53|213:87,1,70,2|0,1:2|0:0,0:0:0:0:
223,323,199423,1,8,0:3:0:0:
223,323,199517,1,4,0:3:0:0:
223,323,199611,6,0,B|170:314|127:297|127:297|148:312|161:324,1,140,6|0,1:2|0:0,0:0:0:0:
92,357,199892,2,0,P|125:346|159:337,1,70,2|8,1:2|0:3,0:0:0:0:
463,375,200173,1,10,0:3:0:0:
463,375,200267,1,8,0:3:0:0:
462,375,200361,6,0,B|492:344|488:310|488:310|475:337|448:364,1,140,6|0,1:0|0:0,0:0:0:0:
365,373,200641,1,0,1:0:0:0:
365,373,200736,2,0,P|348:356|330:341,2,46.6666666666667,8|8|0,0:0|0:0|1:0,0:0:0:0:
353,381,200923,2,0,L|366:312,1,70,8|0,0:0|0:0,0:0:0:0:
385,201,201111,5,6,1:2:0:0:
359,234,201204,1,0,1:2:0:0:
319,248,201298,1,0,1:0:0:0:
277,243,201392,1,0,1:2:0:0:
247,213,201486,1,8,0:3:0:0:
205,210,201579,1,8,0:3:0:0:
163,220,201673,1,8,0:3:0:0:
133,249,201767,1,8,0:3:0:0:
124,290,201861,6,0,P|93:273|60:260,7,70,4|0|0|0|0|0|8|4,1:0|1:2|1:0|1:2|1:0|1:0|0:3|0:3,0:0:0:0:
93,184,202611,5,4,1:2:0:0:
88,142,202705,1,0,1:2:0:0:
61,108,202799,1,0,1:0:0:0:
19,105,202892,1,0,1:2:0:0:
51,131,202986,1,8,0:3:0:0:
92,132,203079,1,8,0:3:0:0:
126,107,203173,1,8,0:3:0:0:
142,68,203267,1,8,0:3:0:0:
127,29,203361,6,0,P|158:12|191:-1,3,70,4|0|0|0,1:0|1:2|1:0|1:0,0:0:0:0:
255,65,203736,5,8,0:0:0:0:
277,82,203829,1,8,0:0:0:0:
330,79,203923,1,8,0:0:0:0:
375,12,204017,1,8,0:0:0:0:
437,71,204111,6,0,P|419:138|407:207,1,140,6|8,1:2|0:0,0:0:0:0:
474,262,204392,2,0,P|485:295|489:329,2,70,2|0|0,0:0|1:0|1:0,0:0:0:0:
392,309,204673,1,10,0:0:0:0:
392,309,204767,1,2,0:0:0:0:
392,309,204861,6,0,B|356:270|321:246|321:246|300:259|307:285,1,140,2|8,1:2|0:0,0:0:0:0:
256,382,205142,2,0,P|290:384|321:369,2,70,0|2|0,1:0|0:0|1:0,0:0:0:0:
114,348,205423,1,10,0:0:0:0:
114,348,205517,1,2,0:0:0:0:
114,348,205611,6,0,B|161:330|178:294|178:294|207:308|231:298,1,140,6|8,1:0|0:0,0:0:0:0:
219,208,205892,2,0,P|222:173|234:140,2,70,2|0|0,0:0|1:0|1:0,0:0:0:0:
128,215,206173,1,10,0:0:0:0:
128,215,206267,1,2,0:0:0:0:
128,215,206361,6,0,P|60:215|23:159,1,140,2|8,1:2|0:0,0:0:0:0:
101,112,206642,2,0,P|85:81|88:46,2,70,0|0|0,0:0|1:0|1:0,0:0:0:0:
282,187,206923,1,8,0:0:0:0:
282,187,207017,1,8,0:0:0:0:
282,187,207111,6,0,P|315:167|345:157,7,70,4|0|8|0|0|0|8|0,1:2|1:2|0:0|1:2|1:2|1:2|0:0|1:2,0:0:0:0:
205,130,207861,5,0,1:2:0:0:
176,171,207954,1,0,1:2:0:0:
181,220,208048,1,8,0:0:0:0:
210,261,208142,1,0,1:2:0:0:
202,310,208236,1,0,1:2:0:0:
160,334,208329,1,0,1:2:0:0:
111,336,208423,1,8,0:0:0:0:
80,299,208517,1,0,1:2:0:0:
86,251,208611,6,0,P|52:231|23:221,7,70,0|0|8|0|0|0|8|0,1:2|1:2|0:0|1:2|1:2|1:2|0:0|1:2,0:0:0:0:
115,159,209361,6,0,L|101:90,1,70,0|0,1:2|1:2,0:0:0:0:
182,305,209548,2,0,L|195:236,1,70,8|0,0:0|1:2,0:0:0:0:
227,127,209736,5,8,0:0:0:0:
251,147,209829,1,8,0:0:0:0:
301,117,209923,1,8,0:0:0:0:
365,160,210017,1,8,0:0:0:0:
438,106,210111,1,4,1:2:0:0:
256,192,210204,12,0,215923,0:0:0:0:
438,106,216111,6,0,B|448:131|448:131|443:154,1,52.5000020027161,8|8,0:0|0:0,0:0:0:0:
365,160,216298,2,0,B|353:133|353:133|358:110,1,52.5000020027161,8|8,0:0|0:0,0:0:0:0:
