osu file format v14

[General]
AudioFilename: Audio.mp3
AudioLeadIn: 0
PreviewTime: 116548
Countdown: 0
SampleSet: Soft
StackLeniency: 0.7
Mode: 0
LetterboxInBreaks: 0
EpilepsyWarning: 1
WidescreenStoryboard: 1

[Editor]
DistanceSpacing: 1
BeatDivisor: 4
GridSize: 16
TimelineZoom: 1.8

[Metadata]
Title:Gareki no Yume
TitleUnicode:瓦礫の夢
Artist:Denkishiki Karen Ongaku Shuudan
ArtistUnicode:電気式華憐音楽集団
Creator:Dored
Version:Lunala's Hard
Source:サクラノモリ†ドリーマーズ
Tags:Sakura no Mori Dreamers Denkare Japanese Metal Rock Jrock J-rock Eroge Galgame Visual Novel Video Game VN Opening OP Full Version Moonstone Misure LMT Otosaka-Yu Suzuki_1112 Lunala Rin Sa Rin_Sa Bellicose yf_bmp
BeatmapID:2342626
BeatmapSetID:1037741

[Difficulty]
HPDrainRate:5
CircleSize:3.6
OverallDifficulty:7
ApproachRate:8
SliderMultiplier:1.4
SliderTickRate:1

[Events]
//Background and Video events
0,0,"Mifuyu.jpg",0,0
//Break Periods
//Storyboard Layer 0 (Background)
//Storyboard Layer 1 (Fail)
//Storyboard Layer 2 (Pass)
//Storyboard Layer 3 (Foreground)
Sprite,Foreground,Centre,"SB\output\004C_2S.png",0,0 F,0,14371,,0.1 MX,0,14371,,603.5 MY,0,14371,,300 F,0,14427,,0 F,0,14483,,0.1 MX,0,14483,,595.5 MY,0,14483,,283 F,0,14539,,0 F,0,14595,,0.1 MX,0,14595,,595.5 MY,0,14595,,302 F,0,14651,,0 F,0,14707,,0.1 MX,0,14707,,592.5 MY,0,14707,,303 F,0,14763,,0 F,0,14819,,0.1 MX,0,14819,,589.5 MY,0,14819,,287 F,0,14875,,0 F,0,14931,,0.1 MX,0,14931,,593.5 MY,0,14931,,294 F,0,14987,,0 F,0,15043,,0.1 MX,0,15043,,593.5 MY,0,15043,,300 F,0,15099,,0 F,0,15121,,1 S,0,15121,,0.4 MX,0,15121,18121,594.5 MY,0,15121,18121,292
Sprite,Foreground,Centre,"SB\output\0075_2S.png",0,0 F,0,14371,,0.1 MX,0,14371,,620.7 MY,0,14371,,306 F,0,14405,,0 F,0,14439,,0.1 MX,0,14439,,614.7 MY,0,14439,,286 F,0,14473,,0 F,0,14507,,0.1 MX,0,14507,,618.7 MY,0,14507,,301 F,0,14541,,0 F,0,14575,,0.1 MX,0,14575,,621.7 MY,0,14575,,280 F,0,14609,,0 F,0,14643,,0.1 MX,0,14643,,614.7 MY,0,14643,,292 F,0,14677,,0 F,0,14711,,0.1 MX,0,14711,,618.7 MY,0,14711,,295 F,0,14745,,0 F,0,14779,,0.1 MX,0,14779,,610.7 MY,0,14779,,284 F,0,14813,,0 F,0,14847,,0.1 MX,0,14847,,604.7 MY,0,14847,,291 F,0,14881,,0 F,0,14915,,0.1 MX,0,14915,,607.7 MY,0,14915,,298 F,0,14949,,0 F,0,14983,,0.1 MX,0,14983,,611.7 MY,0,14983,,295 F,0,15017,,0 F,0,15051,,0.1 MX,0,15051,,605.7 MY,0,15051,,290 F,0,15085,,0 F,0,15119,,0.1 MX,0,15119,,608.7 MY,0,15119,,295 F,0,15121,,1 S,0,15121,,0.4 MX,0,15121,18121,610.7 MY,0,15121,18121,292
Sprite,Foreground,Centre,"SB\output\006E_2S.png",0,0 F,0,14371,,0.1 MX,0,14371,,632.9 MY,0,14371,,280 F,0,14420,,0 F,0,14469,,0.1 MX,0,14469,,619.9 MY,0,14469,,303 F,0,14518,,0 F,0,14567,,0.1 MX,0,14567,,633.9 MY,0,14567,,287 F,0,14616,,0 F,0,14665,,0.1 MX,0,14665,,624.9 MY,0,14665,,283 F,0,14714,,0 F,0,14763,,0.1 MX,0,14763,,619.9 MY,0,14763,,290 F,0,14812,,0 F,0,14861,,0.1 MX,0,14861,,630.9 MY,0,14861,,294 F,0,14910,,0 F,0,14959,,0.1 MX,0,14959,,625.9 MY,0,14959,,286 F,0,15008,,0 F,0,15057,,0.1 MX,0,15057,,632.9 MY,0,15057,,297 F,0,15106,,0 F,0,15121,,1 S,0,15121,,0.4 MX,0,15121,18121,626.9 MY,0,15121,18121,292
Sprite,Foreground,Centre,"SB\output\0061_2S.png",0,0 F,0,14371,,0.1 MX,0,14371,,653.1 MY,0,14371,,297 F,0,14428,,0 F,0,14485,,0.1 MX,0,14485,,646.1 MY,0,14485,,284 F,0,14542,,0 F,0,14599,,0.1 MX,0,14599,,653.1 MY,0,14599,,302 F,0,14656,,0 F,0,14713,,0.1 MX,0,14713,,633.1 MY,0,14713,,300 F,0,14770,,0 F,0,14827,,0.1 MX,0,14827,,635.1 MY,0,14827,,295 F,0,14884,,0 F,0,14941,,0.1 MX,0,14941,,649.1 MY,0,14941,,286 F,0,14998,,0 F,0,15055,,0.1 MX,0,15055,,651.1 MY,0,15055,,291 F,0,15112,,0 F,0,15121,,1 S,0,15121,,0.4 MX,0,15121,18121,643.1 MY,0,15121,18121,292
Sprite,Foreground,Centre,"SB\output\006C_2S.png",0,0 F,0,14371,,0.1 MX,0,14371,,665.3 MY,0,14371,,301 F,0,14425,,0 F,0,14479,,0.1 MX,0,14479,,647.3 MY,0,14479,,298 F,0,14533,,0 F,0,14587,,0.1 MX,0,14587,,664.3 MY,0,14587,,282 F,0,14641,,0 F,0,14695,,0.1 MX,0,14695,,668.3 MY,0,14695,,284 F,0,14749,,0 F,0,14803,,0.1 MX,0,14803,,658.3 MY,0,14803,,292 F,0,14857,,0 F,0,14911,,0.1 MX,0,14911,,655.3 MY,0,14911,,295 F,0,14965,,0 F,0,15019,,0.1 MX,0,15019,,658.3 MY,0,15019,,298 F,0,15073,,0 F,0,15121,,1 S,0,15121,,0.4 MX,0,15121,18121,659.3 MY,0,15121,18121,292
Sprite,Foreground,Centre,"SB\output\0061_2S.png",0,0 F,0,14371,,0.1 MX,0,14371,,683.5 MY,0,14371,,299 F,0,14430,,0 F,0,14489,,0.1 MX,0,14489,,687.5 MY,0,14489,,286 F,0,14548,,0 F,0,14607,,0.1 MX,0,14607,,675.5 MY,0,14607,,296 F,0,14666,,0 F,0,14725,,0.1 MX,0,14725,,670.5 MY,0,14725,,286 F,0,14784,,0 F,0,14843,,0.1 MX,0,14843,,682.5 MY,0,14843,,285 F,0,14902,,0 F,0,14961,,0.1 MX,0,14961,,668.5 MY,0,14961,,283 F,0,15020,,0 F,0,15079,,0.1 MX,0,15079,,677.5 MY,0,15079,,295 F,0,15121,,1 S,0,15121,,0.4 MX,0,15121,18121,675.5 MY,0,15121,18121,292
Sprite,Foreground,Centre,"SB\output\0042_1L.png",0,0 S,0,172386,172516,1.2,0.2 MX,0,172386,172516,-430,195 S,10,172516,173086,0.2,0.12 MX,10,172516,173086,195,245 MY,0,173136,,230
Sprite,Foreground,Centre,"SB\output\0065_1L.png",0,0 S,0,172386,172516,1.2,0.2 MX,0,172386,172516,-180,236.6667 S,10,172516,173086,0.2,0.12 MX,10,172516,173086,236.6667,270 MY,0,173136,,230
Sprite,Foreground,Centre,"SB\output\0061_1L.png",0,0 S,0,172386,172516,1.2,0.2 MX,0,172386,172516,70,278.3333 S,10,172516,173086,0.2,0.12 MX,10,172516,173086,278.3333,295 MY,0,173136,,230
Sprite,Foreground,Centre,"SB\output\0074_1L.png",0,0 S,0,172386,172516,1.2,0.2 MX,0,172386,172516,320 S,10,172516,173086,0.2,0.12 MX,10,172516,173086,320 MY,0,173136,,230
Sprite,Foreground,Centre,"SB\output\006D_1L.png",0,0 S,0,172386,172516,1.2,0.2 MX,0,172386,172516,570,361.6667 S,10,172516,173086,0.2,0.12 MX,10,172516,173086,361.6667,345 MY,0,173136,,230
Sprite,Foreground,Centre,"SB\output\0061_1L.png",0,0 S,0,172386,172516,1.2,0.2 MX,0,172386,172516,820,403.3333 S,10,172516,173086,0.2,0.12 MX,10,172516,173086,403.3333,370 MY,0,173136,,230
Sprite,Foreground,Centre,"SB\output\0070_1L.png",0,0 S,0,172386,172516,1.2,0.2 MX,0,172386,172516,1070,445 S,10,172516,173086,0.2,0.12 MX,10,172516,173086,445,395 MY,0,173136,,230
Sprite,Foreground,Centre,"SB\output\004C_1S.png",0,0 F,0,172586,,1 MY,0,172586,172641,450,350 MY,10,172641,172886,350,290 F,0,173136,,0 S,0,173136,,0.4 MX,0,173136,,273.7143
Sprite,Foreground,Centre,"SB\output\0075_1S.png",0,0 F,0,172634,,1 MY,0,172634,172689,450,350 MY,10,172689,172934,350,290 F,0,173136,,0 S,0,173136,,0.4 MX,0,173136,,292.2286
Sprite,Foreground,Centre,"SB\output\006E_1S.png",0,0 F,0,172673,,1 MY,0,172673,172728,450,350 MY,10,172728,172973,350,290 F,0,173136,,0 S,0,173136,,0.4 MX,0,173136,,310.7429
Sprite,Foreground,Centre,"SB\output\0061_1S.png",0,0 F,0,172704,,1 MY,0,172704,172759,450,350 MY,10,172759,173004,350,290 F,0,173136,,0 S,0,173136,,0.4 MX,0,173136,,329.2571
Sprite,Foreground,Centre,"SB\output\006C_1S.png",0,0 F,0,172728,,1 MY,0,172728,172783,450,350 MY,10,172783,173028,350,290 F,0,173136,,0 S,0,173136,,0.4 MX,0,173136,,347.7714
Sprite,Foreground,Centre,"SB\output\0061_1S.png",0,0 F,0,172746,,1 MY,0,172746,172801,450,350 MY,10,172801,173046,350,290 F,0,173136,,0 S,0,173136,,0.4 MX,0,173136,,366.2857
//Storyboard Layer 4 (Overlay)
//Storyboard Sound Samples

[TimingPoints]
6111,375,4,2,1,40,1,0
6111,-133.333333333333,4,2,1,40,0,0
6211,-133.333333333333,4,2,1,40,0,0
11829,-100,4,2,1,70,0,0
12017,-100,4,2,1,70,0,0
12111,-83.3333333333333,4,2,1,70,0,1
12204,-83.3333333333333,4,2,1,70,0,0
18111,-83.3333333333333,4,2,1,75,0,0
27111,-133.333333333333,4,2,1,70,0,0
30111,-133.333333333333,4,2,1,65,0,0
33111,-133.333333333333,4,2,1,60,0,0
36111,-100,4,2,1,70,0,0
39111,-133.333333333333,4,2,1,60,0,0
42111,-100,4,2,1,70,0,0
42211,-100,4,2,1,70,0,0
56361,-100,4,2,1,75,0,0
57111,-83.3333333333333,4,2,1,75,0,0
58611,-71.4285714285714,4,2,1,75,0,1
81111,-83.3333333333333,4,2,1,75,0,1
82236,-83.3333333333333,4,2,1,75,0,1
82611,-83.3333333333333,4,2,1,75,0,0
91611,-100,4,2,1,70,0,0
114861,-100,4,2,1,75,0,0
117111,-71.4285714285714,4,2,1,75,0,1
139611,-83.3333333333333,4,2,1,75,0,1
141111,-133.333333333333,4,2,1,75,0,0
145798,-133.333333333333,4,2,1,70,0,0
159111,-83.3333333333333,4,2,1,75,0,1
165111,-100,4,2,1,75,0,1
168111,-100,4,2,1,75,0,0
168673,-100,4,2,1,70,0,0
170361,-100,4,2,1,70,0,1
171111,-100,4,2,1,75,0,0
174111,-100,4,2,1,65,0,0
183111,-83.3333333333333,4,2,1,65,0,0
184611,-83.3333333333333,4,2,1,70,0,0
185736,-100,4,2,1,75,0,0
186111,-71.4285714285714,4,2,1,75,0,1
196611,-83.3333333333333,4,2,1,75,0,1
198111,-100,4,2,1,70,0,0
204111,-83.3333333333333,4,2,1,70,0,0
210111,-133.333333333333,4,2,1,70,0,0
210861,-133.333333333333,4,2,1,40,0,0
213486,-133.333333333333,4,2,1,70,0,0
215736,-100,4,2,1,5,0,0
216111,-100,4,2,1,70,0,0

[Colours]
Combo1 : 179,109,255
Combo2 : 81,255,239
SliderTrackOverride : 10,0,20

[HitObjects]
92,232,6111,6,0,B|218:201|172:292|297:261,2,210.000008010865,2|2|2,0:0|0:0|0:0,0:0:0:0:
379,125,9111,2,0,B|385:73|351:29|351:29|300:25|251:71,2,210.000008010865,2|2|2,0:0|0:0|0:0,0:0:0:0:
410,102,12111,6,0,L|399:230,2,125.999996154785,4|0|0,1:2|1:0|1:0,0:0:0:0:
333,52,12861,1,8,0:0:0:0:
333,52,12954,1,8,0:0:0:0:
243,116,13142,2,0,P|187:141|115:103,1,125.999996154785,0|0,1:0|1:0,0:0:0:0:
87,99,13517,5,0,1:0:0:0:
87,99,13611,2,0,P|127:149|99:233,2,125.999996154785,6|8|8,1:2|0:0|0:0,0:0:0:0:
45,237,14361,2,2,L|204:241,1,125.999996154785,14|0,0:0|1:0,0:0:0:0:
205,239,14736,2,0,L|185:306,3,41.9999987182618,8|0|8|0,0:0|0:0|0:3|0:0,0:0:0:0:
233,199,15111,6,0,P|285:245|353:230,2,125.999996154785,6|0|0,1:2|1:0|1:0,0:0:0:0:
314,152,15861,1,8,0:0:0:0:
314,152,15954,1,8,0:0:0:0:
440,199,16142,2,0,L|414:333,1,125.999996154785,0|0,1:0|1:0,0:0:0:0:
400,361,16517,5,0,1:0:0:0:
400,361,16611,2,0,P|461:331|517:349,2,125.999996154785,4|8|8,1:2|0:0|0:0,0:0:0:0:
286,361,17361,2,2,B|236:320|236:320|173:332,1,125.999996154785,14|0,0:0|1:0,0:0:0:0:
126,333,17736,2,0,L|80:297,3,41.9999987182618,8|0|8|0,0:0|0:0|0:0|0:0,0:0:0:0:
154,298,18111,6,0,P|156:236|134:199,1,83.9999974365235,6|0,1:2|1:0,0:0:0:0:
120,185,18392,2,0,P|111:148|126:90,1,83.9999974365235,8|8,0:0|0:0,0:0:0:0:
115,57,18673,2,0,B|194:92|194:92|281:40,1,167.999994873047,0|0,1:0|1:0,0:0:0:0:
371,47,19236,2,0,L|357:145,1,83.9999974365235,0|0,1:0|1:0,0:0:0:0:
387,240,19611,5,4,1:2:0:0:
474,204,19798,1,0,1:0:0:0:
474,204,19892,1,0,1:0:0:0:
474,204,19986,1,0,1:0:0:0:
342,170,20173,2,2,P|306:237|347:312,1,167.999994873047,10|0,0:0|1:0,0:0:0:0:
261,378,20736,2,2,L|162:362,1,83.9999974365235,10|0,0:0|1:0,0:0:0:0:
71,302,21111,6,0,P|74:221|96:192,1,83.9999974365235,4|0,1:2|1:0,0:0:0:0:
105,189,21392,1,0,1:0:0:0:
105,189,21486,1,0,1:0:0:0:
198,216,21673,2,2,P|192:132|114:87,1,167.999994873047,10|8,0:0|0:3,0:0:0:0:
27,104,22236,1,4,1:0:0:0:
104,18,22423,5,8,0:0:0:0:
104,18,22517,1,8,0:0:0:0:
104,18,22611,2,0,L|202:19,1,83.9999974365235,6|0,1:2|1:0,0:0:0:0:
239,15,22892,2,0,P|215:95|226:121,1,83.9999974365235,8|8,0:0|0:0,0:0:0:0:
222,143,23173,2,0,P|248:99|348:146,1,167.999994873047,0|0,1:0|1:0,0:0:0:0:
393,231,23736,2,0,L|277:207,1,83.9999974365235,0|0,1:0|1:0,0:0:0:0:
215,282,24111,5,4,1:2:0:0:
286,347,24298,1,0,1:0:0:0:
286,347,24392,1,0,1:0:0:0:
286,347,24486,1,0,1:0:0:0:
225,202,24673,2,2,P|150:231|147:325,1,167.999994873047,10|0,0:0|1:0,0:0:0:0:
43,365,25236,2,2,L|18:265,1,83.9999974365235,10|0,0:0|1:0,0:0:0:0:
23,166,25611,6,0,P|67:205|102:208,1,83.9999974365235,4|0,1:2|1:0,0:0:0:0:
128,202,25892,1,0,1:0:0:0:
128,202,25986,1,0,1:0:0:0:
214,264,26173,2,2,P|225:179|144:108,1,167.999994873047,10|0,0:0|1:0,0:0:0:0:
102,23,26736,2,0,B|74:60|74:60|88:119,1,83.9999974365235,8|8,0:0|0:3,0:0:0:0:
128,202,27111,6,0,B|254:171|208:262|333:231,2,210.000008010865,4|0|8,1:2|3:0|0:3,0:0:0:0:
349,134,30111,2,0,B|355:82|321:38|321:38|270:34|221:80,2,210.000008010865,4|0|0,1:2|3:0|3:0,0:0:0:0:
426,268,32361,2,0,L|375:280,3,52.5000020027161,0|4|4|4,3:0|0:3|0:3|0:3,0:0:0:0:
296,310,33111,6,0,P|308:228|340:209,2,105.000004005432,4|8|2,1:2|0:1|3:2,0:0:0:0:
200,384,34236,1,2,0:0:0:0:
125,290,34611,2,0,B|154:246|154:246|139:181,1,105.000004005432,2|2,3:2|0:0,0:0:0:0:
75,67,35361,2,0,L|98:134,1,52.5000020027161,2|8,3:2|0:1,0:0:0:0:
151,7,35736,2,0,L|168:66,1,52.5000020027161,8|4,0:3|0:3,0:0:0:0:
277,109,36111,6,0,L|260:202,1,70,6|0,1:2|1:0,0:0:0:0:
256,223,36392,1,0,1:0:0:0:
256,223,36486,2,0,P|304:193|373:207,1,105,0|0,1:0|1:0,0:0:0:0:
397,205,36861,2,0,P|390:270|405:296,1,70,0|0,1:0|1:0,0:0:0:0:
409,316,37142,2,0,P|378:294|255:349,1,175,0|0,1:0|0:0,0:0:0:0:
156,384,37798,6,0,B|170:292,1,70,0|0,1:0|1:0,0:0:0:0:
178,279,38079,1,0,1:0:0:0:
178,279,38173,1,0,0:0:0:0:
138,173,38361,2,0,P|166:193|232:191,1,70,0|0,1:0|1:0,0:0:0:0:
225,165,38642,2,0,P|190:102|104:101,1,140,0|0,1:0|0:0,0:0:0:0:
83,109,39111,6,0,L|108:4,2,105.000004005432,4|8|2,1:2|0:1|3:2,0:0:0:0:
10,202,40236,1,2,1:2:0:0:
142,267,40611,2,0,B|118:218|118:218|150:156|150:156,1,105.000004005432,2|2,3:2|0:2,0:0:0:0:
364,229,41361,2,0,L|299:249,1,52.5000020027161,2|8,1:2|0:1,0:0:0:0:
306,146,41736,2,0,L|239:170,1,52.5000020027161,8|4,0:3|0:3,0:0:0:0:
186,240,42111,6,0,L|203:328,1,70,6|0,1:2|1:0,0:0:0:0:
208,356,42392,1,0,1:0:0:0:
208,356,42486,2,0,L|85:320,1,105,0|0,1:0|1:0,0:0:0:0:
65,327,42861,2,0,P|78:269|58:242,1,70,0|0,1:0|1:0,0:0:0:0:
45,226,43142,2,0,B|25:164|62:131|62:131|85:173|142:186,1,175,0|0,1:0|0:0,0:0:0:0:
179,260,43798,6,0,P|216:241|226:212,1,70,0|0,1:0|1:0,0:0:0:0:
246,174,44079,1,0,1:0:0:0:
246,174,44173,1,0,0:0:0:0:
173,79,44361,2,0,L|266:61,1,70,0|0,1:0|1:0,0:0:0:0:
283,59,44642,1,0,1:0:0:0:
283,59,44736,1,8,0:3:0:0:
418,134,45111,6,0,P|413:160|398:189,2,35,2|0|0,1:2|1:0|1:0,0:0:0:0:
496,244,45673,2,0,P|474:248|437:241,2,35,2|0|0,1:2|1:0|1:0,0:0:0:0:
416,353,46236,2,0,P|406:333|399:296,2,35,10|8|8,0:0|0:0|0:0,0:0:0:0:
288,309,46798,2,0,P|311:300|336:276,2,35,10|8|4,1:3|1:3|1:3,0:0:0:0:
317,196,47361,6,0,P|284:175|264:123,1,70,14|0,0:0|0:0,0:0:0:0:
189,66,47736,2,0,L|181:160,1,70,0|0,0:0|0:0,0:0:0:0:
88,172,48111,6,0,P|71:154|64:120,2,35,6|0|0,1:2|1:0|1:0,0:0:0:0:
33,262,48673,2,0,P|15:258|-17:247,2,35,2|0|0,1:2|1:0|1:0,0:0:0:0:
84,357,49236,2,0,P|72:373|36:399,2,35,10|8|8,0:0|0:0|0:0,0:0:0:0:
186,331,49798,2,0,P|200:355|204:384,2,35,10|8|4,1:3|1:3|1:3,0:0:0:0:
186,228,50361,6,2,B|277:197|284:232|296:273|393:237,1,210,14|0,0:0|0:0,0:0:0:0:
466,141,51111,6,0,P|446:90|440:85,2,35,6|0|0,1:2|1:0|1:0,0:0:0:0:
387,26,51673,2,0,P|371:45|368:63,2,35,2|0|0,1:2|1:0|1:0,0:0:0:0:
313,141,52236,2,0,P|282:132|258:114,2,35,10|8|8,0:0|0:0|0:0,0:0:0:0:
231,231,52798,2,0,P|261:222|283:228,2,35,10|8|4,1:3|1:3|1:3,0:0:0:0:
121,146,53361,6,0,P|124:101|155:62,1,70,14|0,0:0|0:0,0:0:0:0:
230,165,53736,5,10,0:0:0:0:
213,159,53829,1,8,0:0:0:0:
213,142,53923,1,8,0:0:0:0:
230,136,54017,1,8,0:0:0:0:
240,150,54111,1,2,1:2:0:0:
240,150,54673,5,2,1:2:0:0:
240,150,55236,5,2,1:2:0:0:
240,150,55798,5,2,1:2:0:0:
150,297,56361,5,6,1:2:0:0:
242,327,56548,1,8,0:3:0:0:
283,237,56736,1,0,1:0:0:0:
376,264,56923,1,4,0:3:0:0:
384,166,57111,6,2,L|390:63,1,83.9999974365235,6|0,1:2|0:0,0:0:0:0:
390,32,57392,2,2,P|352:70|321:74,1,83.9999974365235,6|0,1:2|0:0,0:0:0:0:
277,74,57673,1,6,1:2:0:0:
147,30,57861,2,2,L|165:127,1,83.9999974365235,6|8,1:2|0:0,0:0:0:0:
173,154,58142,1,8,0:0:0:0:
173,154,58236,1,10,0:0:0:0:
111,243,58423,1,10,0:0:0:0:
180,332,58611,6,0,P|249:275|252:249,1,97.9999970092774,6|0,1:2|0:0,0:0:0:0:
269,232,58892,2,0,P|301:287|277:343,1,97.9999970092774,2|0,1:2|0:0,0:0:0:0:
279,367,59173,2,0,B|383:328|357:414|492:352,1,195.999994018555,2|10,1:2|0:0,0:0:0:0:
505,244,59736,1,2,1:2:0:0:
418,284,59923,1,10,0:3:0:0:
349,201,60111,6,0,P|353:127|401:88,1,97.9999970092774,6|0,1:2|0:0,0:0:0:0:
407,98,60392,2,0,P|375:42|399:10,1,97.9999970092774,2|0,1:2|0:0,0:0:0:0:
428,0,60673,2,0,L|221:37,1,195.999994018555,2|10,1:2|0:0,0:0:0:0:
141,74,61236,1,10,0:3:0:0:
28,206,61611,6,0,L|39:311,1,97.9999970092774,6|2,1:0|0:0,0:0:0:0:
45,349,61892,2,0,P|88:305|147:313,1,97.9999970092774,2|2,1:2|0:0,0:0:0:0:
164,310,62173,2,0,P|208:371|304:311,1,195.999994018555,2|10,1:2|0:0,0:0:0:0:
375,259,62736,1,2,1:2:0:0:
454,327,62923,1,10,0:3:0:0:
485,227,63111,6,0,L|476:107,1,97.9999970092774,6|0,1:2|0:0,0:0:0:0:
478,82,63392,1,0,1:0:0:0:
478,82,63486,1,8,0:0:0:0:
389,149,63673,2,0,P|353:104|229:121,1,195.999994018555,0|8,1:0|0:0,0:0:0:0:
297,177,64236,1,2,1:2:0:0:
169,230,64423,5,10,0:0:0:0:
169,230,64517,1,8,0:0:0:0:
169,230,64611,2,0,L|152:104,1,97.9999970092774,6|0,1:0|0:0,0:0:0:0:
138,94,64892,2,0,P|98:64|116:26,1,97.9999970092774,2|0,1:2|0:0,0:0:0:0:
152,13,65173,2,0,P|142:89|12:80,1,195.999994018555,2|10,1:2|0:0,0:0:0:0:
1,193,65736,1,2,1:2:0:0:
99,314,66111,6,0,B|156:324|156:324|206:287,1,97.9999970092774,6|0,1:2|0:0,0:0:0:0:
228,274,66392,2,0,P|220:361|243:379,1,97.9999970092774,2|0,1:2|0:0,0:0:0:0:
258,384,66673,2,0,P|331:339|458:382,1,195.999994018555,2|10,1:2|0:0,0:0:0:0:
509,286,67236,1,10,0:3:0:0:
509,286,67329,1,8,0:3:0:0:
509,286,67423,1,6,0:3:0:0:
418,218,67611,6,0,L|442:53,1,146.999995513916,6|0,1:0|1:0,0:0:0:0:
443,26,67986,2,0,P|368:55|321:33,1,97.9999970092774,8|8,0:0|0:0,0:0:0:0:
313,39,68267,1,0,0:0:0:0:
313,39,68361,2,0,B|286:7|253:-5|253:-5|230:68,1,146.999995513916,4|0,1:0|1:0,0:0:0:0:
209,101,68736,2,0,P|255:132|247:235,1,146.999995513916,8|8,0:0|0:3,0:0:0:0:
237,261,69111,6,0,L|397:236,1,146.999995513916,4|0,1:0|1:0,0:0:0:0:
429,231,69486,1,8,0:0:0:0:
346,330,69673,2,0,L|137:357,1,195.999994018555,0|0,1:0|0:0,0:0:0:0:
62,309,70236,1,10,0:0:0:0:
24,225,70423,1,10,0:0:0:0:
94,146,70611,6,0,P|100:77|76:50,1,97.9999970092774,6|8,1:2|0:0,0:0:0:0:
59,18,70892,2,0,L|199:30,1,97.9999970092774,2|0,0:0|1:0,0:0:0:0:
197,39,71173,2,0,B|225:126|307:110|307:110|288:69|290:35,1,195.999994018555,10|10,0:0|0:0,0:0:0:0:
375,9,71736,1,2,0:0:0:0:
457,57,71923,1,10,0:0:0:0:
408,144,72111,6,0,B|384:193|384:193|418:264,1,97.9999970092774,6|8,1:0|0:0,0:0:0:0:
425,264,72392,2,0,P|457:271|473:342,1,97.9999970092774,2|0,0:0|1:0,0:0:0:0:
472,367,72673,2,0,L|268:333,1,195.999994018555,10|10,0:0|0:0,0:0:0:0:
188,354,73236,1,2,0:0:0:0:
66,189,73611,6,0,P|125:231|116:289,1,97.9999970092774,6|10,1:2|0:0,0:0:0:0:
125,301,73892,2,0,P|144:235|192:215,1,97.9999970092774,2|2,0:0|1:2,0:0:0:0:
205,204,74173,2,0,P|280:170|268:62,1,195.999994018555,10|10,0:0|0:0,0:0:0:0:
182,24,74736,1,2,0:0:0:0:
195,117,74923,1,10,0:0:0:0:
274,68,75111,6,0,L|381:44,1,97.9999970092774,6|8,1:0|0:0,0:0:0:0:
489,104,75486,2,0,L|359:136,1,97.9999970092774,0|8,1:0|0:0,0:0:0:0:
314,180,75861,1,0,1:0:0:0:
314,180,75954,1,0,1:0:0:0:
314,180,76048,1,8,0:0:0:0:
374,252,76236,1,2,0:0:0:0:
292,308,76423,1,10,0:0:0:0:
229,239,76611,6,0,P|199:292|217:347,1,97.9999970092774,6|8,1:2|0:0,0:0:0:0:
230,366,76892,2,0,P|181:344|127:366,1,97.9999970092774,2|0,0:0|1:0,0:0:0:0:
90,359,77173,2,0,B|-14:386|-14:386|21:350|24:298,1,195.999994018555,10|10,0:0|0:0,0:0:0:0:
0,216,77736,1,2,0:0:0:0:
85,65,78111,6,0,P|125:95|122:167,1,97.9999970092774,6|8,1:0|0:0,0:0:0:0:
127,178,78392,2,0,P|165:141|237:151,1,97.9999970092774,2|0,0:0|1:0,0:0:0:0:
249,132,78673,2,0,B|304:101|304:101|278:268,1,195.999994018555,10|10,0:0|0:0,0:0:0:0:
219,316,79236,1,10,0:3:0:0:
219,316,79329,1,8,0:3:0:0:
219,316,79423,1,6,0:3:0:0:
308,378,79611,6,0,P|340:317|394:317,1,97.9999970092774,6|0,1:2|1:0,0:0:0:0:
460,239,79986,2,0,L|455:114,1,97.9999970092774,8|8,0:0|0:0,0:0:0:0:
449,108,80267,1,0,1:0:0:0:
449,108,80361,2,0,P|372:181|332:156,1,146.999995513916,0|0,1:0|1:0,0:0:0:0:
307,155,80736,1,8,0:3:0:0:
245,241,80923,5,6,0:3:0:0:
245,241,81017,1,6,0:3:0:0:
245,241,81111,2,0,L|266:375,2,125.999996154785,2|2|10,1:2|1:2|0:0,0:0:0:0:
145,162,81861,2,0,B|130:75|130:75|175:97,1,125.999996154785,2|0,1:2|1:0,0:0:0:0:
213,93,82236,2,0,L|208:22,3,41.9999987182618,8|8|8|8,0:0|0:0|0:0|0:0,0:0:0:0:
254,122,82611,6,0,P|292:76|350:82,1,83.9999974365235,6|0,1:2|1:0,0:0:0:0:
358,73,82892,2,0,L|348:178,1,83.9999974365235,8|8,0:0|0:0,0:0:0:0:
341,197,83173,2,0,P|420:131|496:163,1,167.999994873047,0|0,1:0|1:0,0:0:0:0:
512,250,83736,2,0,L|416:225,1,83.9999974365235,0|0,1:0|1:0,0:0:0:0:
341,197,84111,5,4,1:2:0:0:
294,285,84298,1,0,1:0:0:0:
294,285,84392,1,0,1:0:0:0:
294,285,84486,1,0,1:0:0:0:
197,212,84673,2,2,L|-8:190,1,167.999994873047,10|0,0:0|1:0,0:0:0:0:
0,104,85236,2,2,L|93:92,1,83.9999974365235,10|0,0:0|1:0,0:0:0:0:
225,73,85611,6,0,P|216:110|171:139,1,83.9999974365235,4|0,1:2|1:0,0:0:0:0:
144,152,85892,1,0,1:0:0:0:
144,152,85986,1,0,1:0:0:0:
187,5,86173,2,2,P|256:-2|303:88,1,167.999994873047,10|8,0:0|0:3,0:0:0:0:
279,176,86736,1,4,1:0:0:0:
384,102,86923,5,8,0:0:0:0:
384,102,87017,1,8,0:0:0:0:
384,102,87111,2,0,L|473:111,1,83.9999974365235,6|0,1:2|1:0,0:0:0:0:
511,115,87392,2,0,P|484:173|494:209,1,83.9999974365235,8|8,0:0|0:0,0:0:0:0:
503,225,87673,2,0,P|429:240|418:335,1,167.999994873047,0|0,1:0|1:0,0:0:0:0:
493,384,88236,2,0,L|484:266,1,83.9999974365235,0|0,1:0|1:0,0:0:0:0:
395,215,88611,5,4,1:2:0:0:
327,307,88798,1,0,1:0:0:0:
327,307,88892,1,0,1:0:0:0:
327,307,88986,1,0,1:0:0:0:
253,244,89173,2,2,P|231:324|309:389,1,167.999994873047,10|0,0:0|1:0,0:0:0:0:
145,344,89736,2,2,L|27:327,1,83.9999974365235,10|0,0:0|1:0,0:0:0:0:
2,162,90111,6,0,P|50:211|43:249,1,83.9999974365235,4|0,1:2|1:0,0:0:0:0:
37,256,90392,1,0,1:0:0:0:
37,256,90486,1,0,1:0:0:0:
138,259,90673,2,2,B|239:233|208:304|327:259,1,167.999994873047,10|0,0:0|1:0,0:0:0:0:
400,299,91236,2,0,P|404:243|362:201,1,83.9999974365235,8|8,0:0|0:3,0:0:0:0:
303,142,91611,6,0,B|271:191|271:191|311:293,2,140,4|8|2,1:2|0:0|1:2,0:0:0:0:
430,99,92736,1,10,0:0:0:0:
294,62,93111,2,0,L|146:80,1,140,2|10,1:2|0:0,0:0:0:0:
7,131,93861,2,0,L|14:48,1,70,2|0,1:2|1:0,0:0:0:0:
100,184,94236,2,0,L|103:92,1,70,8|8,0:0|0:3,0:0:0:0:
108,73,94517,5,4,0:3:0:0:
108,73,94611,2,0,P|127:122|220:130,1,140,6|8,1:2|0:0,0:0:0:0:
419,109,95361,1,0,1:2:0:0:
333,59,95548,1,0,1:0:0:0:
263,131,95736,2,0,L|277:227,1,70,8|0,0:0|0:0,0:0:0:0:
327,285,96111,6,0,P|280:217|208:233,1,140,2|8,1:2|0:0,0:0:0:0:
112,328,96861,1,0,1:2:0:0:
112,328,96954,1,0,1:2:0:0:
112,328,97048,1,0,1:0:0:0:
21,244,97236,2,0,L|29:168,1,70,8|8,0:0|0:0,0:0:0:0:
42,123,97517,5,0,1:2:0:0:
42,123,97611,2,0,L|43:296,2,140,4|8|2,1:2|0:0|1:2,0:0:0:0:
142,28,98736,1,10,0:0:0:0:
237,134,99111,2,0,P|336:167|380:134,1,140,2|10,1:2|0:0,0:0:0:0:
488,220,99861,2,0,L|406:237,1,70,2|0,1:2|1:0,0:0:0:0:
343,305,100236,2,0,L|261:318,1,70,8|8,0:0|0:3,0:0:0:0:
232,329,100517,5,4,0:3:0:0:
232,329,100611,2,0,P|208:259|128:254,1,140,6|8,1:2|0:0,0:0:0:0:
23,201,101361,1,0,1:2:0:0:
37,115,101548,1,0,1:0:0:0:
143,72,101736,2,0,L|128:160,1,70,8|0,0:0|0:0,0:0:0:0:
149,245,102111,6,0,P|200:199|291:228,1,140,2|8,1:2|0:0,0:0:0:0:
413,296,102861,1,0,1:2:0:0:
413,296,102954,1,0,1:2:0:0:
413,296,103048,1,0,1:0:0:0:
470,213,103236,2,0,L|451:120,1,70,8|8,0:0|0:0,0:0:0:0:
442,103,103517,5,8,0:0:0:0:
442,103,103611,2,0,P|464:103|494:90,2,35,2|0|0,1:2|1:0|1:0,0:0:0:0:
361,32,104173,2,0,P|371:13|377:-28,2,35,2|0|0,1:2|1:0|1:0,0:0:0:0:
259,37,104736,2,0,P|243:15|213:1,2,35,10|8|8,0:0|0:0|0:0,0:0:0:0:
187,107,105298,2,0,P|162:103|132:111,2,35,10|8|4,1:3|1:3|1:3,0:0:0:0:
253,196,105861,2,0,P|238:235|241:289,2,70,14|0|0,0:0|0:0|0:0,0:0:0:0:
351,303,106611,6,0,P|349:324|335:354,2,35,6|0|0,1:2|1:0|1:0,0:0:0:0:
284,218,107173,2,0,P|264:226|223:230,2,35,2|0|0,1:2|1:0|1:0,0:0:0:0:
294,116,107736,2,0,P|272:98|260:68,2,35,10|8|8,0:0|0:0|0:0,0:0:0:0:
368,48,108298,2,0,P|365:22|374:-7,2,35,10|8|4,1:3|1:3|1:3,0:0:0:0:
460,163,108861,6,2,B|341:146|381:227|247:197,1,210,14|0,0:0|0:0,0:0:0:0:
183,84,109611,6,0,P|217:99|231:124,2,35,6|0|0,1:2|1:0|1:0,0:0:0:0:
111,179,110173,2,0,P|145:165|173:173,2,35,2|0|0,1:2|1:0|1:0,0:0:0:0:
131,289,110736,2,0,P|146:255|171:241,2,35,10|8|8,0:0|0:0|0:0,0:0:0:0:
226,361,111298,2,0,P|212:326|220:298,2,35,10|8|4,1:3|1:3|1:3,0:0:0:0:
337,329,111861,2,0,P|379:277|407:275,1,70,14|0,0:0|0:0,0:0:0:0:
484,221,112236,5,10,0:0:0:0:
474,234,112329,1,8,0:0:0:0:
454,230,112423,1,8,0:0:0:0:
451,213,112517,1,8,0:0:0:0:
470,202,112611,5,2,1:2:0:0:
470,202,113173,5,2,1:2:0:0:
470,202,113736,5,2,1:2:0:0:
470,202,114298,5,2,1:2:0:0:
359,79,114861,5,6,1:2:0:0:
282,140,115048,1,8,0:3:0:0:
217,65,115236,1,0,1:0:0:0:
136,120,115423,1,4,0:3:0:0:
145,216,115611,6,2,P|165:277|148:307,1,70,6|0,1:2|0:0,0:0:0:0:
155,325,115892,2,2,P|206:302|237:318,1,70,6|0,1:2|0:0,0:0:0:0:
251,319,116173,1,6,1:2:0:0:
343,384,116361,2,2,L|427:367,1,70,6|8,1:2|0:0,0:0:0:0:
447,360,116642,1,8,0:0:0:0:
447,360,116736,1,10,0:0:0:0:
494,267,116923,1,10,0:0:0:0:
411,186,117111,6,0,B|364:174|364:174|310:218,1,97.9999970092774,6|0,1:2|0:0,0:0:0:0:
295,220,117392,2,0,P|288:133|316:111,1,97.9999970092774,2|0,1:2|0:0,0:0:0:0:
308,92,117673,2,0,P|229:146|142:105,1,195.999994018555,2|10,1:2|0:0,0:0:0:0:
129,11,118236,1,2,1:2:0:0:
34,35,118423,1,10,0:3:0:0:
68,129,118611,6,0,L|56:242,1,97.9999970092774,6|0,1:2|0:0,0:0:0:0:
57,267,118892,2,0,P|6:288|7:344,1,97.9999970092774,2|0,1:2|0:0,0:0:0:0:
13,365,119173,2,0,B|127:397|82:310|218:346,1,195.999994018555,2|10,1:2|0:0,0:0:0:0:
314,353,119736,1,10,0:3:0:0:
383,163,120111,6,0,P|329:179|310:230,1,97.9999970092774,6|2,1:0|0:0,0:0:0:0:
292,247,120392,2,0,P|259:159|226:154,1,97.9999970092774,2|2,1:2|0:0,0:0:0:0:
231,138,120673,2,0,P|211:212|100:215,1,195.999994018555,2|10,1:2|0:0,0:0:0:0:
4,170,121236,1,2,1:2:0:0:
26,264,121423,1,10,0:3:0:0:
93,141,121611,6,0,P|81:64|41:35,1,97.9999970092774,6|0,1:2|0:0,0:0:0:0:
35,34,121892,1,0,1:0:0:0:
35,34,121986,1,8,0:0:0:0:
173,70,122173,2,0,L|379:38,1,195.999994018555,0|8,1:0|0:0,0:0:0:0:
472,57,122736,1,2,1:2:0:0:
419,148,122923,5,10,0:0:0:0:
419,148,123017,1,8,0:0:0:0:
419,148,123111,2,0,L|433:247,1,97.9999970092774,6|0,1:0|0:0,0:0:0:0:
444,288,123392,2,0,P|394:244|357:249,1,97.9999970092774,2|0,1:2|0:0,0:0:0:0:
333,255,123673,2,0,P|286:327|177:306,1,195.999994018555,2|10,1:2|0:0,0:0:0:0:
242,241,124236,1,2,1:2:0:0:
90,102,124611,6,0,B|109:155|109:155|70:221,1,97.9999970092774,6|0,1:2|0:0,0:0:0:0:
64,232,124892,2,0,P|120:270|109:331,1,97.9999970092774,2|0,1:2|0:0,0:0:0:0:
134,328,125173,2,0,P|174:261|290:271,1,195.999994018555,2|10,1:2|0:0,0:0:0:0:
359,330,125736,1,10,0:3:0:0:
359,330,125829,1,0,0:0:0:0:
359,330,125923,1,6,0:3:0:0:
432,268,126111,6,0,L|427:113,1,146.999995513916,6|0,1:0|1:0,0:0:0:0:
429,76,126486,2,0,P|397:116|347:125,1,97.9999970092774,8|8,0:0|0:0,0:0:0:0:
321,141,126767,1,8,0:0:0:0:
321,141,126861,2,0,B|291:149|250:172|250:172|236:135|180:94,1,146.999995513916,4|0,1:0|1:0,0:0:0:0:
188,83,127236,2,0,L|34:121,1,146.999995513916,8|8,0:0|0:3,0:0:0:0:
7,134,127611,6,0,P|44:205|31:299,1,146.999995513916,4|0,1:0|1:0,0:0:0:0:
35,309,127986,1,8,0:0:0:0:
130,363,128173,2,0,P|129:290|194:180,1,195.999994018555,0|0,1:0|0:0,0:0:0:0:
286,181,128736,1,10,0:0:0:0:
336,264,128923,1,10,0:0:0:0:
442,274,129111,6,0,P|472:227|447:154,1,97.9999970092774,6|8,1:2|0:0,0:0:0:0:
460,144,129392,2,0,B|430:104|430:104|451:34,1,97.9999970092774,2|0,0:0|1:0,0:0:0:0:
464,22,129673,2,0,B|383:55|383:55|239:27,1,195.999994018555,10|10,0:0|0:0,0:0:0:0:
184,38,130236,1,2,0:0:0:0:
140,125,130423,1,10,0:0:0:0:
228,178,130611,6,0,P|261:242|240:300,1,97.9999970092774,6|8,1:0|0:0,0:0:0:0:
251,310,130892,2,0,P|317:272|369:297,1,97.9999970092774,2|0,0:0|1:0,0:0:0:0:
368,296,131173,2,0,B|137:271,1,195.999994018555,10|10,0:0|0:0,0:0:0:0:
89,332,131736,1,2,0:0:0:0:
15,154,132111,6,0,P|12:72|50:32,1,97.9999970092774,6|10,1:2|0:0,0:0:0:0:
47,34,132392,2,0,P|98:89|92:130,1,97.9999970092774,0|2,0:0|1:2,0:0:0:0:
97,155,132673,2,0,P|175:97|261:160,1,195.999994018555,10|10,0:0|0:0,0:0:0:0:
245,234,133236,1,2,0:0:0:0:
335,276,133423,1,10,0:0:0:0:
405,207,133611,6,0,L|384:101,1,97.9999970092774,6|8,1:0|0:0,0:0:0:0:
469,44,133986,2,0,L|490:170,1,97.9999970092774,0|8,1:0|0:0,0:0:0:0:
502,242,134361,1,0,1:0:0:0:
502,242,134454,1,0,1:0:0:0:
502,242,134548,1,8,0:0:0:0:
443,322,134736,1,2,0:0:0:0:
347,302,134923,1,10,0:0:0:0:
297,224,135111,6,0,P|255:270|265:341,1,97.9999970092774,6|8,1:2|0:0,0:0:0:0:
274,347,135392,2,0,P|225:324|175:334,1,97.9999970092774,2|0,0:0|1:0,0:0:0:0:
144,341,135673,2,0,B|35:373|35:373|57:333|42:283,1,195.999994018555,10|10,0:0|0:0,0:0:0:0:
3,210,136236,1,2,0:0:0:0:
141,33,136611,6,0,L|121:138,1,97.9999970092774,6|8,1:0|0:0,0:0:0:0:
116,164,136892,2,0,B|150:207|150:207|132:279,1,97.9999970092774,2|0,0:0|1:0,0:0:0:0:
113,283,137173,2,0,B|179:250|179:250|313:289,1,195.999994018555,10|10,0:0|0:0,0:0:0:0:
398,303,137736,1,10,0:3:0:0:
398,303,137829,1,8,0:3:0:0:
398,303,137923,1,6,0:3:0:0:
474,235,138111,6,0,P|480:187|454:139,1,97.9999970092774,6|0,1:2|1:0,0:0:0:0:
357,50,138486,2,0,L|365:162,1,97.9999970092774,8|8,0:0|0:0,0:0:0:0:
366,190,138767,1,0,1:0:0:0:
366,190,138861,2,0,P|290:131|235:158,1,146.999995513916,0|0,1:0|1:0,0:0:0:0:
211,162,139236,1,8,0:3:0:0:
161,251,139423,5,6,0:3:0:0:
161,251,139517,1,6,0:3:0:0:
161,251,139611,2,0,L|182:385,2,125.999996154785,2|0|10,1:2|1:0|0:0,0:0:0:0:
60,167,140361,2,0,B|45:80|45:80|90:102,1,125.999996154785,2|0,1:2|1:0,0:0:0:0:
120,104,140736,2,0,L|115:33,3,41.9999987182618,8|8|8|8,0:0|0:0|0:0|0:0,0:0:0:0:
152,139,141111,6,0,P|188:112|307:197,2,210.000008010865,4|0|0,1:2|0:0|0:0,0:0:0:0:
220,194,144111,5,0,0:0:0:0:
343,99,145798,6,0,L|351:132,3,26.2500010013581,8|8|8|8,0:0|0:0|0:0|0:0,0:0:0:0:
252,56,146268,5,8,0:0:0:0:
252,75,146361,1,8,0:0:0:0:
151,89,146548,5,8,0:0:0:0:
159,109,146642,1,8,0:0:0:0:
68,169,147111,6,0,L|78:236,1,52.5000020027161,6|0,1:2|1:0,0:0:0:0:
106,248,147392,1,0,1:0:0:0:
106,248,147486,2,0,L|97:320,1,52.5000020027161,2|0,1:2|0:0,0:0:0:0:
190,353,147861,2,0,L|314:325,1,105.000004005432,2|2,1:2|0:0,0:0:0:0:
458,260,148798,6,0,L|467:219,3,26.2500010013581,0|0|0|0,1:0|1:0|1:2|1:0,0:0:0:0:
368,294,149268,5,0,1:0:0:0:
361,266,149361,1,0,1:2:0:0:
291,333,149548,5,0,1:0:0:0:
274,314,149642,1,0,1:0:0:0:
177,224,150111,6,0,L|168:282,1,52.5000020027161,6|0,1:2|1:0,0:0:0:0:
163,312,150392,1,0,1:0:0:0:
163,312,150486,2,0,L|112:280,1,52.5000020027161,2|0,1:2|0:0,0:0:0:0:
48,205,150861,2,0,B|27:162|27:162|59:99,1,105.000004005432,2|2,1:2|0:0,0:0:0:0:
193,44,151798,6,0,L|189:83,3,26.2500010013581,0|0|0|0,1:0|1:0|1:2|1:0,0:0:0:0:
288,111,152267,5,0,1:0:0:0:
283,82,152361,1,0,1:2:0:0:
382,49,152548,5,0,1:0:0:0:
379,77,152642,1,0,1:0:0:0:
454,203,153111,6,0,L|377:194,1,52.5000020027161,6|0,1:2|1:0,0:0:0:0:
357,196,153392,1,0,1:0:0:0:
357,196,153486,2,0,L|288:213,1,52.5000020027161,2|0,1:2|0:0,0:0:0:0:
227,274,153861,2,0,P|182:238|126:236,1,105.000004005432,2|2,1:2|0:0,0:0:0:0:
26,127,154798,6,0,L|64:112,3,26.2500010013581,0|0|0|0,1:0|1:0|1:2|1:0,0:0:0:0:
130,42,155267,5,0,1:0:0:0:
118,70,155361,1,0,1:2:0:0:
144,147,155548,5,0,1:0:0:0:
163,172,155642,1,0,1:0:0:0:
159,312,156111,6,0,L|224:292,1,52.5000020027161,6|0,1:2|1:0,0:0:0:0:
255,289,156392,1,0,1:0:0:0:
255,289,156486,2,0,L|319:304,1,52.5000020027161,2|0,1:2|0:0,0:0:0:0:
425,312,156861,2,0,B|397:268|397:268|415:196,1,105.000004005432,2|2,1:2|0:0,0:0:0:0:
438,104,157798,6,0,L|474:112,3,26.2500010013581,0|0|0|0,1:0|1:0|1:2|1:0,0:0:0:0:
361,47,158267,5,0,1:0:0:0:
332,55,158361,1,0,1:2:0:0:
262,113,158548,5,0,1:0:0:0:
234,108,158642,1,0,1:0:0:0:
58,56,159111,6,2,L|75:163,1,83.9999974365235,6|8,1:2|0:0,0:0:0:0:
84,169,159392,2,2,B|106:206|106:206|91:264,1,83.9999974365235,2|0,0:0|1:0,0:0:0:0:
80,289,159673,1,10,0:0:0:0:
161,349,159861,2,2,L|279:325,1,83.9999974365235,2|8,1:2|0:0,0:0:0:0:
282,329,160142,2,2,P|352:355|381:336,1,83.9999974365235,2|0,1:2|1:0,0:0:0:0:
391,339,160423,1,10,0:0:0:0:
471,270,160611,6,2,B|490:228|490:228|473:170,1,83.9999974365235,6|8,1:0|0:0,0:0:0:0:
452,160,160892,2,2,P|444:116|464:71,1,83.9999974365235,2|0,0:0|1:0,0:0:0:0:
474,37,161173,1,10,0:0:0:0:
371,65,161361,2,2,L|280:85,1,83.9999974365235,2|8,1:2|0:0,0:0:0:0:
251,96,161642,2,2,L|147:86,1,83.9999974365235,2|0,1:2|1:0,0:0:0:0:
125,83,161923,1,10,0:0:0:0:
36,152,162111,6,2,L|56:246,1,83.9999974365235,6|8,1:2|0:0,0:0:0:0:
84,257,162392,2,2,L|74:340,1,83.9999974365235,2|0,0:0|1:2,0:0:0:0:
69,378,162673,1,10,0:0:0:0:
175,345,162861,2,2,L|187:247,1,83.9999974365235,2|8,1:2|0:0,0:0:0:0:
220,241,163142,2,2,L|229:148,1,83.9999974365235,2|0,1:2|1:0,0:0:0:0:
233,116,163423,1,10,0:0:0:0:
326,44,163611,6,2,L|344:150,1,83.9999974365235,6|8,1:0|0:0,0:0:0:0:
338,164,163892,2,2,B|332:211|332:211|364:253,1,83.9999974365235,2|0,0:0|1:0,0:0:0:0:
382,274,164173,1,10,0:0:0:0:
291,334,164361,2,0,L|174:305,1,83.9999974365235,0|8,1:0|0:0,0:0:0:0:
129,249,164736,2,0,L|41:225,1,83.9999974365235,0|10,0:0|0:0,0:0:0:0:
98,28,165111,6,0,P|135:84|128:108,1,70,6|2,1:2|1:2,0:0:0:0:
134,129,165392,1,8,0:0:0:0:
134,129,165486,2,0,L|121:163,2,35,2|8|2,1:2|0:0|1:2,0:0:0:0:
213,162,165861,2,0,L|219:223,2,35,2|10|0,1:2|0:0|1:0,0:0:0:0:
289,91,166236,2,0,L|296:52,2,35,2|8|2,1:2|0:0|1:2,0:0:0:0:
393,109,166611,2,0,L|375:67,2,35,6|10|2,1:2|0:0|1:0,0:0:0:0:
491,163,166986,6,0,P|464:242|462:250,1,70,2|2,1:0|1:0,0:0:0:0:
468,342,167361,2,0,P|409:326|393:323,1,70,2|2,1:2|1:2,0:0:0:0:
366,308,167642,1,8,0:0:0:0:
366,308,167736,2,0,L|278:331,1,70,2|0,1:2|1:0,0:0:0:0:
196,369,168111,5,6,1:2:0:0:
207,250,168673,5,6,1:2:0:0:
222,138,169236,5,6,1:2:0:0:
243,24,169798,5,6,1:2:0:0:
381,146,170361,6,0,L|368:233,1,70,6|10,1:2|0:3,0:0:0:0:
311,295,170736,2,0,L|333:384,1,70,6|6,0:1|0:1,0:1:0:0:
198,283,171111,6,2,L|117:307,1,70,6|0,1:2|0:0,0:0:0:0:
82,315,171392,2,2,P|84:271|75:236,1,70,6|0,1:2|0:0,0:0:0:0:
51,203,171673,1,6,1:2:0:0:
151,128,171861,2,2,L|260:149,2,105,6|6|6,1:2|1:2|1:2,0:0:0:0:
19,88,172611,6,2,P|5:53|7:15,1,70,6|0,1:2|0:0,0:0:0:0:
35,0,172892,2,2,L|124:18,1,70,6|0,1:2|0:0,0:0:0:0:
146,26,173173,1,6,1:2:0:0:
243,79,173361,2,2,L|333:64,1,70,6|8,1:2|0:0,0:0:0:0:
359,69,173642,1,8,0:0:0:0:
359,69,173736,2,0,L|347:-10,1,70,10|10,0:0|0:0,0:0:0:0:
436,167,174111,6,0,L|429:303,2,105,6|0|2,1:0|0:0|0:0,0:0:0:0:
273,234,175048,2,0,P|302:231|345:194,2,70,2|0|0,0:0|1:2|0:0,0:0:0:0:
263,122,175611,2,0,P|227:84|146:75,2,105,2|0|2,1:2|0:0|0:0,0:0:0:0:
308,261,176548,1,2,0:0:0:0:
308,261,176736,1,2,1:2:0:0:
107,303,177111,6,0,L|178:274,1,70,6|0,1:2|0:0,0:0:0:0:
207,263,177392,2,0,P|207:209|188:164,1,70,2|0,0:0|0:0,0:0:0:0:
174,161,177673,1,2,0:0:0:0:
289,26,178048,6,0,P|295:70|285:117,1,70,2|0,0:0|1:2,0:0:0:0:
256,192,178423,1,2,0:0:0:0:
328,279,178611,2,0,P|386:219|461:230,2,140,2|0|0,1:2|1:0|1:0,0:0:0:0:
196,345,179736,2,0,L|111:328,1,70,2|0,1:2|0:0,0:0:0:0:
35,252,180111,6,0,L|151:227,2,105,6|0|2,1:2|0:0|0:0,0:0:0:0:
50,100,181048,1,2,0:2:0:0:
54,104,181236,1,2,1:2:0:0:
257,136,181611,6,0,B|275:85|275:85|235:27,1,105,2|0,1:2|0:0,0:0:0:0:
201,206,182173,2,0,P|282:168|335:201,1,140,2|0,0:0|0:0,0:0:0:0:
388,262,182736,2,0,L|380:341,1,70,2|0,1:2|0:0,0:0:0:0:
470,185,183111,6,0,L|459:54,1,125.999996154785,6|0,1:2|1:0,0:0:0:0:
450,9,183486,2,0,P|409:60|364:64,1,83.9999974365235,8|8,0:0|0:0,0:0:0:0:
355,92,183767,1,0,0:0:0:0:
355,92,183861,2,0,B|263:62|263:62|303:151,1,167.999994873047,0|8,1:0|0:0,0:0:0:0:
369,231,184423,5,8,0:3:0:0:
369,231,184517,1,4,0:3:0:0:
369,231,184611,2,0,P|299:252|250:203,1,125.999996154785,4|0,1:0|1:0,0:0:0:0:
217,225,184986,1,8,0:0:0:0:
239,350,185173,2,0,L|412:322,1,167.999994873047,0|0,1:0|0:0,0:0:0:0:
495,262,185736,1,10,0:0:0:0:
422,190,185923,1,10,0:0:0:0:
486,96,186111,6,0,P|481:50|447:9,1,97.9999970092774,6|8,1:2|0:0,0:0:0:0:
409,3,186392,2,0,P|379:60|329:70,1,97.9999970092774,2|0,0:0|1:0,0:0:0:0:
306,73,186673,2,0,B|199:104|238:16|106:55,1,195.999994018555,10|10,0:0|0:0,0:0:0:0:
34,107,187236,1,2,0:0:0:0:
35,16,187423,1,10,0:0:0:0:
112,129,187611,6,0,P|123:179|95:236,1,97.9999970092774,6|8,1:0|0:0,0:0:0:0:
85,250,187892,2,0,P|80:319|115:354,1,97.9999970092774,2|0,0:0|1:0,0:0:0:0:
128,361,188173,2,0,P|173:310|289:338,1,195.999994018555,10|10,0:0|0:0,0:0:0:0:
380,367,188736,1,2,0:0:0:0:
462,239,189111,6,0,L|446:139,1,97.9999970092774,6|10,1:2|0:0,0:0:0:0:
434,100,189392,2,0,P|392:154|332:141,1,97.9999970092774,2|2,0:0|1:2,0:0:0:0:
323,138,189673,2,0,B|283:142|204:112|204:112|232:142|236:192,1,195.999994018555,10|10,0:0|0:0,0:0:0:0:
214,275,190236,1,2,0:0:0:0:
121,312,190423,1,10,0:0:0:0:
39,252,190611,6,0,L|47:148,1,97.9999970092774,6|8,1:0|0:0,0:0:0:0:
134,49,190986,2,0,L|143:151,1,97.9999970092774,0|8,1:0|0:0,0:0:0:0:
205,234,191361,1,0,1:0:0:0:
205,234,191454,1,0,1:0:0:0:
205,234,191548,1,8,0:0:0:0:
306,245,191736,1,2,0:0:0:0:
372,158,191923,1,10,0:0:0:0:
323,69,192111,6,0,L|195:47,1,97.9999970092774,6|8,1:2|0:0,0:0:0:0:
187,31,192392,2,0,P|161:81|89:87,1,97.9999970092774,2|0,0:0|1:0,0:0:0:0:
86,113,192673,2,0,P|159:170|133:265,1,195.999994018555,10|10,0:0|0:0,0:0:0:0:
70,198,193236,1,2,0:0:0:0:
218,308,193611,6,0,P|260:284|328:296,1,97.9999970092774,6|8,1:0|0:0,0:0:0:0:
348,296,193892,2,0,P|411:323|474:292,1,97.9999970092774,2|0,0:0|1:0,0:0:0:0:
478,334,194173,2,0,B|490:202|490:202|467:229|419:253,1,195.999994018555,10|10,0:0|0:0,0:0:0:0:
341,203,194736,1,10,0:3:0:0:
341,203,194829,1,8,0:3:0:0:
341,203,194923,1,6,0:3:0:0:
254,132,195111,6,0,P|259:63|299:35,1,97.9999970092774,6|0,1:2|1:0,0:0:0:0:
372,2,195486,1,8,0:0:0:0:
452,81,195673,1,8,0:0:0:0:
452,81,195767,1,0,1:0:0:0:
452,81,195861,2,0,B|478:193|399:169|429:275,1,195.999994018555,0|8,1:0|0:3,0:0:0:0:
325,311,196423,5,6,0:3:0:0:
325,311,196517,1,6,0:3:0:0:
325,311,196611,2,0,L|234:297,1,83.9999974365235,2|0,1:2|0:0,0:0:0:0:
203,298,196892,1,2,1:2:0:0:
203,298,196986,1,10,0:0:0:0:
111,338,197173,1,10,0:0:0:0:
18,252,197361,2,0,P|85:254|120:182,1,125.999996154785,2|0,1:2|1:0,0:0:0:0:
129,163,197736,2,0,L|121:115,3,41.9999987182618,8|8|8|8,0:0|0:0|0:0|0:0,0:0:0:0:
182,173,198111,6,0,L|300:150,2,105,6|2|10,1:2|1:2|0:3,0:0:0:0:
58,279,198861,2,0,L|50:399,2,105,6|2|8,1:0|1:2|0:3,0:0:0:0:
20,117,199611,2,0,B|-6:72|-6:72|27:7,2,105,6|2|10,1:2|1:2|0:3,0:0:0:0:
151,165,200361,2,0,P|219:126|268:149,1,105,6|0,1:0|1:0,0:0:0:0:
286,130,200736,2,0,L|346:115,2,35,8|0|8,0:0|0:0|0:0,0:0:0:0:
367,195,201111,6,0,P|405:142|379:58,1,140,6|8,1:2|0:3,0:0:0:0:
280,42,201673,1,8,0:3:0:0:
214,121,201861,2,0,B|239:275,1,140,4|0,1:0|0:0,0:0:0:0:
280,362,202423,1,8,0:3:0:0:
345,297,202611,2,0,B|294:266|294:266|193:293,1,140,4|8,1:2|0:3,0:0:0:0:
34,220,203361,2,0,B|83:241|83:241|146:209,1,105,4|0,1:0|0:0,0:0:0:0:
170,186,203736,2,0,L|160:135,3,35,8|8|8|8,0:0|0:0|0:0|0:0,0:0:0:0:
211,220,204111,6,0,L|196:330,1,83.9999974365235,6|8,1:2|0:0,0:0:0:0:
191,343,204392,1,2,0:0:0:0:
191,343,204486,2,0,P|251:313|300:324,1,83.9999974365235,0|10,1:0|0:0,0:0:0:0:
419,306,204861,2,0,P|438:264|426:214,1,83.9999974365235,2|8,1:2|0:0,0:0:0:0:
415,193,205142,1,0,1:0:0:0:
415,193,205236,2,0,L|317:212,1,83.9999974365235,0|10,0:0|0:0,0:0:0:0:
207,146,205611,6,0,L|304:124,1,83.9999974365235,6|8,1:0|0:0,0:0:0:0:
334,116,205892,1,2,0:0:0:0:
334,116,205986,2,0,B|346:76|346:76|320:18,1,83.9999974365235,0|10,1:0|0:0,0:0:0:0:
415,178,206361,2,0,L|407:279,1,83.9999974365235,2|8,1:2|0:0,0:0:0:0:
305,296,206736,2,0,L|323:396,1,83.9999974365235,0|8,1:0|0:0,0:0:0:0:
192,321,207111,6,0,P|175:249|140:226,1,83.9999974365235,4|8,1:2|0:0,0:0:0:0:
139,219,207392,1,0,1:2:0:0:
139,219,207486,2,0,L|34:235,1,83.9999974365235,0|8,1:2|0:0,0:0:0:0:
7,130,207861,2,0,L|109:115,1,83.9999974365235,0|8,1:2|0:0,0:0:0:0:
138,117,208142,1,0,1:2:0:0:
138,117,208236,2,0,P|183:136|229:132,1,83.9999974365235,0|8,1:2|0:0,0:0:0:0:
338,107,208611,6,0,L|332:-8,1,83.9999974365235,0|8,1:2|0:0,0:0:0:0:
452,91,208986,2,0,L|446:184,1,83.9999974365235,0|8,1:2|0:0,0:0:0:0:
439,274,209361,1,0,1:2:0:0:
348,242,209548,1,8,0:0:0:0:
277,313,209736,2,0,L|298:361,3,41.9999987182618,8|8|8|8,0:0|0:0|0:0|0:0,0:0:0:0:
245,284,210111,6,0,B|119:253|165:344|40:313,2,210.000008010865,4|0|0,1:2|0:0|0:0,0:0:0:0:
255,192,213111,5,0,0:0:0:0:
256,192,213486,12,0,215736,0:0:0:0:
236,121,216111,6,0,L|242:165,1,35,8|8,0:0|0:0,0:0:0:0:
268,193,216298,2,0,L|264:238,1,35,8|8,0:0|0:0,0:0:0:0:
