osu file format v14

[General]
AudioFilename: Audio.mp3
AudioLeadIn: 0
PreviewTime: 116548
Countdown: 0
SampleSet: Soft
StackLeniency: 0.7
Mode: 0
LetterboxInBreaks: 0
EpilepsyWarning: 1
WidescreenStoryboard: 1

[Editor]
DistanceSpacing: 1
BeatDivisor: 4
GridSize: 16
TimelineZoom: 2.699999

[Metadata]
Title:Gareki no Yume
TitleUnicode:瓦礫の夢
Artist:Denkishiki Karen Ongaku Shuudan
ArtistUnicode:電気式華憐音楽集団
Creator:Dored
Version:LMT's Expert
Source:サクラノモリ†ドリーマーズ
Tags:Sakura no Mori Dreamers Denkare Japanese Metal Rock Jrock J-rock Eroge Galgame Visual Novel Video Game VN Opening OP Full Version Moonstone Misure LMT Otosaka-Yu Suzuki_1112 Lunala Rin Sa Rin_Sa Bellicose yf_bmp
BeatmapID:2180986
BeatmapSetID:1037741

[Difficulty]
HPDrainRate:5
CircleSize:3
OverallDifficulty:8.5
ApproachRate:9.4
SliderMultiplier:1.4
SliderTickRate:0.5

[Events]
//Background and Video events
0,0,"Kureha.jpg",0,0
//Break Periods
//Storyboard Layer 0 (Background)
//Storyboard Layer 1 (Fail)
//Storyboard Layer 2 (Pass)
//Storyboard Layer 3 (Foreground)
Sprite,Foreground,Centre,"SB\output\004C_2S.png",0,0 MX,0,15121,18121,612.5 MY,0,15121,18121,292 S,0,15121,,0.4 F,0,15121,,1 MX,0,14371,,621.5 MY,0,14371,,300 F,0,14371,,0.1 F,0,14427,,0 MX,0,14483,,613.5 MY,0,14483,,283 F,0,14483,,0.1 F,0,14539,,0 MX,0,14595,,613.5 MY,0,14595,,302 F,0,14595,,0.1 F,0,14651,,0 MX,0,14707,,610.5 MY,0,14707,,303 F,0,14707,,0.1 F,0,14763,,0 MX,0,14819,,607.5 MY,0,14819,,287 F,0,14819,,0.1 F,0,14875,,0 MX,0,14931,,611.5 MY,0,14931,,294 F,0,14931,,0.1 F,0,14987,,0 MX,0,15043,,611.5 MY,0,15043,,300 F,0,15043,,0.1 F,0,15099,,0
Sprite,Foreground,Centre,"SB\output\004D_2S.png",0,0 MX,0,15121,18121,635 MY,0,15121,18121,292 S,0,15121,,0.4 F,0,15121,,1 MX,0,14371,,645 MY,0,14371,,306 F,0,14371,,0.1 F,0,14405,,0 MX,0,14439,,639 MY,0,14439,,286 F,0,14439,,0.1 F,0,14473,,0 MX,0,14507,,643 MY,0,14507,,301 F,0,14507,,0.1 F,0,14541,,0 MX,0,14575,,646 MY,0,14575,,280 F,0,14575,,0.1 F,0,14609,,0 MX,0,14643,,639 MY,0,14643,,292 F,0,14643,,0.1 F,0,14677,,0 MX,0,14711,,643 MY,0,14711,,295 F,0,14711,,0.1 F,0,14745,,0 MX,0,14779,,635 MY,0,14779,,284 F,0,14779,,0.1 F,0,14813,,0 MX,0,14847,,629 MY,0,14847,,291 F,0,14847,,0.1 F,0,14881,,0 MX,0,14915,,632 MY,0,14915,,298 F,0,14915,,0.1 F,0,14949,,0 MX,0,14983,,636 MY,0,14983,,295 F,0,14983,,0.1 F,0,15017,,0 MX,0,15051,,630 MY,0,15051,,290 F,0,15051,,0.1 F,0,15085,,0 MX,0,15119,,633 MY,0,15119,,295 F,0,15119,,0.1
Sprite,Foreground,Centre,"SB\output\0054_2S.png",0,0 MX,0,15121,18121,657.5 MY,0,15121,18121,292 S,0,15121,,0.4 F,0,15121,,1 MX,0,14371,,663.5 MY,0,14371,,280 F,0,14371,,0.1 F,0,14420,,0 MX,0,14469,,650.5 MY,0,14469,,303 F,0,14469,,0.1 F,0,14518,,0 MX,0,14567,,664.5 MY,0,14567,,287 F,0,14567,,0.1 F,0,14616,,0 MX,0,14665,,655.5 MY,0,14665,,283 F,0,14665,,0.1 F,0,14714,,0 MX,0,14763,,650.5 MY,0,14763,,290 F,0,14763,,0.1 F,0,14812,,0 MX,0,14861,,661.5 MY,0,14861,,294 F,0,14861,,0.1 F,0,14910,,0 MX,0,14959,,656.5 MY,0,14959,,286 F,0,14959,,0.1 F,0,15008,,0 MX,0,15057,,663.5 MY,0,15057,,297 F,0,15057,,0.1 F,0,15106,,0
Sprite,Foreground,Centre,"SB\output\0042_1L.png",0,0 MX,0,172386,172516,-430,195 MX,10,172516,173086,195,245 MY,0,173136,,230 S,0,172386,172516,1.2,0.2 S,10,172516,173086,0.2,0.12
Sprite,Foreground,Centre,"SB\output\0065_1L.png",0,0 MX,0,172386,172516,-180,236.6667 MX,10,172516,173086,236.6667,270 MY,0,173136,,230 S,0,172386,172516,1.2,0.2 S,10,172516,173086,0.2,0.12
Sprite,Foreground,Centre,"SB\output\0061_1L.png",0,0 MX,0,172386,172516,70,278.3333 MX,10,172516,173086,278.3333,295 MY,0,173136,,230 S,0,172386,172516,1.2,0.2 S,10,172516,173086,0.2,0.12
Sprite,Foreground,Centre,"SB\output\0074_1L.png",0,0 MX,0,172386,172516,320 MX,10,172516,173086,320 MY,0,173136,,230 S,0,172386,172516,1.2,0.2 S,10,172516,173086,0.2,0.12
Sprite,Foreground,Centre,"SB\output\006D_1L.png",0,0 MX,0,172386,172516,570,361.6667 MX,10,172516,173086,361.6667,345 MY,0,173136,,230 S,0,172386,172516,1.2,0.2 S,10,172516,173086,0.2,0.12
Sprite,Foreground,Centre,"SB\output\0061_1L.png",0,0 MX,0,172386,172516,820,403.3333 MX,10,172516,173086,403.3333,370 MY,0,173136,,230 S,0,172386,172516,1.2,0.2 S,10,172516,173086,0.2,0.12
Sprite,Foreground,Centre,"SB\output\0070_1L.png",0,0 MX,0,172386,172516,1070,445 MX,10,172516,173086,445,395 MY,0,173136,,230 S,0,172386,172516,1.2,0.2 S,10,172516,173086,0.2,0.12
Sprite,Foreground,Centre,"SB\output\004C_1S.png",0,0 F,0,172586,,1 MY,0,172586,172641,450,350 MY,10,172641,172886,350,290 MX,0,173136,,294.2857 S,0,173136,,0.4 F,0,173136,,0
Sprite,Foreground,Centre,"SB\output\004D_1S.png",0,0 F,0,172689,,1 MY,0,172689,172744,450,350 MY,10,172744,172989,350,290 MX,0,173136,,320 S,0,173136,,0.4 F,0,173136,,0
Sprite,Foreground,Centre,"SB\output\0054_1S.png",0,0 F,0,172746,,1 MY,0,172746,172801,450,350 MY,10,172801,173046,350,290 MX,0,173136,,345.7143 S,0,173136,,0.4 F,0,173136,,0
//Storyboard Sound Samples

[TimingPoints]
6111,375,4,2,1,40,1,0
11736,-1000,4,2,1,40,0,0
11829,-1000,4,2,1,70,0,0
12017,-1000,4,2,1,5,0,0
12111,-50,4,2,1,70,0,1
12204,-50,4,2,1,70,0,0
18111,-50,4,2,1,75,0,0
19611,-100,4,2,1,75,0,0
22611,-50,4,2,1,75,0,0
24111,-100,4,2,1,75,0,0
27111,-100,4,2,1,70,0,0
30111,-100,4,2,1,65,0,0
33111,-100,4,2,1,60,0,0
36111,-50,4,2,1,70,0,0
39111,-100,4,2,1,60,0,0
42111,-50,4,2,1,70,0,0
43423,-50,4,2,2,70,0,0
43798,-50,4,2,1,70,0,0
50361,-1000,4,2,1,70,0,0
51017,-1000,4,2,1,5,0,0
51111,-1000,4,2,1,70,0,0
56361,-100,4,2,1,75,0,0
57111,-100,4,2,1,75,0,0
57861,-50,4,2,1,75,0,0
58611,-40,4,2,1,75,0,1
67611,-40,4,2,1,75,0,0
68361,-33.3333333333333,4,2,1,75,0,0
69111,-31.25,4,2,1,75,0,0
70611,-33.3333333333333,4,2,1,75,0,1
82611,-50,4,2,1,75,0,0
84486,-100,4,2,1,75,0,0
87111,-50,4,2,1,75,0,0
88986,-100,4,2,1,75,0,0
91611,-100,4,2,1,70,0,0
108861,-1000,4,2,1,70,0,0
109611,-100,4,2,1,70,0,0
112611,-1000,4,2,1,70,0,0
114861,-66.6666666666667,4,2,1,75,0,0
116361,-50,4,2,1,75,0,0
117111,-40,4,2,1,75,0,1
126111,-40,4,2,1,75,0,0
126861,-33.3333333333333,4,2,1,75,0,0
127611,-31.25,4,2,1,75,0,0
129111,-33.3333333333333,4,2,1,75,0,1
141111,-100,4,2,1,75,0,0
145798,-100,4,2,1,70,0,0
148423,-100,4,2,2,70,0,0
148611,-100,4,2,1,70,0,0
151423,-100,4,2,2,70,0,0
151611,-100,4,2,1,70,0,0
154423,-100,4,2,2,70,0,0
154611,-100,4,2,1,70,0,0
157423,-100,4,2,2,70,0,0
157611,-66.6666666666667,4,2,1,70,0,0
159111,-33.3333333333333,4,2,1,75,0,0
165111,-28.5714285714286,4,2,1,75,0,1
168111,-100,4,2,1,75,0,0
168673,-100,4,2,1,70,0,0
170361,-100,4,2,1,70,0,1
171111,-33.3333333333333,4,2,1,75,0,0
174111,-100,4,2,1,65,0,0
183111,-40,4,2,1,65,0,0
183861,-33.3333333333333,4,2,1,65,0,0
184611,-31.25,4,2,1,70,0,0
185736,-100,4,2,1,75,0,0
186111,-33.3333333333333,4,2,1,75,0,1
198111,-50,4,2,1,70,0,0
204111,-33.3333333333333,4,2,1,70,0,0
213111,-33.3333333333333,4,2,1,40,0,0
216017,-100,4,2,1,5,0,0
216111,-100,4,2,1,70,0,0

[Colours]
Combo1 : 125,66,89
Combo2 : 91,4,187
Combo3 : 11,36,181
Combo4 : 74,117,105
SliderTrackOverride : 10,0,20

[HitObjects]
465,102,6111,5,2,0:0:0:0:
103,102,6861,5,2,0:0:0:0:
28,140,7236,1,0,0:0:0:0:
96,185,7611,1,2,0:0:0:0:
465,102,9111,5,2,0:0:0:0:
338,237,9861,5,2,0:0:0:0:
263,275,10236,1,0,0:0:0:0:
185,249,10611,1,2,0:0:0:0:
300,170,11829,6,0,L|305:177,1,7,2|0,0:0|0:0,0:0:0:0:
310,43,12111,6,0,L|307:187,1,140,4|0,1:2|0:0,0:0:0:0:
379,222,12392,2,0,L|376:310,1,70,0|0,1:0|0:0,0:0:0:0:
91,215,12673,2,0,L|87:303,1,70,0|0,1:0|0:0,0:0:0:0:
179,283,12861,5,8,0:0:0:0:
173,363,12954,1,8,0:0:0:0:
193,140,13142,5,0,1:0:0:0:
189,184,13236,1,0,1:0:0:0:
208,17,13423,5,0,1:0:0:0:
207,33,13517,1,0,1:0:0:0:
206,48,13611,6,0,B|142:50|142:50|116:42|116:42|34:44,1,140,6|0,1:2|0:0,0:0:0:0:
32,118,13892,1,8,0:0:0:0:
498,237,14173,1,8,0:0:0:0:
398,266,14361,6,2,L|388:105,1,140,14|0,0:0|1:0,0:1:0:0:
386,92,14642,1,0,1:0:0:0:
383,59,14736,1,8,0:0:0:0:
282,133,14923,5,8,0:3:0:0:
280,125,14986,1,4,0:3:0:0:
278,117,15048,1,4,0:3:0:0:
276,108,15111,6,0,B|266:170|266:170|255:195|255:195|249:270,1,140,6|0,1:2|0:0,0:0:0:0:
171,259,15392,2,0,L|164:360,1,70,0|0,1:0|0:0,0:0:0:0:
492,78,15673,2,0,L|485:179,1,70,0|0,1:0|0:0,0:0:0:0:
482,236,15861,5,8,0:0:0:0:
476,318,15954,1,8,0:0:0:0:
253,328,16142,5,0,1:0:0:0:
248,380,16236,1,0,1:0:0:0:
49,251,16423,5,0,1:0:0:0:
46,272,16517,1,0,1:0:0:0:
44,293,16611,6,0,B|19:184|19:184|43:121,1,140,4|0,1:2|0:0,0:0:0:0:
103,117,16892,2,0,L|112:31,1,70,8|0,0:0|0:0,0:0:0:0:
376,305,17173,2,0,L|385:219,1,70,8|0,0:0|0:0,0:0:0:0:
325,171,17361,6,2,L|343:23,1,140,14|0,0:0|1:0,0:1:0:0:
238,104,17736,1,8,0:0:0:0:
236,115,17798,1,8,0:0:0:0:
234,127,17861,1,8,0:0:0:0:
233,138,17923,1,8,0:0:0:0:
231,150,17986,1,8,0:0:0:0:
230,161,18048,1,8,0:0:0:0:
229,172,18111,6,0,L|209:328,1,140,6|0,1:2|1:0,0:0:0:0:
116,222,18392,2,0,L|102:310,1,70,8|0,0:0|1:0,0:0:0:0:
8,286,18579,2,0,L|-2:376,1,70,8|0,0:0|1:0,0:0:0:0:
202,313,18767,2,0,L|209:244,1,70,8|0,0:0|1:0,0:0:0:0:
304,345,18954,2,0,L|312:276,1,70,8|0,0:0|1:0,0:0:0:0:
508,275,19142,2,0,L|499:354,1,70,8|0,0:0|1:0,0:0:0:0:
417,254,19329,2,0,L|405:331,1,70,8|0,0:0|1:0,0:0:0:0:
464,3,19517,1,8,0:0:0:0:
464,3,19611,5,4,1:2:0:0:
469,50,19704,1,0,1:0:0:0:
472,99,19798,1,0,1:0:0:0:
478,146,19892,1,0,1:0:0:0:
480,192,19986,1,0,1:0:0:0:
336,10,20173,6,2,L|352:185,1,140,10|0,0:0|1:0,0:1:0:0:
352,188,20642,1,0,1:0:0:0:
261,119,20736,2,2,L|269:200,1,70,10|0,0:0|1:0,0:1:0:0:
21,90,21111,5,4,1:2:0:0:
26,137,21204,1,0,1:0:0:0:
29,186,21298,1,0,1:0:0:0:
35,233,21392,1,0,1:0:0:0:
39,279,21486,1,0,1:0:0:0:
143,210,21673,6,2,L|127:35,1,140,10|8,0:0|0:3,0:1:0:0:
139,58,22142,1,4,0:3:0:0:
151,46,22236,2,0,L|162:145,1,70,4|8,1:0|0:0,0:0:0:0:
239,105,22517,1,8,0:0:0:0:
319,95,22611,6,0,L|337:271,1,140,6|0,1:2|1:0,0:0:0:0:
426,270,22892,2,0,L|435:357,1,70,8|0,0:0|1:0,0:0:0:0:
501,153,23079,2,0,L|512:238,1,70,8|0,0:0|1:0,0:0:0:0:
246,355,23267,2,0,L|235:270,1,70,8|0,0:0|1:0,0:0:0:0:
321,238,23454,2,0,L|312:151,1,70,8|0,0:0|1:0,0:0:0:0:
35,309,23642,2,0,L|42:378,1,70,8|0,0:0|1:0,0:0:0:0:
127,190,23829,2,0,L|135:259,1,70,8|0,0:0|1:0,0:0:0:0:
47,10,24017,1,8,0:0:0:0:
47,10,24111,5,4,1:2:0:0:
44,62,24204,1,0,1:0:0:0:
41,114,24298,1,0,1:0:0:0:
38,167,24392,1,0,1:0:0:0:
35,219,24486,1,0,1:0:0:0:
217,12,24673,6,2,L|205:192,1,140,10|0,0:0|1:0,0:1:0:0:
212,163,25142,1,0,1:0:0:0:
322,101,25236,2,2,B|301:116|301:116|294:181,1,70,10|0,0:0|1:0,0:1:0:0:
474,26,25611,5,4,1:2:0:0:
471,78,25704,1,0,1:0:0:0:
468,130,25798,1,0,1:0:0:0:
465,183,25892,1,0,1:0:0:0:
462,235,25986,1,0,1:0:0:0:
338,375,26173,6,2,L|354:217,1,140,10|0,0:0|1:0,0:1:0:0:
248,277,26736,1,8,0:0:0:0:
246,288,26798,1,8,0:0:0:0:
245,300,26861,1,8,0:3:0:0:
244,311,26923,1,8,0:3:0:0:
243,323,26986,1,4,0:3:0:0:
241,335,27048,1,4,0:3:0:0:
240,346,27111,1,4,1:2:0:0:
9,108,28611,5,8,0:3:0:0:
133,68,28892,1,4,0:3:0:0:
238,145,29173,1,8,0:3:0:0:
208,225,29361,5,8,0:3:0:0:
332,265,29642,1,4,0:3:0:0:
437,188,29923,1,0,1:0:0:0:
419,105,30111,5,4,1:2:0:0:
167,85,31611,5,0,3:0:0:0:
142,245,31986,1,8,0:3:0:0:
304,277,32361,1,0,3:0:0:0:
326,196,32548,1,4,0:3:0:0:
404,221,32736,1,4,0:3:0:0:
383,301,32923,1,4,0:3:0:0:
464,325,33111,5,4,1:2:0:0:
440,136,33861,5,2,3:2:0:0:
349,171,34236,1,2,0:0:0:0:
251,172,34611,1,2,3:2:0:0:
162,125,34986,1,2,0:0:0:0:
119,38,35361,1,2,3:2:0:0:
41,170,35548,5,8,0:1:0:0:
41,170,35736,1,8,0:3:0:0:
41,170,35923,1,4,0:3:0:0:
105,280,36111,5,6,1:2:0:0:
204,273,36298,1,0,1:0:0:0:
198,297,36392,1,0,1:0:0:0:
195,316,36486,1,0,1:0:0:0:
190,337,36579,1,0,1:0:0:0:
297,305,36767,1,0,1:0:0:0:
293,326,36861,1,0,1:0:0:0:
393,329,37048,1,0,1:0:0:0:
389,350,37142,1,0,1:0:0:0:
487,200,37423,5,0,0:0:0:0:
354,124,37798,5,0,1:0:0:0:
360,100,37892,1,0,1:0:0:0:
363,81,37986,1,0,1:0:0:0:
368,60,38079,1,0,1:0:0:0:
261,92,38267,1,0,1:0:0:0:
265,71,38361,1,0,1:0:0:0:
165,68,38548,1,0,1:0:0:0:
169,47,38642,1,0,1:0:0:0:
39,182,39111,5,4,1:2:0:0:
119,312,39861,5,2,3:2:0:0:
215,276,40236,1,2,1:2:0:0:
315,280,40611,1,2,3:2:0:0:
409,311,40986,1,2,0:2:0:0:
484,372,41361,1,2,1:2:0:0:
470,206,41548,5,8,0:1:0:0:
470,206,41736,1,8,0:3:0:0:
470,206,41923,1,4,0:3:0:0:
488,29,42111,5,6,1:2:0:0:
325,60,42298,1,0,1:0:0:0:
348,56,42391,1,0,1:0:0:0:
371,52,42485,1,0,1:0:0:0:
394,49,42579,1,0,1:0:0:0:
214,84,42767,1,0,1:0:0:0:
237,81,42861,1,0,1:0:0:0:
96,105,43048,1,0,1:0:0:0:
119,102,43142,1,0,1:0:0:0:
16,190,43423,5,0,3:0:0:0:
16,190,43517,1,0,3:0:0:0:
16,190,43611,1,0,3:0:0:0:
129,299,43798,5,0,1:0:0:0:
106,295,43891,1,0,1:0:0:0:
83,291,43985,1,0,1:0:0:0:
60,288,44079,1,0,1:0:0:0:
241,323,44267,1,0,1:0:0:0:
218,320,44361,1,0,1:0:0:0:
397,349,44548,1,0,1:0:0:0:
374,346,44642,1,0,1:0:0:0:
356,341,44736,6,0,L|357:277,2,46.6666666666667,8|8|4,0:3|0:3|0:3,0:0:0:0:
437,271,44923,1,12,0:0:0:0:
328,190,45111,5,2,1:2:0:0:
268,177,45204,1,0,1:0:0:0:
209,165,45298,1,0,1:0:0:0:
150,152,45392,1,0,1:0:0:0:
268,188,45673,5,2,1:2:0:0:
208,175,45766,1,0,1:0:0:0:
149,162,45860,1,0,1:0:0:0:
90,150,45954,1,0,1:0:0:0:
209,85,46236,5,10,0:0:0:0:
292,71,46329,1,8,0:0:0:0:
376,60,46423,1,8,0:0:0:0:
456,45,46517,1,8,0:0:0:0:
357,201,46798,5,10,1:3:0:0:
398,182,46891,1,8,1:3:0:0:
463,231,46985,1,4,1:3:0:0:
501,214,47079,1,4,1:3:0:0:
285,338,47361,5,14,0:0:0:0:
382,337,47548,1,2,0:0:0:0:
483,336,47736,1,2,0:0:0:0:
51,287,48111,5,6,1:2:0:0:
114,273,48205,1,0,1:0:0:0:
176,260,48299,1,0,1:0:0:0:
241,246,48392,1,0,1:0:0:0:
116,280,48673,5,2,1:2:0:0:
181,267,48766,1,0,1:0:0:0:
244,253,48860,1,0,1:0:0:0:
306,240,48954,1,0,1:0:0:0:
275,137,49236,5,10,0:0:0:0:
194,114,49329,1,8,0:0:0:0:
114,90,49423,1,8,0:0:0:0:
36,67,49517,1,8,0:0:0:0:
489,129,49798,5,10,1:3:0:0:
467,89,49892,1,8,1:3:0:0:
385,100,49986,1,4,1:3:0:0:
362,61,50080,1,4,1:3:0:0:
490,304,50361,6,2,L|482:280,1,24.5,14|0,0:0|0:0,0:1:0:0:
372,311,51111,5,6,1:2:0:0:
324,270,51204,1,0,1:0:0:0:
262,257,51298,1,0,1:0:0:0:
202,267,51392,1,0,1:0:0:0:
320,279,51673,5,2,1:2:0:0:
262,266,51767,1,0,1:0:0:0:
200,278,51861,1,0,1:0:0:0:
153,317,51954,1,0,1:0:0:0:
239,141,52236,5,10,0:0:0:0:
163,159,52329,1,8,0:0:0:0:
85,147,52423,1,8,0:0:0:0:
38,84,52517,1,8,0:0:0:0:
453,105,52798,5,10,1:3:0:0:
420,134,52892,1,8,1:3:0:0:
364,73,52986,1,4,1:3:0:0:
333,96,53079,1,4,1:3:0:0:
496,294,53361,5,14,0:0:0:0:
405,240,53548,1,2,0:0:0:0:
305,300,53736,5,10,0:0:0:0:
221,270,53829,1,8,0:0:0:0:
131,269,53923,1,8,0:0:0:0:
49,295,54017,1,8,0:0:0:0:
46,304,54111,6,0,L|44:321,1,17.5,2|0,1:2|0:0,0:0:0:0:
24,192,54673,6,0,L|22:211,1,17.5,2|0,1:2|0:0,0:0:0:0:
113,24,55236,6,0,L|111:41,1,17.5,2|0,1:2|0:0,0:0:0:0:
257,335,55798,6,0,L|255:354,1,17.5,2|0,1:2|0:0,0:0:0:0:
484,32,56361,5,6,1:2:0:0:
472,132,56548,1,8,0:3:0:0:
460,228,56736,1,0,1:0:0:0:
445,325,56923,1,4,0:3:0:0:
375,21,57111,6,2,L|365:105,1,70,6|0,1:2|0:0,0:1:0:0:
283,170,57392,2,2,L|272:255,1,70,6|0,1:2|0:0,0:1:0:0:
230,0,57673,2,2,L|223:61,1,35,6|0,1:2|0:0,0:1:0:0:
64,155,57861,6,2,L|40:313,1,140,6|8,1:2|0:0,0:1:0:0:
74,316,58142,1,8,0:0:0:0:
129,338,58236,1,10,0:0:0:0:
190,340,58329,1,8,0:0:0:0:
269,323,58423,1,10,0:0:0:0:
352,316,58517,1,8,0:0:0:0:
425,363,58611,5,6,1:2:0:0:
418,367,58704,2,0,P|455:277|512:297,1,175,0|2,1:0|1:2,0:0:0:0:
360,225,58986,2,0,P|391:173|396:113,1,87.5,8|0,0:0|0:0,0:0:0:0:
469,86,59173,1,2,1:2:0:0:
484,108,59267,2,0,B|380:80|416:159|253:80,1,175,0|0,1:0|1:0,0:0:0:0:
236,173,59548,2,0,P|220:127|171:83,1,87.5,10|0,0:0|0:0,0:0:0:0:
69,20,59736,5,2,1:2:0:0:
100,78,59829,1,0,1:0:0:0:
108,158,59923,1,10,0:3:0:0:
82,235,60017,1,8,0:3:0:0:
0,271,60111,5,6,1:2:0:0:
2,257,60204,2,0,P|84:267|114:374,1,175,0|2,1:0|1:2,0:0:0:0:
246,261,60486,2,0,P|237:293|225:372,1,87.5,8|0,0:0|0:0,0:0:0:0:
332,355,60673,1,2,1:2:0:0:
336,340,60767,2,0,P|377:258|483:275,1,175,0|0,1:0|1:0,0:0:0:0:
322,97,61048,2,0,P|309:169|277:220,1,87.5,10|0,0:0|0:0,0:0:0:0:
200,162,61236,5,10,0:3:0:0:
163,86,61329,1,8,0:3:0:0:
112,56,61423,1,4,0:3:0:0:
60,49,61517,1,4,0:3:0:0:
25,69,61611,6,0,P|62:88|125:69,1,87.5,6|0,1:0|1:0,0:0:0:0:
81,252,61798,1,2,0:0:0:0:
71,231,61892,2,0,P|52:207|-20:182,1,87.5,2|8,1:2|0:0,0:0:0:0:
272,326,62079,1,2,0:0:0:0:
259,317,62173,2,0,B|132:282|148:391|-9:335,1,262.5,2|0,1:2|1:0,0:0:0:0:
181,217,62548,2,0,P|222:215|304:232,1,87.5,10|0,0:0|0:0,0:0:0:0:
378,340,62736,5,2,1:2:0:0:
399,261,62829,1,0,1:0:0:0:
469,219,62923,1,10,0:3:0:0:
434,172,63017,1,8,0:3:0:0:
446,129,63111,5,6,1:2:0:0:
456,125,63204,2,0,P|403:51|289:70,1,175,0|0,1:0|1:0,0:0:0:0:
170,70,63486,2,0,P|231:92|283:134,1,87.5,8|0,0:0|0:0,0:0:0:0:
103,194,63673,1,0,1:0:0:0:
94,180,63767,2,0,P|77:82|58:-9,1,175,0|0,1:0|1:0,0:0:0:0:
196,177,64048,2,0,P|185:234|170:308,1,87.5,8|0,0:0|0:0,0:0:0:0:
59,367,64235,5,2,1:2:0:0:
69,378,64329,1,0,1:0:0:0:
146,351,64423,1,10,0:0:0:0:
228,341,64517,1,8,0:0:0:0:
315,339,64611,5,6,1:0:0:0:
309,331,64704,2,0,P|400:230|482:261,1,175,0|2,1:0|1:2,0:0:0:0:
483,315,64986,2,0,P|441:361|397:379,1,87.5,8|0,0:0|0:0,0:0:0:0:
285,159,65173,1,2,1:2:0:0:
299,146,65267,2,0,P|375:118|500:121,1,175,0|0,1:0|1:0,0:0:0:0:
304,4,65548,2,0,P|357:14|419:14,1,87.5,10|0,0:0|0:0,0:0:0:0:
172,220,65736,5,2,1:2:0:0:
150,182,65829,1,0,1:0:0:0:
110,157,65923,1,8,0:3:0:0:
114,76,66017,1,8,0:3:0:0:
45,33,66111,5,6,1:2:0:0:
54,24,66204,2,0,P|136:46|207:125,1,175,0|2,1:0|1:2,0:0:0:0:
135,312,66486,2,0,P|80:352|20:353,1,87.5,8|0,0:0|0:0,0:0:0:0:
331,357,66673,1,2,1:2:0:0:
342,340,66767,2,0,B|440:317|408:387|557:343,1,175,0|0,1:0|1:0,0:0:0:0:
410,196,67048,2,0,P|455:240|504:254,1,87.5,10|0,0:0|0:0,0:0:0:0:
395,92,67236,5,10,0:3:0:0:
380,72,67329,1,8,0:3:0:0:
315,122,67423,1,6,0:3:0:0:
273,193,67517,1,4,0:3:0:0:
256,272,67611,5,6,1:0:0:0:
269,273,67704,2,0,P|228:202|123:185,1,175,0|0,1:0|1:0,0:0:0:0:
227,57,67986,2,0,P|159:87|56:74,1,175,8|8,0:0|0:0,0:0:0:0:
47,63,68267,1,8,0:0:0:0:
139,43,68361,5,4,1:0:0:0:
143,57,68454,2,0,P|205:33|393:49,1,210.000008010865,0|0,1:0|1:0,0:0:0:0:
507,114,68736,2,0,P|426:132|294:110,1,210.000008010865,8|8,0:0|0:3,0:0:0:0:
232,159,69017,1,8,0:3:0:0:
136,172,69111,5,4,1:0:0:0:
140,162,69204,2,0,B|270:161|213:252|372:232,1,224,0|0,1:0|1:0,0:0:0:0:
512,270,69486,2,0,B|382:269|439:360|280:340,1,224,8|0,0:0|1:0,0:0:0:0:
212,326,69767,1,0,1:0:0:0:
219,348,69861,5,8,0:3:0:0:
165,360,69954,1,8,0:3:0:0:
110,344,70048,1,0,1:0:0:0:
77,300,70142,1,0,1:0:0:0:
99,245,70236,5,10,0:0:0:0:
34,196,70329,1,8,0:0:0:0:
38,113,70423,1,10,0:0:0:0:
100,59,70517,1,8,0:0:0:0:
180,45,70611,6,0,P|228:70|284:84,1,105.000004005432,6|0,1:2|0:0,0:0:0:0:
407,53,70798,1,8,0:0:0:0:
413,38,70892,2,0,P|333:74|313:213,1,210.000008010865,2|0,0:0|1:0,0:0:0:0:
449,264,71173,2,0,B|334:239|370:322|218:267,1,210.000008010865,10|0,0:0|1:0,0:0:0:0:
111,305,71454,1,0,1:0:0:0:
42,243,71548,1,10,0:0:0:0:
49,229,71642,2,0,P|122:267|154:389,1,210.000008010865,0|0,1:0|1:0,0:0:0:0:
240,267,71923,2,0,P|222:217|189:176,1,105.000004005432,10|0,0:0|0:0,0:0:0:0:
360,116,72111,6,0,P|382:68|414:27,1,105.000004005432,6|0,1:0|0:0,0:0:0:0:
267,50,72298,1,8,0:0:0:0:
281,49,72392,2,0,B|391:50|365:131|529:91,1,210.000008010865,2|0,0:0|1:0,0:0:0:0:
417,192,72673,2,0,P|470:205|482:348,1,210.000008010865,10|0,0:0|1:0,0:0:0:0:
390,383,72954,1,0,1:0:0:0:
345,297,73048,1,10,0:0:0:0:
349,282,73142,2,0,P|292:255|135:255,1,210.000008010865,0|0,1:0|1:0,0:0:0:0:
75,350,73423,2,0,P|57:297|10:246,1,105.000004005432,8|0,0:0|0:0,0:0:0:0:
14,94,73611,6,0,P|76:108|92:189,1,105.000004005432,6|0,1:2|0:0,0:0:0:0:
188,0,73798,1,10,0:0:0:0:
209,5,73892,2,0,P|215:43|224:123,1,105.000004005432,2|0,0:0|1:0,0:0:0:0:
460,40,74079,1,2,1:2:0:0:
456,21,74173,2,0,P|394:35|400:185,1,210.000008010865,10|0,0:0|1:0,0:0:0:0:
389,299,74454,1,0,1:0:0:0:
476,258,74548,1,10,0:0:0:0:
481,275,74642,2,0,P|416:263|274:305,1,210.000008010865,0|0,1:0|1:0,0:0:0:0:
139,312,74923,2,0,P|188:347|222:422,1,105.000004005432,10|0,0:0|0:0,0:0:0:0:
263,193,75111,6,0,P|165:205|143:142,1,105.000004005432,6|0,1:0|0:0,0:0:0:0:
95,135,75298,2,0,P|167:101|302:107,1,210.000008010865,8|0,0:0|1:0,0:0:0:0:
509,59,75579,1,0,1:0:0:0:
512,45,75673,2,0,P|414:61|391:158,1,210.000008010865,8|0,0:0|1:0,0:0:0:0:
429,354,75954,1,0,1:0:0:0:
475,256,76048,1,8,0:0:0:0:
484,267,76142,2,0,P|418:331|286:288,1,210.000008010865,0|0,1:0|1:2,0:0:0:0:
212,354,76423,2,0,P|195:304|155:271,1,105.000004005432,10|0,0:0|0:0,0:0:0:0:
0,100,76611,6,0,B|117:74|84:165|235:110,1,210.000008010865,6|8,1:2|0:0,0:0:0:0:
351,0,76892,2,0,P|332:22|314:123,1,105.000004005432,2|0,0:0|1:0,0:0:0:0:
488,160,77079,1,0,1:0:0:0:
498,172,77173,2,0,B|381:146|414:237|263:182,1,210.000008010865,10|0,0:0|1:0,0:0:0:0:
276,284,77454,1,0,1:0:0:0:
332,360,77548,1,10,0:0:0:0:
335,372,77642,2,0,P|375:325|517:348,1,210.000008010865,0|0,1:0|1:0,0:0:0:0:
273,297,77923,2,0,P|211:319|146:288,1,105.000004005432,8|0,0:0|0:0,0:0:0:0:
46,118,78111,6,0,B|61:99|90:91|90:91|118:128|126:225|39:254|-21:202,1,210.000008010865,6|8,1:0|0:0,0:0:0:0:
258,30,78392,2,0,B|202:43|215:90|215:90|238:82,1,105.000004005432,2|0,0:0|1:0,0:0:0:0:
393,197,78579,1,0,1:0:0:0:
409,197,78673,2,0,B|439:187|439:187|387:164|332:170|352:206|235:179,1,210.000008010865,10|0,0:0|1:0,0:0:0:0:
393,314,78954,1,0,1:0:0:0:
405,303,79048,5,10,0:0:0:0:
311,284,79142,1,8,0:0:0:0:
228,312,79236,1,10,0:3:0:0:
148,337,79329,1,8,0:3:0:0:
76,305,79423,1,6,0:3:0:0:
42,256,79517,1,4,0:3:0:0:
56,213,79611,5,6,1:2:0:0:
77,201,79704,1,0,1:0:0:0:
102,203,79798,1,0,1:0:0:0:
115,218,79892,1,0,1:0:0:0:
120,233,79986,2,0,P|141:192|204:158,1,105.000004005432,8|0,0:0|1:0,0:0:0:0:
426,44,80173,5,8,0:0:0:0:
222,55,80361,5,0,1:0:0:0:
276,55,80454,1,0,1:0:0:0:
320,93,80548,1,0,1:0:0:0:
330,139,80642,1,0,1:0:0:0:
316,165,80736,2,0,P|356:158|432:200,1,105.000004005432,8|8,0:3|0:3,0:0:0:0:
496,351,80923,5,6,0:3:0:0:
450,340,81017,1,6,0:3:0:0:
417,306,81111,5,2,1:2:0:0:
363,363,81204,1,0,1:0:0:0:
298,371,81298,1,0,1:0:0:0:
242,346,81392,1,2,1:2:0:0:
225,317,81486,2,0,P|192:284|129:250,1,105.000004005432,10|0,0:0|1:0,0:0:0:0:
18,35,81673,5,10,0:0:0:0:
20,137,81861,5,2,1:2:0:0:
92,103,81954,1,0,1:0:0:0:
159,115,82048,1,0,1:0:0:0:
191,145,82142,1,0,1:0:0:0:
198,165,82236,5,8,0:0:0:0:
246,124,82329,1,8,0:0:0:0:
327,117,82423,1,8,0:0:0:0:
405,148,82517,1,8,0:0:0:0:
451,217,82611,6,0,L|466:39,1,140,6|0,1:2|1:0,0:0:0:0:
348,303,82892,2,0,L|354:224,1,70,8|0,0:0|1:0,0:0:0:0:
119,332,83079,2,0,L|126:229,1,70,8|0,0:0|1:0,0:0:0:0:
233,372,83267,2,0,L|238:268,1,70,8|0,0:0|1:0,0:0:0:0:
19,248,83454,2,0,L|24:144,1,70,8|0,0:0|1:0,0:0:0:0:
240,97,83642,2,0,L|245:-7,1,70,8|0,0:0|1:0,0:0:0:0:
124,161,83829,2,0,L|129:57,1,70,8|0,0:0|1:0,0:0:0:0:
358,27,84017,1,8,0:0:0:0:
358,27,84111,5,4,1:2:0:0:
354,69,84204,1,0,1:0:0:0:
351,113,84298,1,0,1:0:0:0:
349,157,84392,1,0,1:0:0:0:
346,200,84486,1,0,1:0:0:0:
423,361,84673,6,2,B|433:311|433:311|452:286|452:286|466:217,1,140,10|0,0:0|1:0,0:1:0:0:
473,189,85142,1,0,1:0:0:0:
446,338,85236,2,2,B|451:313|451:313|460:300|460:300|467:266,1,70,10|0,0:0|1:0,0:1:0:0:
49,361,85611,5,4,1:2:0:0:
45,319,85704,1,0,1:0:0:0:
42,275,85798,1,0,1:0:0:0:
40,231,85892,1,0,1:0:0:0:
37,188,85986,1,0,1:0:0:0:
156,347,86173,6,2,B|164:253|164:253|185:211,1,140,10|8,0:0|0:3,0:1:0:0:
195,200,86642,1,4,0:3:0:0:
206,187,86736,2,0,L|191:271,1,70,4|8,1:0|0:0,0:0:0:0:
275,274,87017,1,8,0:0:0:0:
357,291,87111,6,0,L|384:99,1,140,6|0,1:2|1:0,0:0:0:0:
471,122,87392,2,0,L|484:33,1,70,8|0,0:0|1:0,0:0:0:0:
178,88,87579,2,0,L|191:-1,1,70,8|0,0:0|1:0,0:0:0:0:
282,99,87767,2,0,L|295:10,1,70,8|0,0:0|1:0,0:0:0:0:
48,147,87954,2,0,L|58:77,1,70,8|0,0:0|1:0,0:0:0:0:
188,336,88142,2,0,L|198:266,1,70,8|0,0:0|1:0,0:0:0:0:
93,321,88329,2,0,L|109:218,1,70,8|0,0:0|1:0,0:0:0:0:
304,203,88517,1,8,0:0:0:0:
304,203,88611,5,4,1:2:0:0:
296,244,88704,1,0,1:0:0:0:
289,288,88798,1,0,1:0:0:0:
283,331,88892,1,0,1:0:0:0:
276,374,88986,1,0,1:0:0:0:
397,332,89173,6,2,B|419:236|419:236|465:214,1,140,10|0,0:0|1:0,0:1:0:0:
476,218,89642,1,0,1:0:0:0:
383,345,89736,2,2,L|407:254,1,70,10|0,0:0|1:0,0:1:0:0:
332,32,90111,5,4,1:2:0:0:
324,73,90204,1,0,1:0:0:0:
317,117,90298,1,0,1:0:0:0:
311,160,90392,1,0,1:0:0:0:
304,203,90486,1,0,1:0:0:0:
221,42,90673,6,2,B|214:86|214:86|197:104|197:104|182:199,1,140,10|0,0:0|1:0,0:1:0:0:
84,155,91236,1,8,0:0:0:0:
85,143,91298,1,8,0:0:0:0:
87,131,91361,1,8,0:3:0:0:
89,120,91423,1,8,0:3:0:0:
91,108,91486,1,4,0:3:0:0:
93,97,91548,1,4,0:3:0:0:
96,83,91611,6,0,L|110:5,1,70,4|0,1:2|0:0,0:0:0:0:
327,203,91986,2,0,L|313:58,1,140,8|2,0:0|1:2,0:0:0:0:
512,153,92548,1,0,1:0:0:0:
447,344,92736,2,0,L|456:256,1,70,10|0,0:0|0:0,0:0:0:0:
287,363,93111,5,2,1:2:0:0:
270,263,93298,1,0,0:0:0:0:
67,230,93486,1,10,0:0:0:0:
86,136,93673,1,0,0:0:0:0:
151,368,93861,2,0,L|161:278,1,70,2|0,1:2|1:0,0:0:0:0:
299,139,94236,2,0,L|310:64,1,70,8|8,0:0|0:3,0:0:0:0:
314,55,94517,1,4,0:3:0:0:
392,89,94611,6,0,L|377:184,1,70,6|0,1:2|0:0,0:0:0:0:
231,32,94986,2,0,L|206:193,1,140,8|0,0:0|1:2,0:0:0:0:
14,78,95548,1,0,1:0:0:0:
116,52,95736,2,0,L|102:152,1,70,8|0,0:0|0:0,0:0:0:0:
192,330,96111,5,2,1:2:0:0:
137,251,96298,1,0,0:0:0:0:
45,256,96486,1,8,0:0:0:0:
8,340,96673,1,0,0:0:0:0:
203,339,96861,5,0,1:2:0:0:
238,292,96954,1,0,1:2:0:0:
293,277,97048,1,0,1:0:0:0:
346,293,97142,1,0,1:0:0:0:
380,333,97236,1,8,0:0:0:0:
204,351,97423,5,8,0:0:0:0:
205,364,97517,1,0,1:2:0:0:
207,376,97611,6,0,L|193:283,1,70,4|0,1:2|0:0,0:0:0:0:
333,182,97986,2,0,L|317:28,1,140,8|2,0:0|1:2,0:0:0:0:
212,128,98548,1,0,1:0:0:0:
432,218,98736,2,0,L|445:127,1,70,10|0,0:0|0:0,0:0:0:0:
126,248,99111,5,2,1:2:0:0:
108,147,99298,1,0,0:0:0:0:
322,328,99486,1,10,0:0:0:0:
341,233,99673,1,0,0:0:0:0:
201,353,99861,2,0,L|213:265,1,70,2|0,1:2|1:0,0:0:0:0:
457,366,100236,2,0,L|445:281,1,70,8|8,0:0|0:3,0:0:0:0:
444,282,100517,1,4,0:3:0:0:
502,217,100611,6,0,L|491:130,1,70,6|0,1:2|0:0,0:0:0:0:
290,152,100986,2,0,L|273:12,1,140,8|0,0:0|1:2,0:0:0:0:
52,148,101548,1,0,1:0:0:0:
149,225,101736,2,0,L|163:131,1,70,8|0,0:0|0:0,0:0:0:0:
10,366,102111,5,2,1:2:0:0:
98,319,102298,1,0,0:0:0:0:
199,308,102486,1,8,0:0:0:0:
290,351,102673,1,0,0:0:0:0:
274,186,102861,5,0,1:2:0:0:
320,219,102954,1,0,1:2:0:0:
376,223,103048,1,0,1:0:0:0:
430,204,103142,1,0,1:0:0:0:
464,160,103236,1,8,0:0:0:0:
375,40,103423,5,8,0:0:0:0:
381,51,103517,1,8,0:0:0:0:
387,63,103611,5,2,1:2:0:0:
326,50,103704,1,0,1:0:0:0:
267,52,103798,1,0,1:0:0:0:
217,90,103892,1,0,1:0:0:0:
278,62,104173,5,2,1:2:0:0:
223,101,104267,1,0,1:0:0:0:
163,110,104361,1,0,1:0:0:0:
107,91,104454,1,0,1:0:0:0:
293,218,104736,5,10,0:0:0:0:
375,213,104829,1,8,0:0:0:0:
443,260,104923,1,8,0:0:0:0:
461,339,105018,1,8,0:0:0:0:
147,324,105298,5,10,1:3:0:0:
174,353,105392,1,8,1:3:0:0:
242,312,105486,1,4,1:3:0:0:
268,346,105579,1,4,1:3:0:0:
52,185,105861,5,14,0:0:0:0:
55,282,106048,1,2,0:0:0:0:
25,371,106236,1,2,0:0:0:0:
132,71,106611,5,6,1:2:0:0:
193,73,106704,1,0,1:0:0:0:
253,76,106798,1,0,1:0:0:0:
313,78,106892,1,0,1:0:0:0:
254,86,107173,5,2,1:2:0:0:
315,88,107266,1,0,1:0:0:0:
375,91,107360,1,0,1:0:0:0:
435,93,107454,1,0,1:0:0:0:
266,253,107736,5,10,0:0:0:0:
346,252,107829,1,8,0:0:0:0:
426,255,107923,1,8,0:0:0:0:
505,257,108017,1,8,0:0:0:0:
166,302,108298,5,10,1:3:0:0:
133,330,108392,1,8,1:3:0:0:
64,287,108486,1,4,1:3:0:0:
24,321,108579,1,4,1:3:0:0:
81,99,108861,6,2,L|77:75,1,24.5,14|0,0:0|0:0,0:1:0:0:
185,52,109611,5,6,1:2:0:0:
226,97,109704,1,0,1:0:0:0:
240,155,109798,1,0,1:0:0:0:
228,212,109892,1,0,1:0:0:0:
259,154,110173,5,2,1:2:0:0:
241,214,110267,1,0,1:0:0:0:
247,273,110361,1,0,1:0:0:0:
272,327,110454,1,0,1:0:0:0:
7,265,110736,5,10,0:0:0:0:
89,260,110829,1,8,0:0:0:0:
156,306,110923,1,8,0:0:0:0:
184,380,111017,1,8,0:0:0:0:
485,278,111298,5,10,1:3:0:0:
463,319,111392,1,8,1:3:0:0:
383,305,111486,1,4,1:3:0:0:
365,347,111579,1,4,1:3:0:0:
494,86,111861,5,14,0:0:0:0:
403,129,112048,1,2,0:0:0:0:
328,62,112236,5,10,0:0:0:0:
247,107,112329,1,8,0:0:0:0:
153,119,112423,1,8,0:0:0:0:
64,95,112517,1,8,0:0:0:0:
63,84,112611,6,0,L|60:66,1,17.5,2|0,1:2|0:0,0:0:0:0:
197,34,113173,6,0,L|194:16,1,17.5,2|0,1:2|0:0,0:0:0:0:
420,111,113736,6,0,L|417:93,1,17.5,2|0,1:2|0:0,0:0:0:0:
84,243,114298,6,0,L|81:225,1,17.5,2|0,1:2|0:0,0:0:0:0:
491,372,114861,5,6,1:2:0:0:
424,304,115048,1,8,0:3:0:0:
324,288,115236,1,0,1:0:0:0:
237,336,115423,1,4,0:3:0:0:
183,247,115611,6,2,B|151:233|151:233|59:239,1,105.000004005432,6|0,1:2|0:0,0:1:0:0:
218,116,115892,2,2,B|185:119|185:119|159:131|159:131|89:133,1,105.000004005432,6|0,1:2|0:0,0:1:0:0:
324,17,116173,2,2,L|252:21,1,52.5000020027161,6|0,1:2|0:0,0:1:0:0:
506,180,116361,6,2,B|478:206|478:206|456:343,1,140,6|8,1:2|0:0,0:1:0:0:
485,348,116642,1,8,0:0:0:0:
449,319,116736,1,10,0:0:0:0:
383,326,116829,1,8,0:0:0:0:
309,357,116923,1,10,0:0:0:0:
226,366,117017,1,8,0:0:0:0:
160,318,117111,5,6,1:2:0:0:
154,333,117204,2,0,P|222:322|215:182,1,175,0|2,1:0|1:2,0:0:0:0:
165,70,117486,2,0,P|154:168|153:195,1,87.5,8|0,0:0|0:0,0:0:0:0:
58,132,117673,1,2,1:2:0:0:
74,121,117767,2,0,B|185:95|139:166|271:118,1,175,0|0,1:0|1:0,0:0:0:0:
309,36,118048,2,0,P|358:81|354:136,1,87.5,10|0,0:0|0:0,0:0:0:0:
488,86,118236,5,2,1:2:0:0:
503,140,118329,1,0,1:0:0:0:
489,202,118423,1,10,0:3:0:0:
429,255,118517,1,8,0:3:0:0:
351,265,118611,5,6,1:2:0:0:
343,257,118704,2,0,P|420:267|495:342,1,175,0|2,1:0|1:2,0:0:0:0:
412,138,118986,2,0,P|342:168|301:165,1,87.5,8|0,0:0|0:0,0:0:0:0:
241,231,119173,1,2,1:2:0:0:
247,212,119267,2,0,P|265:316|277:407,1,175,0|0,1:0|1:0,0:0:0:0:
150,273,119548,2,0,P|165:332|176:390,1,87.5,10|0,0:0|0:0,0:0:0:0:
3,344,119736,5,10,0:3:0:0:
48,277,119829,1,8,0:3:0:0:
67,219,119923,1,4,0:3:0:0:
66,167,120017,1,4,0:3:0:0:
46,127,120111,6,0,P|93:165|141:156,1,87.5,6|0,1:0|1:0,0:0:0:0:
225,122,120298,1,2,0:0:0:0:
233,96,120392,2,0,P|236:61|237:-8,1,87.5,2|8,1:2|0:0,0:0:0:0:
354,121,120579,1,2,0:0:0:0:
373,105,120673,2,0,P|446:85|501:157,1,175,2|0,1:2|0:0,0:0:0:0:
405,254,120954,1,0,1:0:0:0:
421,234,121048,2,0,P|478:264|509:313,1,87.5,10|0,0:0|0:0,0:0:0:0:
299,240,121236,5,2,1:2:0:0:
254,284,121329,1,0,1:0:0:0:
198,289,121423,1,10,0:3:0:0:
217,320,121517,1,8,0:3:0:0:
217,352,121611,5,6,1:2:0:0:
224,353,121704,2,0,P|185:284|46:273,1,175,0|0,1:0|1:0,0:0:0:0:
202,149,121986,2,0,P|134:165|82:149,1,87.5,8|0,0:0|0:0,0:0:0:0:
57,52,122173,1,0,1:0:0:0:
75,33,122267,2,0,B|172:16|134:89|292:42,1,175,0|0,1:0|1:0,0:0:0:0:
337,152,122548,2,0,P|364:92|396:49,1,87.5,8|0,0:0|0:0,0:0:0:0:
512,128,122736,5,2,1:2:0:0:
501,140,122829,1,0,1:0:0:0:
435,187,122923,1,10,0:0:0:0:
410,265,123017,1,8,0:0:0:0:
411,344,123111,5,6,1:0:0:0:
414,354,123204,2,0,B|312:327|356:394|198:343,1,175,0|2,1:0|1:2,0:0:0:0:
40,243,123486,2,0,P|75:290|81:374,1,87.5,8|0,0:0|0:0,0:0:0:0:
199,241,123673,1,2,1:2:0:0:
189,249,123767,2,0,P|203:163|252:92,1,175,0|0,1:0|1:0,0:0:0:0:
384,35,124048,2,0,P|365:102|335:145,1,87.5,10|0,0:0|0:0,0:0:0:0:
512,191,124236,5,2,1:2:0:0:
479,226,124329,1,0,1:0:0:0:
474,274,124423,1,8,0:3:0:0:
395,297,124517,1,8,0:3:0:0:
343,360,124611,5,6,1:2:0:0:
351,370,124704,2,0,B|373:365|373:365|343:309|277:307|222:330,1,175,0|2,1:0|1:2,0:0:0:0:
13,215,124986,2,0,B|7:208|7:208|28:191|75:192|106:245,1,87.5,8|0,0:0|0:0,0:0:0:0:
248,41,125173,1,2,1:2:0:0:
250,32,125267,2,0,B|283:11|283:11|305:41|295:132|242:141,1,175,0|0,1:0|1:0,0:0:0:0:
82,73,125548,2,0,B|80:63|80:63|106:59|147:84|147:145,1,87.5,10|0,0:0|0:0,0:0:0:0:
194,235,125736,5,10,0:3:0:0:
278,234,125829,1,8,0:3:0:0:
356,213,125923,1,6,0:3:0:0:
417,158,126017,1,4,0:3:0:0:
428,75,126111,5,6,1:0:0:0:
435,81,126204,2,0,P|442:192|451:263,1,175,0|0,1:0|1:0,0:0:0:0:
255,145,126486,2,0,P|257:342|265:395,1,175,8|8,0:0|0:0,0:0:0:0:
327,353,126767,1,8,0:0:0:0:
252,332,126861,5,4,1:0:0:0:
250,341,126954,2,0,B|157:310|156:381|30:316,1,210.000008010865,0|0,1:0|1:0,0:0:0:0:
156,109,127236,2,0,P|102:227|18:222,1,210.000008010865,8|8,0:0|0:3,0:0:0:0:
22,146,127517,1,8,0:3:0:0:
105,186,127611,5,4,1:0:0:0:
111,196,127704,2,0,B|245:176|187:242|360:202,1,224,0|0,1:0|1:0,0:0:0:0:
494,88,127986,2,0,B|522:80|522:80|502:61|393:75|449:127|291:101,1,224,8|0,0:0|1:0,0:0:0:0:
231,68,128267,1,0,1:0:0:0:
315,1,128361,5,8,0:3:0:0:
315,1,128454,2,0,P|326:121|337:247,1,224,8|0,0:3|1:0,0:0:0:0:
270,302,128736,1,10,0:0:0:0:
171,320,128829,1,8,0:0:0:0:
87,281,128923,1,10,0:0:0:0:
42,200,129017,1,8,0:0:0:0:
72,111,129111,6,0,P|97:80|115:10,1,105.000004005432,6|0,1:2|0:0,0:0:0:0:
392,142,129298,1,8,0:0:0:0:
401,132,129392,2,0,B|287:108|318:178|169:137,1,210.000008010865,2|0,0:0|1:0,0:0:0:0:
354,316,129673,2,0,P|401:249|523:312,1,210.000008010865,10|0,0:0|1:0,0:0:0:0:
265,350,129954,1,0,1:0:0:0:
240,256,130048,1,10,0:0:0:0:
253,261,130142,2,0,P|166:281|48:210,1,210.000008010865,0|0,1:0|1:0,0:0:0:0:
107,68,130423,2,0,P|75:105|0:94,1,105.000004005432,10|0,0:0|0:0,0:0:0:0:
231,13,130611,6,0,P|262:36|291:114,1,105.000004005432,6|0,1:0|0:0,0:0:0:0:
208,164,130798,1,8,0:0:0:0:
195,158,130892,2,0,P|276:123|472:126,1,210.000008010865,2|0,0:0|1:0,0:0:0:0:
482,24,131173,2,0,P|421:92|412:251,1,210.000008010865,10|0,0:0|1:0,0:0:0:0:
453,358,131454,1,0,1:0:0:0:
497,270,131548,1,10,0:0:0:0:
498,261,131642,2,0,B|375:216|405:309|250:244,1,210.000008010865,0|0,1:0|1:0,0:0:0:0:
80,281,131923,2,0,P|119:289|183:352,1,105.000004005432,8|0,0:0|0:0,0:0:0:0:
186,105,132111,6,0,P|174:223|146:234,1,105.000004005432,6|0,1:2|0:0,0:0:0:0:
24,77,132298,1,10,0:0:0:0:
34,67,132392,2,0,P|61:78|93:180,1,105.000004005432,2|0,0:0|1:0,0:0:0:0:
300,156,132579,1,2,1:2:0:0:
297,145,132673,2,0,B|194:122|230:199|85:142,1,210.000008010865,10|0,0:0|1:0,0:0:0:0:
362,79,132954,1,0,1:0:0:0:
419,171,133048,1,10,0:0:0:0:
408,166,133142,2,0,P|440:57|517:79,1,210.000008010865,0|0,1:0|1:0,0:0:0:0:
501,247,133423,2,0,P|460:258|394:284,1,105.000004005432,10|0,0:0|0:0,0:0:0:0:
177,280,133611,6,0,P|181:341|236:347,1,105.000004005432,6|0,1:0|0:0,0:0:0:0:
292,248,133798,2,0,B|164:208|215:306|41:237,1,210.000008010865,8|0,0:0|1:0,0:0:0:0:
84,81,134079,1,0,1:0:0:0:
92,69,134173,2,0,B|102:45|100:24|100:24|159:41|172:122|121:201,1,210.000008010865,8|0,0:0|1:0,0:0:0:0:
86,258,134454,1,0,1:0:0:0:
26,167,134548,1,8,0:0:0:0:
35,172,134642,2,0,P|167:146|300:129,1,210.000008010865,0|0,1:0|1:2,0:0:0:0:
332,111,134923,1,10,0:0:0:0:
412,165,135017,1,0,0:0:0:0:
500,140,135111,6,0,P|448:174|416:332,1,210.000008010865,6|8,1:2|0:0,0:0:0:0:
273,264,135392,2,0,P|306:306|317:356,1,105.000004005432,2|0,0:0|1:0,0:0:0:0:
156,333,135579,1,0,1:0:0:0:
165,350,135673,2,0,P|182:265|210:126,1,210.000008010865,10|0,0:0|1:0,0:0:0:0:
204,36,135954,1,0,1:0:0:0:
107,65,136048,1,10,0:0:0:0:
115,79,136142,2,0,B|223:58|187:136|343:90,1,210.000008010865,0|0,1:0|1:0,0:0:0:0:
72,205,136423,2,0,P|48:174|-17:118,1,105.000004005432,8|0,0:0|0:0,0:0:0:0:
475,219,136611,6,0,B|500:211|500:211|455:186|396:183|418:250|296:188,1,210.000008010865,6|8,1:0|0:0,0:0:0:0:
21,328,136892,2,0,B|0:324|0:324|34:291|79:306|102:333,1,105.000004005432,2|0,0:0|1:0,0:0:0:0:
206,269,137079,1,0,1:0:0:0:
208,253,137173,2,0,B|188:226|188:226|171:248|183:311|209:369|269:373,1,210.000008010865,10|0,0:0|1:0,0:0:0:0:
347,345,137454,1,0,1:0:0:0:
359,341,137548,5,10,0:0:0:0:
356,248,137642,1,8,0:0:0:0:
305,174,137736,1,10,0:3:0:0:
291,92,137829,1,8,0:3:0:0:
316,32,137923,1,6,0:3:0:0:
365,1,138017,1,4,0:3:0:0:
401,12,138111,5,6,1:2:0:0:
420,34,138204,1,0,1:0:0:0:
421,55,138298,1,0,1:0:0:0:
410,71,138392,1,0,1:0:0:0:
393,80,138486,2,0,P|426:87|486:148,1,105.000004005432,8|0,0:0|1:0,0:0:0:0:
482,366,138673,5,8,0:0:0:0:
499,265,138861,5,0,1:0:0:0:
436,243,138954,1,0,1:0:0:0:
384,255,139048,1,0,1:0:0:0:
349,293,139142,1,0,1:0:0:0:
342,332,139236,2,0,P|322:287|268:243,1,105.000004005432,8|8,0:3|0:3,0:0:0:0:
6,294,139423,5,6,0:3:0:0:
87,315,139517,1,6,0:3:0:0:
133,384,139611,5,2,1:2:0:0:
102,306,139704,1,0,1:0:0:0:
116,245,139798,1,0,1:0:0:0:
157,209,139892,1,0,1:0:0:0:
198,213,139986,2,0,P|144:189|92:131,1,105.000004005432,10|0,0:0|1:0,0:0:0:0:
0,15,140173,5,10,0:0:0:0:
9,128,140361,5,2,1:2:0:0:
73,76,140454,1,0,1:0:0:0:
153,66,140548,1,0,1:0:0:0:
210,89,140642,1,0,1:0:0:0:
227,125,140736,5,8,0:0:0:0:
292,168,140829,1,8,0:0:0:0:
378,164,140923,1,8,0:0:0:0:
454,109,141017,1,8,0:0:0:0:
473,16,141111,5,4,1:2:0:0:
256,192,144111,12,0,145611,0:0:0:0:
512,258,145798,5,8,0:0:0:0:
458,319,145892,1,8,0:0:0:0:
379,333,145986,1,8,0:0:0:0:
311,292,146079,1,8,0:0:0:0:
264,183,146267,5,8,0:0:0:0:
212,121,146360,1,8,0:0:0:0:
82,93,146548,5,8,0:0:0:0:
11,130,146642,1,8,0:0:0:0:
11,130,147111,5,6,1:2:0:0:
86,202,147298,1,0,1:0:0:0:
92,231,147391,1,0,1:0:0:0:
97,261,147485,1,2,1:2:0:0:
102,288,147579,1,0,1:0:0:0:
200,314,147767,1,0,1:0:0:0:
205,341,147861,1,2,1:2:0:0:
305,350,148048,1,0,1:0:0:0:
310,377,148142,1,0,1:0:0:0:
451,295,148423,5,0,3:0:0:0:
451,295,148517,1,0,3:0:0:0:
451,295,148611,1,2,0:0:0:0:
400,200,148798,5,0,1:0:0:0:
394,171,148891,1,0,1:0:0:0:
389,141,148985,1,0,1:2:0:0:
384,114,149079,1,0,1:0:0:0:
286,88,149267,1,0,1:0:0:0:
281,61,149361,1,0,1:2:0:0:
181,52,149548,1,0,1:0:0:0:
176,24,149642,1,0,1:0:0:0:
17,244,149923,5,8,0:1:0:0:
99,113,150111,5,6,1:2:0:0:
171,190,150298,1,0,1:0:0:0:
177,219,150391,1,0,1:0:0:0:
183,249,150485,1,2,1:2:0:0:
187,278,150579,1,0,1:0:0:0:
93,311,150766,1,0,1:0:0:0:
97,340,150860,1,2,1:2:0:0:
283,293,151048,1,0,1:0:0:0:
287,322,151142,1,0,1:0:0:0:
439,358,151423,5,0,3:0:0:0:
439,358,151517,1,0,3:0:0:0:
439,358,151611,1,2,0:0:0:0:
375,242,151798,5,0,1:0:0:0:
381,213,151891,1,0,1:0:0:0:
387,183,151985,1,0,1:2:0:0:
391,154,152079,1,0,1:0:0:0:
297,121,152266,1,0,1:0:0:0:
301,92,152360,1,0,1:2:0:0:
487,139,152548,1,0,1:0:0:0:
491,110,152642,1,0,1:0:0:0:
392,28,152923,5,8,0:1:0:0:
177,70,153111,5,6,1:2:0:0:
204,179,153298,1,0,1:0:0:0:
164,167,153391,1,0,1:0:0:0:
130,158,153485,1,2,1:2:0:0:
93,148,153579,1,0,1:0:0:0:
147,267,153766,1,0,1:0:0:0:
113,258,153860,1,2,1:2:0:0:
120,362,154048,1,0,1:0:0:0:
86,353,154142,1,0,1:0:0:0:
259,368,154423,5,0,3:0:0:0:
259,368,154517,1,0,3:0:0:0:
259,368,154611,1,2,0:0:0:0:
357,293,154798,5,0,1:0:0:0:
397,305,154891,1,0,1:0:0:0:
431,314,154985,1,0,1:2:0:0:
468,324,155079,1,0,1:0:0:0:
414,205,155266,1,0,1:0:0:0:
448,214,155360,1,0,1:2:0:0:
441,110,155548,1,0,1:0:0:0:
475,119,155642,1,0,1:0:0:0:
255,24,155923,5,8,0:1:0:0:
53,97,156111,5,6,1:2:0:0:
127,183,156298,1,0,1:0:0:0:
115,223,156391,1,0,1:0:0:0:
106,257,156485,1,2,1:2:0:0:
96,294,156579,1,0,1:0:0:0:
258,127,156767,1,0,1:0:0:0:
246,167,156860,1,2,1:2:0:0:
323,281,157048,1,0,1:0:0:0:
311,321,157141,1,0,1:0:0:0:
492,306,157423,5,0,3:0:0:0:
492,306,157517,1,0,3:0:0:0:
492,306,157611,1,2,0:0:0:0:
448,167,157798,5,0,1:0:0:0:
404,136,157892,1,0,1:0:0:0:
354,131,157986,1,0,1:2:0:0:
310,157,158079,2,0,P|272:185|240:181,1,52.5000020027161,0|0,1:0|0:0,0:0:0:0:
167,233,158267,1,0,1:0:0:0:
120,211,158361,2,0,P|112:202|88:164,1,52.5000020027161,0|0,1:2|0:0,0:0:0:0:
52,75,158548,1,0,1:0:0:0:
76,33,158642,1,0,1:0:0:0:
126,22,158736,5,8,0:3:0:0:
128,31,158798,1,4,0:3:0:0:
129,41,158861,1,0,1:0:0:0:
130,51,158923,1,8,0:0:0:0:
251,51,159111,6,2,B|280:46|280:46|329:50|329:50|365:17|365:17|473:-5,1,210.000008010865,6|8,1:2|0:0,0:1:0:0:
393,152,159392,2,2,B|417:123|417:123|543:95,1,105.000004005432,2|0,0:0|1:0,0:1:0:0:
261,238,159579,1,0,1:0:0:0:
274,233,159673,2,2,B|291:223|291:223|291:161|291:161|231:128,1,105.000004005432,10|0,0:0|0:0,0:1:0:0:
170,147,159861,6,2,B|159:299|159:299|72:345,1,210.000008010865,2|8,1:2|0:0,0:1:0:0:
213,379,160142,2,2,B|235:362|235:362|292:356|292:356|324:378,1,105.000004005432,2|0,1:2|0:0,0:1:0:0:
52,135,160329,1,0,1:0:0:0:
59,144,160423,2,2,B|71:160|71:160|66:259,1,105.000004005432,10|0,0:0|0:0,0:1:0:0:
282,246,160611,6,2,B|298:230|298:230|364:241|364:241|376:256|376:256|458:273|458:273|511:244,1,210.000008010865,6|8,1:0|0:0,0:1:0:0:
402,144,160892,2,2,B|413:136|413:136|491:153|491:153|501:183,1,105.000004005432,2|0,0:0|1:0,0:1:0:0:
304,46,161079,1,0,1:0:0:0:
310,36,161173,2,2,B|323:50|323:50|303:163,1,105.000004005432,10|0,0:0|0:0,0:1:0:0:
48,38,161361,6,2,B|28:34|28:34|42:23|42:23|114:33|114:33|116:48|116:48|183:59|183:59|217:35,1,210.000008010865,2|8,1:2|0:0,0:1:0:0:
275,241,161642,2,2,B|266:212|266:212|172:196,1,105.000004005432,2|0,1:2|0:0,0:1:0:0:
55,145,161829,1,0,1:0:0:0:
68,146,161923,2,2,B|90:158|90:158|94:221|94:221|57:242,1,105.000004005432,10|0,0:0|0:0,0:1:0:0:
80,354,162111,6,2,B|70:355|70:355|64:342|64:342|128:333|128:333|139:348|139:348|215:342|215:342|200:302,1,210.000008010865,6|8,1:2|0:0,0:1:0:0:
318,326,162392,2,2,L|439:311,1,105.000004005432,2|0,0:0|1:0,0:1:0:0:
445,172,162579,1,0,1:2:0:0:
454,160,162673,2,2,B|467:142|467:142|480:269,1,105.000004005432,10|0,0:0|0:0,0:1:0:0:
162,220,162861,5,2,1:2:0:0:
220,207,162954,1,0,1:0:0:0:
278,192,163048,1,8,0:0:0:0:
334,179,163142,2,2,B|322:201|322:201|110:251,1,210.000008010865,2|0,1:2|1:0,0:1:0:0:
364,27,163423,2,2,B|377:9|377:9|390:136,1,105.000004005432,10|0,0:0|0:0,0:1:0:0:
21,151,163611,6,2,B|107:127|107:127|136:132|136:132|208:114|208:114|237:85,1,210.000008010865,6|8,1:0|0:0,0:1:0:0:
497,27,163892,2,2,B|503:45|503:45|494:182,1,105.000004005432,2|0,0:0|1:0,0:1:0:0:
186,348,164079,1,0,1:0:0:0:
177,341,164173,2,2,L|386:284,1,210.000008010865,10|0,0:0|1:0,0:1:0:0:
507,258,164454,1,0,1:0:0:0:
459,342,164548,1,8,0:0:0:0:
450,356,164642,2,0,B|388:213|388:213|310:181,1,210.000008010865,0|2,1:0|1:2,0:0:0:0:
226,223,164923,2,0,L|94:201,1,105.000004005432,10|0,0:0|0:0,0:0:0:0:
43,105,165111,5,6,1:2:0:0:
105,51,165204,1,8,0:0:0:0:
184,32,165298,1,0,1:2:0:0:
266,36,165392,1,8,0:0:0:0:
340,69,165486,5,2,1:0:0:0:
341,77,165548,1,2,0:0:0:0:
343,84,165611,1,2,0:0:0:0:
346,93,165673,2,0,B|387:103|387:103|480:65,1,122.500001168251,2|8,1:2|0:0,0:0:0:0:
512,194,165861,5,2,1:2:0:0:
429,199,165954,1,8,0:0:0:0:
372,256,166048,1,0,1:0:0:0:
349,306,166142,1,8,0:0:0:0:
350,356,166236,5,2,1:0:0:0:
344,351,166298,1,2,0:0:0:0:
336,347,166361,1,2,0:0:0:0:
327,342,166423,2,0,B|294:329|294:329|152:347,1,122.500001168251,2|8,1:2|0:0,0:0:0:0:
23,332,166611,5,6,1:2:0:0:
54,299,166704,1,8,0:0:0:0:
64,263,166798,1,0,1:0:0:0:
53,219,166892,1,8,0:0:0:0:
29,190,166986,5,0,1:0:0:0:
95,239,167079,1,8,0:0:0:0:
175,237,167173,1,0,1:0:0:0:
246,197,167267,1,8,0:0:0:0:
295,127,167361,5,2,1:2:0:0:
300,133,167454,2,2,B|309:100|309:100|331:77|331:77|341:13,1,122.500001168251,10|0,0:0|1:0,0:1:0:0:
500,147,167642,2,2,B|491:114|491:114|469:91|469:91|459:27,1,122.500001168251,10|2,0:0|1:2,0:1:0:0:
432,305,167829,2,2,B|423:272|423:272|401:249|401:249|391:185,1,122.500001168251,10|0,0:0|1:0,0:1:0:0:
278,364,168017,1,8,0:0:0:0:
290,346,168111,5,6,1:2:0:0:
217,309,168204,1,2,0:0:0:0:
146,348,168298,1,2,0:0:0:0:
142,357,168361,1,2,0:0:0:0:
137,365,168423,1,2,0:0:0:0:
133,374,168486,1,2,0:0:0:0:
129,248,168673,5,6,1:2:0:0:
75,267,168767,1,2,0:0:0:0:
24,242,168861,1,2,0:0:0:0:
23,232,168923,1,2,0:0:0:0:
20,223,168986,1,2,0:0:0:0:
17,214,169048,1,2,0:0:0:0:
59,113,169236,5,6,1:2:0:0:
133,76,169329,1,2,0:0:0:0:
213,87,169423,1,2,0:0:0:0:
219,94,169486,1,2,0:0:0:0:
211,101,169548,1,2,0:0:0:0:
217,109,169611,1,2,0:0:0:0:
334,53,169798,5,6,1:2:0:0:
335,62,169861,1,2,0:0:0:0:
334,72,169923,1,2,0:0:0:0:
335,84,169986,2,0,B|342:100|342:100|332:106,3,23.3333333333333,2|2|2|2,0:0|0:0|0:0|0:0,0:0:0:0:
433,153,170361,5,6,1:2:0:0:
371,203,170454,1,2,0:0:0:0:
288,187,170548,1,10,0:3:0:0:
282,196,170611,1,2,0:0:0:0:
287,204,170673,1,2,0:0:0:0:
278,213,170736,2,0,B|283:225|283:225|274:238,3,23.3333333333333,6|2|2|6,0:3|0:0|0:0|0:3,0:0:0:0:
422,360,171111,6,2,B|382:339|382:339|184:320,1,210.000008010865,6|0,1:2|0:0,0:1:0:0:
209,109,171392,2,2,L|-15:101,1,210.000008010865,6|0,1:2|0:0,0:1:0:0:
347,22,171673,2,2,L|452:22,1,105.000004005432,6|0,1:2|0:0,0:1:0:0:
512,178,171861,6,2,L|302:182,1,210.000008010865,6|0,1:2|0:0,0:1:0:0:
0,284,172142,2,2,B|17:259|17:259|205:242,1,210.000008010865,6|0,1:2|0:0,0:1:0:0:
416,339,172423,2,2,L|291:322,1,105.000004005432,6|0,1:2|0:0,0:1:0:0:
105,153,172611,6,2,B|87:168|87:168|89:219|89:219|101:243|101:243|107:341|107:341|67:368,1,210.000008010865,6|0,1:2|0:0,0:1:0:0:
405,245,172892,2,2,B|395:238|395:238|401:140|401:140|413:116|413:116|415:66|415:66|397:50,1,210.000008010865,6|0,1:2|0:0,0:1:0:0:
230,7,173173,2,2,B|217:22|217:22|218:90|218:90|244:143,1,105.000004005432,6|0,1:2|0:0,0:1:0:0:
495,203,173361,6,2,L|212:195,1,210.000008010865,6|8,1:2|0:0,0:1:0:0:
188,193,173642,1,8,0:0:0:0:
271,214,173736,1,10,0:0:0:0:
311,298,173829,1,8,0:0:0:0:
381,341,173923,1,10,0:0:0:0:
444,348,174017,1,8,0:0:0:0:
488,326,174111,5,6,1:0:0:0:
479,195,174486,1,0,1:0:0:0:
470,64,174861,1,0,1:0:0:0:
343,76,175236,1,0,1:2:0:0:
337,211,175611,5,2,1:2:0:0:
322,346,175986,1,0,1:2:0:0:
185,336,176361,1,0,1:0:0:0:
192,207,176736,1,0,1:2:0:0:
30,26,177111,5,6,1:2:0:0:
86,112,177298,1,2,0:0:0:0:
86,112,177392,1,2,0:0:0:0:
24,181,177579,1,2,0:0:0:0:
24,181,177673,1,2,0:0:0:0:
159,275,178048,1,2,0:0:0:0:
203,363,178236,1,2,1:2:0:0:
299,352,178423,1,2,0:0:0:0:
261,259,178611,5,2,1:2:0:0:
295,124,178986,1,0,1:0:0:0:
429,97,179361,1,0,1:0:0:0:
502,229,179736,5,2,1:2:0:0:
407,246,179923,1,2,0:0:0:0:
477,363,180111,5,6,1:2:0:0:
363,343,180392,1,2,0:0:0:0:
251,324,180673,1,2,0:0:0:0:
90,275,181048,1,2,0:0:0:0:
90,275,181236,1,2,1:2:0:0:
12,78,181611,5,2,1:2:0:0:
157,48,181892,1,2,0:0:0:0:
301,24,182173,1,2,0:0:0:0:
300,142,182548,5,2,0:0:0:0:
400,115,182736,1,2,1:2:0:0:
492,89,182923,1,2,0:0:0:0:
209,206,183111,5,6,1:2:0:0:
211,214,183204,2,0,B|165:198|165:198|5:191,1,175,0|0,1:0|1:0,0:0:0:0:
159,336,183486,2,0,B|191:319|191:319|295:306|295:306|362:331,1,175,8|8,0:0|0:0,0:0:0:0:
463,281,183767,1,8,0:0:0:0:
433,357,183861,5,0,1:0:0:0:
427,364,183954,2,0,B|411:342|411:342|421:223|421:223|469:167,1,210.000008010865,0|0,1:0|1:0,0:0:0:0:
317,23,184236,2,0,B|345:64|345:64|328:239,1,210.000008010865,8|8,0:0|0:3,0:0:0:0:
335,212,184517,1,4,0:3:0:0:
380,90,184611,5,4,1:0:0:0:
391,93,184704,2,0,B|337:117|337:117|147:99,1,224,0|0,1:0|1:0,0:0:0:0:
20,4,184986,2,0,B|56:20|56:20|110:212,1,224,8|0,0:0|1:0,0:0:0:0:
34,309,185267,1,0,1:0:0:0:
20,304,185361,5,8,0:3:0:0:
60,279,185454,1,8,0:3:0:0:
114,288,185548,1,4,0:3:0:0:
146,326,185642,1,4,0:3:0:0:
150,373,185736,5,10,0:0:0:0:
208,309,185829,1,8,0:0:0:0:
288,288,185923,1,10,0:0:0:0:
371,295,186017,1,8,0:0:0:0:
431,352,186111,6,0,P|417:246|500:241,1,210.000008010865,6|8,1:2|0:0,0:0:0:0:
434,133,186392,2,0,P|445:78|487:16,1,105.000004005432,2|0,0:0|1:0,0:0:0:0:
130,152,186579,1,0,1:0:0:0:
115,139,186673,2,0,B|237:119|197:187|341:141,1,210.000008010865,10|0,0:0|1:0,0:0:0:0:
346,51,186954,1,0,1:0:0:0:
234,28,187048,1,10,0:0:0:0:
235,46,187142,2,0,P|239:131|242:285,1,210.000008010865,0|0,1:0|1:0,0:0:0:0:
30,247,187423,2,0,P|33:300|36:375,1,105.000004005432,10|0,0:0|0:0,0:0:0:0:
320,291,187611,6,0,P|195:307|162:412,1,210.000008010865,6|8,1:0|0:0,0:0:0:0:
89,129,187892,2,0,P|121:168|140:246,1,105.000004005432,2|0,0:0|1:0,0:0:0:0:
426,173,188079,1,0,1:0:0:0:
435,163,188173,2,0,B|318:135|353:217|207:159,1,210.000008010865,10|0,0:0|1:0,0:0:0:0:
175,4,188454,1,0,1:0:0:0:
266,70,188548,1,10,0:0:0:0:
256,60,188642,2,0,P|196:58|23:39,1,210.000008010865,0|0,1:0|1:0,0:0:0:0:
369,56,188923,2,0,P|416:52|490:41,1,105.000004005432,8|0,0:0|0:0,0:0:0:0:
433,346,189111,6,0,P|412:347|376:276,1,105.000004005432,6|0,1:2|0:0,0:0:0:0:
464,149,189298,1,10,0:0:0:0:
481,161,189392,2,0,P|497:204|444:242,1,105.000004005432,2|0,0:0|1:0,0:0:0:0:
240,257,189579,1,2,1:2:0:0:
225,249,189673,2,0,P|252:179|385:211,1,210.000008010865,10|0,0:0|1:0,0:0:0:0:
199,81,189954,1,0,1:0:0:0:
282,31,190048,1,10,0:0:0:0:
290,47,190142,2,0,B|175:25|228:115|42:52,1,210.000008010865,0|0,1:0|1:0,0:0:0:0:
36,177,190423,2,0,P|86:189|118:231,1,105.000004005432,10|0,0:0|0:0,0:0:0:0:
55,355,190611,6,0,P|94:346|169:334,1,105.000004005432,6|0,1:0|0:0,0:0:0:0:
470,349,190798,2,0,P|392:358|253:363,1,210.000008010865,8|0,0:0|1:0,0:0:0:0:
242,165,191079,1,0,1:0:0:0:
257,148,191173,2,0,P|322:152|368:301,1,210.000008010865,8|0,0:0|1:0,0:0:0:0:
455,134,191454,1,0,1:0:0:0:
488,235,191548,1,8,0:0:0:0:
473,244,191642,2,0,B|346:204|395:287|205:241,1,210.000008010865,0|0,1:0|1:2,0:0:0:0:
163,238,191923,1,10,0:0:0:0:
95,165,192017,1,0,1:0:0:0:
95,73,192111,6,0,P|79:188|55:320,1,210.000008010865,6|8,1:2|0:0,0:0:0:0:
181,363,192392,2,0,P|175:300|164:224,1,105.000004005432,2|0,0:0|1:0,0:0:0:0:
2,128,192579,1,0,1:0:0:0:
0,110,192673,2,0,B|132:100|69:168|233:140,1,210.000008010865,10|0,0:0|1:0,0:0:0:0:
306,70,192954,1,0,1:0:0:0:
362,146,193048,1,10,0:0:0:0:
384,132,193142,2,0,B|267:128|314:62|161:41,1,210.000008010865,0|0,1:0|1:0,0:0:0:0:
240,225,193423,2,0,P|287:222|335:284,1,105.000004005432,8|0,0:0|0:0,0:0:0:0:
30,258,193611,6,0,B|18:249|3:247|3:247|38:202|134:216|156:303,1,210.000008010865,6|8,1:0|0:0,0:0:0:0:
287,358,193892,2,0,B|277:364|276:379|276:379|244:352|234:313|242:266,1,105.000004005432,2|0,0:0|1:0,0:0:0:0:
488,269,194079,1,0,1:0:0:0:
500,274,194173,2,0,B|517:265|517:265|463:234|395:254|432:315|288:267,1,210.000008010865,10|0,0:0|1:0,0:0:0:0:
365,92,194454,1,0,1:0:0:0:
376,100,194548,5,10,0:0:0:0:
319,169,194642,1,8,0:0:0:0:
230,187,194736,1,10,0:3:0:0:
155,159,194829,1,8,0:3:0:0:
105,96,194923,1,6,0:3:0:0:
109,46,195017,1,4,0:3:0:0:
136,8,195111,5,6,1:2:0:0:
172,0,195204,1,0,1:0:0:0:
195,18,195298,1,0,1:0:0:0:
200,39,195392,1,0,1:0:0:0:
191,55,195486,2,0,P|227:29|311:24,1,105.000004005432,8|0,0:0|1:0,0:0:0:0:
510,255,195673,5,8,0:0:0:0:
487,118,195861,5,0,1:0:0:0:
423,126,195954,1,0,1:0:0:0:
378,166,196048,1,0,1:0:0:0:
361,212,196142,1,0,1:0:0:0:
372,245,196236,2,0,P|362:237|258:202,1,105.000004005432,8|8,0:3|0:3,0:0:0:0:
201,60,196423,5,6,0:3:0:0:
123,71,196517,1,6,0:3:0:0:
57,25,196611,5,2,1:2:0:0:
83,102,196704,1,0,1:0:0:0:
77,157,196798,1,0,1:0:0:0:
57,198,196892,1,2,1:2:0:0:
17,213,196986,2,0,P|52:229|116:295,1,105.000004005432,10|0,0:0|1:0,0:0:0:0:
370,361,197173,5,10,0:0:0:0:
196,369,197361,5,2,1:2:0:0:
217,287,197454,1,0,1:0:0:0:
267,247,197548,1,0,1:0:0:0:
316,235,197642,1,0,1:0:0:0:
366,254,197736,5,8,0:0:0:0:
430,241,197829,1,8,0:0:0:0:
486,185,197923,1,8,0:0:0:0:
473,101,198017,1,8,0:0:0:0:
408,43,198111,6,0,B|358:58|358:58|216:31,1,140,6|0,1:2|0:0,0:0:0:0:
188,98,198392,2,0,L|175:23,1,70,2|8,1:2|0:3,0:0:0:0:
92,114,198579,1,0,0:0:0:0:
92,114,198673,2,0,L|75:13,1,70,10|8,0:3|0:3,0:0:0:0:
265,312,198861,5,6,1:0:0:0:
265,312,198954,2,0,L|276:208,1,70,0|0,1:2|0:0,0:0:0:0:
395,228,199142,2,0,B|372:245|372:245|363:340|363:340|396:370,1,140,2|0,1:2|0:0,0:0:0:0:
472,334,199423,2,0,L|482:244,1,70,8|4,0:3|0:3,0:0:0:0:
165,353,199611,5,6,1:2:0:0:
165,353,199704,2,0,L|147:265,1,70,0|0,1:2|0:0,0:0:0:0:
19,241,199892,2,0,B|50:268|50:268|74:380,1,140,2|0,1:2|0:0,0:0:0:0:
182,175,200173,2,0,L|95:199,1,70,10|8,0:3|0:3,0:0:0:0:
327,156,200361,5,6,1:0:0:0:
327,156,200454,2,0,L|344:14,1,140,0|0,1:2|1:0,0:0:0:0:
433,81,200736,1,8,0:0:0:0:
431,89,200798,1,8,0:0:0:0:
430,98,200861,1,0,1:0:0:0:
429,106,200923,1,8,0:0:0:0:
498,274,201111,5,6,1:2:0:0:
498,274,201204,2,0,L|311:255,1,140,0|0,1:2|1:2,0:0:0:0:
223,225,201486,2,0,B|261:247|261:247|280:353,1,140,8|8,0:3|0:3,0:0:0:0:
291,351,201767,1,8,0:3:0:0:
174,342,201861,5,4,1:0:0:0:
180,347,201954,2,0,L|32:335,1,140,0|0,1:2|1:2,0:0:0:0:
136,237,202236,2,0,B|114:249|114:249|-12:238,1,140,0|8,0:0|0:3,0:0:0:0:
7,227,202517,1,4,0:3:0:0:
43,141,202611,5,4,1:2:0:0:
43,141,202704,2,0,B|62:118|62:118|144:113|144:113|179:146,1,140,0|0,1:2|1:2,0:0:0:0:
256,144,202986,2,0,B|272:116|272:116|262:-3,1,140,8|8,0:3|0:3,0:0:0:0:
272,6,203267,1,8,0:3:0:0:
356,42,203361,5,4,1:0:0:0:
361,54,203454,2,0,B|379:84|379:84|495:97,1,140,0|0,1:2|1:0,0:0:0:0:
503,194,203736,5,8,0:0:0:0:
422,183,203829,1,8,0:0:0:0:
341,171,203923,1,8,0:0:0:0:
260,162,204017,1,8,0:0:0:0:
258,176,204111,6,0,B|239:144|239:144|110:118|110:118|39:155,1,210.000008010865,6|8,1:2|0:0,0:0:0:0:
107,231,204392,2,0,B|117:247|117:247|184:259|184:259|221:232,1,105.000004005432,2|0,0:0|1:0,0:0:0:0:
180,40,204579,1,0,1:0:0:0:
185,48,204673,2,0,L|173:153,1,105.000004005432,10|0,0:0|0:0,0:0:0:0:
306,265,204861,6,0,B|381:254|381:254|428:266|428:266|519:253,1,210.000008010865,2|8,1:2|0:0,0:0:0:0:
353,163,205142,2,0,B|393:160|393:160|428:170|428:170|486:167,1,105.000004005432,0|2,1:0|0:0,0:0:0:0:
375,350,205329,1,0,1:0:0:0:
364,352,205423,2,0,L|246:371,1,105.000004005432,10|0,0:0|0:0,0:0:0:0:
84,363,205611,6,0,B|65:349|65:349|58:287|58:287|64:265|64:265|46:118,1,210.000008010865,6|8,1:0|0:0,0:0:0:0:
170,149,205892,2,0,B|152:171|152:171|162:277,1,105.000004005432,2|0,0:0|1:0,0:0:0:0:
36,74,206079,1,0,1:0:0:0:
31,64,206173,2,0,B|38:52|38:52|112:52|112:52|138:84,1,105.000004005432,10|0,0:0|0:0,0:0:0:0:
424,56,206361,6,0,B|441:56|441:56|430:41|430:41|360:40|360:40|345:50|345:50|256:50,2,210.000008010865,2|8|0,1:2|0:0|1:0,0:0:0:0:
471,181,206829,1,0,1:0:0:0:
483,169,206923,2,0,B|460:156|460:156|360:159,1,105.000004005432,8|0,0:0|0:0,0:0:0:0:
303,282,207111,5,4,1:2:0:0:
307,271,207204,2,0,L|475:260,1,105.000004005432,0|8,1:2|0:0,0:0:0:0:
402,357,207392,1,0,1:2:0:0:
410,350,207486,5,0,1:2:0:0:
379,356,207579,1,0,1:2:0:0:
352,364,207673,1,8,0:0:0:0:
324,369,207767,1,0,1:2:0:0:
237,366,207861,5,0,1:2:0:0:
233,354,207954,2,0,B|206:327|206:327|100:317,1,105.000004005432,0|8,1:2|0:0,0:0:0:0:
125,321,208142,1,0,1:2:0:0:
79,251,208236,5,0,1:2:0:0:
73,243,208329,2,0,B|103:228|103:228|198:216,1,105.000004005432,0|8,1:2|0:0,0:0:0:0:
182,227,208517,1,0,1:2:0:0:
240,160,208611,5,0,1:2:0:0:
246,149,208704,2,0,L|393:136,1,105.000004005432,0|8,1:2|0:0,0:0:0:0:
348,58,208892,1,0,1:2:0:0:
351,45,208986,5,0,1:2:0:0:
317,34,209079,1,0,1:2:0:0:
281,29,209173,1,8,0:0:0:0:
245,22,209267,1,0,1:2:0:0:
183,76,209361,5,0,1:2:0:0:
177,89,209454,2,0,B|159:95|159:95|89:85|89:85|75:61,1,105.000004005432,0|8,1:2|0:0,0:0:0:0:
54,188,209642,1,0,1:2:0:0:
51,174,209736,5,8,0:0:0:0:
135,181,209829,1,8,0:0:0:0:
217,191,209923,1,8,0:0:0:0:
298,198,210017,1,8,0:0:0:0:
301,207,210111,5,4,1:2:0:0:
289,209,213111,5,2,0:0:0:0:
289,202,216111,5,8,0:0:0:0:
213,189,216204,1,8,0:0:0:0:
136,176,216298,1,8,0:0:0:0:
59,162,216392,1,8,0:0:0:0:
