osu file format v14

[General]
AudioFilename: audio.mp3
AudioLeadIn: 0
PreviewTime: 51330
Countdown: 0
SampleSet: Soft
StackLeniency: 0.3
Mode: 0
LetterboxInBreaks: 0
WidescreenStoryboard: 1

[Editor]
Bookmarks: 12424,21424,30424,39424,52924,64924,76924,88924
DistanceSpacing: 1
BeatDivisor: 4
GridSize: 32
TimelineZoom: 1.7

[Metadata]
Title:Gareki no Yume
TitleUnicode:瓦礫の夢
Artist:Denkishiki Karen Ongaku Shuudan
ArtistUnicode:電気式華憐音楽集団
Creator:Celektus
Version:Normal
Source:サクラノモリ†ドリーマーズ
Tags:Sakura no Mori Dreamers moonstone eroge visual novel game opening tv size op denkare lewski lewdski shanipika bor pyroflayer imbor borborygmos _83 102335 MeatInspector HalfsIashed Mirash
BeatmapID:1712156
BeatmapSetID:814924

[Difficulty]
HPDrainRate:3
CircleSize:2
OverallDifficulty:4
ApproachRate:5
SliderMultiplier:1.1
SliderTickRate:2

[Events]
//Background and Video events
0,0,"wqd9Xpa.jpg",0,0
Video,-730,"vid.mp4"
//Break Periods
//Storyboard Layer 0 (Background)
//Storyboard Layer 1 (Fail)
//Storyboard Layer 2 (Pass)
//Storyboard Layer 3 (Foreground)
//Storyboard Sound Samples

[TimingPoints]
414,375,4,2,1,25,1,0
6414,-100,4,2,1,75,0,0
12414,-100,4,2,1,75,0,0
21414,-100,4,2,1,75,0,0
21507,-100,4,2,1,45,0,0
30414,-100,4,2,1,70,0,0
33414,-100,4,2,1,45,0,0
36414,-100,4,2,1,70,0,0
41382,-100,4,2,1,70,0,0
41664,-100,4,2,1,70,0,0
44382,-100,4,2,1,70,0,0
44664,-100,4,2,1,70,0,0
45414,-100,4,2,1,70,0,0
47382,-100,4,2,1,70,0,0
47664,-100,4,2,1,70,0,0
51414,-100,4,2,1,70,0,0
51695,-100,4,2,1,70,0,0
51976,-100,4,2,1,70,0,0
52914,-100,4,2,1,80,0,1
53289,-100,4,2,1,80,0,0
55914,-100,4,2,1,80,0,1
56289,-100,4,2,1,80,0,0
58914,-100,4,2,1,80,0,1
59289,-100,4,2,1,80,0,0
60414,-100,4,2,1,80,0,1
60789,-100,4,2,1,80,0,0
61914,-100,4,2,1,80,0,1
62289,-100,4,2,1,80,0,0
62664,-100,4,2,1,70,0,0
63414,-100,4,2,1,70,0,0
64164,-100,4,2,1,70,0,0
64914,-100,4,2,1,70,0,1
73914,-100,4,2,1,70,0,1
75414,-100,4,2,1,70,0,0
76914,-100,4,2,1,70,0,0
88914,-100,4,2,1,70,0,0
96120,-100,4,2,1,70,0,0

[Colours]
Combo1 : 17,254,176
Combo2 : 173,255,95
Combo3 : 255,88,100
Combo4 : 255,94,55

[HitObjects]
256,192,414,5,2,0:2:0:0:
256,192,1164,2,0,P|309:204|364:211,1,110,0|0,0:0|0:0,0:0:0:0:
415,114,1914,2,0,B|224:113|289:53|93:57,1,330,2|2,0:2|0:2,0:0:0:0:
6,123,3414,5,2,0:2:0:0:
6,123,4164,2,0,P|21:175|43:226,1,110,0|0,0:0|0:0,0:0:0:0:
153,222,4914,2,0,B|345:223|280:283|476:279,1,330,2|2,0:2|0:2,0:0:0:0:
498,171,6414,6,0,L|505:253,2,82.5,6|6|6,3:2|3:2|0:2,0:0:0:0:
443,161,7164,2,0,L|360:168,2,82.5,0|2|2,1:0|3:3|3:3,0:0:0:0:
453,106,7914,2,0,L|445:23,2,82.5,6|4|4,3:2|1:3|1:3,0:0:0:0:
508,116,8664,5,6,1:1:0:0:
445,206,9039,1,0,1:0:0:0:
335,200,9414,6,0,L|342:282,2,82.5,6|6|6,3:2|3:2|3:2,0:0:0:0:
286,174,10164,2,0,L|293:91,2,82.5,0|2|0,1:3|3:3|1:3,0:0:0:0:
237,200,10914,2,0,L|244:282,2,82.5,6|4|4,3:2|1:3|1:3,0:0:0:0:
188,174,11664,5,6,1:1:0:0:
79,193,12039,2,0,P|67:219|60:245,1,55,0|0,1:0|1:0,0:0:0:0:
54,300,12414,6,0,L|136:307,1,82.5,6|2,3:2|1:2,0:0:0:0:
184,374,12976,1,2,3:2:0:0:
287,335,13351,2,0,L|282:280,2,55,2|2|2,3:2|3:2|3:2,0:0:0:0:
340,321,13914,6,0,P|420:320|481:266,1,165,4|2,3:1|1:2,0:0:0:0:
493,157,14851,2,0,L|497:102,2,55,0|2|4,3:0|1:2|1:3,0:0:0:0:
440,143,15414,6,0,P|359:142|298:88,1,165,4|2,3:1|1:2,0:0:0:0:
191,115,16351,2,0,L|195:169,2,55,8|6|4,3:3|1:2|1:2,0:0:0:0:
151,76,16914,6,0,L|68:83,1,82.5,6|2,3:2|1:2,0:0:0:0:
21,150,17476,1,2,3:2:0:0:
60,252,17851,2,0,L|114:247,2,55,2|2|2,3:2|3:2|3:2,0:0:0:0:
48,306,18414,6,0,P|108:359|189:361,1,165,4|2,3:1|1:2,0:0:0:0:
241,264,19351,2,0,L|295:269,2,55,0|4|0,3:0|1:2|0:0,0:0:0:0:
229,210,19914,6,0,P|289:156|370:154,1,165,4|2,3:1|1:2,0:0:0:0:
405,257,20851,1,0,3:0:0:0:
405,257,21039,1,4,1:2:0:0:
405,257,21226,1,0,0:0:0:0:
405,257,21414,5,4,0:1:0:0:
256,192,21507,12,4,27414,3:2:0:0:
201,197,28164,6,0,L|310:187,4,110,0|8|0|0|2,0:0|0:3|0:0|0:0|0:3,0:0:0:0:
29,59,30414,6,0,P|76:83|122:57,1,110,4|0,3:1|3:0,0:0:0:0:
204,67,31070,2,0,P|237:89|277:85,1,82.5,0|0,3:3|3:0,0:0:0:0:
277,85,32101,2,0,P|301:147|362:173,1,137.5,0|0,3:0|3:3,0:0:0:0:
444,159,32851,1,0,3:0:0:0:
444,159,33414,5,4,0:2:0:0:
242,246,34164,1,0,0:0:0:0:
215,352,34539,2,0,L|105:342,3,110,0|2|0|0,0:0|0:3|0:3|3:0,0:0:0:0:
4,147,36414,6,0,P|51:122|97:148,1,110,4|0,3:1|3:0,0:0:0:0:
179,139,37070,2,0,P|212:116|252:120,1,82.5,0|0,3:0|3:0,0:0:0:0:
253,121,38101,2,0,P|277:58|338:32,1,137.5,0|0,3:0|3:0,0:0:0:0:
419,47,38851,1,0,3:0:0:0:
466,205,39414,6,0,P|406:155|338:193,3,165,4|0|0|4,3:2|3:0|1:0|0:3,0:0:0:0:
305,354,41664,2,0,L|195:344,1,110,6|0,0:2|0:0,0:0:0:0:
127,258,42414,6,0,P|59:295|0:245,3,165,4|0|0|4,3:2|3:1|1:0|0:3,0:0:0:0:
20,82,44664,2,0,L|129:72,1,110,6|0,0:2|0:0,0:0:0:0:
239,62,45414,6,0,P|306:25|366:74,3,165,4|0|0|4,3:2|3:0|1:1|0:3,0:0:0:0:
403,236,47664,2,0,L|512:226,2,110,6|0|6,0:2|1:0|3:2,0:0:0:0:
296,362,48976,5,6,3:2:0:0:
144,300,49539,1,6,3:2:0:0:
155,136,50101,1,6,3:2:0:0:
314,96,50664,1,6,3:2:0:0:
314,96,51414,6,0,B|370:99|370:99|383:101|393:114,2,82.5,6|6|6,3:2|3:2|3:2,0:0:0:0:
263,117,52164,1,6,3:2:0:0:
81,241,52914,6,0,B|75:185|75:185|55:167,2,82.5,6|0|0,3:2|3:0|0:0,0:0:0:0:
133,337,53851,2,0,L|79:332,2,55,0|0|6,1:0|3:0|0:3,0:0:0:0:
178,305,54414,2,0,B|184:249|184:249|204:231,2,82.5,0|0|0,3:0|3:2|3:2,0:0:0:0:
269,366,55351,1,0,1:0:0:0:
269,366,55539,1,8,0:3:0:0:
377,350,55914,6,0,B|433:355|433:355|454:339,2,82.5,0|0|0,3:0|3:2|3:0,0:0:0:0:
371,240,56851,2,0,L|317:235,2,55,0|0|6,1:0|3:0|0:3,0:0:0:0:
413,204,57414,2,0,L|403:94,1,110,0|0,1:0|1:0,0:0:0:0:
372,49,57976,2,0,L|481:39,2,110,0|0|0,3:0|1:0|1:0,0:0:0:0:
322,72,58914,6,0,B|316:16|316:16|296:-2,2,82.5,4|0|0,3:2|3:2|3:2,0:0:0:0:
234,138,59851,1,2,1:3:0:0:
234,138,60039,1,0,3:2:0:0:
124,133,60414,2,0,B|130:77|130:77|150:59,2,82.5,4|0|0,3:2|3:2|3:0,0:0:0:0:
55,219,61351,2,0,L|1:224,2,55,0|0|6,1:0|3:0|0:3,0:0:0:0:
79,268,61914,6,0,B|134:272|134:272|184:293,1,110,6|0,3:2|1:0,0:0:0:0:
264,369,62664,2,0,B|284:317|284:317|320:276,1,110,6|0,3:2|1:0,0:0:0:0:
417,224,63414,2,0,B|374:188|374:188|346:142,1,110,6|0,3:2|1:0,0:0:0:0:
326,33,64164,2,0,B|279:62|279:62|226:74,1,110,6|0,3:2|1:0,0:0:0:0:
116,60,64914,6,0,B|59:54|59:54|38:70,2,82.5,4|0|0,3:2|0:0|1:3,0:0:0:0:
125,169,65851,1,0,1:3:0:0:
125,169,66039,1,0,0:3:0:0:
125,169,66226,1,2,3:3:0:0:
125,169,66414,6,0,B|182:163|182:163|203:179,2,82.5,0|0|4,3:3|0:0|1:2,0:0:0:0:
66,262,67351,1,0,1:3:0:0:
66,262,67539,1,0,3:0:0:0:
167,304,67914,6,0,B|161:361|161:361|177:382,2,82.5,4|0|0,3:2|0:3|1:3,0:0:0:0:
276,310,68851,1,0,1:3:0:0:
276,310,69039,1,0,0:3:0:0:
276,310,69226,1,0,1:3:0:0:
276,310,69414,6,0,B|270:253|270:253|286:232,2,82.5,4|0|0,3:2|0:0|1:3,0:0:0:0:
440,297,70539,1,0,0:3:0:0:
440,297,70726,1,0,1:3:0:0:
440,297,70914,6,0,B|446:354|446:354|430:375,2,82.5,4|0|0,3:2|0:3|0:3,0:0:0:0:
392,197,71851,1,0,1:3:0:0:
392,197,72038,1,0,2:0:0:0:
427,92,72414,6,0,B|484:98|484:98|505:82,2,82.5,0|0|0,2:3|2:0|1:3,0:0:0:0:
337,27,73351,1,0,1:0:0:0:
337,27,73539,1,8,0:3:0:0:
337,27,73726,1,8,0:3:0:0:
336,26,73914,6,0,P|203:106|347:165,1,385,0|2,3:0|3:2,0:0:0:0:
380,121,75414,6,0,L|462:128,2,82.5,2|2|2,3:2|3:2|1:2,0:0:0:0:
367,67,76164,1,2,3:2:0:0:
168,162,76914,6,0,P|136:137|98:122,2,82.5,6|0|0,3:2|3:0|3:0,0:0:0:0:
162,217,77664,2,0,P|123:232|91:257,2,82.5,4|0|0,3:2|3:2|3:0,0:0:0:0:
205,250,78414,2,0,P|199:290|204:331,2,82.5,4|0|0,3:2|3:2|3:0,0:0:0:0:
255,229,79164,5,0,3:0:0:0:
315,320,79539,2,0,L|369:324,1,55,0|0,1:2|1:0,0:0:0:0:
411,359,79914,6,0,P|439:281|493:220,1,165,6|4,3:2|3:3,0:0:0:0:
461,175,80664,1,2,3:2:0:0:
511,77,81039,1,2,1:2:0:0:
414,38,81414,6,0,P|386:115|332:176,1,165,6|4,3:2|3:3,0:0:0:0:
365,222,82164,1,2,3:2:0:0:
315,320,82539,1,2,1:2:0:0:
205,302,82914,6,0,P|192:340|165:371,2,82.5,4|0|0,3:2|3:0|1:2,0:0:0:0:
158,273,83664,2,0,P|121:291|80:294,2,82.5,2|0|0,3:1|3:0|1:2,0:0:0:0:
144,218,84414,2,0,P|105:204|74:177,2,82.5,0|0|0,3:2|3:2|1:2,0:0:0:0:
181,165,85164,5,0,3:2:0:0:
170,55,85539,2,0,L|224:50,1,55,0|0,3:0|1:0,0:0:0:0:
267,16,85914,6,0,P|294:93|348:154,1,165,6|4,3:2|3:3,0:0:0:0:
316,200,86664,1,2,3:2:0:0:
366,298,87039,1,2,1:2:0:0:
269,337,87414,6,0,P|241:259|187:198,1,165,2|4,3:2|3:3,0:0:0:0:
220,153,88164,1,2,3:2:0:0:
169,55,88539,6,0,P|222:42|274:58,1,110,2|6,1:2|1:2,0:0:0:0:
256,192,89007,12,0,94914,1:0:0:0:
