osu file format v14

[General]
AudioFilename: audio.mp3
AudioLeadIn: 0
PreviewTime: 54264
Countdown: 0
SampleSet: Soft
StackLeniency: 0.7
Mode: 2
LetterboxInBreaks: 0
WidescreenStoryboard: 0

[Editor]
Bookmarks: 12180,18180,27180,33180,45180,58680,70680,82680,94680
DistanceSpacing: 1.4
BeatDivisor: 8
GridSize: 4
TimelineZoom: 2.5

[Metadata]
Title:Gareki no Yume
TitleUnicode:瓦礫の夢
Artist:Denkishiki Karen Ongaku Shuudan
ArtistUnicode:電気式華憐音楽集団
Creator:-Luminate
Version:Sinnoh's Overdose
Source:サクラノモリ†ドリーマーズ
Tags:Sakura no Mori Dreamers moonstone eroge visual novel game opening tv size op denkare vn japanese video game denkare metal rock jrock j-rock sinnoh dust idu5t du5t
BeatmapID:2975904
BeatmapSetID:1447060

[Difficulty]
HPDrainRate:6
CircleSize:4
OverallDifficulty:9.6
ApproachRate:9.6
SliderMultiplier:2.8
SliderTickRate:0.5

[Events]
//Background and Video events
0,0,"bg.jpg",0,0
//Break Periods
//Storyboard Layer 0 (Background)
//Storyboard Layer 1 (Fail)
//Storyboard Layer 2 (Pass)
//Storyboard Layer 3 (Foreground)
//Storyboard Layer 4 (Overlay)
//Storyboard Sound Samples

[TimingPoints]
2139,375,4,2,2,30,1,0
7764,-100,4,2,0,70,0,0
29139,-100,4,2,0,40,0,0
32139,-100,4,2,0,60,0,0
35139,-100,4,2,0,40,0,0
38139,-100,4,2,0,60,0,0
41701,-100,4,2,0,60,0,0
42264,-100,4,2,0,50,0,0
42826,-100,4,2,0,70,0,0
44139,-100,4,2,0,50,0,0
44701,-100,4,2,0,60,0,0
45264,-100,4,2,0,50,0,0
45826,-100,4,2,0,70,0,0
46389,-100,4,2,0,50,0,0
47139,-100,4,2,0,50,0,0
47701,-100,4,2,0,60,0,0
48264,-100,4,2,0,50,0,0
48826,-100,4,2,0,70,0,0
49389,-100,4,2,0,60,0,0
50701,-100,4,2,0,70,0,0
51264,-100,4,2,0,80,0,0
51826,-100,4,2,0,90,0,0
52389,-100,4,2,0,60,0,0
53701,-100,4,2,0,70,0,0
54639,-100,4,2,0,70,0,1
61951,-100,4,2,0,70,0,1
62139,-100,4,2,0,70,0,1
64389,-100,4,2,0,70,0,1
65889,-100,4,2,0,80,0,1
66639,-100,4,2,0,80,0,1
78639,-100,4,2,0,70,0,0
78920,-100,4,2,0,70,0,0
79201,-100,4,2,0,70,0,0
79670,-100,4,2,0,70,0,0
79951,-100,4,2,0,70,0,0
80420,-100,4,2,0,70,0,0
80701,-100,4,2,0,70,0,0
84639,-100,4,2,0,70,0,0
90732,-100,4,2,0,30,0,0
92139,-100,4,2,0,20,0,0
93639,-100,4,2,0,10,0,0
95139,-100,4,2,0,5,0,0
96639,-100,4,2,0,80,0,0

[Colours]
Combo1 : 85,170,255
Combo2 : 192,192,192

[HitObjects]
376,256,8139,6,0,L|380:80,1,140,4|0,1:2|0:0,0:0:0:0:
216,108,8420,2,0,L|40:104,1,140,4|0,0:3|0:0,0:0:0:0:
228,228,8701,2,0,L|308:228,1,70,4|0,0:3|0:0,0:0:0:0:
120,156,8889,1,0,1:0:0:0:
288,272,8982,2,0,L|284:136,1,70,0|0,1:0|0:0,0:0:0:0:
76,76,9170,2,0,L|224:72,1,140,4|0,0:3|0:0,0:0:0:0:
388,144,9451,1,4,0:3:0:0:
216,156,9545,1,4,0:3:0:0:
406,278,9639,6,0,L|414:118,1,140,4|0,1:2|0:0,0:0:0:0:
237,242,9920,2,0,L|237:82,1,140,4|0,0:3|0:0,0:0:0:0:
56,204,10201,2,0,L|48:108,1,70,4|0,0:3|0:0,0:0:0:0:
284,88,10389,2,0,L|448:88,1,140,2|4,1:0|0:3,0:0:0:0:
344,200,10670,1,4,0:3:0:0:
131,185,10764,2,0,L|56:170,1,46.6666666666667,0|0,1:0|1:0,1:0:0:0:
304,189,10889,2,0,L|379:204,1,46.6666666666667,0|0,1:0|1:0,1:0:0:0:
131,185,11014,2,0,L|56:170,1,46.6666666666667,0|0,1:0|1:0,1:0:0:0:
312,288,11139,6,0,L|488:296,1,140,4|0,1:2|0:0,0:0:0:0:
288,202,11420,2,0,L|112:194,1,140,4|0,0:3|0:0,0:0:0:0:
326,179,11701,2,0,L|326:75,1,70,4|0,0:3|0:0,0:0:0:0:
157,73,11889,1,0,1:0:0:0:
348,64,11982,2,0,L|200:56,1,140,0|4,1:0|0:3,0:0:0:0:
372,260,12264,2,0,L|368:112,1,140,4|4,0:3|0:3,0:0:0:0:
192,116,12545,1,4,0:3:0:0:
348,64,12639,6,0,L|492:60,1,140,4|0,1:2|0:0,0:0:0:0:
280,196,12920,2,0,L|280:24,1,140,4|0,0:3|0:0,0:0:0:0:
108,84,13201,2,0,L|24:72,1,70,4|0,0:3|0:0,0:0:0:0:
360,280,13389,2,0,L|362:123,1,140,4|4,1:2|0:3,0:0:0:0:
293,120,13670,1,4,0:3:0:0:
119,183,13764,2,0,L|44:168,1,46.6666666666667,0|0,1:0|1:0,1:0:0:0:
292,187,13889,2,0,L|367:202,1,46.6666666666667,0|0,1:0|1:0,1:0:0:0:
119,183,14014,2,0,L|44:168,1,46.6666666666667,0|0,1:0|1:0,1:0:0:0:
277,335,14139,5,4,1:2:0:0:
341,293,14232,2,0,L|333:197,1,70,0|4,1:0|0:3,0:0:0:0:
147,246,14420,2,0,L|140:118,1,70,0|4,1:0|0:3,0:0:0:0:
328,146,14607,2,0,L|411:140,1,70,0|4,1:0|0:3,0:0:0:0:
225,97,14795,2,0,L|146:88,1,70,0|4,1:0|0:3,0:0:0:0:
378,290,14982,2,0,L|386:200,1,70,0|4,1:0|0:3,0:0:0:0:
229,188,15170,2,0,L|225:82,1,70,0|4,1:0|0:3,0:0:0:0:
32,156,15357,2,0,L|21:35,1,70,0|4,1:0|0:3,0:0:0:0:
95,58,15545,1,0,0:0:0:0:
253,281,15639,6,4,L|353:275,1,70,4|4,0:3|0:3,0:3:0:0:
154,194,15826,2,4,L|254:188,1,70,4|4,0:3|0:3,0:3:0:0:
70,96,16014,2,4,L|170:90,1,70,4|4,0:3|0:3,0:3:0:0:
433,194,16201,2,0,L|167:176,1,210,0|0,1:0|0:0,0:0:0:0:
427,264,16576,2,4,L|428:154,1,70,4|4,0:3|0:3,0:3:0:0:
201,231,16764,2,0,L|194:104,1,70,0|0,1:0|0:0,0:0:0:0:
404,171,16951,2,0,L|406:77,1,70,4|0,0:3|0:0,0:0:0:0:
188,272,17139,6,4,L|88:266,1,70,4|4,0:3|0:3,0:3:0:0:
287,185,17326,2,4,L|187:179,1,70,4|4,0:3|0:3,0:3:0:0:
371,87,17514,2,4,L|271:81,1,70,4|4,0:3|0:3,0:3:0:0:
74,234,17701,2,0,P|56:153|165:100,1,210,0|0,1:0|0:0,0:0:0:0:
230,157,18076,2,8,L|133:162,1,70,8|8,0:3|0:3,0:3:0:0:
371,273,18264,2,0,L|368:167,1,70,4|0,0:3|0:0,0:0:0:0:
196,112,18451,1,0,1:0:0:0:
40,66,18545,1,0,1:0:0:0:
215,267,18639,5,4,1:2:0:0:
285,242,18732,2,0,L|288:171,1,70,0|4,1:0|0:3,0:0:0:0:
113,104,18920,2,0,L|25:88,1,70,0|4,1:0|0:3,0:0:0:0:
201,116,19107,2,0,L|305:100,1,70,0|4,1:0|0:3,0:0:0:0:
424,216,19295,2,0,L|416:112,1,70,0|4,1:0|0:3,0:0:0:0:
150,240,19482,2,0,L|143:163,1,70,0|4,1:0|0:3,0:0:0:0:
305,144,19670,2,0,L|309:48,1,70,0|4,1:0|0:3,0:0:0:0:
472,136,19857,2,0,L|480:48,1,70,0|4,1:0|0:3,0:0:0:0:
404,44,20045,1,0,1:3:0:0:
252,212,20139,6,4,L|156:204,1,70,4|4,0:3|0:3,0:3:0:0:
360,116,20326,2,4,L|276:108,1,70,4|4,0:3|0:3,0:3:0:0:
464,248,20514,2,4,L|380:240,1,70,4|4,0:3|0:3,0:3:0:0:
109,266,20701,2,0,P|102:189|258:115,1,210,0|0,1:0|0:0,0:0:0:0:
366,237,21076,2,4,L|375:130,1,70,4|4,0:3|0:3,0:3:0:0:
204,229,21264,2,0,L|206:132,1,70,0|0,1:0|0:0,0:0:0:0:
379,295,21451,2,0,L|382:200,1,70,4|0,0:3|0:0,0:0:0:0:
195,252,21639,6,4,L|264:240,1,70,4|4,0:3|0:3,0:3:0:0:
108,166,21826,2,4,L|177:154,1,70,4|4,0:3|0:3,0:3:0:0:
23,74,22014,2,4,L|92:62,1,70,4|4,0:3|0:3,0:3:0:0:
262,279,22201,2,0,P|358:236|345:121,1,210,0|0,1:0|0:0,0:0:0:0:
170,108,22576,2,4,L|79:85,1,70,4|4,0:3|0:3,0:3:0:0:
347,106,22764,2,0,L|406:100,1,46.6666666666667,0|0,1:0|1:0,1:0:0:0:
206,242,22889,2,0,L|147:248,1,46.6666666666667,0|0,1:0|1:0,1:0:0:0:
347,106,23014,2,0,L|406:100,1,46.6666666666667,0|0,1:0|1:0,1:0:0:0:
129,306,23139,1,4,1:0:0:0:
256,192,23326,12,4,26139,0:0:0:0:
368,194,29139,5,4,0:2:0:0:
140,342,29889,2,0,P|120:168|175:15,1,280,2|0,0:0|0:0,0:0:0:0:
364,316,30639,2,0,L|363:-7,1,280,2|0,0:0|0:0,0:0:0:0:
126,198,31389,1,2,0:0:0:0:
250,55,31576,1,4,0:3:0:0:
113,64,31764,2,0,L|113:204,1,140,0|4,0:0|0:3,0:0:0:0:
388,242,32139,6,0,L|475:223,1,70,4|0,1:2|0:0,0:0:0:0:
245,193,32326,2,0,L|167:211,1,70,4|4,0:3|0:3,0:0:0:0:
379,151,32514,1,4,0:3:0:0:
197,297,32607,2,0,L|197:135,1,140,4|4,0:3|0:3,0:0:0:0:
379,85,32889,2,4,L|217:65,1,140,4|4,0:3|0:3,0:3:0:0:
62,326,33170,2,0,L|64:-29,1,350,4|0,0:3|0:0,0:0:0:0:
385,240,33826,6,4,L|372:134,1,70,4|4,0:3|0:3,0:3:0:0:
180,129,34014,1,4,0:3:0:0:
358,79,34107,2,4,L|515:54,1,140,4|4,0:3|0:3,0:3:0:0:
317,274,34389,6,4,L|140:299,1,140,4|4,0:3|0:3,0:3:0:0:
412,338,34670,2,0,L|411:-19,1,350,4|4,0:3|0:2,0:0:0:0:
159,288,35889,6,0,L|376:73,2,280,2|4|0,0:0|0:3|0:0,0:0:0:0:
370,339,37014,2,0,L|376:30,1,280,2|4,0:0|0:3,0:0:0:0:
219,146,37576,2,0,L|96:33,2,140,2|8|8,0:3|0:3|0:3,0:0:0:0:
475,212,38139,6,0,L|305:174,1,140,4|4,1:2|0:3,0:0:0:0:
176,99,38420,2,4,L|307:90,1,70,4|4,0:3|0:3,0:3:0:0:
61,260,38607,2,4,L|59:96,1,140,4|4,0:3|0:3,0:3:0:0:
269,255,38889,2,4,L|278:54,1,140,4|4,0:3|0:3,0:3:0:0:
59,187,39170,2,0,L|54:65,1,70
296,222,39639,5,0,0:0:0:0:
42,159,39826,2,4,L|130:147,1,70,4|4,0:3|0:3,0:3:0:0:
308,206,40014,1,4,0:3:0:0:
102,262,40107,2,4,L|104:80,1,140,4|4,0:3|0:3,0:3:0:0:
284,102,40389,2,4,L|472:69,1,140,4|4,0:3|0:3,0:3:0:0:
239,216,40670,1,4,0:3:0:0:
402,235,40764,2,8,L|443:195,2,46.6666666666667,8|8|8,0:3|0:3|0:3,0:3:0:0:
236,299,40951,1,0,1:0:0:0:
159,172,41139,5,4,0:3:0:0:
228,162,41232,1,4,0:3:0:0:
297,153,41326,1,4,0:3:0:0:
367,143,41420,1,4,0:3:0:0:
380,209,41701,5,4,0:3:0:0:
292,196,41795,1,4,0:3:0:0:
203,184,41889,1,4,0:3:0:0:
114,171,41982,1,4,0:3:0:0:
114,209,42264,5,0,1:0:0:0:
210,195,42357,1,0,1:0:0:0:
307,182,42451,1,0,1:0:0:0:
405,168,42545,1,0,1:0:0:0:
394,199,42826,5,4,0:3:0:0:
287,184,42920,1,4,0:3:0:0:
178,170,43014,1,4,0:3:0:0:
69,153,43107,1,4,0:3:0:0:
284,344,43389,6,0,P|416:200|296:44,1,420,4|0,1:0|0:0,0:0:0:0:
144,155,44139,5,4,0:3:0:0:
218,177,44232,1,4,0:3:0:0:
144,155,44326,1,4,0:3:0:0:
218,177,44420,1,4,0:3:0:0:
352,155,44701,5,4,0:3:0:0:
263,129,44795,1,4,0:3:0:0:
352,155,44889,1,4,0:3:0:0:
263,129,44982,1,4,0:3:0:0:
101,179,45264,5,0,1:0:0:0:
208,147,45357,1,0,1:0:0:0:
101,179,45451,1,0,1:0:0:0:
208,147,45545,1,0,1:0:0:0:
403,196,45826,5,4,0:3:0:0:
279,158,45920,1,4,0:3:0:0:
403,196,46014,1,4,0:3:0:0:
279,158,46107,1,4,0:3:0:0:
49,339,46389,6,0,P|49:143|260:1,1,420,4|0,1:0|0:0,0:0:0:0:
356,202,47139,5,4,0:3:0:0:
278,188,47232,1,4,0:3:0:0:
356,202,47326,1,4,0:3:0:0:
433,215,47420,1,4,0:3:0:0:
210,142,47701,5,4,0:3:0:0:
304,113,47795,1,4,0:3:0:0:
210,142,47889,1,4,0:3:0:0:
124,168,47982,1,4,0:3:0:0:
322,164,48264,5,0,1:0:0:0:
215,149,48357,1,0,1:0:0:0:
322,164,48451,1,0,1:0:0:0:
432,179,48545,1,0,1:0:0:0:
185,266,48826,5,4,0:3:0:0:
296,230,48920,1,4,0:3:0:0:
185,266,49014,1,4,0:3:0:0:
80,297,49107,1,4,0:3:0:0:
420,320,49389,6,0,P|448:240|367:137,1,210,4|0,1:0|0:0,0:0:0:0:
189,249,49764,5,0,1:0:0:0:
38,168,49857,1,0,1:0:0:0:
193,141,49951,1,0,1:0:0:0:
349,95,50045,1,0,1:0:0:0:
103,298,50139,5,4,0:3:0:0:
360,222,50701,1,4,0:3:0:0:
85,146,51264,1,4,0:3:0:0:
420,129,51826,1,4,0:3:0:0:
38,181,52389,5,4,1:0:0:0:
219,182,52576,1,4,0:3:0:0:
43,113,52764,1,4,0:3:0:0:
226,114,52951,1,4,0:3:0:0:
487,235,53139,6,0,L|488:34,1,140,4|0,1:2|0:0,0:0:0:0:
306,170,53420,2,0,L|134:136,1,140,4|0,0:3|0:0,0:0:0:0:
323,261,53701,2,0,L|431:279,1,70,0|0,1:0|0:0,0:0:0:0:
162,273,53889,2,0,P|162:173|209:141,1,140,0|0,1:0|1:0,0:0:0:0:
357,125,54170,1,0,1:0:0:0:
162,204,54264,6,0,L|76:191,1,70,0|0,1:0|1:0,1:0:0:0:
300,134,54451,2,0,L|186:123,1,70,0|0,1:0|1:0,1:0:0:0:
464,238,54639,6,0,L|274:208,1,140,4|0,1:0|0:0,0:0:0:0:
236,200,54920,1,6,0:3:0:0:
396,132,55014,2,0,L|392:56,1,70,0|0,1:0|0:0,0:0:0:0:
169,312,55201,1,6,0:3:0:0:
245,286,55295,2,4,L|404:267,1,140,4|4,0:3|0:3,0:3:0:0:
207,179,55576,2,0,L|110:158,1,70,2|0,1:3|0:0,0:0:0:0:
322,181,55764,2,4,L|327:97,1,70,6|4,0:3|0:3,0:3:0:0:
116,232,55951,2,0,L|205:220,1,70,6|0,0:3|0:0,0:0:0:0:
398,238,56139,5,4,1:2:0:0:
175,315,56232,2,0,L|176:150,1,140,4|6,0:3|0:3,0:0:0:0:
356,134,56514,2,0,L|443:106,1,70,0|0,1:0|0:0,0:0:0:0:
202,229,56701,1,4,0:3:0:0:
298,230,56795,2,0,L|300:86,1,140,4|4,0:3|0:3,0:0:0:0:
144,121,57076,2,0,L|35:91,1,70,2|0,1:3|0:0,0:0:0:0:
264,218,57264,2,0,L|313:231,1,46.6666666666667,0|8,1:0|0:3,1:0:0:0:
130,167,57389,2,8,L|81:154,1,46.6666666666667,8|8,0:3|0:3,0:3:0:0:
264,218,57514,2,8,L|313:231,1,46.6666666666667,8|8,0:3|0:3,0:3:0:0:
119,284,57639,6,0,L|51:247,1,70,4|0,1:2|0:0,0:0:0:0:
241,171,57826,1,2,0:0:0:0:
75,187,57920,2,0,L|85:77,1,70,4|0,0:3|1:0,0:0:0:0:
263,95,58107,1,2,0:0:0:0:
85,257,58201,2,0,L|255:259,1,140,2|0,0:0|0:0,0:0:0:0:
299,213,58482,1,4,0:3:0:0:
105,163,58576,2,0,L|22:143,1,70,2|0,1:3|0:0,0:0:0:0:
238,125,58764,2,0,L|239:40,1,70,6|0,0:3|0:3,0:3:0:0:
403,153,58951,2,0,L|492:159,1,70,2|4,1:3|0:3,0:0:0:0:
250,297,59139,5,4,1:2:0:0:
341,283,59232,2,0,L|338:124,1,140,0|4,0:0|0:3,0:0:0:0:
163,154,59514,2,0,L|22:88,1,140,0|4,1:0|0:3,0:0:0:0:
119,74,59795,2,0,L|274:128,1,140,4|4,0:3|0:3,0:0:0:0:
174,232,60076,2,0,L|80:209,1,70,0|0,1:0|0:0,0:0:0:0:
344,258,60264,2,4,L|341:135,1,70,6|4,0:3|0:3,0:3:0:0:
153,135,60451,1,2,1:3:0:0:
338,114,60545,1,0,1:0:0:0:
143,236,60639,6,0,L|-7:186,1,140,4|0,1:2|0:0,0:0:0:0:
222,288,60920,1,6,0:3:0:0:
302,266,61014,2,0,L|298:190,1,70,0|0,1:0|0:0,0:0:0:0:
127,103,61201,1,6,0:3:0:0:
209,108,61295,2,0,L|388:117,1,140,4|6,0:3|0:3,0:0:0:0:
177,280,61576,2,0,L|174:193,1,70,0|0,1:0|0:0,0:0:0:0:
269,193,61764,2,4,L|288:116,1,70,4|4,0:3|0:3,0:3:0:0:
114,113,61951,2,8,L|75:109,1,35,8|8,0:3|0:3,0:3:0:0:
247,70,62046,2,8,L|281:66,1,35,8|8,0:3|0:3,0:3:0:0:
75,235,62139,6,0,P|55:160|161:80,1,210,4|4,1:0|0:3,0:3:0:0:
326,208,62514,2,0,L|161:183,1,140,0|6,1:0|0:3,0:0:0:0:
108,138,62795,2,0,L|280:103,1,140,4|4,0:3|0:3,0:0:0:0:
431,256,63076,2,0,L|436:158,1,70,2|0,1:3|0:0,0:0:0:0:
226,225,63264,2,0,L|221:145,1,70,6|4,0:3|0:3,0:0:0:0:
400,114,63451,1,4,0:3:0:0:
218,108,63545,1,4,0:3:0:0:
428,298,63639,5,4,1:2:0:0:
351,284,63732,2,4,L|171:258,1,140,4|4,0:3|0:3,0:3:0:0:
406,183,64014,2,0,L|408:86,1,70,0|0,1:0|0:0,0:0:0:0:
200,119,64201,2,0,L|285:107,1,70,0|0,1:0|1:0,1:0:0:0:
72,258,64389,2,0,P|37:161|139:102,1,210,4|4,1:2|0:3,0:0:0:0:
307,194,64764,1,0,1:0:0:0:
225,175,64857,1,8,0:3:0:0:
143,156,64951,1,4,0:3:0:0:
62,137,65045,1,4,0:3:0:0:
263,303,65139,5,4,1:2:0:0:
347,275,65232,2,0,L|343:122,1,140,4|4,0:3|0:3,0:0:0:0:
137,124,65514,1,0,1:0:0:0:
262,100,65701,2,4,L|349:106,1,70,4|4,0:3|0:3,0:3:0:0:
132,297,65889,2,0,L|126:173,1,70,0|4,1:0|0:3,0:0:0:0:
315,246,66076,2,0,L|422:232,1,70,4|4,0:3|0:3,0:0:0:0:
218,106,66264,1,2,1:3:0:0:
56,139,66357,1,0,1:0:0:0:
218,106,66451,1,2,1:3:0:0:
381,145,66545,1,0,1:0:0:0:
218,106,66639,6,0,L|54:110,1,140,4|0,1:0|1:0,0:0:0:0:
281,297,66920,2,0,L|272:205,1,70,6|4,0:3|0:3,0:0:0:0:
186,208,67107,1,4,0:3:0:0:
338,119,67201,2,0,L|443:117,1,70,0|0,1:0|0:0,0:0:0:0:
201,301,67389,6,4,L|199:220,1,70,4|4,0:3|0:3,0:3:0:0:
395,197,67576,2,0,L|271:175,1,70,0|4,1:0|0:3,0:0:0:0:
149,132,67764,2,0,L|266:106,1,70,2|4,0:3|0:3,0:0:0:0:
44,260,67951,2,0,L|35:148,1,70,2|0,1:3|0:0,0:0:0:0:
246,176,68139,6,0,L|415:175,1,140,6|0,0:3|1:0,0:0:0:0:
217,333,68420,2,0,L|217:255,1,70,2|4,0:3|0:3,0:0:0:0:
302,225,68607,1,4,0:3:0:0:
124,230,68701,2,0,L|131:82,1,140,2|4,1:3|0:3,0:0:0:0:
220,83,68982,1,4,0:3:0:0:
46,167,69076,2,0,L|141:144,1,70,2|4,1:3|0:3,0:0:0:0:
295,220,69264,2,4,L|200:243,1,70,6|4,0:3|0:3,0:3:0:0:
64,271,69451,2,0,L|62:170,1,70,0|0,1:0|0:0,0:0:0:0:
285,223,69639,6,0,L|387:205,1,70,4|0,1:0|0:0,0:0:0:0:
167,153,69826,1,2,1:2:0:0:
356,169,69920,2,0,L|348:73,1,70,4|4,0:3|0:3,0:0:0:0:
159,99,70107,1,4,0:3:0:0:
322,61,70201,2,0,L|151:54,1,140,2|4,1:3|0:3,0:0:0:0:
104,53,70482,1,4,0:3:0:0:
268,256,70576,2,0,L|337:262,1,70,0|4,1:3|0:3,0:0:0:0:
136,256,70764,2,0,L|128:172,1,70,6|4,0:3|0:3,0:0:0:0:
320,148,70951,2,0,L|220:148,1,70,2|0,1:3|0:0,0:0:0:0:
449,249,71139,6,0,L|449:143,1,70,6|0,0:3|0:0,0:0:0:0:
245,265,71326,2,0,L|235:179,1,70,0|0,1:0|0:0,0:0:0:0:
39,148,71514,2,4,L|163:132,1,70,4|4,0:3|0:3,0:3:0:0:
300,125,71701,2,0,L|193:114,1,70,0|0,1:0|0:0,0:0:0:0:
166,218,71889,5,4,0:3:0:0:
239,209,71982,1,4,0:3:0:0:
67,235,72076,2,0,L|159:216,1,70,0|4,1:0|0:3,0:0:0:0:
360,104,72264,2,0,L|251:85,1,70,6|4,0:3|0:3,0:0:0:0:
58,150,72451,2,0,L|167:169,1,70,0|4,1:0|0:3,0:0:0:0:
407,195,72639,6,0,L|245:171,1,140,4|0,1:0|1:0,0:0:0:0:
424,101,72920,2,0,L|550:129,2,70,2|0|4,0:3|0:0|0:3,0:0:0:0:
264,300,73201,2,0,L|265:142,1,140,6|4,1:3|0:3,0:0:0:0:
345,136,73482,1,4,0:3:0:0:
167,101,73576,2,0,L|83:89,1,70,0|0,1:0|0:0,0:0:0:0:
274,269,73764,2,4,L|274:157,1,70,4|4,0:3|0:3,0:3:0:0:
86,159,73951,2,0,L|187:152,1,70,0|0,1:0|0:0,0:0:0:0:
462,199,74139,6,0,L|295:180,1,140,6|0,0:3|1:0,0:0:0:0:
155,224,74420,2,0,L|156:97,1,70,2|4,0:3|0:3,0:0:0:0:
248,111,74607,1,4,0:3:0:0:
82,261,74701,1,2,1:3:0:0:
22,213,74795,1,0,0:0:0:0:
61,130,74889,1,4,0:3:0:0:
153,124,74982,1,4,0:3:0:0:
369,172,75076,2,0,L|469:153,1,70,0|0,1:0|1:0,1:0:0:0:
242,166,75264,2,0,L|239:82,1,70,10|8,0:3|0:3,0:0:0:0:
65,167,75451,2,4,L|63:83,1,70,6|4,0:3|0:3,0:3:0:0:
265,273,75639,6,0,L|357:266,1,70,4|4,1:0|0:3,0:0:0:0:
261,184,75826,2,0,L|163:177,1,70,0|0,1:0|0:0,0:0:0:0:
409,178,76014,2,4,L|414:91,1,70,4|4,0:3|0:3,0:3:0:0:
177,241,76201,2,0,L|170:155,1,70,0|0,1:0|0:0,0:0:0:0:
391,61,76389,5,4,0:3:0:0:
307,55,76482,1,4,0:3:0:0:
223,49,76576,1,4,0:3:0:0:
139,44,76670,1,4,0:3:0:0:
339,248,76764,2,0,L|440:258,1,70,0|4,1:0|0:3,0:0:0:0:
201,159,76951,2,4,L|306:154,1,70,6|6,0:3|0:3,0:3:0:0:
90,97,77139,6,0,L|1:84,2,70,6|0|0,0:3|0:0|0:0,0:0:0:0:
264,216,77420,1,6,0:3:0:0:
93,210,77514,2,0,L|89:129,1,70,0|0,1:0|0:0,0:0:0:0:
257,88,77701,2,4,L|366:88,1,70,6|4,0:3|0:3,0:3:0:0:
124,314,77889,5,4,0:3:0:0:
90,255,77982,1,4,0:3:0:0:
116,193,78076,1,4,0:3:0:0:
181,175,78170,1,4,0:3:0:0:
382,232,78264,2,0,L|303:240,1,70,0|0,1:0|1:0,1:0:0:0:
482,98,78451,2,0,L|382:92,1,70,0|0,1:0|1:0,0:0:0:0:
182,244,78639,6,0,L|40:271,1,140,4|0,1:0|0:0,0:0:0:0:
232,280,78920,2,0,L|231:112,1,140,4|0,0:3|0:0,0:0:0:0:
43,71,79201,2,0,L|172:51,1,70,4|0,0:3|0:0,0:0:0:0:
422,228,79389,2,0,L|428:67,1,140,0|0,1:0|0:0,0:0:0:0:
227,223,79670,2,0,L|226:57,1,140,0|0,1:0|0:0,0:0:0:0:
40,147,79951,2,0,L|32:31,1,70,0|0,1:0|0:0,0:0:0:0:
291,201,80139,5,4,1:2:0:0:
132,208,80232,2,0,L|136:93,1,70,4|0,0:3|0:0,0:0:0:0:
291,83,80420,2,0,L|444:83,1,140,4|0,0:3|0:0,0:0:0:0:
249,231,80701,2,0,L|148:234,1,70,4|0,0:3|0:0,0:0:0:0:
377,269,80889,2,0,P|384:159|381:116,1,140,4|0,0:3|0:0,0:0:0:0:
307,100,81170,1,4,0:3:0:0:
110,147,81264,2,0,L|52:128,2,46.6666666666667,0|0|0,1:0|1:0|1:0,1:0:0:0:
244,178,81451,2,0,L|252:91,1,70,0|0,1:0|1:0,1:0:0:0:
432,221,81639,6,0,L|424:136,1,70,4|0,1:0|0:0,0:0:0:0:
225,255,81826,2,0,L|218:154,1,70,4|0,0:3|0:0,0:0:0:0:
400,145,82014,2,0,L|394:68,1,70,4|0,0:3|0:0,0:0:0:0:
214,113,82201,2,0,L|293:97,1,70,4|0,0:3|0:3,0:0:0:0:
85,236,82389,6,0,L|80:148,1,70,4|4,1:2|0:3,0:0:0:0:
286,183,82576,2,0,L|185:165,1,70,0|0,0:3|0:0,0:0:0:0:
434,238,82764,2,0,L|436:155,1,70,4|0,1:2|0:0,0:0:0:0:
357,142,82951,2,0,L|431:125,1,70,0|0,0:0|0:0,0:0:0:0:
240,237,83139,6,0,L|154:218,1,70,6|4,1:2|0:3,0:0:0:0:
246,137,83326,2,0,L|341:103,1,70,4|0,0:3|0:0,0:0:0:0:
89,136,83514,2,0,L|83:51,1,70,4|0,0:3|0:0,0:0:0:0:
265,169,83701,2,0,L|274:83,1,70,4|0,0:3|0:0,0:0:0:0:
83,75,83889,6,0,L|0:59,1,70,4|0,1:2|0:0,0:0:0:0:
183,244,84076,2,0,L|193:165,1,70,4|4,0:3|0:3,0:0:0:0:
385,136,84264,2,0,L|492:127,1,70,0|0,1:0|1:0,1:0:0:0:
222,80,84451,2,0,L|150:72,1,70,0|0,1:0|1:0,1:0:0:0:
439,308,84639,6,0,L|445:128,1,140,4|0,0:3|1:0,0:0:0:0:
257,203,84920,2,0,L|266:115,1,70,6|0,0:3|0:0,0:0:0:0:
353,112,85107,1,4,0:3:0:0:
142,106,85201,2,0,L|26:77,1,70,2|0,1:3|0:0,0:0:0:0:
290,205,85389,2,0,L|107:219,1,140,0|0,1:0|1:0,0:0:0:0:
345,259,85670,2,0,L|339:157,1,70,2|4,0:3|0:3,0:0:0:0:
271,170,85856,1,4,0:3:0:0:
448,140,85951,2,0,L|429:59,1,70,2|0,1:3|0:0,0:0:0:0:
187,134,86139,6,0,L|354:99,1,140,4|0,0:3|1:0,0:0:0:0:
113,234,86420,1,2,0:3:0:0:
128,154,86514,2,4,L|223:141,1,70,4|4,0:3|0:3,0:3:0:0:
382,109,86701,2,0,L|268:95,1,70,2|0,1:3|0:0,0:0:0:0:
86,237,86889,2,0,L|83:79,1,140,0|0,1:0|1:0,0:0:0:0:
165,95,87170,1,0,0:0:0:0:
337,205,87264,2,4,L|323:97,1,70,4|4,0:3|0:3,0:3:0:0:
137,132,87451,2,0,L|239:111,1,70,0|0,1:0|0:0,0:0:0:0:
470,124,87639,6,4,L|367:108,1,70,4|4,1:2|0:3,0:3:0:0:
209,292,87826,2,0,L|213:195,1,70,4|0,0:3|0:0,0:0:0:0:
384,229,88014,2,0,L|387:144,1,70,4|0,0:3|0:0,0:0:0:0:
228,162,88201,2,0,L|225:75,1,70,4|0,0:3|0:0,0:0:0:0:
69,90,88389,6,0,L|-26:47,1,70,4|0,1:2|0:0,0:0:0:0:
167,244,88576,2,0,L|170:154,1,70,4|0,0:3|0:0,0:0:0:0:
336,136,88764,2,0,L|412:125,1,70,4|0,1:2|0:0,0:0:0:0:
240,240,88951,2,0,L|234:167,1,70,4|0,0:3|0:0,0:0:0:0:
448,246,89139,5,4,1:3:0:0:
472,182,89232,1,4,0:3:0:0:
441,122,89326,1,0,1:0:0:0:
375,106,89420,1,0,0:3:0:0:
208,194,89514,2,4,L|218:116,1,70,4|4,0:3|0:3,0:3:0:0:
294,77,89701,2,0,L|391:83,1,70,0|0,1:0|0:0,0:0:0:0:
154,243,89889,6,0,L|164:147,1,70,4|0,1:2|0:0,0:0:0:0:
329,156,90076,2,0,L|413:143,1,70,4|0,0:3|0:0,0:0:0:0:
192,77,90264,1,0,1:0:0:0:
29,39,90357,1,0,1:0:0:0:
192,77,90451,1,0,1:0:0:0:
356,195,90545,1,0,1:0:0:0:
110,262,90639,5,4,1:0:0:0:
256,192,90826,12,0,96451,0:0:0:0:
357,190,96639,5,0,1:0:0:0:
266,184,96733,1,0,1:0:0:0:
175,178,96826,1,0,1:0:0:0:
84,172,96920,1,0,1:0:0:0:
