osu file format v14

[General]
AudioFilename: audio.mp3
AudioLeadIn: 0
PreviewTime: 54264
Countdown: 0
SampleSet: Soft
StackLeniency: 0.7
Mode: 2
LetterboxInBreaks: 0
WidescreenStoryboard: 1

[Editor]
Bookmarks: 30991
DistanceSpacing: 1.3
BeatDivisor: 4
GridSize: 8
TimelineZoom: 2.1

[Metadata]
Title:Gareki no Yume
TitleUnicode:瓦礫の夢
Artist:Denkishiki Karen Ongaku Shuudan
ArtistUnicode:電気式華憐音楽集団
Creator:-Luminate
Version:Salad
Source:サクラノモリ†ドリーマーズ
Tags:Sakura no Mori Dreamers moonstone eroge visual novel game opening tv size op denkare vn japanese video game denkare metal rock jrock j-rock sinnoh dust idu5t du5t
BeatmapID:2980843
BeatmapSetID:1447060

[Difficulty]
HPDrainRate:3
CircleSize:3
OverallDifficulty:7.2
ApproachRate:7.2
SliderMultiplier:1
SliderTickRate:1

[Events]
//Background and Video events
0,0,"bg.jpg",0,0
//Break Periods
2,26339,28269
//Storyboard Layer 0 (Background)
//Storyboard Layer 1 (Fail)
//Storyboard Layer 2 (Pass)
//Storyboard Layer 3 (Foreground)
//Storyboard Layer 4 (Overlay)
//Storyboard Sound Samples

[TimingPoints]
2139,375,4,2,2,30,1,0
7764,-100,4,2,0,70,0,0
8139,-50,4,2,0,70,0,0
14139,-50,4,2,0,70,0,0
15732,-50,4,2,0,70,0,0
18639,-50,4,2,0,70,0,0
20232,-50,4,2,0,70,0,0
23889,-50,4,2,0,50,0,0
29139,-100,4,2,0,40,0,0
32139,-50,4,2,0,60,0,0
35139,-100,4,2,0,40,0,0
38139,-50,4,2,0,60,0,0
41701,-50,4,2,0,60,0,0
42264,-50,4,2,0,50,0,0
42826,-50,4,2,0,70,0,0
44139,-50,4,2,0,50,0,0
44701,-50,4,2,0,60,0,0
45264,-50,4,2,0,50,0,0
45826,-50,4,2,0,70,0,0
46389,-50,4,2,0,50,0,0
47701,-50,4,2,0,60,0,0
48264,-50,4,2,0,50,0,0
48826,-50,4,2,0,70,0,0
49389,-50,4,2,0,60,0,0
50701,-50,4,2,0,70,0,0
51264,-50,4,2,0,80,0,0
51826,-50,4,2,0,90,0,0
52389,-50,4,2,0,60,0,0
53139,-50,4,2,0,60,0,0
53420,-50,4,2,0,60,0,0
53701,-50,4,2,0,70,0,0
54639,-50,4,2,0,70,0,1
64389,-50,4,2,0,70,0,1
65889,-50,4,2,0,80,0,1
66264,-50,4,2,0,80,0,0
66639,-50,4,2,0,80,0,1
78639,-50,4,2,0,70,0,0
90639,-50,4,2,0,70,0,0
90732,-50,4,2,0,30,0,0
92139,-50,4,2,0,20,0,0
93639,-50,4,2,0,10,0,0
95139,-50,4,2,0,5,0,0
96639,-50,4,2,0,80,0,0

[Colours]
Combo1 : 85,170,255
Combo2 : 192,192,192

[HitObjects]
392,296,8139,6,0,P|424:216|368:160,1,150,4|4,1:2|0:3,0:0:0:0:
264,160,8701,1,4,0:3:0:0:
264,160,8889,1,0,1:0:0:0:
144,168,9170,1,4,0:3:0:0:
144,232,9451,1,4,0:3:0:0:
312,272,9639,6,0,L|448:160,2,150,4|4|4,1:2|0:3|0:3,0:0:0:0:
136,272,10389,1,2,1:0:0:0:
256,216,10764,2,0,L|256:80,1,100,0|0,1:0|1:0,0:0:0:0:
88,152,11139,6,0,P|56:88|104:16,1,150,4|4,1:2|0:3,0:0:0:0:
240,24,11701,1,4,0:3:0:0:
240,24,11889,1,0,1:0:0:0:
128,112,12170,1,4,0:3:0:0:
128,224,12451,1,4,0:3:0:0:
304,320,12639,6,0,L|456:200,2,150,4|4|4,1:2|0:3|0:3,0:0:0:0:
120,320,13389,1,4,1:2:0:0:
48,288,13764,2,0,L|40:144,1,100,0|0,1:0|1:0,0:0:0:0:
216,264,14139,5,4,1:2:0:0:
312,216,14326,1,4,0:3:0:0:
336,128,14514,1,4,0:3:0:0:
304,32,14701,2,0,L|120:168,1,200,4|4,0:3|0:3,0:0:0:0:
128,184,15264,1,4,0:3:0:0:
144,224,15451,1,4,0:3:0:0:
320,312,15639,6,0,L|400:240,2,100,4|4|4,0:3|0:3|0:3,0:0:0:0:
152,320,16201,2,0,P|112:216|152:144,1,200,0|4,1:0|0:3,0:0:0:0:
240,104,16764,1,0,1:0:0:0:
152,72,16951,1,4,0:3:0:0:
328,320,17139,6,0,L|416:248,2,100,4|4|4,0:3|0:3|0:3,0:0:0:0:
152,304,17701,2,0,L|328:144,1,200,0|8,1:0|0:3,0:0:0:0:
208,144,18264,1,4,0:3:0:0:
208,48,18451,1,0,1:0:0:0:
384,328,18639,5,4,1:2:0:0:
464,272,18826,1,4,0:3:0:0:
464,184,19014,1,4,0:3:0:0:
384,136,19201,2,0,L|216:288,1,200,4|4,0:3|0:3,0:0:0:0:
320,264,19764,1,4,0:3:0:0:
304,344,19951,1,4,0:3:0:0:
128,304,20139,6,0,L|120:168,1,100,4|4,0:3|0:3,0:0:0:0:
200,192,20514,1,4,0:3:0:0:
376,192,20701,1,0,1:0:0:0:
248,120,21076,2,0,L|320:48,2,100,4|0|4,0:3|1:0|0:3,0:0:0:0:
424,216,21639,6,0,L|432:336,1,100,4|4,0:3|0:3,0:0:0:0:
344,312,22014,1,4,0:3:0:0:
176,312,22201,1,0,1:0:0:0:
296,232,22576,2,0,L|184:144,2,100,4|0|0,0:3|1:0|1:0,0:0:0:0:
472,232,23139,5,4,1:0:0:0:
256,192,23514,12,4,26139,0:0:0:0:
400,200,29139,5,4,0:2:0:0:
248,152,29514,1,0,3:0:0:0:
400,150,29889,2,0,L|400:214,1,50,2|0,0:0|0:0,0:0:0:0:
320,280,30264,2,0,L|320:216,1,50,0|0,0:0|0:0,0:0:0:0:
400,224,30639,5,2,0:0:0:0:
248,144,31014,1,0,0:0:0:0:
400,104,31389,1,2,0:0:0:0:
464,168,31576,1,0,0:0:0:0:
464,256,31764,1,4,0:3:0:0:
400,304,31951,1,4,0:3:0:0:
224,304,32139,5,4,1:2:0:0:
120,272,32326,2,0,L|120:184,3,50,4|4|4|4,0:3|0:3|0:3|0:3,0:0:0:0:
224,208,32795,2,0,L|280:176,1,50,4|4,0:3|0:3,0:0:0:0:
176,112,33076,1,4,0:3:0:0:
176,112,33170,1,4,0:3:0:0:
368,248,33639,5,0,0:0:0:0:
472,216,33826,2,0,L|472:128,3,50,4|4|4|4,0:3|0:3|0:3|0:3,0:0:0:0:
384,136,34295,2,0,L|328:104,1,50,4|4,0:3|0:3,0:0:0:0:
424,48,34576,1,4,0:3:0:0:
424,48,34670,1,4,0:3:0:0:
56,48,35139,5,4,0:2:0:0:
248,96,35889,2,0,L|248:208,1,100,2|4,0:0|0:3,0:0:0:0:
112,224,36639,6,0,L|112:336,1,100,0|2,0:0|0:0,0:0:0:0:
280,328,37389,2,0,L|392:328,1,100,4|8,0:3|0:3,0:0:0:0:
104,176,38139,5,4,1:2:0:0:
104,72,38326,1,4,0:3:0:0:
128,64,38420,1,4,0:3:0:0:
168,56,38514,1,4,0:3:0:0:
200,48,38607,1,0,0:0:0:0:
312,144,38795,1,4,0:3:0:0:
312,144,38889,1,4,0:3:0:0:
208,272,39076,2,0,L|160:208,2,50,4|0|0,0:3|0:0|0:0,0:0:0:0:
384,192,39639,5,0,0:0:0:0:
280,168,39826,2,0,L|280:112,3,50,4|4|4|4,0:3|0:3|0:3|0:3,0:0:0:0:
384,120,40295,2,0,L|384:48,1,50,4|4,0:3|0:3,0:0:0:0:
280,64,40576,6,0,L|208:8,2,50,4|4|8,0:3|0:3|0:3,0:0:0:0:
456,72,40951,1,0,1:0:0:0:
448,336,41139,5,4,0:3:0:0:
448,296,41232,1,4,0:3:0:0:
448,256,41326,1,4,0:3:0:0:
448,232,41420,1,4,0:3:0:0:
376,336,41701,1,4,0:3:0:0:
328,304,41794,1,4,0:3:0:0:
328,256,41888,1,4,0:3:0:0:
376,232,41982,1,4,0:3:0:0:
120,224,42264,5,0,1:0:0:0:
72,208,42357,1,0,1:0:0:0:
72,144,42451,1,0,1:0:0:0:
120,128,42545,1,0,1:0:0:0:
120,224,42826,1,4,0:3:0:0:
160,208,42919,1,4,0:3:0:0:
160,144,43013,1,4,0:3:0:0:
120,128,43107,1,4,0:3:0:0:
368,328,43389,2,0,L|384:120,1,200,4|0,1:0|0:0,0:0:0:0:
80,128,44139,5,4,0:3:0:0:
112,104,44232,1,4,0:3:0:0:
144,88,44326,1,4,0:3:0:0:
184,72,44420,1,4,0:3:0:0:
184,72,44701,1,4,0:3:0:0:
144,88,44795,1,4,0:3:0:0:
112,104,44889,1,4,0:3:0:0:
80,128,44982,1,4,0:3:0:0:
328,336,45264,5,0,1:0:0:0:
328,288,45357,1,0,1:0:0:0:
328,240,45451,1,0,1:0:0:0:
328,184,45545,1,0,1:0:0:0:
192,176,45826,2,0,L|192:96,3,50,4|4|4|4,0:3|0:3|0:3|0:3,0:0:0:0:
464,328,46389,6,0,P|456:200|320:96,1,300,4|0,1:0|0:0,0:0:0:0:
240,240,47139,6,0,L|240:160,3,50,4|4|4|4,0:3|0:3|0:3|0:3,0:0:0:0:
240,256,47701,1,4,0:3:0:0:
280,272,47795,1,4,0:3:0:0:
320,280,47889,1,4,0:3:0:0:
360,296,47982,1,4,0:3:0:0:
104,344,48264,5,0,1:0:0:0:
64,304,48357,1,0,1:0:0:0:
64,256,48451,1,0,1:0:0:0:
104,232,48545,1,0,1:0:0:0:
104,344,48826,1,4,0:3:0:0:
64,304,48919,1,4,0:3:0:0:
64,256,49013,1,4,0:3:0:0:
104,232,49107,1,4,0:3:0:0:
368,216,49389,6,0,L|160:104,1,200,4|0,1:0|1:0,0:0:0:0:
192,32,49951,1,0,1:0:0:0:
368,32,50139,5,4,0:3:0:0:
368,160,50701,1,4,0:3:0:0:
192,232,51264,1,4,0:3:0:0:
376,288,51826,1,4,0:3:0:0:
56,312,52389,5,4,1:0:0:0:
40,224,52576,1,4,0:3:0:0:
72,136,52764,1,4,0:3:0:0:
152,88,52951,1,4,0:3:0:0:
328,88,53139,6,0,L|448:192,2,150,4|4|0,1:2|0:3|1:0,0:0:0:0:
248,40,53889,2,0,L|240:152,1,100,0|0,1:0|1:0,0:0:0:0:
320,176,54264,2,0,L|328:296,1,100,0|0,1:0|1:0,0:0:0:0:
152,336,54639,6,0,L|16:232,2,150,4|6|6,1:0|0:3|0:3,0:0:0:0:
320,312,55576,1,2,1:3:0:0:
400,248,55764,1,6,0:3:0:0:
432,160,55951,1,6,0:3:0:0:
256,160,56139,6,0,P|168:88|168:48,1,150,4|6,1:2|0:3,0:0:0:0:
296,56,56701,2,0,L|304:288,1,200,4|2,0:3|1:3,0:0:0:0:
384,280,57264,1,0,1:0:0:0:
112,352,57639,5,4,1:2:0:0:
112,272,57826,1,2,0:0:0:0:
112,272,57920,1,4,0:3:0:0:
224,264,58107,1,2,0:0:0:0:
224,264,58201,2,0,L|56:136,1,200,2|2,0:0|1:3,0:0:0:0:
64,64,58764,1,6,0:3:0:0:
152,32,58951,1,2,1:3:0:0:
336,48,59139,6,0,L|480:168,2,150,4|4|4,1:2|0:3|0:3,0:0:0:0:
184,208,60076,2,0,L|176:96,1,100,0|6,1:0|0:3,0:0:0:0:
248,104,60451,1,2,1:3:0:0:
72,328,60639,6,0,P|40:256|80:192,1,150,4|6,1:2|0:3,0:0:0:0:
232,192,61201,2,0,L|64:72,1,200,6|0,0:3|1:0,0:0:0:0:
72,168,61764,1,4,0:3:0:0:
376,328,62139,6,0,L|520:224,2,150,4|4|6,1:0|0:3|0:3,0:0:0:0:
200,280,63076,1,2,1:3:0:0:
264,248,63264,1,6,0:3:0:0:
336,224,63451,1,4,0:3:0:0:
160,192,63639,6,0,P|112:104|168:24,1,200,4|0,1:2|1:0,0:0:0:0:
232,32,64201,1,0,1:0:0:0:
408,32,64389,2,0,P|456:120|384:208,1,200,4|0,1:2|1:0,0:0:0:0:
72,200,65139,6,0,L|240:352,2,200,4|0|0,1:2|1:0|1:0,0:0:0:0:
168,192,66264,2,0,L|176:80,1,100,2|2,1:3|1:3,0:0:0:0:
360,336,66639,5,4,1:0:0:0:
440,304,66826,2,0,L|448:88,1,200,0|0,1:0|1:0,0:0:0:0:
368,104,67389,1,4,0:3:0:0:
192,328,67576,1,0,1:0:0:0:
192,264,67764,1,2,0:3:0:0:
272,208,67951,1,2,1:3:0:0:
456,200,68139,5,6,0:3:0:0:
456,200,68326,2,0,L|256:56,1,200,0|2,1:0|1:3,0:0:0:0:
296,32,68889,1,4,0:3:0:0:
384,80,69076,1,2,1:3:0:0:
384,168,69264,1,6,0:3:0:0:
96,192,69639,5,4,1:0:0:0:
96,112,69826,1,2,1:2:0:0:
96,112,69920,1,4,0:3:0:0:
192,64,70107,1,4,0:3:0:0:
192,64,70201,2,0,L|72:120,2,100,2|4|0,1:3|0:3|1:3,0:0:0:0:
288,64,70764,1,6,0:3:0:0:
288,168,70951,1,2,1:3:0:0:
112,320,71139,6,0,L|16:256,2,100,6|0|4,0:3|1:0|0:3,0:0:0:0:
208,312,71701,2,0,P|240:192|184:144,1,200,0|0,1:0|1:0,0:0:0:0:
112,120,72264,1,6,0:3:0:0:
192,72,72451,1,0,1:0:0:0:
376,328,72639,5,4,1:0:0:0:
456,272,72826,2,0,L|272:136,1,200,0|6,1:0|1:3,0:0:0:0:
296,72,73389,1,4,0:3:0:0:
384,48,73576,1,0,1:0:0:0:
464,160,73764,1,4,0:3:0:0:
184,320,74139,5,6,0:3:0:0:
88,304,74326,2,0,L|80:80,1,200,0|2,1:0|1:3,0:0:0:0:
168,96,74889,1,4,0:3:0:0:
344,96,75076,1,0,1:0:0:0:
352,176,75264,1,10,0:3:0:0:
288,216,75451,1,6,0:3:0:0:
88,112,75639,6,0,P|40:184|104:296,1,200,4|4,1:0|0:3,0:0:0:0:
152,288,76201,1,0,1:0:0:0:
328,336,76389,2,0,L|336:216,1,100,4|4,0:3|0:3,0:0:0:0:
248,224,76764,2,0,L|240:112,1,100,0|6,1:0|0:3,0:0:0:0:
440,160,77139,6,0,L|304:32,2,150,6|6|6,0:3|0:3|0:3,0:0:0:0:
248,336,77889,2,0,L|96:192,1,200,4|0,0:3|1:0,0:0:0:0:
192,184,78451,1,0,1:0:0:0:
352,272,78639,6,0,P|368:200|360:112,1,150,4|4,1:0|0:3,0:0:0:0:
256,136,79201,1,4,0:3:0:0:
336,128,79389,2,0,L|472:24,2,150,0|0|0,1:0|1:0|1:0,0:0:0:0:
160,336,80139,6,0,L|152:152,1,150,4|4,1:2|0:3,0:0:0:0:
240,184,80701,1,4,0:3:0:0:
153,186,80889,2,0,P|73:138|65:33,1,200,4|0,0:3|1:0,0:0:0:0:
152,24,81451,1,0,1:0:0:0:
312,344,81639,6,0,P|416:272|424:184,1,200,4|4,1:0|0:3,0:0:0:0:
352,168,82201,1,4,0:3:0:0:
264,168,82389,2,0,L|424:8,1,200,4|4,1:2|1:2,0:0:0:0:
408,120,82951,1,0,0:0:0:0:
224,336,83139,5,6,1:2:0:0:
144,296,83326,1,4,0:3:0:0:
144,208,83514,1,4,0:3:0:0:
216,176,83701,1,4,0:3:0:0:
300,175,83889,2,0,L|124:47,1,200,4|0,1:2|1:0,0:0:0:0:
139,58,84451,1,0,1:0:0:0:
328,336,84639,6,0,L|472:224,2,150,4|6|2,0:3|0:3|1:3,0:0:0:0:
136,336,85389,2,0,L|-8:224,2,150,0|2|2,1:0|0:3|1:3,0:0:0:0:
232,328,86139,6,0,L|232:168,1,150,4|2,0:3|0:3,0:0:0:0:
112,152,86701,1,2,1:3:0:0:
280,272,86889,1,0,1:0:0:0:
360,232,87076,1,0,1:0:0:0:
360,144,87264,1,4,0:3:0:0:
280,112,87451,1,0,1:0:0:0:
112,320,87639,6,0,P|72:240|128:136,1,200,4|4,1:2|0:3,0:0:0:0:
192,128,88201,1,4,0:3:0:0:
264,176,88389,2,0,L|112:32,1,200,4|4,1:2|1:2,0:0:0:0:
118,38,88951,1,4,0:3:0:0:
288,288,89139,5,4,1:3:0:0:
376,256,89326,2,0,L|384:128,1,100,0|4,1:0|0:3,0:0:0:0:
208,152,89701,1,0,1:0:0:0:
120,152,89889,2,0,L|112:32,1,100,4|4,1:2|0:3,0:0:0:0:
288,296,90264,2,0,L|344:288,2,50,0|0|0,1:0|1:0|1:0,0:0:0:0:
104,304,90639,5,4,1:0:0:0:
256,192,91014,12,0,96920,1:0:0:0:
