osu file format v14

[General]
AudioFilename: audio.mp3
AudioLeadIn: 0
PreviewTime: 54264
Countdown: 0
SampleSet: Soft
StackLeniency: 0.7
Mode: 2
LetterboxInBreaks: 0
WidescreenStoryboard: 1

[Editor]
Bookmarks: 30991
DistanceSpacing: 1.3
BeatDivisor: 4
GridSize: 8
TimelineZoom: 2.1

[Metadata]
Title:Gareki no Yume
TitleUnicode:瓦礫の夢
Artist:Denkishiki Karen Ongaku Shuudan
ArtistUnicode:電気式華憐音楽集団
Creator:-Luminate
Version:Rain
Source:サクラノモリ†ドリーマーズ
Tags:Sakura no Mori Dreamers moonstone eroge visual novel game opening tv size op denkare vn japanese video game denkare metal rock jrock j-rock sinnoh dust idu5t du5t
BeatmapID:2979782
BeatmapSetID:1447060

[Difficulty]
HPDrainRate:5
CircleSize:3.8
OverallDifficulty:9.1
ApproachRate:9.1
SliderMultiplier:1.3
SliderTickRate:1

[Events]
//Background and Video events
0,0,"bg.jpg",0,0
//Break Periods
//Storyboard Layer 0 (Background)
//Storyboard Layer 1 (Fail)
//Storyboard Layer 2 (Pass)
//Storyboard Layer 3 (Foreground)
//Storyboard Layer 4 (Overlay)
//Storyboard Sound Samples

[TimingPoints]
2139,375,4,2,2,30,1,0
7764,-100,4,2,0,70,0,0
8139,-50,4,2,0,70,0,0
14139,-50,4,2,0,70,0,0
15732,-50,4,2,0,70,0,0
18639,-50,4,2,0,70,0,0
20232,-50,4,2,0,70,0,0
23889,-50,4,2,0,50,0,0
29139,-100,4,2,0,40,0,0
32139,-50,4,2,0,60,0,0
35139,-100,4,2,0,40,0,0
38139,-50,4,2,0,60,0,0
41701,-50,4,2,0,60,0,0
42264,-50,4,2,0,50,0,0
42826,-50,4,2,0,70,0,0
44139,-50,4,2,0,50,0,0
44701,-50,4,2,0,60,0,0
45264,-50,4,2,0,50,0,0
45826,-50,4,2,0,70,0,0
46389,-50,4,2,0,50,0,0
47701,-50,4,2,0,60,0,0
48264,-50,4,2,0,50,0,0
48826,-50,4,2,0,70,0,0
49389,-50,4,2,0,60,0,0
50701,-50,4,2,0,70,0,0
51264,-50,4,2,0,80,0,0
51826,-50,4,2,0,90,0,0
52389,-50,4,2,0,60,0,0
53139,-50,4,2,0,60,0,0
53420,-50,4,2,0,60,0,0
53701,-50,4,2,0,70,0,0
54639,-50,4,2,0,70,0,1
64389,-50,4,2,0,70,0,1
65889,-50,4,2,0,80,0,1
66264,-50,4,2,0,80,0,0
66639,-50,4,2,0,80,0,1
78639,-50,4,2,0,70,0,0
90639,-50,4,2,0,70,0,0
90732,-50,4,2,0,30,0,0
92139,-50,4,2,0,20,0,0
93639,-50,4,2,0,10,0,0
95139,-50,4,2,0,5,0,0
96639,-50,4,2,0,80,0,0

[Colours]
Combo1 : 85,170,255
Combo2 : 192,192,192

[HitObjects]
120,344,2139,6,0,L|104:72,1,260,2|0,0:0|0:0,0:0:0:0:
256,48,3264,1,0,0:0:0:0:
96,40,3639,1,0,0:0:0:0:
392,344,5139,6,0,L|408:72,1,260,2|0,0:0|0:0,0:0:0:0:
256,48,6264,1,0,0:0:0:0:
416,40,6639,1,0,0:0:0:0:
136,280,7857,2,0,L|131:188,1,65
328,336,8139,6,0,L|504:312,1,130,4|0,1:2|0:0,0:0:0:0:
384,304,8420,2,0,L|232:264,1,130,4|0,0:3|0:0,0:0:0:0:
256,208,8701,1,4,0:3:0:0:
432,144,8889,2,0,L|448:56,1,65,0|0,1:0|1:0,0:0:0:0:
320,120,9170,2,0,L|312:40,1,65,4|0,0:3|0:0,0:0:0:0:
432,296,9451,2,0,L|352:240,1,65,4|4,0:3|0:3,0:0:0:0:
160,224,9639,5,4,1:2:0:0:
304,144,9920,1,4,0:3:0:0:
104,104,10201,1,4,0:3:0:0:
400,344,10389,2,0,P|496:280|456:128,1,260,2|0,1:0|1:0,0:0:0:0:
464,128,10826,1,0,1:0:0:0:
432,104,10889,1,0,1:0:0:0:
400,96,10951,1,0,1:0:0:0:
144,360,11139,6,0,L|16:296,1,130,4|0,1:2|0:0,0:0:0:0:
104,280,11420,2,0,L|256:240,1,130,4|0,0:3|0:0,0:0:0:0:
232,208,11701,1,4,0:3:0:0:
80,144,11889,2,0,L|64:56,1,65,0|0,1:0|1:0,0:0:0:0:
192,120,12170,2,0,L|200:40,1,65,4|4,0:3|0:3,0:0:0:0:
80,296,12451,2,0,L|160:240,1,65,4|4,0:3|0:3,0:0:0:0:
328,192,12639,5,4,1:2:0:0:
192,104,12920,1,4,0:3:0:0:
416,56,13201,1,4,0:3:0:0:
168,344,13389,2,0,P|120:256|192:176,1,195,4|4,1:2|0:3,0:0:0:0:
408,192,13764,1,0,1:0:0:0:
432,168,13826,1,0,1:0:0:0:
432,128,13889,1,0,1:0:0:0:
408,104,13951,1,0,1:0:0:0:
152,184,14139,6,0,L|64:120,2,65,4|0|4,1:2|1:0|0:3,0:0:0:0:
352,224,14420,2,0,L|424:176,2,65,0|4|0,1:0|0:3|1:0,0:0:0:0:
184,344,14701,1,4,0:3:0:0:
120,304,14795,1,0,1:0:0:0:
120,224,14889,1,4,0:3:0:0:
184,192,14982,1,0,1:0:0:0:
352,184,15076,2,0,L|360:96,1,65,4|0,0:3|1:0,0:0:0:0:
280,120,15264,2,0,L|272:24,1,65,4|0,0:3|1:0,0:0:0:0:
440,304,15451,2,0,L|448:208,1,65,4|0,0:3|0:0,0:0:0:0:
280,232,15639,5,4,0:3:0:0:
208,208,15732,1,4,0:3:0:0:
208,136,15826,1,4,0:3:0:0:
280,104,15920,1,4,0:3:0:0:
288,48,16014,1,4,0:3:0:0:
120,336,16201,2,0,L|104:64,1,260,0|4,1:0|0:3,0:0:0:0:
232,108,16764,1,0,1:0:0:0:
168,92,16857,1,0,0:0:0:0:
104,76,16951,1,4,0:3:0:0:
408,344,17139,5,4,0:3:0:0:
464,320,17232,1,4,0:3:0:0:
480,264,17326,1,4,0:3:0:0:
464,208,17420,1,4,0:3:0:0:
408,176,17514,1,4,0:3:0:0:
224,336,17701,2,0,P|160:224|272:128,1,260,0|8,1:0|0:3,0:0:0:0:
296,120,18139,1,0,0:0:0:0:
304,88,18201,1,0,0:0:0:0:
312,56,18264,1,4,0:3:0:0:
144,200,18451,2,0,L|136:104,1,65,0|0,1:0|1:0,0:0:0:0:
328,184,18639,6,0,L|416:120,2,65,4|0|4,1:2|1:0|0:3,0:0:0:0:
160,224,18920,2,0,L|88:176,2,65,0|4|0,1:0|0:3|1:0,0:0:0:0:
328,344,19201,1,4,0:3:0:0:
392,304,19295,1,0,1:0:0:0:
392,224,19389,1,4,0:3:0:0:
328,192,19482,1,0,1:0:0:0:
160,184,19576,2,0,L|152:96,1,65,4|0,0:3|1:0,0:0:0:0:
232,120,19764,2,0,L|240:24,1,65,4|0,0:3|1:0,0:0:0:0:
72,304,19951,2,0,L|64:208,1,65,4|0,0:3|1:3,0:0:0:0:
232,232,20139,5,4,0:3:0:0:
304,208,20232,1,4,0:3:0:0:
304,136,20326,1,4,0:3:0:0:
232,104,20420,1,4,0:3:0:0:
224,48,20514,1,4,0:3:0:0:
408,312,20701,2,0,L|200:128,1,260,0|4,1:0|0:3,0:0:0:0:
384,144,21264,1,0,1:0:0:0:
424,112,21357,1,0,0:0:0:0:
384,72,21451,1,4,0:3:0:0:
136,336,21639,5,4,0:3:0:0:
128,272,21732,1,4,0:3:0:0:
200,272,21826,1,4,0:3:0:0:
200,208,21920,1,4,0:3:0:0:
136,192,22014,1,4,0:3:0:0:
304,320,22201,2,0,P|368:208|256:112,1,260,0|4,1:0|0:3,0:0:0:0:
120,128,22764,1,0,1:0:0:0:
112,96,22826,1,0,1:0:0:0:
104,64,22889,1,0,1:0:0:0:
144,40,22951,1,0,1:0:0:0:
392,32,23139,5,4,1:0:0:0:
256,192,23326,12,4,26139,0:0:0:0:
120,224,26514,5,0,0:0:0:0:
304,208,26889,2,0,L|320:48,1,130,2|0,0:0|0:0,0:0:0:0:
408,192,27264,2,0,L|424:48,1,130,0|0,0:0|0:0,0:0:0:0:
296,336,27639,6,0,L|104:152,2,260,2|0|2,0:0|0:0|0:0,0:0:0:0:
384,328,28576,1,0,0:0:0:0:
456,272,28764,1,8,0:3:0:0:
464,184,28951,1,8,0:3:0:0:
200,192,29139,6,0,P|176:128|208:72,1,130,4|0,0:2|3:0,0:0:0:0:
392,72,29889,1,2,0:0:0:0:
312,56,30076,1,0,0:0:0:0:
240,32,30264,1,0,0:0:0:0:
440,312,30639,6,0,L|288:312,2,130,2|0|2,0:0|0:0|0:0,0:0:0:0:
480,240,31576,1,0,0:0:0:0:
480,160,31764,1,4,0:3:0:0:
432,104,31951,1,4,0:3:0:0:
168,280,32139,5,4,1:2:0:0:
120,256,32232,1,0,0:0:0:0:
104,200,32326,1,4,0:3:0:0:
128,144,32420,1,4,0:3:0:0:
168,112,32514,1,4,0:3:0:0:
128,80,32607,1,4,0:3:0:0:
280,312,32795,2,0,L|288:216,1,65,4|4,0:3|0:3,0:0:0:0:
144,224,33076,2,0,L|136:152,1,65,4|4,0:3|0:3,0:0:0:0:
192,136,33263,1,0,0:0:0:0:
448,136,33639,5,0,0:0:0:0:
328,304,33826,2,0,L|320:232,1,65,4|4,0:3|0:3,0:0:0:0:
392,240,34014,2,0,L|400:144,1,65,4|4,0:3|0:3,0:0:0:0:
272,160,34295,2,0,L|264:88,1,65,4|4,0:3|0:3,0:0:0:0:
408,88,34576,2,0,L|480:40,2,65,4|4|0,0:3|0:3|0:0,0:0:0:0:
40,96,35139,5,4,0:2:0:0:
240,160,35514,1,0,0:0:0:0:
48,328,35889,2,0,L|192:328,2,130,2|4|0,0:0|0:3|0:0,0:0:0:0:
256,328,37014,2,0,L|256:232,1,65,2|0,0:0|0:0,0:0:0:0:
128,240,37389,1,4,0:3:0:0:
48,200,37576,1,2,0:3:0:0:
48,112,37764,1,8,0:3:0:0:
128,80,37951,1,8,0:3:0:0:
432,248,38139,6,0,L|440:160,1,65,4|0,1:2|0:0,0:0:0:0:
360,176,38326,2,0,L|352:96,1,65,4|4,0:3|0:3,0:0:0:0:
432,112,38514,2,0,L|440:32,1,65,4|0,0:3|0:0,0:0:0:0:
272,280,38795,2,0,L|264:184,1,65,4|4,0:3|0:3,0:0:0:0:
416,328,39076,2,0,L|480:288,2,65,4|0|0,0:3|0:0|0:0,0:0:0:0:
128,328,39639,5,0,0:0:0:0:
256,288,39826,2,0,L|264:208,1,65,4|4,0:3|0:3,0:0:0:0:
184,216,40014,2,0,L|176:120,1,65,4|4,0:3|0:3,0:0:0:0:
336,152,40295,2,0,L|344:48,1,65,4|4,0:3|0:3,0:0:0:0:
176,128,40576,2,0,L|104:80,1,65,4|4,0:3|0:3,0:0:0:0:
176,48,40764,1,8,0:3:0:0:
464,32,40951,1,0,1:0:0:0:
344,336,41139,5,4,0:3:0:0:
280,320,41232,1,4,0:3:0:0:
248,272,41326,1,4,0:3:0:0:
240,200,41420,1,4,0:3:0:0:
48,320,41701,1,4,0:3:0:0:
112,304,41794,1,4,0:3:0:0:
144,256,41888,1,4,0:3:0:0:
152,184,41982,1,4,0:3:0:0:
328,176,42264,2,0,L|416:128,2,65,0|0|0,1:0|1:0|1:0,0:0:0:0:
152,184,42545,1,0,1:0:0:0:
336,336,42826,6,0,L|344:216,1,65,4|4,0:3|0:3,0:0:0:0:
264,272,43014,2,0,L|256:168,1,65,4|4,0:3|0:3,0:0:0:0:
464,176,43389,1,4,1:0:0:0:
312,112,43576,1,0,0:0:0:0:
464,32,43764,2,0,P|504:120|440:200,1,195,0|0,0:0|0:0,0:0:0:0:
232,312,44139,5,4,0:3:0:0:
304,288,44232,1,4,0:3:0:0:
312,216,44326,1,4,0:3:0:0:
320,144,44420,1,4,0:3:0:0:
144,208,44701,1,4,0:3:0:0:
216,184,44795,1,4,0:3:0:0:
224,112,44889,1,4,0:3:0:0:
232,48,44982,1,4,0:3:0:0:
72,320,45264,2,0,L|16:272,2,65,0|0|0,1:0|1:0|1:0,0:0:0:0:
272,312,45545,1,0,1:0:0:0:
152,240,45826,5,4,0:3:0:0:
216,216,45920,1,4,0:3:0:0:
272,192,46014,1,4,0:3:0:0:
336,176,46107,1,4,0:3:0:0:
104,352,46389,2,0,P|24:128|128:40,1,390,4|0,1:0|0:0,0:0:0:0:
376,344,47139,6,0,L|384:240,1,65,4|4,0:3|0:3,0:0:0:0:
304,288,47326,2,0,L|296:200,1,65,4|4,0:3|0:3,0:0:0:0:
480,184,47701,2,0,L|488:96,1,65,4|4,0:3|0:3,0:0:0:0:
408,128,47889,2,0,L|400:40,1,65,4|4,0:3|0:3,0:0:0:0:
240,256,48264,2,0,L|144:240,2,65,0|0|0,1:0|1:0|1:0,0:0:0:0:
416,248,48545,1,0,1:0:0:0:
240,192,48826,5,4,0:3:0:0:
312,168,48920,1,4,0:3:0:0:
376,144,49014,1,4,0:3:0:0:
312,112,49107,1,4,0:3:0:0:
144,256,49389,1,4,1:0:0:0:
304,320,49576,1,0,0:0:0:0:
144,256,49764,2,0,L|136:160,1,65,0|0,1:0|1:0,0:0:0:0:
304,200,49951,2,0,L|312:104,1,65,0|0,1:0|1:0,0:0:0:0:
136,112,50139,5,4,0:3:0:0:
400,192,50701,1,4,0:3:0:0:
144,312,51264,1,4,0:3:0:0:
384,336,51826,1,4,0:3:0:0:
64,280,52389,2,0,L|56:128,1,130,4|4,1:0|0:3,0:0:0:0:
208,208,52764,2,0,L|216:64,1,130,4|4,0:3|0:3,0:0:0:0:
464,312,53139,6,0,L|280:152,2,195,4|4|0,1:2|0:3|1:0,0:0:0:0:
208,328,53889,2,0,L|80:240,1,130,0|0,1:0|1:0,0:0:0:0:
168,240,54170,1,0,1:0:0:0:
352,216,54264,2,0,L|360:112,1,65,0|0,1:0|1:0,0:0:0:0:
184,152,54451,2,0,L|176:48,1,65,0|0,1:0|1:0,0:0:0:0:
352,320,54639,6,0,L|488:240,1,130,4|0,1:0|0:0,0:0:0:0:
464,192,54920,2,0,L|240:80,1,195,6|6,0:3|0:3,0:0:0:0:
352,96,55295,1,4,0:3:0:0:
208,320,55482,1,4,0:3:0:0:
136,312,55576,2,0,L|128:216,1,65,2|0,1:3|0:0,0:0:0:0:
208,240,55764,2,0,L|216:136,1,65,6|4,0:3|0:3,0:0:0:0:
136,160,55951,2,0,L|232:128,1,65,6|0,0:3|0:0,0:0:0:0:
384,240,56139,6,0,L|268:181,1,130,4|0,1:2|0:0,0:0:0:0:
268,181,56420,2,0,L|443:93,1,195,6|4,0:3|0:3,0:0:0:0:
376,72,56795,1,4,0:3:0:0:
224,312,56982,1,4,0:3:0:0:
304,296,57076,2,0,L|312:200,1,65,2|0,1:3|0:0,0:0:0:0:
136,224,57264,1,0,1:0:0:0:
72,192,57357,1,0,0:0:0:0:
72,120,57451,1,8,0:3:0:0:
136,88,57545,1,0,0:0:0:0:
320,88,57639,5,4,1:2:0:0:
184,336,57826,2,0,L|176:240,1,65,2|4,0:0|0:3,0:0:0:0:
328,240,58107,1,2,0:0:0:0:
256,232,58201,2,0,P|208:144|272:80,1,195,2|4,0:0|0:3,0:0:0:0:
456,216,58576,2,0,L|464:120,1,65,2|0,1:3|0:0,0:0:0:0:
384,144,58764,2,0,L|376:56,1,65,6|0,0:3|0:3,0:0:0:0:
464,72,58951,2,0,L|368:32,1,65,2|4,1:3|0:3,0:0:0:0:
232,336,59139,6,0,L|64:256,1,130,4|0,1:2|0:0,0:0:0:0:
114,280,59420,2,0,L|312:176,1,195,4|4,0:3|0:3,0:0:0:0:
288,136,59795,1,4,0:3:0:0:
112,168,59982,1,4,0:3:0:0:
184,160,60076,2,0,L|184:72,1,65,0|0,1:0|0:0,0:0:0:0:
112,96,60264,2,0,L|104:16,1,65,6|4,0:3|0:3,0:0:0:0:
296,320,60451,2,0,L|384:304,1,65,2|0,1:3|1:0,0:0:0:0:
184,264,60639,6,0,L|0:216,1,130,4|0,1:2|0:0,0:0:0:0:
136,208,60920,2,0,L|288:160,1,130,6|0,0:3|0:0,0:0:0:0:
259,168,61201,2,0,L|64:72,1,195,6|6,0:3|0:3,0:0:0:0:
85,82,61576,1,0,1:0:0:0:
224,272,61764,1,4,0:3:0:0:
168,304,61857,1,4,0:3:0:0:
104,328,61951,1,8,0:3:0:0:
384,344,62139,6,0,P|408:288|368:200,1,130,4|0,1:0|0:0,0:0:0:0:
221,232,62420,2,0,L|400:128,1,195,4|6,0:3|0:3,0:0:0:0:
392,80,62795,1,0,0:0:0:0:
208,288,62982,1,4,0:3:0:0:
128,272,63076,2,0,L|120:160,1,65,2|0,1:3|0:0,0:0:0:0:
200,208,63264,2,0,L|208:120,1,65,6|4,0:3|0:3,0:0:0:0:
48,144,63451,2,0,L|56:72,1,65,4|0,0:3|0:0,0:0:0:0:
224,56,63639,6,0,P|296:176|200:232,1,260,4|0,1:2|1:0,0:0:0:0:
336,328,64201,2,0,L|344:248,1,65,0|0,1:0|1:0,0:0:0:0:
136,280,64389,2,0,P|80:224|176:136,1,195,4|4,1:2|0:3,0:0:0:0:
320,136,64764,1,0,1:0:0:0:
208,264,64951,2,0,L|200:168,1,65,4|0,0:3|0:0,0:0:0:0:
424,240,65139,6,0,P|480:168|408:96,1,195,4|4,1:2|0:3,0:0:0:0:
344,320,65514,2,0,L|168:280,1,130,0|4,1:0|0:3,0:0:0:0:
392,248,65889,2,0,L|400:88,1,130,0|4,1:0|0:3,0:0:0:0:
136,328,66264,2,0,L|40:296,1,65,2|0,1:3|1:0,0:0:0:0:
264,240,66451,2,0,L|344:200,1,65,2|0,1:3|1:0,0:0:0:0:
144,200,66639,6,0,L|56:160,2,65,4|0|0,1:0|0:0|1:0,0:0:0:0:
320,328,66920,2,0,L|320:232,1,65,6|4,0:3|0:3,0:0:0:0:
264,248,67107,1,4,0:3:0:0:
88,224,67201,1,0,1:0:0:0:
40,208,67295,1,0,0:0:0:0:
40,144,67389,1,4,0:3:0:0:
88,120,67482,1,4,0:3:0:0:
264,128,67576,2,0,L|344:96,1,65,0|4,1:0|0:3,0:0:0:0:
144,64,67764,2,0,L|80:32,2,65,2|4|2,0:3|0:3|1:3,0:0:0:0:
472,344,68139,6,0,L|472:240,1,65,6|0,0:3|0:0,0:0:0:0:
408,256,68326,1,0,1:0:0:0:
248,256,68420,2,0,L|136:192,2,65,2|4|4,0:3|0:3|0:3,0:0:0:0:
408,256,68701,1,2,1:3:0:0:
464,224,68795,1,0,0:0:0:0:
464,160,68889,1,4,0:3:0:0:
416,128,68982,1,4,0:3:0:0:
248,144,69076,2,0,L|240:48,1,65,2|4,1:3|0:3,0:0:0:0:
416,64,69264,1,6,0:3:0:0:
472,96,69357,1,4,0:3:0:0:
416,128,69451,1,0,1:0:0:0:
96,296,69639,5,4,1:0:0:0:
224,272,69826,2,0,L|232:176,1,65,2|4,1:2|0:3,0:0:0:0:
96,176,70107,1,4,0:3:0:0:
160,168,70201,2,0,L|168:80,1,65,2|0,1:3|0:0,0:0:0:0:
96,88,70389,2,0,L|88:8,1,65,4|4,0:3|0:3,0:0:0:0:
288,344,70576,2,0,L|296:232,1,65,0|4,1:3|0:3,0:0:0:0:
232,240,70764,2,0,L|304:208,1,65,6|4,0:3|0:3,0:0:0:0:
448,192,70951,2,0,L|368:152,1,65,2|0,1:3|0:0,0:0:0:0:
232,336,71139,5,6,0:3:0:0:
176,304,71232,1,0,0:0:0:0:
152,240,71326,1,0,1:0:0:0:
176,168,71420,1,0,0:0:0:0:
240,128,71514,1,4,0:3:0:0:
176,96,71607,1,4,0:3:0:0:
240,56,71701,1,0,1:0:0:0:
296,96,71795,1,0,0:0:0:0:
328,160,71889,1,4,0:3:0:0:
304,232,71982,1,4,0:3:0:0:
240,256,72076,1,0,1:0:0:0:
248,320,72170,1,4,0:3:0:0:
408,336,72264,2,0,L|480:296,2,65,6|4|0,0:3|0:3|1:0,0:0:0:0:
128,344,72639,6,0,L|40:304,2,65,4|0|0,1:0|0:0|1:0,0:0:0:0:
312,296,72920,2,0,L|312:208,1,65,2|0,0:3|0:0,0:0:0:0:
248,224,73107,1,4,0:3:0:0:
80,224,73201,1,6,1:3:0:0:
128,184,73295,1,0,0:0:0:0:
144,120,73389,1,4,0:3:0:0:
112,64,73482,1,4,0:3:0:0:
64,48,73576,2,0,L|152:16,1,65,0|0,1:0|0:0,0:0:0:0:
304,112,73764,1,4,0:3:0:0:
368,88,73857,1,4,0:3:0:0:
424,64,73951,1,0,1:0:0:0:
128,328,74139,6,0,L|48:280,2,65,6|0|0,0:3|0:0|1:0,0:0:0:0:
312,320,74420,2,0,L|384:272,2,65,2|4|4,0:3|0:3|0:3,0:0:0:0:
128,328,74701,1,2,1:3:0:0:
72,294,74795,1,0,0:0:0:0:
72,232,74889,1,4,0:3:0:0:
128,200,74982,1,4,0:3:0:0:
312,200,75076,2,0,L|320:112,1,65,0|0,1:0|1:0,0:0:0:0:
248,136,75264,2,0,L|240:48,1,65,10|8,0:3|0:3,0:0:0:0:
432,288,75451,2,0,L|440:184,1,65,6|4,0:3|0:3,0:0:0:0:
256,336,75639,5,4,1:0:0:0:
200,320,75732,1,4,0:3:0:0:
144,304,75826,1,0,1:0:0:0:
328,192,76014,2,0,L|424:144,1,65,0|4,1:0|0:3,0:0:0:0:
232,112,76201,2,0,L|160:72,1,65,0|0,1:0|0:0,0:0:0:0:
336,344,76389,1,4,0:3:0:0:
400,328,76482,1,4,0:3:0:0:
432,272,76576,1,4,0:3:0:0:
440,208,76670,1,4,0:3:0:0:
368,200,76764,2,0,L|360:112,1,65,0|4,1:0|0:3,0:0:0:0:
432,96,76951,1,6,0:3:0:0:
360,72,77045,1,6,0:3:0:0:
184,320,77139,6,0,L|48:272,1,130,6|0,0:3|0:0,0:0:0:0:
224,224,77420,2,0,L|360:152,1,130,6|0,0:3|0:0,0:0:0:0:
176,128,77701,2,0,L|168:48,1,65,6|4,0:3|0:3,0:0:0:0:
360,344,77889,1,4,0:3:0:0:
416,304,77982,1,4,0:3:0:0:
416,240,78076,1,4,0:3:0:0:
360,208,78170,1,4,0:3:0:0:
200,208,78264,2,0,L|128:160,1,65,0|0,1:0|1:0,0:0:0:0:
320,128,78451,2,0,L|384:80,1,65,0|0,0:0|1:0,0:0:0:0:
184,336,78639,6,0,L|24:224,2,195,4|4|4,1:0|0:3|0:3,0:0:0:0:
440,320,79389,2,0,L|264:176,2,195,0|0|0,1:0|1:0|1:0,0:0:0:0:
176,224,80139,6,0,L|352:72,2,195,4|4|4,1:2|0:3|0:3,0:0:0:0:
432,344,80889,2,0,P|480:256|392:176,1,195,4|4,0:3|0:3,0:0:0:0:
224,160,81264,1,0,1:0:0:0:
160,144,81357,1,0,0:0:0:0:
104,128,81451,1,0,1:0:0:0:
384,344,81639,5,4,1:0:0:0:
440,320,81732,1,0,0:0:0:0:
440,256,81826,1,4,0:3:0:0:
384,232,81920,1,0,0:0:0:0:
440,200,82014,1,4,0:3:0:0:
456,144,82107,1,0,0:0:0:0:
440,96,82201,1,4,0:3:0:0:
384,72,82295,1,0,0:3:0:0:
192,336,82389,1,4,1:2:0:0:
148,289,82482,1,4,0:3:0:0:
150,226,82576,1,0,0:3:0:0:
195,182,82670,1,0,0:0:0:0:
376,160,82764,2,0,L|272:112,1,65,4|0,1:2|0:0,0:0:0:0:
160,72,82951,2,0,L|56:16,1,65
312,344,83139,5,6,1:2:0:0:
368,320,83232,1,4,0:3:0:0:
376,272,83326,1,4,0:3:0:0:
320,240,83420,1,0,0:0:0:0:
376,224,83514,2,0,L|384:136,1,65,4|0,0:3|0:0,0:0:0:0:
224,192,83701,2,0,L|232:88,1,65,4|0,0:3|0:0,0:0:0:0:
424,176,83889,1,4,1:2:0:0:
448,128,83982,1,0,0:0:0:0:
432,80,84076,1,4,0:3:0:0:
384,56,84170,1,4,0:3:0:0:
224,336,84264,2,0,L|128:296,1,65,0|0,1:0|1:0,0:0:0:0:
352,272,84451,2,0,L|416:240,1,65,0|0,1:0|1:0,0:0:0:0:
224,264,84639,6,0,L|72:192,1,130,4|0,0:3|1:0,0:0:0:0:
40,192,84920,2,0,L|200:88,1,130,6|4,0:3|0:3,0:0:0:0:
216,120,85201,1,2,1:3:0:0:
464,344,85389,2,0,L|352:232,1,130,0|0,1:0|1:0,0:0:0:0:
180,295,85670,2,0,L|304:184,1,130,2|0,0:3|0:0,0:0:0:0:
224,192,85951,1,2,1:3:0:0:
80,328,86139,6,0,L|200:240,1,130,4|0,0:3|1:0,0:0:0:0:
352,256,86420,2,0,L|184:168,1,130,2|4,0:3|0:3,0:0:0:0:
232,144,86701,1,2,1:3:0:0:
480,344,86889,2,0,L|488:200,1,130,0|0,1:0|1:0,0:0:0:0:
320,176,87264,1,4,0:3:0:0:
376,152,87357,1,4,0:3:0:0:
432,136,87451,1,0,1:0:0:0:
184,336,87639,5,4,1:2:0:0:
121,323,87732,1,4,0:3:0:0:
82,273,87826,1,4,0:3:0:0:
85,209,87920,1,0,0:0:0:0:
248,240,88014,1,4,0:3:0:0:
256,176,88107,1,0,0:0:0:0:
264,112,88201,1,4,0:3:0:0:
272,40,88295,1,0,0:0:0:0:
456,336,88389,5,4,1:2:0:0:
488,280,88482,1,0,0:0:0:0:
480,216,88576,1,4,0:3:0:0:
424,192,88670,1,0,0:0:0:0:
264,288,88764,1,4,1:2:0:0:
240,232,88857,1,0,0:0:0:0:
264,168,88951,1,4,0:3:0:0:
328,160,89045,1,0,0:0:0:0:
168,336,89139,5,4,1:3:0:0:
48,304,89326,2,0,L|48:216,1,65,0|0,1:0|0:3,0:0:0:0:
120,248,89514,2,0,L|112:152,1,65,4|4,0:3|0:3,0:0:0:0:
40,168,89701,2,0,L|112:144,1,65,0|0,1:0|0:0,0:0:0:0:
352,328,89889,1,4,1:2:0:0:
408,288,89982,1,0,0:0:0:0:
408,224,90076,1,4,0:3:0:0:
352,192,90170,1,0,0:0:0:0:
192,176,90264,2,0,L|112:144,1,65,0|0,1:0|1:0,0:0:0:0:
336,104,90451,2,0,L|432:56,1,65,0|0,1:0|1:0,0:0:0:0:
176,48,90639,5,4,1:0:0:0:
256,192,90826,12,0,96920,1:0:0:0:
