osu file format v14

[General]
AudioFilename: audio.mp3
AudioLeadIn: 0
PreviewTime: 54264
Countdown: 0
SampleSet: Soft
StackLeniency: 0.7
Mode: 2
LetterboxInBreaks: 0
WidescreenStoryboard: 1

[Editor]
Bookmarks: 30991
DistanceSpacing: 1.3
BeatDivisor: 4
GridSize: 8
TimelineZoom: 2.1

[Metadata]
Title:Gareki no Yume
TitleUnicode:瓦礫の夢
Artist:Denkishiki Karen Ongaku Shuudan
ArtistUnicode:電気式華憐音楽集団
Creator:-Luminate
Version:Platter
Source:サクラノモリ†ドリーマーズ
Tags:Sakura no Mori Dreamers moonstone eroge visual novel game opening tv size op denkare vn japanese video game denkare metal rock jrock j-rock sinnoh dust idu5t du5t
BeatmapID:2980842
BeatmapSetID:1447060

[Difficulty]
HPDrainRate:4
CircleSize:3.5
OverallDifficulty:8.2
ApproachRate:8.2
SliderMultiplier:1.1
SliderTickRate:1

[Events]
//Background and Video events
0,0,"bg.jpg",0,0
//Break Periods
//Storyboard Layer 0 (Background)
//Storyboard Layer 1 (Fail)
//Storyboard Layer 2 (Pass)
//Storyboard Layer 3 (Foreground)
//Storyboard Layer 4 (Overlay)
//Storyboard Sound Samples

[TimingPoints]
2139,375,4,2,2,30,1,0
7764,-100,4,2,0,70,0,0
8139,-50,4,2,0,70,0,0
14139,-50,4,2,0,70,0,0
15732,-50,4,2,0,70,0,0
18639,-50,4,2,0,70,0,0
20232,-50,4,2,0,70,0,0
23889,-50,4,2,0,50,0,0
29139,-100,4,2,0,40,0,0
32139,-50,4,2,0,60,0,0
35139,-100,4,2,0,40,0,0
38139,-50,4,2,0,60,0,0
41701,-50,4,2,0,60,0,0
42264,-50,4,2,0,50,0,0
42826,-50,4,2,0,70,0,0
44139,-50,4,2,0,50,0,0
44701,-50,4,2,0,60,0,0
45264,-50,4,2,0,50,0,0
45826,-50,4,2,0,70,0,0
46389,-50,4,2,0,50,0,0
47701,-50,4,2,0,60,0,0
48264,-50,4,2,0,50,0,0
48826,-50,4,2,0,70,0,0
49389,-50,4,2,0,60,0,0
50701,-50,4,2,0,70,0,0
51264,-50,4,2,0,80,0,0
51826,-50,4,2,0,90,0,0
52389,-50,4,2,0,60,0,0
53139,-50,4,2,0,60,0,0
53420,-50,4,2,0,60,0,0
53701,-50,4,2,0,70,0,0
54639,-50,4,2,0,70,0,1
64389,-50,4,2,0,70,0,1
65889,-50,4,2,0,80,0,1
66264,-50,4,2,0,80,0,0
66639,-50,4,2,0,80,0,1
78639,-50,4,2,0,70,0,0
90639,-50,4,2,0,70,0,0
90732,-50,4,2,0,30,0,0
92139,-50,4,2,0,20,0,0
93639,-50,4,2,0,10,0,0
95139,-50,4,2,0,5,0,0
96639,-50,4,2,0,80,0,0

[Colours]
Combo1 : 85,170,255
Combo2 : 192,192,192

[HitObjects]
400,192,2139,5,2,0:0:0:0:
120,192,2889,1,0,0:0:0:0:
248,152,3264,1,0,0:0:0:0:
248,40,3639,1,0,0:0:0:0:
112,192,5139,5,2,0:0:0:0:
392,192,5889,1,0,0:0:0:0:
264,152,6264,1,0,0:0:0:0:
264,40,6639,1,0,0:0:0:0:
96,280,7857,1,0,0:0:0:0:
488,288,8139,6,0,L|344:160,2,165,4|4|4,1:2|0:3|0:3,0:0:0:0:
336,336,8889,1,0,1:0:0:0:
288,304,8982,1,0,1:0:0:0:
384,240,9170,1,4,0:3:0:0:
384,184,9264,1,0,0:0:0:0:
288,152,9451,1,4,0:3:0:0:
24,136,9639,6,0,L|176:40,2,165,4|4|4,1:2|0:3|0:3,0:0:0:0:
360,336,10389,2,0,P|400:272|360:184,1,165,2|4,1:0|0:3,0:0:0:0:
344,168,10764,1,0,1:0:0:0:
448,112,10951,1,0,1:0:0:0:
184,312,11139,6,0,L|40:200,2,165,4|4|4,1:2|0:3|0:3,0:0:0:0:
344,312,11889,2,0,L|352:216,1,55,0|0,1:0|1:0,0:0:0:0:
192,232,12170,2,0,L|184:152,1,55,4|4,0:3|0:3,0:0:0:0:
96,168,12451,1,4,0:3:0:0:
352,160,12639,5,4,1:2:0:0:
224,216,12920,1,4,0:3:0:0:
352,272,13201,1,4,0:3:0:0:
80,328,13389,2,0,P|32:224|112:152,1,220,4|0,1:2|1:0,0:0:0:0:
184,152,13951,1,0,1:0:0:0:
440,328,14139,6,0,L|440:248,1,55,4|0,1:2|1:0,0:0:0:0:
272,264,14420,2,0,L|272:176,1,55,0|4,1:0|0:3,0:0:0:0:
328,208,14607,1,0,1:0:0:0:
328,144,14701,1,4,0:3:0:0:
272,112,14795,1,0,1:0:0:0:
128,208,14982,1,0,1:0:0:0:
136,256,15076,1,4,0:3:0:0:
160,288,15170,1,0,1:0:0:0:
208,296,15264,1,4,0:3:0:0:
128,136,15451,1,4,0:3:0:0:
432,224,15639,5,4,0:3:0:0:
480,184,15732,1,4,0:3:0:0:
496,136,15826,1,4,0:3:0:0:
480,88,15920,1,4,0:3:0:0:
432,64,16014,1,4,0:3:0:0:
251,311,16201,2,0,P|187:223|283:143,1,220,0|4,1:0|0:3,0:0:0:0:
408,144,16764,1,0,1:0:0:0:
448,96,16857,1,0,0:0:0:0:
408,56,16951,1,4,0:3:0:0:
144,248,17139,5,4,0:3:0:0:
96,208,17232,1,4,0:3:0:0:
80,160,17326,1,4,0:3:0:0:
96,112,17420,1,4,0:3:0:0:
144,88,17514,1,4,0:3:0:0:
326,335,17701,2,0,P|390:247|294:167,1,220,0|8,1:0|0:3,0:0:0:0:
240,144,18264,1,4,0:3:0:0:
343,96,18451,1,0,1:0:0:0:
88,328,18639,6,0,L|88:248,1,55,4|0,1:2|1:0,0:0:0:0:
240,264,18920,2,0,L|240:176,1,55,0|4,1:0|0:3,0:0:0:0:
184,208,19107,1,0,1:0:0:0:
184,144,19201,1,4,0:3:0:0:
240,112,19295,1,0,1:0:0:0:
384,208,19482,1,0,1:0:0:0:
384,256,19576,1,4,0:3:0:0:
352,288,19670,1,0,1:0:0:0:
304,304,19764,1,4,0:3:0:0:
384,136,19951,1,4,0:3:0:0:
80,224,20139,5,4,0:3:0:0:
32,184,20232,1,4,0:3:0:0:
16,136,20326,1,4,0:3:0:0:
32,88,20420,1,4,0:3:0:0:
80,64,20514,1,4,0:3:0:0:
256,312,20701,2,0,P|320:224|224:144,1,220,0|4,1:0|0:3,0:0:0:0:
104,144,21264,1,0,1:0:0:0:
64,96,21357,1,0,0:0:0:0:
104,56,21451,1,4,0:3:0:0:
376,240,21639,5,4,0:3:0:0:
424,200,21732,1,4,0:3:0:0:
440,152,21826,1,4,0:3:0:0:
424,104,21920,1,4,0:3:0:0:
376,80,22014,1,4,0:3:0:0:
200,328,22201,2,0,P|136:240|232:160,1,220,0|4,1:0|0:3,0:0:0:0:
320,160,22764,2,0,L|328:32,1,110,0|0,1:0|1:0,0:0:0:0:
64,48,23139,5,4,1:0:0:0:
256,192,23326,12,4,26139,0:0:0:0:
240,312,26514,5,0,0:0:0:0:
392,312,26889,2,0,L|400:80,1,220,0|0,0:0|0:0,0:0:0:0:
128,320,27639,6,0,L|304:168,2,220,2|0|2,0:0|0:0|0:0,0:0:0:0:
48,272,28576,1,0,0:0:0:0:
48,176,28764,1,8,0:3:0:0:
136,128,28951,1,8,0:3:0:0:
392,128,29139,5,4,0:2:0:0:
392,256,29514,1,0,3:0:0:0:
240,320,29889,2,0,L|232:200,1,110,2|0,0:0|0:0,0:0:0:0:
392,248,30639,6,0,L|400:120,1,110,2|0,0:0|0:0,0:0:0:0:
160,104,31389,1,2,0:0:0:0:
80,152,31576,1,0,0:0:0:0:
80,232,31764,1,4,0:3:0:0:
160,264,31951,1,4,0:3:0:0:
440,328,32139,6,0,L|440:248,3,55,4|0|4|4,1:2|0:0|0:3|0:3,0:0:0:0:
384,272,32514,2,0,L|384:176,1,55,4|4,0:3|0:3,0:0:0:0:
288,224,32795,2,0,L|288:160,1,55,4|4,0:3|0:3,0:0:0:0:
440,176,33076,2,0,L|440:96,2,55,4|4|0,0:3|0:3|0:0,0:0:0:0:
168,312,33639,5,0,0:0:0:0:
72,264,33826,2,0,L|72:192,3,55,4|4|4|4,0:3|0:3|0:3|0:3,0:0:0:0:
176,208,34295,2,0,L|176:128,1,55,4|4,0:3|0:3,0:0:0:0:
336,128,34576,2,0,L|416:128,1,55,4|4,0:3|0:3,0:0:0:0:
56,80,35139,5,4,0:2:0:0:
56,208,35514,1,0,0:0:0:0:
232,328,35889,2,0,L|232:200,1,110,2|4,0:0|0:3,0:0:0:0:
64,208,36639,6,0,L|56:96,1,110,0|2,0:0|0:0,0:0:0:0:
304,96,37389,1,4,0:3:0:0:
376,136,37576,1,2,0:3:0:0:
408,208,37764,1,8,0:3:0:0:
400,280,37951,1,8,0:3:0:0:
96,320,38139,6,0,L|96:224,3,55,4|0|4|4,1:2|0:0|0:3|0:3,0:0:0:0:
168,264,38514,2,0,L|168:168,1,55,4|0,0:3|0:0,0:0:0:0:
64,192,38795,2,0,L|64:112,1,55,4|4,0:3|0:3,0:0:0:0:
248,136,39076,2,0,L|336:88,2,55,4|0|0,0:3|0:0|0:0,0:0:0:0:
496,296,39639,5,0,0:0:0:0:
376,296,39826,1,4,0:3:0:0:
320,272,39920,1,4,0:3:0:0:
296,208,40014,1,4,0:3:0:0:
296,152,40107,1,4,0:3:0:0:
400,152,40295,2,0,L|400:80,1,55,4|4,0:3|0:3,0:0:0:0:
232,96,40576,2,0,L|232:40,1,55,4|4,0:3|0:3,0:0:0:0:
280,32,40764,1,8,0:3:0:0:
32,40,40951,1,0,1:0:0:0:
32,40,41139,5,4,0:3:0:0:
80,72,41232,1,4,0:3:0:0:
120,96,41326,1,4,0:3:0:0:
168,120,41420,1,4,0:3:0:0:
368,336,41701,1,4,0:3:0:0:
368,288,41795,1,4,0:3:0:0:
368,240,41889,1,4,0:3:0:0:
368,184,41982,1,4,0:3:0:0:
112,352,42264,5,0,1:0:0:0:
168,328,42357,1,0,1:0:0:0:
224,304,42451,1,0,1:0:0:0:
280,280,42545,1,0,1:0:0:0:
64,80,42826,1,4,0:3:0:0:
40,128,42920,1,4,0:3:0:0:
40,176,43014,1,4,0:3:0:0:
64,216,43107,1,4,0:3:0:0:
464,272,43389,2,0,L|472:136,1,110,4|0,1:0|0:0,0:0:0:0:
312,136,43764,2,0,L|200:72,1,110,0|0,0:0|0:0,0:0:0:0:
384,184,44139,5,4,0:3:0:0:
384,240,44232,1,4,0:3:0:0:
384,184,44326,1,4,0:3:0:0:
384,120,44420,1,4,0:3:0:0:
200,320,44701,1,4,0:3:0:0:
184,272,44795,1,4,0:3:0:0:
200,232,44889,1,4,0:3:0:0:
184,184,44982,1,4,0:3:0:0:
392,336,45264,5,0,1:0:0:0:
376,280,45357,1,0,1:0:0:0:
344,232,45451,1,0,1:0:0:0:
288,216,45545,1,0,1:0:0:0:
32,160,45826,1,4,0:3:0:0:
32,88,45920,1,4,0:3:0:0:
48,40,46014,1,4,0:3:0:0:
96,24,46107,1,4,0:3:0:0:
480,360,46389,2,0,P|336:280|296:72,1,385,4|0,1:0|0:0,0:0:0:0:
320,48,47139,5,4,0:3:0:0:
360,88,47232,1,4,0:3:0:0:
360,152,47326,1,4,0:3:0:0:
320,184,47420,1,4,0:3:0:0:
160,224,47701,1,4,0:3:0:0:
128,248,47795,1,4,0:3:0:0:
128,296,47889,1,4,0:3:0:0:
160,320,47982,1,4,0:3:0:0:
384,352,48264,1,0,1:0:0:0:
432,328,48357,1,0,1:0:0:0:
464,288,48451,1,0,1:0:0:0:
464,232,48545,1,0,1:0:0:0:
296,224,48826,5,4,0:3:0:0:
344,192,48920,1,4,0:3:0:0:
392,160,49014,1,4,0:3:0:0:
440,128,49107,1,4,0:3:0:0:
56,80,49389,1,4,1:0:0:0:
160,144,49576,1,0,0:0:0:0:
56,200,49764,2,0,L|8:144,2,55,0|0|0,1:0|1:0|1:0,0:0:0:0:
352,200,50139,5,4,0:3:0:0:
128,128,50701,1,4,0:3:0:0:
352,48,51264,1,4,0:3:0:0:
128,40,51826,1,4,0:3:0:0:
464,328,52389,6,0,L|472:200,1,110,4|4,1:0|0:3,0:0:0:0:
368,168,52764,1,4,0:3:0:0:
472,128,52951,1,4,0:3:0:0:
208,328,53139,6,0,P|128:288|80:200,2,165,4|4|0,1:2|0:3|1:0,0:0:0:0:
360,328,53889,2,0,L|368:192,1,110,0|0,1:0|1:0,0:0:0:0:
248,160,54264,1,0,1:0:0:0:
304,136,54357,1,0,1:0:0:0:
360,112,54451,1,0,1:0:0:0:
80,320,54639,6,0,L|72:200,1,110,4|0,1:0|0:0,0:0:0:0:
208,208,54920,2,0,P|312:152|320:96,1,165,6|6,0:3|0:3,0:0:0:0:
232,72,55389,1,0,0:0:0:0:
80,80,55576,2,0,L|72:216,1,110,2|6,1:3|0:3,0:0:0:0:
160,192,55951,1,6,0:3:0:0:
416,320,56139,6,0,L|296:232,1,110,4|0,1:2|0:0,0:0:0:0:
272,240,56420,2,0,L|264:64,1,165,6|4,0:3|0:3,0:0:0:0:
432,144,56982,1,4,0:3:0:0:
480,160,57076,2,0,L|488:288,1,110,2|0,1:3|1:0,0:0:0:0:
400,272,57451,1,8,0:3:0:0:
136,280,57639,5,4,1:2:0:0:
240,224,57826,2,0,L|240:144,1,55,2|4,0:0|0:3,0:0:0:0:
136,168,58107,2,0,L|136:72,1,55,2|2,0:0|0:0,0:0:0:0:
240,88,58389,1,0,0:0:0:0:
488,312,58576,2,0,L|368:216,2,110,2|6|2,1:3|0:3|1:3,0:0:0:0:
232,344,59139,6,0,P|192:264|248:200,1,165,4|4,1:2|0:3,0:0:0:0:
312,208,59514,2,0,L|320:88,1,110,0|4,1:0|0:3,0:0:0:0:
168,112,59982,2,0,L|168:24,1,55,4|0,0:3|1:0,0:0:0:0:
272,32,60264,1,6,0:3:0:0:
168,56,60451,1,2,1:3:0:0:
424,312,60639,6,0,L|432:168,1,110,4|0,1:2|0:0,0:0:0:0:
360,200,60920,2,0,P|272:136|272:64,1,165,6|6,0:3|0:3,0:0:0:0:
448,88,61482,1,6,0:3:0:0:
384,128,61576,2,0,L|288:56,2,110,0|4|8,1:0|0:3|0:3,0:0:0:0:
128,336,62139,6,0,L|128:200,1,110,4|0,1:0|0:0,0:0:0:0:
264,216,62420,2,0,P|304:136|248:80,1,165,4|6,0:3|0:3,0:0:0:0:
112,184,62982,1,4,0:3:0:0:
176,224,63076,2,0,L|304:320,2,110,2|6|4,1:3|0:3|0:3,0:0:0:0:
432,208,63639,6,0,L|440:72,1,110,4|0,1:2|0:0,0:0:0:0:
344,72,64014,1,0,1:0:0:0:
440,48,64201,1,0,1:0:0:0:
184,344,64389,2,0,L|40:336,1,110,4|0,1:2|0:0,0:0:0:0:
56,288,64670,1,4,0:3:0:0:
72,232,64764,1,0,1:0:0:0:
160,192,64951,1,4,0:3:0:0:
416,328,65139,6,0,L|424:208,1,110,4|0,1:2|0:0,0:0:0:0:
248,240,65514,2,0,L|240:104,1,110,0|4,1:0|0:3,0:0:0:0:
416,216,65889,2,0,L|400:80,1,110,0|4,1:0|0:3,0:0:0:0:
264,80,66264,1,2,1:3:0:0:
312,64,66357,1,0,1:0:0:0:
360,48,66451,1,2,1:3:0:0:
80,232,66639,6,0,L|16:208,1,55,4|0,1:0|0:0,0:0:0:0:
192,88,66920,2,0,L|39:52,1,110,6|4,0:3|0:3,0:0:0:0:
84,62,67201,2,0,L|224:32,1,110,0|4,1:0|0:3,0:0:0:0:
336,112,67576,1,0,1:0:0:0:
192,200,67764,2,0,L|120:136,2,55,2|4|2,0:3|0:3|1:3,0:0:0:0:
456,232,68139,6,0,L|520:184,1,55,6|0,0:3|0:0,0:0:0:0:
312,320,68420,2,0,L|312:168,1,110,2|4,0:3|0:3,0:0:0:0:
360,200,68701,2,0,L|464:120,1,110,2|4,1:3|0:3,0:0:0:0:
296,104,69076,1,2,1:3:0:0:
448,80,69264,2,0,L|520:16,2,55,6|4|0,0:3|0:3|1:0,0:0:0:0:
184,88,69639,5,4,1:0:0:0:
312,152,69826,1,2,1:2:0:0:
311,261,69920,2,0,L|312:138,1,110,4|4,0:3|0:3,0:0:0:0:
176,160,70201,2,0,P|136:232|192:296,1,165,2|4,1:3|0:3,0:0:0:0:
224,288,70576,1,0,1:3:0:0:
120,264,70764,1,6,0:3:0:0:
120,160,70951,1,2,1:3:0:0:
384,240,71139,6,0,L|392:96,1,110,6|0,0:3|1:0,0:0:0:0:
272,96,71514,1,4,0:3:0:0:
328,72,71607,1,4,0:3:0:0:
384,48,71701,1,0,1:0:0:0:
216,336,71889,1,4,0:3:0:0:
176,288,71982,1,4,0:3:0:0:
216,248,72076,1,0,1:0:0:0:
392,248,72264,1,6,0:3:0:0:
432,208,72357,1,4,0:3:0:0:
392,168,72451,1,0,1:0:0:0:
128,160,72639,6,0,L|64:112,1,55,4|0,1:0|0:0,0:0:0:0:
250,43,72920,2,0,L|354:155,1,110,2|4,0:3|0:3,0:0:0:0:
325,124,73201,2,0,L|184:120,1,110,6|4,1:3|0:3,0:0:0:0:
384,184,73576,1,0,1:0:0:0:
448,248,73764,1,4,0:3:0:0:
384,304,73951,1,0,1:0:0:0:
120,296,74139,5,6,0:3:0:0:
72,272,74232,1,0,0:0:0:0:
232,184,74420,2,0,L|344:104,1,110,2|4,0:3|0:3,0:0:0:0:
321,120,74701,2,0,L|216:200,2,110,2|4|0,1:3|0:3|1:0,0:0:0:0:
184,56,75264,2,0,L|72:136,1,110,10|6,0:3|0:3,0:0:0:0:
368,336,75639,5,4,1:0:0:0:
408,312,75732,1,4,0:3:0:0:
408,264,75826,1,0,1:0:0:0:
232,216,76014,1,4,0:3:0:0:
320,168,76201,1,0,1:0:0:0:
152,336,76389,1,4,0:3:0:0:
104,304,76482,1,4,0:3:0:0:
80,248,76576,1,4,0:3:0:0:
104,192,76670,1,4,0:3:0:0:
152,168,76764,1,0,1:0:0:0:
240,168,76951,1,6,0:3:0:0:
496,304,77139,6,0,L|344:160,2,165,6|6|6,0:3|0:3|0:3,0:0:0:0:
232,336,77889,2,0,L|224:216,1,110,4|4,0:3|0:3,0:0:0:0:
400,208,78264,2,0,L|456:176,2,55,0|0|0,1:0|1:0|1:0,0:0:0:0:
144,224,78639,5,4,1:0:0:0:
272,144,78920,1,4,0:3:0:0:
144,80,79201,1,4,0:3:0:0:
344,328,79389,1,0,1:0:0:0:
232,256,79670,1,0,1:0:0:0:
344,176,79951,1,0,1:0:0:0:
80,168,80139,6,0,L|72:96,1,55,4|0,1:2|0:0,0:0:0:0:
233,117,80420,2,0,L|377:277,1,165,4|4,0:3|0:3,0:0:0:0:
184,352,80889,2,0,L|176:224,1,110,4|0,0:3|0:0,0:0:0:0:
344,240,81264,2,0,L|352:96,1,110,0|0,1:0|1:0,0:0:0:0:
80,184,81639,6,0,L|24:128,2,55,4|0|4,1:0|0:0|0:3,0:0:0:0:
136,208,81920,1,0,0:0:0:0:
136,208,82014,1,4,0:3:0:0:
56,272,82201,1,4,0:3:0:0:
336,336,82389,2,0,L|400:288,2,55,4|4|0,1:2|0:3|0:3,0:0:0:0:
272,320,82670,1,0,0:0:0:0:
272,264,82764,1,4,1:2:0:0:
360,216,82951,1,0,0:0:0:0:
96,192,83139,6,0,L|-24:104,2,110,6|4|4,1:2|0:3|0:3,0:0:0:0:
272,232,83701,1,4,0:3:0:0:
96,192,83889,2,0,L|88:40,1,110,4|4,1:2|0:3,0:0:0:0:
272,88,84264,1,0,1:0:0:0:
232,64,84357,1,0,1:0:0:0:
192,40,84451,1,0,1:0:0:0:
448,320,84639,5,4,0:3:0:0:
368,288,84826,2,0,L|360:200,1,55,0|6,1:0|0:3,0:0:0:0:
488,208,85107,2,0,L|496:144,1,55,4|2,0:3|1:3,0:0:0:0:
328,152,85389,2,0,L|208:72,1,110,0|0,1:0|1:0,0:0:0:0:
236,90,85670,2,0,L|384:0,1,165,2|2,0:3|1:3,0:0:0:0:
112,320,86139,5,4,0:3:0:0:
200,272,86326,2,0,L|208:200,1,55,0|2,1:0|0:3,0:0:0:0:
56,208,86607,2,0,L|48:144,1,55,4|2,0:3|1:3,0:0:0:0:
216,144,86889,2,0,L|336:72,2,110,0|0|4,1:0|1:0|0:3,0:0:0:0:
168,176,87357,1,4,0:3:0:0:
168,224,87451,1,0,1:0:0:0:
432,336,87639,5,4,1:2:0:0:
472,304,87732,1,4,0:3:0:0:
488,248,87826,1,4,0:3:0:0:
472,208,87920,1,0,0:0:0:0:
432,192,88014,1,4,0:3:0:0:
336,192,88201,1,4,0:3:0:0:
72,256,88389,1,4,1:2:0:0:
32,216,88482,1,0,0:0:0:0:
24,160,88576,1,4,0:3:0:0:
40,112,88670,1,0,0:0:0:0:
88,88,88764,1,4,1:2:0:0:
184,88,88951,1,4,0:3:0:0:
440,232,89139,6,0,L|448:112,1,110,4|0,1:3|1:0,0:0:0:0:
344,88,89514,1,4,0:3:0:0:
448,56,89701,1,0,1:0:0:0:
184,328,89889,2,0,L|176:200,1,110,4|4,1:2|0:3,0:0:0:0:
352,200,90264,2,0,L|400:168,2,55,0|0|0,1:0|1:0|1:0,0:0:0:0:
96,208,90639,5,4,1:0:0:0:
256,192,90826,12,0,96920,1:0:0:0:
