osu file format v14

[General]
AudioFilename: audio.mp3
AudioLeadIn: 0
PreviewTime: 54264
Countdown: 0
SampleSet: Soft
StackLeniency: 0.7
Mode: 2
LetterboxInBreaks: 0
WidescreenStoryboard: 1

[Editor]
DistanceSpacing: 1.3
BeatDivisor: 4
GridSize: 8
TimelineZoom: 2.1

[Metadata]
Title:Gareki no Yume
TitleUnicode:瓦礫の夢
Artist:Denkishiki Karen Ongaku Shuudan
ArtistUnicode:電気式華憐音楽集団
Creator:-Luminate
Version:Overdose
Source:サクラノモリ†ドリーマーズ
Tags:Sakura no Mori Dreamers moonstone eroge visual novel game opening tv size op denkare vn japanese video game denkare metal rock jrock j-rock sinnoh dust idu5t du5t
BeatmapID:2977826
BeatmapSetID:1447060

[Difficulty]
HPDrainRate:6
CircleSize:4
OverallDifficulty:9.4
ApproachRate:9.4
SliderMultiplier:1.6
SliderTickRate:1

[Events]
//Background and Video events
0,0,"bg.jpg",0,0
//Break Periods
//Storyboard Layer 0 (Background)
//Storyboard Layer 1 (Fail)
//Storyboard Layer 2 (Pass)
//Storyboard Layer 3 (Foreground)
//Storyboard Layer 4 (Overlay)
//Storyboard Sound Samples

[TimingPoints]
2139,375,4,2,2,30,1,0
7764,-100,4,2,0,70,0,0
8139,-50,4,2,0,70,0,0
14139,-50,4,2,0,70,0,0
15732,-50,4,2,0,70,0,0
18639,-50,4,2,0,70,0,0
20232,-50,4,2,0,70,0,0
23889,-50,4,2,0,50,0,0
29139,-100,4,2,0,40,0,0
32139,-50,4,2,0,60,0,0
35139,-100,4,2,0,40,0,0
38139,-50,4,2,0,60,0,0
41701,-50,4,2,0,60,0,0
42264,-50,4,2,0,50,0,0
42826,-50,4,2,0,70,0,0
44139,-50,4,2,0,50,0,0
44701,-50,4,2,0,60,0,0
45264,-50,4,2,0,50,0,0
45826,-50,4,2,0,70,0,0
46389,-50,4,2,0,50,0,0
47701,-50,4,2,0,60,0,0
48264,-50,4,2,0,50,0,0
48826,-50,4,2,0,70,0,0
49389,-50,4,2,0,60,0,0
50701,-50,4,2,0,70,0,0
51264,-50,4,2,0,80,0,0
51826,-50,4,2,0,90,0,0
52389,-50,4,2,0,60,0,0
53139,-50,4,2,0,60,0,0
53420,-50,4,2,0,60,0,0
53701,-50,4,2,0,70,0,0
54639,-50,4,2,0,70,0,1
64389,-50,4,2,0,70,0,1
65889,-50,4,2,0,80,0,1
66264,-50,4,2,0,80,0,0
66639,-50,4,2,0,80,0,1
78639,-50,4,2,0,70,0,0
90639,-50,4,2,0,70,0,0
90732,-50,4,2,0,30,0,0
92139,-50,4,2,0,20,0,0
93639,-50,4,2,0,10,0,0
95139,-50,4,2,0,5,0,0
96639,-50,4,2,0,80,0,0

[Colours]
Combo1 : 85,170,255
Combo2 : 192,192,192

[HitObjects]
120,336,2139,6,0,P|64:176|136:48,1,320,2|0,0:0|0:0,0:0:0:0:
304,112,3264,1,0,0:0:0:0:
128,208,3639,1,0,0:0:0:0:
392,336,5139,6,0,P|448:176|376:48,1,320,2|0,0:0|0:0,0:0:0:0:
208,112,6264,1,0,0:0:0:0:
384,208,6639,1,0,0:0:0:0:
144,288,7857,2,0,L|135:180,1,80
376,200,8139,5,4,1:2:0:0:
240,176,8326,2,0,L|232:72,1,80,0|4,0:0|0:3,0:0:0:0:
376,120,8607,2,0,L|384:32,1,80,0|4,0:0|0:3,0:0:0:0:
112,312,8889,2,0,L|32:248,2,80,0|0|0,1:0|1:0|0:0,0:0:0:0:
272,304,9170,2,0,L|360:240,1,80,4|0,0:3|0:0,0:0:0:0:
184,160,9451,1,4,0:3:0:0:
184,160,9545,1,4,0:3:0:0:
416,328,9639,6,0,L|264:224,1,160,4|0,1:2|0:0,0:0:0:0:
88,216,9920,2,0,L|248:104,1,160,4|0,0:3|0:0,0:0:0:0:
416,144,10201,2,0,L|424:48,1,80,4|0,0:3|0:0,0:0:0:0:
224,48,10389,2,0,P|152:136|232:224,1,240,2|4,1:0|0:3,0:0:0:0:
416,224,10764,1,0,1:0:0:0:
440,256,10826,1,0,1:0:0:0:
440,288,10889,1,0,1:0:0:0:
416,312,10951,1,0,1:0:0:0:
272,304,11014,2,0,L|224:272,1,53.3333333333333,0|0,1:0|1:0,0:0:0:0:
384,208,11139,6,0,P|424:128|328:80,1,160,4|0,1:2|0:0,0:0:0:0:
312,112,11420,2,0,L|456:8,1,160,4|0,0:3|0:0,0:0:0:0:
272,304,11701,2,0,L|264:184,1,80,4|0,0:3|0:0,0:0:0:0:
456,200,11889,2,0,L|464:96,2,80,0|0|0,1:0|1:0|0:0,0:0:0:0:
272,304,12170,2,0,L|192:360,1,80,4|4,0:3|0:3,0:0:0:0:
376,312,12451,2,0,L|440:360,1,80,4|4,0:3|0:3,0:0:0:0:
272,304,12639,6,0,L|96:192,1,160,4|0,1:2|0:0,0:0:0:0:
224,208,12920,2,0,P|256:120|176:80,1,160,4|0,0:3|0:0,0:0:0:0:
40,96,13201,2,0,L|120:40,1,80,4|0,0:3|0:0,0:0:0:0:
320,48,13389,2,0,P|424:96|432:264,1,240,4|4,1:2|0:3,0:0:0:0:
224,336,13764,1,0,1:0:0:0:
187,299,13826,1,0,1:0:0:0:
191,247,13889,1,0,1:0:0:0:
233,217,13951,1,0,1:0:0:0:
368,208,14014,2,0,L|296:160,1,53.3333333333333,0|0,1:0|1:0,0:0:0:0:
160,192,14139,6,0,L|64:128,1,80,4|0,1:2|1:0,0:0:0:0:
248,144,14326,2,0,L|256:16,1,80,4|0,0:3|1:0,0:0:0:0:
80,64,14514,2,0,L|168:24,1,80,4|0,0:3|1:0,0:0:0:0:
304,32,14701,2,0,L|376:72,1,80,4|0,0:3|1:0,0:0:0:0:
208,208,14889,2,0,L|304:248,1,80,4|0,0:3|1:0,0:0:0:0:
440,336,15076,2,0,L|448:224,1,80,4|0,0:3|1:0,0:0:0:0:
360,248,15264,2,0,L|352:128,1,80,4|0,0:3|1:0,0:0:0:0:
152,152,15451,2,0,L|144:64,1,80,4|0,0:3|0:0,0:0:0:0:
344,56,15639,6,0,L|352:152,1,80,4|4,0:3|0:3,0:0:0:0:
264,136,15826,2,0,L|256:232,1,80,4|4,0:3|0:3,0:0:0:0:
352,224,16014,1,4,0:3:0:0:
104,360,16201,2,0,P|48:232|136:56,1,320,0|4,1:0|0:3,0:0:0:0:
32,56,16764,1,0,1:0:0:0:
88,40,16857,1,0,0:0:0:0:
288,32,16951,1,4,0:3:0:0:
168,312,17138,6,0,L|160:216,1,80,4|4,0:3|0:3,0:0:0:0:
240,240,17326,2,0,L|248:144,1,80,4|4,0:3|0:3,0:0:0:0:
168,144,17513,1,4,0:3:0:0:
464,320,17701,2,0,P|480:224|328:72,1,320,0|8,1:0|0:3,0:0:0:0:
320,104,18139,1,0,0:0:0:0:
336,136,18201,1,0,0:0:0:0:
320,176,18264,1,4,0:3:0:0:
464,264,18451,2,0,L|368:208,1,80,0|0,1:0|1:0,0:0:0:0:
192,304,18639,6,0,L|176:192,1,80,4|0,1:2|1:0,0:0:0:0:
336,136,18826,2,0,L|328:24,1,80,4|0,0:3|1:0,0:0:0:0:
152,88,19014,2,0,L|240:32,1,80,4|0,0:3|1:0,0:0:0:0:
392,304,19201,2,0,L|288:232,1,80,4|0,0:3|1:0,0:0:0:0:
488,176,19389,2,0,L|384:104,1,80,4|0,0:3|1:0,0:0:0:0:
192,200,19576,2,0,L|176:96,1,80,4|0,0:3|1:0,0:0:0:0:
272,128,19764,2,0,L|280:40,1,80,4|0,0:3|1:0,0:0:0:0:
464,312,19951,2,0,L|472:184,1,80,4|0,0:3|1:3,0:0:0:0:
272,320,20139,5,4,0:3:0:0:
184,288,20232,1,4,0:3:0:0:
184,208,20326,1,4,0:3:0:0:
272,160,20420,1,4,0:3:0:0:
184,128,20514,1,4,0:3:0:0:
440,328,20701,2,0,P|504:248|344:72,1,320,0|4,1:0|0:3,0:0:0:0:
216,208,21264,1,0,1:0:0:0:
280,176,21357,1,0,0:0:0:0:
448,128,21451,1,4,0:3:0:0:
288,304,21639,5,4,0:3:0:0:
288,208,21732,1,4,0:3:0:0:
368,232,21826,1,4,0:3:0:0:
288,184,21920,1,4,0:3:0:0:
368,152,22014,1,4,0:3:0:0:
112,256,22201,2,0,P|16:144|136:40,1,320,0|4,1:0|0:3,0:0:0:0:
304,216,22764,2,0,L|344:152,2,53.3333333333333,0|0|0,1:0|1:0|1:0,0:0:0:0:
152,320,22951,2,0,L|112:264,2,53.3333333333333,0|0|0,1:0|1:0|1:0,0:0:0:0:
336,312,23139,5,4,1:0:0:0:
304,168,23889,1,2,0:0:0:0:
120,120,24264,1,0,0:0:0:0:
304,176,24639,6,0,L|168:384,2,240,4|4|4,0:3|0:3|0:3,0:0:0:0:
128,104,25389,2,0,L|248:328,2,240,4|4|4,0:3|0:3|0:3,0:0:0:0:
408,96,26139,5,4,0:0:0:0:
248,168,26514,1,0,0:0:0:0:
80,216,26889,1,2,0:0:0:0:
160,176,27076,1,0,0:0:0:0:
160,96,27264,1,0,0:0:0:0:
80,72,27451,1,0,0:0:0:0:
200,240,27639,5,2,0:0:0:0:
416,304,28014,1,0,0:0:0:0:
200,336,28389,1,2,0:0:0:0:
112,304,28576,1,0,0:0:0:0:
112,216,28764,1,8,0:3:0:0:
200,184,28951,1,8,0:3:0:0:
448,184,29139,5,4,0:2:0:0:
200,288,29514,1,0,3:0:0:0:
408,336,29889,1,2,0:0:0:0:
416,240,30076,1,0,0:0:0:0:
296,248,30264,1,0,0:0:0:0:
288,136,30451,1,0,0:0:0:0:
432,136,30639,6,0,L|256:112,2,160,2|0|2,0:0|0:0|0:0,0:0:0:0:
472,224,31576,1,0,0:0:0:0:
432,312,31764,1,4,0:3:0:0:
344,352,31951,1,4,0:3:0:0:
88,328,32139,6,0,L|80:224,1,80,4|0,1:2|0:0,0:0:0:0:
168,208,32326,2,0,L|256:144,2,80,4|4|4,0:3|0:3|0:3,0:0:0:0:
352,304,32795,2,0,L|360:208,1,80,4|4,0:3|0:3,0:0:0:0:
208,128,33076,2,0,L|200:40,1,80,4|4,0:3|0:3,0:0:0:0:
296,176,33264,2,0,P|368:112|272:16,1,240,0|0,0:0|0:0,0:0:0:0:
200,24,33639,5,0,0:0:0:0:
352,240,33826,2,0,L|272:184,1,80,4|4,0:3|0:3,0:0:0:0:
352,232,34014,2,0,L|360:96,1,80,4|4,0:3|0:3,0:0:0:0:
208,328,34295,2,0,L|200:232,1,80,4|4,0:3|0:3,0:0:0:0:
360,168,34576,2,0,L|368:72,1,80,4|4,0:3|0:3,0:0:0:0:
288,56,34764,2,0,P|168:104|176:256,1,240,0|0,0:0|0:0,0:0:0:0:
352,272,35139,5,4,0:2:0:0:
216,296,35514,1,0,0:0:0:0:
352,336,35889,1,2,0:0:0:0:
264,296,36076,1,0,0:0:0:0:
264,208,36264,1,4,0:3:0:0:
352,184,36451,1,0,0:0:0:0:
216,152,36639,5,0,0:0:0:0:
112,112,36826,1,0,0:0:0:0:
216,80,37014,1,2,0:0:0:0:
304,48,37201,1,0,0:0:0:0:
216,32,37389,1,4,0:3:0:0:
352,80,37576,1,2,0:3:0:0:
360,184,37764,1,8,0:3:0:0:
368,288,37951,1,8,0:3:0:0:
96,344,38139,6,0,L|88:240,1,80,4|0,1:2|0:0,0:0:0:0:
176,264,38326,2,0,L|184:144,1,80,4|4,0:3|0:3,0:0:0:0:
96,160,38514,1,4,0:3:0:0:
272,192,38795,2,0,L|280:64,1,80,4|4,0:3|0:3,0:0:0:0:
416,288,39076,2,0,L|424:184,1,80,4|0,0:3|0:0,0:0:0:0:
336,344,39264,2,0,P|192:256|192:192,1,240,0|0,0:0|0:0,0:0:0:0:
280,184,39639,5,0,0:0:0:0:
464,144,39826,1,4,0:3:0:0:
384,112,39920,1,4,0:3:0:0:
304,72,40014,1,4,0:3:0:0:
456,328,40295,1,4,0:3:0:0:
376,296,40389,1,4,0:3:0:0:
192,232,40576,1,4,0:3:0:0:
112,200,40670,1,4,0:3:0:0:
192,160,40764,1,8,0:3:0:0:
208,112,40826,1,8,0:3:0:0:
192,72,40889,1,8,0:3:0:0:
40,72,40951,1,0,1:0:0:0:
160,344,41139,5,4,0:3:0:0:
248,320,41232,1,4,0:3:0:0:
336,296,41326,1,4,0:3:0:0:
248,256,41420,1,4,0:3:0:0:
424,216,41701,1,4,0:3:0:0:
336,192,41794,1,4,0:3:0:0:
248,168,41888,1,4,0:3:0:0:
336,128,41982,1,4,0:3:0:0:
136,120,42264,1,0,1:0:0:0:
216,80,42357,1,0,1:0:0:0:
136,40,42451,1,0,1:0:0:0:
336,32,42545,1,0,1:0:0:0:
192,320,42826,5,4,0:3:0:0:
112,280,42920,1,4,0:3:0:0:
192,240,43014,1,4,0:3:0:0:
280,208,43107,1,4,0:3:0:0:
448,152,43389,1,4,1:0:0:0:
176,96,43576,1,0,0:0:0:0:
440,48,43764,2,0,P|496:128|408:240,1,240,0|0,0:0|0:0,0:0:0:0:
240,336,44139,5,4,0:3:0:0:
320,304,44232,1,4,0:3:0:0:
240,272,44326,1,4,0:3:0:0:
160,248,44420,1,4,0:3:0:0:
304,184,44701,1,4,0:3:0:0:
216,152,44794,1,4,0:3:0:0:
304,120,44888,1,4,0:3:0:0:
392,96,44982,1,4,0:3:0:0:
216,336,45264,1,0,1:0:0:0:
296,296,45357,1,0,1:0:0:0:
216,256,45451,1,0,1:0:0:0:
416,248,45545,1,0,1:0:0:0:
240,200,45826,6,0,L|232:80,1,80,4|4,0:3|0:3,0:0:0:0:
152,128,46014,2,0,L|144:16,1,80,4|4,0:3|0:3,0:0:0:0:
408,344,46389,2,0,P|208:304|80:40,1,480,4|0,1:0|0:0,0:0:0:0:
352,80,47139,6,0,L|360:192,1,80,4|4,0:3|0:3,0:0:0:0:
448,152,47326,2,0,L|456:264,1,80,4|4,0:3|0:3,0:0:0:0:
256,336,47701,2,0,L|240:192,1,80,4|4,0:3|0:3,0:0:0:0:
160,272,47889,2,0,L|144:128,1,80,4|4,0:3|0:3,0:0:0:0:
336,168,48264,1,0,1:0:0:0:
256,128,48357,1,0,1:0:0:0:
336,88,48451,1,0,1:0:0:0:
120,80,48545,1,0,1:0:0:0:
272,336,48826,5,4,0:3:0:0:
264,272,48920,1,4,0:3:0:0:
184,288,49014,1,4,0:3:0:0:
176,224,49107,1,4,0:3:0:0:
376,168,49389,1,4,1:0:0:0:
88,112,49576,1,0,0:0:0:0:
376,64,49764,2,0,L|384:168,1,80,0|0,1:0|1:0,0:0:0:0:
192,192,49951,2,0,L|184:296,1,80,0|0,1:0|1:0,0:0:0:0:
384,296,50139,5,4,0:3:0:0:
48,240,50701,1,4,0:3:0:0:
376,160,51264,1,4,0:3:0:0:
56,104,51826,1,4,0:3:0:0:
440,80,52389,1,4,1:0:0:0:
304,128,52576,1,4,0:3:0:0:
472,184,52764,1,4,0:3:0:0:
304,240,52951,1,4,0:3:0:0:
48,336,53139,6,0,L|32:160,1,160,4|0,1:2|0:0,0:0:0:0:
200,200,53420,2,0,L|352:88,1,160,4|0,0:3|0:0,0:0:0:0:
168,336,53701,2,0,L|80:264,1,80,0|0,1:0|0:0,0:0:0:0:
320,344,53889,2,0,L|328:176,1,160,0|0,1:0|1:0,0:0:0:0:
248,176,54170,1,0,1:0:0:0:
328,120,54264,1,0,1:0:0:0:
248,88,54357,1,0,1:0:0:0:
432,296,54451,2,0,L|440:192,1,80,0|0,1:0|1:0,0:0:0:0:
232,344,54639,6,0,P|200:248|248:208,1,160,4|0,1:0|0:0,0:0:0:0:
328,192,54920,2,0,L|144:128,1,160,6|0,0:3|0:0,0:0:0:0:
368,280,55201,1,6,0:3:0:0:
456,256,55295,2,0,L|464:88,1,160,4|4,0:3|0:3,0:0:0:0:
280,160,55576,2,0,L|272:32,1,80,2|0,1:3|0:0,0:0:0:0:
368,104,55764,2,0,L|376:0,1,80,6|4,0:3|0:3,0:0:0:0:
184,280,55951,2,0,L|272:224,1,80,6|0,0:3|0:0,0:0:0:0:
432,344,56139,6,0,L|248:208,1,160,4|0,1:2|0:0,0:0:0:0:
200,224,56420,2,0,L|368:64,1,160,6|0,0:3|0:0,0:0:0:0:
408,96,56701,1,4,0:3:0:0:
408,96,56795,1,4,0:3:0:0:
272,328,56982,1,4,0:3:0:0:
352,304,57076,2,0,L|360:208,1,80,2|0,1:3|0:0,0:0:0:0:
184,208,57264,1,0,1:0:0:0:
160,176,57357,1,0,1:0:0:0:
184,144,57451,1,8,0:3:0:0:
264,104,57545,1,0,0:0:0:0:
88,72,57639,5,4,1:2:0:0:
208,304,57826,1,2,0:0:0:0:
120,296,57920,2,0,L|112:192,1,80,4|0,0:3|1:0,0:0:0:0:
200,192,58107,1,2,0:0:0:0:
112,200,58201,2,0,L|272:80,1,160,2|0,0:0|0:0,0:0:0:0:
376,328,58576,2,0,L|384:192,1,80,2|0,1:3|0:0,0:0:0:0:
216,192,58764,2,0,L|312:136,1,80,6|0,0:3|0:3,0:0:0:0:
448,144,58951,2,0,L|360:88,1,80,2|4,1:3|0:3,0:0:0:0:
208,328,59139,6,0,P|176:248|248:192,1,160,4|0,1:2|0:0,0:0:0:0:
320,192,59420,2,0,P|352:112|280:56,1,160,4|0,0:3|0:0,0:0:0:0:
216,64,59701,1,4,0:3:0:0:
208,160,59795,2,0,L|368:304,1,160,4|4,0:3|0:3,0:0:0:0:
128,336,60076,1,0,1:0:0:0:
264,272,60264,1,6,0:3:0:0:
128,240,60451,2,0,L|120:136,1,80,2|0,1:3|1:0,0:0:0:0:
320,168,60639,6,0,L|464:64,1,160,4|0,1:2|0:0,0:0:0:0:
384,336,60920,2,0,L|200:208,1,160,6|0,0:3|0:0,0:0:0:0:
448,248,61201,1,6,0:3:0:0:
448,176,61295,2,0,L|296:72,1,160,4|6,0:3|0:3,0:0:0:0:
136,200,61576,2,0,L|56:136,1,80,0|0,1:0|0:0,0:0:0:0:
248,336,61764,1,4,0:3:0:0:
136,272,61951,2,0,L|128:168,1,80,8|0,0:3|0:0,0:0:0:0:
328,288,62139,6,0,L|456:168,1,160,4|0,1:0|0:0,0:0:0:0:
248,208,62420,2,0,L|240:32,1,160,4|0,0:3|0:0,0:0:0:0:
440,336,62701,2,0,L|224:176,1,240,6|4,0:3|0:3,0:0:0:0:
336,200,63076,2,0,L|344:88,1,80,2|0,1:3|0:0,0:0:0:0:
248,136,63264,2,0,L|240:32,1,80,6|4,0:3|0:3,0:0:0:0:
440,336,63451,2,0,L|448:224,1,80,4|0,0:3|0:0,0:0:0:0:
248,248,63639,6,0,P|184:168|288:88,1,240,4|4,1:2|0:3,0:0:0:0:
448,256,64014,2,0,L|280:168,1,160,0|0,1:0|1:0,0:0:0:0:
384,176,64295,1,0,1:0:0:0:
152,320,64389,2,0,P|120:224|192:192,1,160,4|0,1:2|0:0,0:0:0:0:
240,192,64670,1,4,0:3:0:0:
400,192,64764,2,0,P|440:112|368:64,1,160,0|4,1:0|0:3,0:0:0:0:
328,64,65045,1,0,0:0:0:0:
128,64,65139,5,4,1:2:0:0:
272,304,65420,1,4,0:3:0:0:
168,304,65514,2,0,L|48:168,1,160,0|4,1:0|0:3,0:0:0:0:
136,200,65795,1,4,0:3:0:0:
320,192,65889,2,0,L|456:88,1,160,0|4,1:0|0:3,0:0:0:0:
192,128,66264,2,0,L|112:80,1,80,2|0,1:3|1:0,0:0:0:0:
320,320,66451,2,0,L|400:272,1,80,2|0,1:3|1:0,0:0:0:0:
184,272,66639,6,0,L|64:208,2,80,4|0|0,1:0|0:0|1:0,0:0:0:0:
352,264,66920,2,0,L|360:168,1,80,6|4,0:3|0:3,0:0:0:0:
272,176,67107,1,4,0:3:0:0:
456,240,67201,1,0,1:0:0:0:
480,152,67295,1,0,0:0:0:0:
472,64,67389,1,4,0:3:0:0:
400,32,67482,1,4,0:3:0:0:
232,328,67576,2,0,L|224:232,1,80,0|4,1:0|0:3,0:0:0:0:
400,192,67764,2,0,L|296:144,1,80,2|4,0:3|0:3,0:0:0:0:
144,136,67951,2,0,L|224:88,1,80,2|0,1:3|0:0,0:0:0:0:
384,352,68139,6,0,L|488:288,2,80,6|0|0,0:3|0:0|1:0,0:0:0:0:
224,336,68420,2,0,L|168:248,2,80,2|4|4,0:3|0:3|0:3,0:0:0:0:
64,264,68701,1,2,1:3:0:0:
32,192,68795,1,0,0:0:0:0:
48,112,68889,1,4,0:3:0:0:
120,72,68982,1,4,0:3:0:0:
328,240,69076,2,0,L|336:136,1,80,2|4,1:3|0:3,0:0:0:0:
176,128,69264,2,0,L|48:88,1,80,6|4,0:3|0:3,0:0:0:0:
256,320,69451,2,0,L|352:280,1,80,0|0,1:0|0:0,0:0:0:0:
487,199,69639,6,0,L|488:64,1,80,4|0,1:0|0:0,0:0:0:0:
400,120,69826,1,2,1:2:0:0:
484,120,69920,2,0,L|488:224,1,80,4|4,0:3|0:3,0:0:0:0:
400,200,70107,1,4,0:3:0:0:
487,199,70201,2,0,L|336:303,1,160,2|4,1:3|0:3,0:0:0:0:
272,288,70482,1,4,0:3:0:0:
96,272,70576,2,0,L|88:168,1,80,0|4,1:3|0:3,0:0:0:0:
248,200,70764,2,0,L|256:104,1,80,6|4,0:3|0:3,0:0:0:0:
96,104,70951,2,0,L|24:56,1,80,2|0,1:3|0:0,0:0:0:0:
248,336,71139,6,0,L|256:232,1,80,6|0,0:3|0:0,0:0:0:0:
160,256,71326,2,0,L|152:144,1,80,0|0,1:0|0:0,0:0:0:0:
256,160,71514,2,0,L|144:120,1,80,4|4,0:3|0:3,0:0:0:0:
272,104,71701,2,0,L|352:64,1,80,0|0,1:0|0:0,0:0:0:0:
256,344,71889,2,0,L|248:240,1,80,4|4,0:3|0:3,0:0:0:0:
344,256,72076,2,0,L|360:128,1,80,0|4,1:0|0:3,0:0:0:0:
168,224,72264,2,0,L|72:184,1,80,6|4,0:3|0:3,0:0:0:0:
280,136,72451,2,0,L|360:88,1,80,0|4,1:0|0:3,0:0:0:0:
144,336,72639,6,0,L|48:288,2,80,4|0|0,1:0|0:0|1:0,0:0:0:0:
296,296,72920,2,0,L|336:192,2,80,2|0|4,0:3|0:0|0:3,0:0:0:0:
464,224,73201,1,6,1:3:0:0:
488,144,73295,1,0,0:0:0:0:
464,72,73389,1,4,0:3:0:0:
392,48,73482,1,4,0:3:0:0:
200,216,73576,2,0,L|192:120,1,80,0|0,1:0|0:0,0:0:0:0:
392,336,73764,2,0,L|280:272,1,80,4|4,0:3|0:3,0:0:0:0:
168,224,73951,2,0,L|80:160,1,80,0|0,1:0|0:0,0:0:0:0:
336,104,74139,5,6,0:3:0:0:
408,112,74232,1,0,0:0:0:0:
408,184,74326,1,0,1:0:0:0:
248,328,74420,1,2,0:3:0:0:
322,296,74514,1,4,0:3:0:0:
392,264,74607,1,4,0:3:0:0:
192,248,74701,1,2,1:3:0:0:
120,200,74795,1,0,0:0:0:0:
120,128,74889,1,4,0:3:0:0:
192,80,74982,1,4,0:3:0:0:
360,144,75076,1,0,1:0:0:0:
192,184,75170,1,0,1:0:0:0:
120,224,75264,1,10,0:3:0:0:
192,272,75357,1,8,0:3:0:0:
360,320,75451,1,6,0:3:0:0:
432,352,75545,1,4,0:3:0:0:
240,344,75639,5,4,1:0:0:0:
160,320,75732,1,4,0:3:0:0:
112,256,75826,1,0,1:0:0:0:
104,168,75920,1,0,0:0:0:0:
296,160,76014,2,0,L|168:112,1,80,4|4,0:3|0:3,0:0:0:0:
392,320,76201,2,0,L|288:272,1,80,0|0,1:0|0:0,0:0:0:0:
136,224,76389,1,4,0:3:0:0:
216,184,76482,1,4,0:3:0:0:
296,152,76576,1,4,0:3:0:0:
376,128,76670,1,4,0:3:0:0:
296,144,76764,2,0,L|288:24,1,80,0|4,1:0|0:3,0:0:0:0:
376,64,76951,1,6,0:3:0:0:
288,40,77045,1,6,0:3:0:0:
456,328,77139,6,0,P|496:240|416:184,1,160,6|0,0:3|0:0,0:0:0:0:
288,248,77420,2,0,L|224:192,2,80,6|0|0,0:3|1:0|0:0,0:0:0:0:
464,112,77701,2,0,L|368:56,1,80,6|4,0:3|0:3,0:0:0:0:
232,328,77889,2,0,L|224:192,1,80,4|4,0:3|0:3,0:0:0:0:
320,248,78076,2,0,L|328:136,1,80,4|4,0:3|0:3,0:0:0:0:
160,160,78264,2,0,L|40:96,1,80,0|0,1:0|1:0,0:0:0:0:
256,80,78451,2,0,L|328:40,1,80,0|0,1:0|1:0,0:0:0:0:
144,344,78639,6,0,P|48:288|56:192,1,160,4|0,1:0|0:0,0:0:0:0:
248,248,78920,2,0,L|416:168,1,160,4|0,0:3|0:0,0:0:0:0:
472,208,79201,2,0,L|480:88,1,80,4|0,0:3|0:0,0:0:0:0:
296,344,79389,6,0,P|256:272|336:232,1,160,0|0,1:0|0:0,0:0:0:0:
472,128,79670,2,0,L|272:48,1,160,0|0,1:0|0:0,0:0:0:0:
240,128,79951,2,0,L|232:24,1,80,0|0,1:0|0:0,0:0:0:0:
432,336,80139,6,0,L|232:176,2,240,4|4|4,1:2|0:3|0:3,0:0:0:0:
136,344,80889,1,4,0:3:0:0:
56,312,80982,2,0,P|40:200|96:136,1,160,0|4,0:0|0:3,0:0:0:0:
216,136,81264,1,0,1:0:0:0:
232,96,81326,1,0,1:0:0:0:
216,72,81389,1,0,1:0:0:0:
56,72,81451,2,0,L|72:184,1,80,0|0,1:0|1:0,0:0:0:0:
232,352,81639,6,0,L|320:304,1,80,4|0,1:0|0:0,0:0:0:0:
296,240,81826,2,0,L|208:192,1,80,4|0,0:3|0:0,0:0:0:0:
72,160,82014,2,0,L|160:120,1,80,4|0,0:3|0:0,0:0:0:0:
216,64,82201,2,0,L|120:24,1,80,4|0,0:3|0:3,0:0:0:0:
320,344,82389,2,0,L|328:192,1,80,4|4,1:2|0:3,0:0:0:0:
232,256,82576,2,0,L|224:168,1,80,0|0,0:3|0:0,0:0:0:0:
392,176,82764,2,0,L|384:56,1,80,4|0,1:2|0:0,0:0:0:0:
232,88,82951,2,0,L|144:32,1,80,0|0,0:0|0:0,0:0:0:0:
336,352,83139,5,6,1:2:0:0:
416,320,83232,1,4,0:3:0:0:
336,264,83326,1,4,0:3:0:0:
416,224,83420,1,0,0:0:0:0:
232,208,83514,2,0,L|224:104,1,80,4|0,0:3|0:0,0:0:0:0:
416,136,83701,2,0,L|424:32,1,80,4|0,0:3|0:0,0:0:0:0:
224,56,83889,1,4,1:2:0:0:
312,72,83982,2,0,L|456:184,1,160,0|4,0:0|0:3,0:0:0:0:
264,344,84264,2,0,L|192:288,1,80,0|0,1:0|1:0,0:0:0:0:
384,288,84451,2,0,L|464:224,1,80,0|0,1:0|1:0,0:0:0:0:
248,264,84639,6,0,L|240:136,1,80,4|0,0:3|0:0,0:0:0:0:
320,168,84826,1,0,1:0:0:0:
168,120,84920,2,0,L|80:48,2,80,6|0|4,0:3|0:0|0:3,0:0:0:0:
320,120,85201,2,0,L|248:64,1,80,2|0,1:3|0:0,0:0:0:0:
416,320,85389,2,0,L|520:232,2,80,0|0|0,1:0|0:0|1:0,0:0:0:0:
256,320,85670,2,0,L|176:248,2,80,2|4|0,0:3|0:3|0:0,0:0:0:0:
416,320,85951,2,0,L|432:168,1,80,2|0,1:3|0:0,0:0:0:0:
264,208,86139,6,0,L|352:120,2,80,4|0|0,0:3|0:0|1:0,0:0:0:0:
88,344,86420,2,0,L|80:224,1,80,2|4,0:3|0:3,0:0:0:0:
168,256,86607,1,4,0:3:0:0:
360,232,86701,2,0,L|368:112,1,80,2|0,1:3|0:0,0:0:0:0:
176,120,86889,6,0,L|48:72,1,80,0|0,1:0|0:0,0:0:0:0:
176,56,87076,2,0,L|256:16,1,80,0|0,1:0|0:0,0:0:0:0:
176,120,87264,2,0,L|168:224,1,80,4|4,0:3|0:3,0:0:0:0:
360,288,87451,2,0,L|440:352,1,80,0|0,1:0|0:0,0:0:0:0:
224,344,87639,5,4,1:2:0:0:
304,304,87732,2,0,L|320:184,2,80,4|4|0,0:3|0:3|0:0,0:0:0:0:
152,280,88014,1,4,0:3:0:0:
80,224,88107,1,0,0:0:0:0:
80,144,88201,1,4,0:3:0:0:
152,112,88295,1,0,0:0:0:0:
336,184,88389,2,0,L|344:56,1,80,4|0,1:2|0:0,0:0:0:0:
424,128,88576,2,0,L|432:24,1,80,4|0,0:3|0:0,0:0:0:0:
272,304,88764,2,0,L|176:264,1,80,4|0,1:2|0:0,0:0:0:0:
368,184,88951,2,0,L|256:136,1,80,4|0,0:3|0:0,0:0:0:0:
128,136,89139,6,0,L|112:8,1,80,4|4,1:3|0:3,0:0:0:0:
294,152,89326,2,0,L|390:88,2,80,0|0|4,1:0|0:3|0:3,0:0:0:0:
216,200,89607,1,4,0:3:0:0:
296,248,89701,1,0,1:0:0:0:
456,312,89795,1,0,0:0:0:0:
296,352,89889,2,0,L|192:288,1,80,4|0,1:2|0:0,0:0:0:0:
392,224,90076,2,0,L|472:160,1,80,4|0,0:3|0:0,0:0:0:0:
288,160,90264,1,0,1:0:0:0:
128,120,90357,1,0,1:0:0:0:
288,72,90451,1,0,1:0:0:0:
456,48,90545,1,0,1:0:0:0:
288,32,90639,5,4,1:0:0:0:
256,192,90826,12,0,96451,0:0:0:0:
264,328,96639,5,0,1:0:0:0:
176,304,96732,1,0,1:0:0:0:
176,216,96826,1,0,1:0:0:0:
392,184,96920,1,0,1:0:0:0:
