osu file format v14

[General]
AudioFilename: audio.mp3
AudioLeadIn: 0
PreviewTime: 54264
Countdown: 0
SampleSet: Soft
StackLeniency: 0.7
Mode: 2
LetterboxInBreaks: 0
WidescreenStoryboard: 0

[Editor]
DistanceSpacing: 1.3
BeatDivisor: 4
GridSize: 8
TimelineZoom: 2.1

[Metadata]
Title:Gareki no Yume
TitleUnicode:瓦礫の夢
Artist:Denkishiki Karen Ongaku Shuudan
ArtistUnicode:電気式華憐音楽集団
Creator:-Luminate
Version:Nightmare
Source:サクラノモリ†ドリーマーズ
Tags:Sakura no Mori Dreamers moonstone eroge visual novel game opening tv size op denkare vn japanese video game denkare metal rock jrock j-rock sinnoh dust idu5t du5t
BeatmapID:2975903
BeatmapSetID:1447060

[Difficulty]
HPDrainRate:6
CircleSize:4.2
OverallDifficulty:9.8
ApproachRate:9.8
SliderMultiplier:1.8
SliderTickRate:1

[Events]
//Background and Video events
0,0,"bg.jpg",0,0
//Break Periods
//Storyboard Layer 0 (Background)
//Storyboard Layer 1 (Fail)
//Storyboard Layer 2 (Pass)
//Storyboard Layer 3 (Foreground)
//Storyboard Layer 4 (Overlay)
//Storyboard Sound Samples

[TimingPoints]
2139,375,4,2,2,30,1,0
7764,-100,4,2,0,70,0,0
8139,-50,4,2,0,70,0,0
14139,-50,4,2,0,70,0,0
15732,-50,4,2,0,70,0,0
18639,-50,4,2,0,70,0,0
20232,-50,4,2,0,70,0,0
23889,-50,4,2,0,50,0,0
29139,-100,4,2,0,40,0,0
32139,-50,4,2,0,60,0,0
35139,-100,4,2,0,40,0,0
38139,-50,4,2,0,60,0,0
41701,-50,4,2,0,60,0,0
42264,-50,4,2,0,50,0,0
42826,-50,4,2,0,70,0,0
44139,-50,4,2,0,50,0,0
44701,-50,4,2,0,60,0,0
45264,-50,4,2,0,50,0,0
45826,-50,4,2,0,70,0,0
46389,-50,4,2,0,50,0,0
47701,-50,4,2,0,60,0,0
48264,-50,4,2,0,50,0,0
48826,-50,4,2,0,70,0,0
49389,-50,4,2,0,60,0,0
50701,-50,4,2,0,70,0,0
51264,-50,4,2,0,80,0,0
51826,-50,4,2,0,90,0,0
52389,-50,4,2,0,60,0,0
53139,-50,4,2,0,60,0,0
53420,-50,4,2,0,60,0,0
53701,-50,4,2,0,70,0,0
54639,-50,4,2,0,70,0,1
64389,-50,4,2,0,70,0,1
65889,-50,4,2,0,80,0,1
66264,-50,4,2,0,80,0,0
66639,-50,4,2,0,80,0,1
78639,-50,4,2,0,70,0,0
80420,-25,4,2,0,70,0,0
80701,-50,4,2,0,70,0,0
80982,-25,4,2,0,70,0,0
81263,-50,4,2,0,70,0,0
90639,-50,4,2,0,70,0,0
90732,-50,4,2,0,30,0,0
92139,-50,4,2,0,20,0,0
93639,-50,4,2,0,10,0,0
95139,-50,4,2,0,5,0,0
96639,-50,4,2,0,80,0,0

[Colours]
Combo1 : 85,170,255
Combo2 : 192,192,192

[HitObjects]
112,352,2139,6,0,P|32:232|120:40,1,360,2|0,0:0|0:0,0:0:0:0:
344,48,3264,1,0,0:0:0:0:
112,48,3639,1,0,0:0:0:0:
400,352,5139,6,0,P|480:232|392:40,1,360,2|0,0:0|0:0,0:0:0:0:
168,48,6264,1,0,0:0:0:0:
400,48,6639,1,0,0:0:0:0:
135,179,7857,6,0,L|128:64,1,90
384,136,8139,5,4,1:2:0:0:
224,184,8326,1,0,0:0:0:0:
288,160,8420,1,4,0:3:0:0:
128,72,8607,1,0,0:0:0:0:
192,48,8701,1,4,0:3:0:0:
464,272,8889,1,0,1:0:0:0:
392,240,8982,1,0,1:0:0:0:
464,216,9076,1,0,0:0:0:0:
200,192,9170,2,0,L|192:72,1,90,4|0,0:3|0:0,0:0:0:0:
336,80,9451,1,4,0:3:0:0:
264,64,9545,1,4,0:3:0:0:
464,344,9639,6,0,L|472:144,1,180,4|0,1:2|0:0,0:0:0:0:
256,264,9920,2,0,L|248:64,1,180,4|0,0:3|0:0,0:0:0:0:
64,56,10201,2,0,L|152:128,1,90,4|0,0:3|0:0,0:0:0:0:
368,352,10389,2,0,P|448:272|320:184,1,270,2|4,1:0|0:3,0:0:0:0:
160,176,10764,2,0,L|233:161,1,60,0|0,1:0|1:0,0:0:0:0:
400,128,10889,1,0,1:0:0:0:
280,104,10951,1,0,1:0:0:0:
160,80,11014,1,0,1:0:0:0:
152,40,11076,1,0,1:0:0:0:
328,336,11139,6,0,B|440:272|440:272|440:176,1,180,4|0,1:2|0:0,0:0:0:0:
216,192,11420,2,0,B|336:144|336:144|336:80,1,180,4|0,0:3|0:0,0:0:0:0:
136,80,11701,2,0,L|224:32,1,90,4|0,0:3|0:0,0:0:0:0:
424,64,11889,1,0,1:0:0:0:
352,112,11982,1,0,1:0:0:0:
424,144,12076,1,0,0:0:0:0:
248,312,12170,2,0,L|240:200,1,90,4|4,0:3|0:3,0:0:0:0:
104,232,12451,2,0,L|96:136,1,90,4|4,0:3|0:3,0:0:0:0:
304,256,12639,6,0,L|496:168,1,180,4|0,1:2|0:0,0:0:0:0:
280,128,12920,2,0,L|96:56,1,180,4|0,0:3|0:0,0:0:0:0:
304,256,13201,2,0,L|432:240,1,90,4|0,0:3|0:0,0:0:0:0:
152,336,13389,2,0,P|72:232|200:160,1,270,4|4,1:2|0:3,0:0:0:0:
376,136,13764,2,0,L|440:88,1,60,0|0,1:0|1:0,0:0:0:0:
240,80,13889,2,0,L|200:32,1,60,0|0,1:0|1:0,0:0:0:0:
376,224,14014,2,0,L|448:176,1,60,0|0,1:0|1:0,0:0:0:0:
248,312,14139,6,0,L|240:208,1,90,4|0,1:2|1:0,0:0:0:0:
432,96,14326,2,0,L|320:40,1,90,4|0,0:3|1:0,0:0:0:0:
176,184,14514,2,0,L|328:96,1,90,4|0,0:3|1:0,0:0:0:0:
40,88,14701,2,0,L|144:24,1,90,4|0,0:3|1:0,0:0:0:0:
320,344,14889,2,0,L|336:208,1,90,4|0,0:3|1:0,0:0:0:0:
88,248,15076,2,0,L|80:128,1,90,4|0,0:3|1:0,0:0:0:0:
280,176,15264,2,0,L|272:56,1,90,4|0,0:3|1:0,0:0:0:0:
464,224,15451,2,0,L|456:120,1,90,4|0,0:3|0:0,0:0:0:0:
240,312,15639,6,0,L|144:296,1,90,4|4,0:3|0:3,0:0:0:0:
336,152,15826,2,0,L|200:120,1,90,4|4,0:3|0:3,0:0:0:0:
336,72,16014,1,4,0:3:0:0:
80,280,16201,2,0,P|8:168|128:96,1,270,0|0,1:0|0:0,0:0:0:0:
184,152,16576,2,0,L|192:8,1,90,4|4,0:3|0:3,0:0:0:0:
360,96,16764,1,0,1:0:0:0:
208,64,16857,1,0,0:0:0:0:
56,32,16951,1,4,0:3:0:0:
320,344,17139,6,0,L|416:328,1,90,4|4,0:3|0:3,0:0:0:0:
240,208,17326,2,0,L|376:176,1,90,4|4,0:3|0:3,0:0:0:0:
240,128,17514,1,4,0:3:0:0:
488,312,17701,2,0,L|72:216,1,360,0|8,1:0|0:3,0:0:0:0:
136,176,18139,1,0,0:0:0:0:
184,144,18201,1,0,0:0:0:0:
336,136,18264,1,4,0:3:0:0:
192,208,18451,1,0,1:0:0:0:
120,232,18545,1,0,1:0:0:0:
312,320,18639,6,0,L|320:184,1,90,4|0,1:2|1:0,0:0:0:0:
128,72,18826,2,0,L|120:184,1,90,4|0,0:3|1:0,0:0:0:0:
336,184,19014,2,0,L|184:96,1,90,4|0,0:3|1:0,0:0:0:0:
472,88,19201,2,0,L|368:24,1,90,4|0,0:3|1:0,0:0:0:0:
192,344,19389,2,0,L|176:208,1,90,4|0,0:3|1:0,0:0:0:0:
424,248,19576,2,0,L|432:128,1,90,4|0,0:3|1:0,0:0:0:0:
232,176,19764,2,0,L|240:56,1,90,4|0,0:3|1:0,0:0:0:0:
48,224,19951,2,0,L|56:120,1,90,4|0,0:3|1:3,0:0:0:0:
272,312,20139,6,0,L|368:296,1,90,4|4,0:3|0:3,0:0:0:0:
176,152,20326,2,0,L|312:120,1,90,4|4,0:3|0:3,0:0:0:0:
176,72,20514,1,4,0:3:0:0:
432,280,20701,2,0,P|504:168|384:96,1,270,0|0,1:0|0:0,0:0:0:0:
328,152,21076,2,0,L|320:8,1,90,4|4,0:3|0:3,0:0:0:0:
152,96,21264,1,0,1:0:0:0:
304,64,21357,1,0,0:0:0:0:
456,32,21451,1,4,0:3:0:0:
192,344,21639,6,0,L|96:328,1,90,4|4,0:3|0:3,0:0:0:0:
272,208,21826,2,0,L|136:176,1,90,4|4,0:3|0:3,0:0:0:0:
272,128,22014,1,4,0:3:0:0:
24,320,22201,2,0,L|304:32,1,360,0|4,1:0|0:3,0:0:0:0:
128,40,22764,1,0,1:0:0:0:
120,88,22826,1,0,1:0:0:0:
264,104,22889,1,0,1:0:0:0:
400,120,22951,1,0,1:0:0:0:
384,168,23014,1,0,1:0:0:0:
336,184,23076,1,0,1:0:0:0:
136,320,23139,5,4,1:0:0:0:
368,256,23889,1,0,0:0:0:0:
128,168,24264,1,0,0:0:0:0:
368,248,24639,6,0,L|168:40,2,270,4|4|4,0:3|0:3|0:3,0:0:0:0:
160,360,25389,2,0,L|360:152,2,270,4|4|4,0:3|0:3|0:3,0:0:0:0:
456,336,26139,5,4,0:0:0:0:
144,224,26889,1,0,0:0:0:0:
344,160,27264,1,0,0:0:0:0:
80,376,27639,6,0,L|64:8,1,360,2|0,0:0|0:0,0:0:0:0:
328,272,28389,1,2,0:0:0:0:
184,232,28576,1,0,0:0:0:0:
312,192,28764,1,8,0:3:0:0:
176,144,28951,1,8,0:3:0:0:
448,96,29139,5,4,0:2:0:0:
248,192,29514,1,0,3:0:0:0:
440,336,29889,2,0,L|448:208,1,90,2|0,0:0|0:0,0:0:0:0:
320,240,30264,2,0,L|304:120,1,90,0|0,0:0|0:0,0:0:0:0:
448,144,30639,6,0,L|248:48,2,180,2|0|2,0:0|0:0|0:0,0:0:0:0:
328,208,31576,1,0,0:0:0:0:
328,312,31764,1,4,0:3:0:0:
448,344,31951,1,4,0:3:0:0:
136,336,32139,6,0,L|280:328,3,90,4|0|4|4,1:2|0:0|0:3|0:3,0:0:0:0:
312,280,32514,1,4,0:3:0:0:
224,248,32607,1,4,0:3:0:0:
400,160,32795,1,4,0:3:0:0:
312,136,32889,1,4,0:3:0:0:
464,32,33076,1,4,0:3:0:0:
240,32,33170,2,0,P|144:224|256:288,1,360,4|0,0:3|0:0,0:0:0:0:
320,200,33639,5,0,0:0:0:0:
472,312,33826,2,0,L|360:280,3,90,4|4|4|4,0:3|0:3|0:3|0:3,0:0:0:0:
240,224,34295,1,4,0:3:0:0:
320,192,34389,1,4,0:3:0:0:
184,72,34576,1,4,0:3:0:0:
368,72,34670,2,0,P|480:216|368:320,1,360,4|0,0:3|0:0,0:0:0:0:
136,320,35139,5,4,0:2:0:0:
344,224,35514,1,0,0:0:0:0:
136,216,35889,2,0,L|128:96,1,90,2|0,0:0|0:0,0:0:0:0:
240,264,36264,2,0,L|248:136,1,90,4|0,0:3|0:0,0:0:0:0:
384,160,36639,5,0,0:0:0:0:
240,152,36826,2,0,L|232:32,1,90,0|2,0:0|0:0,0:0:0:0:
88,56,37201,1,0,0:0:0:0:
232,40,37389,1,4,0:3:0:0:
344,104,37576,1,2,0:3:0:0:
344,216,37764,1,8,0:3:0:0:
232,272,37951,1,8,0:3:0:0:
480,320,38139,6,0,L|488:216,1,90,4|0,1:2|0:0,0:0:0:0:
392,192,38326,2,0,L|504:168,2,90,4|4|4,0:3|0:3|0:3,0:0:0:0:
232,176,38795,1,4,0:3:0:0:
336,136,38889,1,4,0:3:0:0:
200,272,39076,1,4,0:3:0:0:
304,304,39170,1,0,0:0:0:0:
200,272,39264,2,0,P|168:176|328:80,1,270,0|0,0:0|0:0,0:0:0:0:
192,72,39639,5,0,0:0:0:0:
40,192,39826,2,0,L|184:176,3,90,4|4|4|4,0:3|0:3|0:3|0:3,0:0:0:0:
240,272,40295,1,4,0:3:0:0:
152,296,40389,1,4,0:3:0:0:
304,160,40576,1,4,0:3:0:0:
216,128,40670,1,4,0:3:0:0:
408,104,40764,2,0,L|456:56,2,60,8|8|8,0:3|0:3|0:3,0:0:0:0:
240,136,40951,2,0,L|120:120,1,90,0|0,1:0|0:0,0:0:0:0:
352,336,41139,5,4,0:3:0:0:
448,312,41232,1,4,0:3:0:0:
360,248,41326,1,4,0:3:0:0:
456,224,41420,1,4,0:3:0:0:
208,216,41701,1,4,0:3:0:0:
312,184,41794,1,4,0:3:0:0:
216,128,41888,1,4,0:3:0:0:
320,104,41982,1,4,0:3:0:0:
128,336,42264,1,0,1:0:0:0:
312,288,42357,1,0,1:0:0:0:
224,248,42451,1,0,1:0:0:0:
424,200,42545,1,0,1:0:0:0:
240,144,42826,5,4,0:3:0:0:
344,104,42920,1,4,0:3:0:0:
248,48,43014,1,4,0:3:0:0:
352,24,43107,1,4,0:3:0:0:
144,216,43389,1,4,1:0:0:0:
456,272,43576,1,0,0:0:0:0:
144,328,43764,2,0,P|64:240|192:152,1,270,0|0,0:0|0:0,0:0:0:0:
352,256,44139,5,4,0:3:0:0:
248,232,44232,1,4,0:3:0:0:
344,168,44326,1,4,0:3:0:0:
240,136,44420,1,4,0:3:0:0:
448,344,44701,1,4,0:3:0:0:
344,296,44795,1,4,0:3:0:0:
440,248,44889,1,4,0:3:0:0:
336,208,44982,1,4,0:3:0:0:
136,160,45264,1,0,1:0:0:0:
328,120,45357,1,0,1:0:0:0:
136,64,45451,1,0,1:0:0:0:
328,32,45545,1,0,1:0:0:0:
184,336,45826,5,4,0:3:0:0:
272,296,45920,1,4,0:3:0:0:
184,256,46014,1,4,0:3:0:0:
368,208,46107,1,4,0:3:0:0:
24,360,46389,2,0,P|176:112|-8:40,1,540,4|0,1:0|0:0,0:0:0:0:
304,40,47139,5,4,0:3:0:0:
200,72,47232,1,4,0:3:0:0:
304,112,47326,1,4,0:3:0:0:
192,144,47420,1,4,0:3:0:0:
32,208,47701,1,4,0:3:0:0:
136,248,47795,1,4,0:3:0:0:
32,296,47889,1,4,0:3:0:0:
136,328,47982,1,4,0:3:0:0:
320,336,48264,1,0,1:0:0:0:
128,288,48357,1,0,1:0:0:0:
224,248,48451,1,0,1:0:0:0:
56,192,48545,1,0,1:0:0:0:
296,176,48826,5,4,0:3:0:0:
192,152,48920,1,4,0:3:0:0:
288,88,49014,1,4,0:3:0:0:
184,56,49107,1,4,0:3:0:0:
376,64,49389,1,4,1:0:0:0:
96,32,49576,1,0,0:0:0:0:
224,232,49764,1,0,1:0:0:0:
56,192,49857,1,0,1:0:0:0:
224,128,49951,1,0,1:0:0:0:
56,96,50045,1,0,1:0:0:0:
288,24,50139,6,0,P|400:160|280:384,1,450,4|0,0:3|0:0,0:0:0:0:
80,64,50701,2,0,B|200:96|200:96|-3:140|85:372|237:228,1,450,4|0,0:3|0:0,0:0:0:0:
416,64,51264,2,0,B|296:96|296:96|499:140|411:372|259:228,1,450,4|0,0:3|0:0,0:0:0:0:
136,368,51826,2,0,P|16:168|168:24,1,450,4|0,0:3|0:0,0:0:0:0:
432,344,52389,5,4,1:0:0:0:
288,288,52576,1,4,0:3:0:0:
144,240,52764,1,4,0:3:0:0:
432,168,52951,1,4,0:3:0:0:
80,240,53139,6,0,P|40:144|120:80,1,180,4|0,1:2|0:0,0:0:0:0:
272,288,53420,2,0,L|104:160,1,180,4|0,0:3|0:0,0:0:0:0:
280,104,53701,2,0,L|368:40,1,90,0|0,1:0|0:0,0:0:0:0:
128,176,53889,2,0,L|120:64,1,90,0|0,1:0|0:0,0:0:0:0:
328,296,54076,2,0,L|344:136,1,90,0|0,1:0|1:0,0:0:0:0:
128,176,54264,1,0,1:0:0:0:
280,144,54357,1,0,1:0:0:0:
128,88,54451,1,0,1:0:0:0:
280,64,54545,1,0,1:0:0:0:
88,352,54639,6,0,P|48:248|112:184,1,180,4|0,1:0|0:0,0:0:0:0:
288,200,54920,1,6,0:3:0:0:
200,200,55014,2,0,L|192:8,1,180,0|6,1:0|0:3,0:0:0:0:
368,352,55295,2,0,L|192:248,1,180,4|4,0:3|0:3,0:0:0:0:
288,248,55576,2,0,L|296:128,1,90,2|0,1:3|0:0,0:0:0:0:
210,192,55764,2,0,L|306:152,1,90,6|4,0:3|0:3,0:0:0:0:
136,72,55951,2,0,L|232:32,1,90,6|0,0:3|0:0,0:0:0:0:
440,320,56139,6,0,L|264:192,1,180,4|0,1:2|0:0,0:0:0:0:
128,208,56420,1,6,0:3:0:0:
294,214,56514,2,0,P|334:118|270:54,1,180,0|4,1:0|0:3,0:0:0:0:
112,40,56795,2,0,L|264:168,1,180,4|4,0:3|0:3,0:0:0:0:
440,224,57076,2,0,L|336:304,1,90,2|0,1:3|0:0,0:0:0:0:
136,352,57264,1,0,1:0:0:0:
328,344,57357,1,0,1:0:0:0:
256,304,57451,1,8,0:3:0:0:
328,264,57545,1,4,0:3:0:0:
136,240,57639,6,0,L|128:120,1,90,4|0,1:2|0:0,0:0:0:0:
320,128,57826,1,2,0:0:0:0:
130,150,57920,2,0,L|216:80,1,90,4|0,0:3|1:0,0:0:0:0:
392,88,58107,1,2,0:0:0:0:
199,93,58201,2,0,P|160:184|224:256,1,180,2|0,0:0|0:0,0:0:0:0:
264,248,58482,1,4,0:3:0:0:
416,328,58576,2,0,L|424:232,1,90,2|0,1:3|0:0,0:0:0:0:
272,184,58764,2,0,L|376:112,1,90,6|0,0:3|0:3,0:0:0:0:
176,128,58951,2,0,L|168:24,1,90,2|4,1:3|0:3,0:0:0:0:
424,240,59139,6,0,P|480:176|408:136,1,180,4|0,1:2|0:0,0:0:0:0:
240,320,59420,1,4,0:3:0:0:
408,312,59514,2,0,L|416:112,1,180,0|4,1:0|0:3,0:0:0:0:
320,144,59795,2,0,L|472:16,1,180,4|4,0:3|0:3,0:0:0:0:
248,328,60076,2,0,L|240:200,1,90,0|0,1:0|0:0,0:0:0:0:
152,216,60264,2,0,L|160:88,1,90,6|4,0:3|0:3,0:0:0:0:
248,104,60451,1,2,1:3:0:0:
80,64,60545,1,0,1:0:0:0:
248,32,60639,6,0,L|392:168,1,180,4|0,1:2|0:0,0:0:0:0:
200,184,60920,1,6,0:3:0:0:
288,200,61014,2,0,L|296:320,1,90,0|0,1:0|0:0,0:0:0:0:
80,336,61201,1,6,0:3:0:0:
64,248,61295,2,0,L|256:120,1,180,4|6,0:3|0:3,0:0:0:0:
56,144,61576,2,0,L|48:24,1,90,0|0,1:0|0:0,0:0:0:0:
207,58,61764,2,0,L|215:170,1,90,4|4,0:3|0:3,0:0:0:0:
139,216,61951,1,8,0:3:0:0:
216,244,62045,1,0,0:0:0:0:
376,328,62139,6,0,L|192:232,1,180,4|0,1:0|0:0,0:0:0:0:
440,208,62420,1,4,0:3:0:0:
442,145,62514,2,0,L|361:93,1,90,0|0,1:0|0:0,0:0:0:0:
185,304,62701,2,0,L|193:80,1,180,6|0,0:3|0:0,0:0:0:0:
260,117,62982,1,4,0:3:0:0:
56,160,63076,2,0,L|48:48,1,90,2|0,1:3|0:0,0:0:0:0:
248,312,63264,2,0,L|144:240,1,90,6|4,0:3|0:3,0:0:0:0:
352,200,63451,2,0,L|252:135,1,90,4|0,0:3|0:0,0:0:0:0:
48,312,63639,6,0,L|232:208,1,180,4|0,1:2|0:0,0:0:0:0:
120,192,63920,1,4,0:3:0:0:
288,264,64014,2,0,L|296:136,1,90,0|0,1:0|0:0,0:0:0:0:
144,104,64201,1,0,1:0:0:0:
296,64,64295,1,0,1:0:0:0:
136,344,64389,2,0,P|88:256|160:208,1,180,4|0,1:2|0:0,0:0:0:0:
208,208,64670,1,4,0:3:0:0:
368,176,64764,2,0,L|184:64,1,180,0|4,1:0|0:3,0:0:0:0:
214,82,65045,1,0,0:0:0:0:
432,336,65139,6,0,P|480:248|416:200,1,180,4|0,1:2|0:0,0:0:0:0:
256,208,65420,1,4,0:3:0:0:
433,202,65514,2,0,L|264:80,1,180,0|4,1:0|0:3,0:0:0:0:
376,72,65795,1,4,0:3:0:0:
192,320,65889,2,0,L|184:160,1,90,0|4,1:0|0:3,0:0:0:0:
368,296,66076,2,0,L|376:184,1,90,4|4,0:3|0:3,0:0:0:0:
176,216,66264,1,2,1:3:0:0:
328,184,66357,1,0,1:0:0:0:
176,128,66451,1,2,1:3:0:0:
328,104,66545,1,0,1:0:0:0:
128,352,66639,6,0,L|40:304,2,90,4|0|0,1:0|0:0|1:0,0:0:0:0:
344,336,66920,1,6,0:3:0:0:
248,320,67014,2,0,L|240:200,1,90,4|4,0:3|0:3,0:0:0:0:
424,240,67201,2,0,L|432:120,1,90,0|0,1:0|0:0,0:0:0:0:
348,188,67389,2,0,L|470:131,1,90,4|4,0:3|0:3,0:0:0:0:
232,232,67576,2,0,L|104:160,1,90,0|4,1:0|0:3,0:0:0:0:
352,112,67764,2,0,L|264:56,1,90,2|4,0:3|0:3,0:0:0:0:
88,184,67951,2,0,L|80:64,1,90,2|0,1:3|0:0,0:0:0:0:
248,360,68139,5,6,0:3:0:0:
173,310,68232,1,0,0:0:0:0:
98,260,68326,1,0,1:0:0:0:
256,240,68420,2,0,L|344:168,2,90,2|4|4,0:3|0:3|0:3,0:0:0:0:
448,184,68701,1,2,1:3:0:0:
368,160,68794,1,0,0:0:0:0:
369,80,68888,1,4,0:3:0:0:
448,48,68982,1,4,0:3:0:0:
280,336,69076,2,0,L|272:232,1,90,2|4,1:3|0:3,0:0:0:0:
448,184,69264,2,0,L|352:120,1,90,6|4,0:3|0:3,0:0:0:0:
208,96,69451,2,0,L|120:48,1,90,0|0,1:0|0:0,0:0:0:0:
312,304,69639,6,0,L|320:184,1,90,4|0,1:0|0:0,0:0:0:0:
152,208,69826,1,2,1:2:0:0:
318,214,69920,2,0,L|232:144,1,90,4|4,0:3|0:3,0:0:0:0:
80,160,70107,1,4,0:3:0:0:
249,157,70201,2,0,P|304:224|240:240,1,180,2|4,1:3|0:3,0:0:0:0:
168,312,70482,1,4,0:3:0:0:
392,344,70576,2,0,L|472:288,1,90,0|4,1:3|0:3,0:0:0:0:
288,256,70764,2,0,L|280:160,1,90,6|4,0:3|0:3,0:0:0:0:
440,192,70951,2,0,L|432:80,1,90,2|0,1:3|0:0,0:0:0:0:
256,96,71139,6,0,L|176:40,1,90,6|0,0:3|0:0,0:0:0:0:
352,344,71326,2,0,L|448:280,3,90,0|0|4|4,1:0|0:0|0:3|0:3,0:0:0:0:
232,272,71701,2,0,L|216:144,1,90,0|0,1:0|0:0,0:0:0:0:
304,160,71889,2,0,L|176:120,1,90,4|4,0:3|0:3,0:0:0:0:
432,80,72076,2,0,L|328:32,1,90,0|4,1:0|0:3,0:0:0:0:
176,352,72264,2,0,L|48:296,1,90,6|4,0:3|0:3,0:0:0:0:
256,240,72451,2,0,L|272:112,1,90,0|4,1:0|0:3,0:0:0:0:
96,144,72639,5,4,1:0:0:0:
177,105,72732,1,0,0:0:0:0:
258,66,72826,1,0,1:0:0:0:
96,320,72920,2,0,L|8:264,2,90,2|0|4,0:3|0:0|0:3,0:0:0:0:
248,320,73201,2,0,L|352:248,3,90,6|0|4|4,1:3|0:0|0:3|0:3,0:0:0:0:
480,216,73576,2,0,L|488:96,1,90,0|0,1:0|0:0,0:0:0:0:
296,216,73764,2,0,L|200:160,1,90,4|4,0:3|0:3,0:0:0:0:
48,192,73951,2,0,L|40:80,1,90,0|0,1:0|0:0,0:0:0:0:
208,336,74139,6,0,L|312:264,2,90,6|0|0,0:3|0:0|1:0,0:0:0:0:
416,184,74420,2,0,L|496:136,2,90,2|4|4,0:3|0:3|0:3,0:0:0:0:
216,240,74701,1,2,1:3:0:0:
296,208,74795,1,0,0:0:0:0:
320,168,74889,1,4,0:3:0:0:
296,136,74982,1,4,0:3:0:0:
120,96,75076,1,0,1:0:0:0:
296,56,75170,1,0,1:0:0:0:
224,96,75264,1,10,0:3:0:0:
296,136,75357,1,8,0:3:0:0:
120,192,75451,1,6,0:3:0:0:
192,224,75545,1,4,0:3:0:0:
408,336,75639,5,4,1:0:0:0:
488,288,75732,1,4,0:3:0:0:
488,208,75826,1,0,1:0:0:0:
408,160,75920,1,0,0:0:0:0:
192,224,76014,2,0,L|288:160,1,90,4|4,0:3|0:3,0:0:0:0:
48,104,76201,2,0,L|136:48,1,90,0|0,1:0|0:0,0:0:0:0:
312,256,76389,1,4,0:3:0:0:
224,216,76482,2,0,L|320:168,1,90,4|4,0:3|0:3,0:0:0:0:
216,128,76670,1,4,0:3:0:0:
393,121,76764,2,0,L|401:9,1,90,0|4,1:0|0:3,0:0:0:0:
240,40,76951,1,6,0:3:0:0:
400,32,77045,1,6,0:3:0:0:
232,328,77139,6,0,L|136:288,2,90,6|0|0,0:3|0:0|0:0,0:0:0:0:
64,232,77420,2,0,L|56:104,1,90,6|0,0:3|1:0,0:0:0:0:
144,128,77607,1,0,0:0:0:0:
312,104,77701,1,6,0:3:0:0:
472,80,77795,1,4,0:3:0:0:
272,336,77889,5,4,0:3:0:0:
192,304,77982,1,4,0:3:0:0:
272,256,78076,1,4,0:3:0:0:
192,216,78170,1,4,0:3:0:0:
344,152,78264,1,0,1:0:0:0:
160,120,78357,1,0,1:0:0:0:
344,72,78451,1,0,1:0:0:0:
160,40,78545,1,0,0:0:0:0:
352,336,78639,6,0,B|456:296|456:296|480:200,1,180,4|0,1:0|0:0,0:0:0:0:
248,208,78920,2,0,B|336:200|288:128|432:96,1,180,4|0,0:3|0:0,0:0:0:0:
216,320,79201,2,0,L|112:240,1,90,4|0,0:3|0:0,0:0:0:0:
360,208,79389,2,0,L|168:64,1,180,0|0,1:0|0:0,0:0:0:0:
448,344,79670,2,0,L|272:200,1,180,0|0,1:0|0:0,0:0:0:0:
96,168,79951,2,0,L|80:24,1,90,0|0,1:0|0:0,0:0:0:0:
264,176,80139,6,0,B|344:136|344:136|240:80,1,180,4|0,1:2|0:0,0:0:0:0:
88,304,80420,2,0,B|150:254|150:254|120:216|120:216|176:288|176:288|151:253|151:253|312:128,1,360,4|0,0:3|0:0,0:0:0:0:
432,168,80701,2,0,L|416:48,1,90,4|0,0:3|0:0,0:0:0:0:
232,72,80889,1,4,0:3:0:0:
328,120,80982,2,0,B|266:170|266:170|296:208|296:208|240:136|240:136|265:171|265:171|104:296,1,360,0|4,0:0|0:3,0:0:0:0:
344,280,81264,2,0,L|400:328,2,60,0|0|0,1:0|1:0|1:0,0:0:0:0:
168,320,81451,2,0,L|272:248,1,90,0|0,1:0|1:0,0:0:0:0:
464,216,81639,5,4,1:0:0:0:
280,152,81732,2,0,L|184:80,2,90,0|4|0,0:0|0:3|0:0,0:0:0:0:
464,336,82014,1,4,0:3:0:0:
288,336,82107,1,0,0:0:0:0:
208,264,82201,1,4,0:3:0:0:
288,208,82295,1,0,0:3:0:0:
96,200,82389,2,0,L|88:80,1,90,4|4,1:2|0:3,0:0:0:0:
192,136,82576,2,0,L|184:24,1,90,0|0,0:3|0:0,0:0:0:0:
368,304,82764,2,0,L|280:264,1,90,4|0,1:2|0:0,0:0:0:0:
472,128,82951,2,0,L|384:88,1,90,0|0,0:0|0:0,0:0:0:0:
208,248,83139,6,0,L|352:160,1,90,6|4,1:2|0:3,0:0:0:0:
200,152,83326,1,4,0:3:0:0:
376,128,83420,1,0,0:0:0:0:
200,152,83514,2,0,L|192:32,1,90,4|0,0:3|0:0,0:0:0:0:
368,344,83701,2,0,L|288:296,1,90,4|0,0:3|0:0,0:0:0:0:
112,296,83889,1,4,1:2:0:0:
290,297,83982,1,0,0:0:0:0:
208,248,84076,1,4,0:3:0:0:
288,200,84170,1,4,0:3:0:0:
376,160,84264,1,0,1:0:0:0:
224,112,84357,1,0,1:0:0:0:
376,64,84451,1,0,1:0:0:0:
224,208,84545,1,0,1:0:0:0:
392,320,84639,6,0,L|472:256,2,90,4|0|0,0:3|0:0|1:0,0:0:0:0:
192,264,84920,1,6,0:3:0:0:
280,232,85014,1,0,0:0:0:0:
360,192,85107,1,4,0:3:0:0:
168,160,85201,2,0,L|160:40,1,90,2|0,1:3|0:0,0:0:0:0:
360,192,85389,1,0,1:0:0:0:
280,128,85482,1,0,0:0:0:0:
192,88,85576,1,0,1:0:0:0:
360,336,85670,2,0,L|240:264,2,90,2|4|0,0:3|0:3|0:0,0:0:0:0:
192,344,85951,2,0,L|96:288,1,90,2|0,1:3|0:0,0:0:0:0:
280,280,86139,6,0,L|288:152,1,90,4|0,0:3|0:0,0:0:0:0:
376,176,86326,1,0,1:0:0:0:
208,144,86420,2,0,L|200:40,1,90,2|4,0:3|0:3,0:0:0:0:
104,48,86607,1,4,0:3:0:0:
288,192,86701,2,0,L|408:120,1,90,2|0,1:3|0:0,0:0:0:0:
144,352,86889,2,0,L|32:304,1,90,0|0,1:0|0:0,0:0:0:0:
248,280,87076,2,0,L|256:160,1,90,0|0,1:0|0:0,0:0:0:0:
168,184,87264,1,4,0:3:0:0:
256,152,87357,1,4,0:3:0:0:
64,184,87451,2,0,L|56:48,1,90,0|0,1:0|0:0,0:0:0:0:
224,312,87639,5,4,1:2:0:0:
392,208,87732,2,0,L|304:160,2,90,4|4|0,0:3|0:3|0:0,0:0:0:0:
168,160,88014,2,0,L|264:96,2,90,4|0|4,0:3|0:0|0:3,0:0:0:0:
336,272,88295,1,0,0:0:0:0:
168,352,88389,2,0,L|160:232,1,90,4|0,1:2|0:0,0:0:0:0:
336,264,88576,2,0,L|344:128,1,90,4|0,0:3|0:0,0:0:0:0:
160,152,88764,2,0,L|264:104,1,90,4|0,1:2|0:0,0:0:0:0:
432,96,88951,2,0,L|312:48,1,90,4|0,0:3|0:0,0:0:0:0:
160,264,89139,5,4,1:3:0:0:
344,248,89232,2,0,L|352:136,1,90,4|0,0:3|1:0,0:0:0:0:
264,152,89420,2,0,L|256:32,1,90,0|4,0:3|0:3,0:0:0:0:
352,48,89607,1,4,0:3:0:0:
160,272,89701,2,0,L|64:192,1,90,0|0,1:0|0:0,0:0:0:0:
336,344,89889,2,0,L|424:288,1,90,4|0,1:2|0:0,0:0:0:0:
160,272,90076,2,0,L|272:192,1,90,4|0,0:3|0:0,0:0:0:0:
416,184,90264,1,0,1:0:0:0:
264,128,90357,1,0,1:0:0:0:
416,72,90451,1,0,1:0:0:0:
264,40,90545,1,0,1:0:0:0:
416,32,90639,5,4,1:0:0:0:
256,192,90826,12,0,96451,0:0:0:0:
328,248,96639,5,0,1:0:0:0:
240,200,96732,1,0,1:0:0:0:
328,160,96826,1,0,1:0:0:0:
136,160,96920,1,0,1:0:0:0:
