osu file format v14

[General]
AudioFilename: audio.mp3
AudioLeadIn: 0
PreviewTime: 54264
Countdown: 0
SampleSet: Soft
StackLeniency: 0.7
Mode: 2
LetterboxInBreaks: 0
WidescreenStoryboard: 1

[Editor]
DistanceSpacing: 1
BeatDivisor: 4
GridSize: 16
TimelineZoom: 2.4

[Metadata]
Title:Gareki no Yume
TitleUnicode:瓦礫の夢
Artist:Denkishiki Karen Ongaku Shuudan
ArtistUnicode:電気式華憐音楽集団
Creator:-Luminate
Version:IDu5t's Overdose
Source:サクラノモリ†ドリーマーズ
Tags:Sakura no Mori Dreamers moonstone eroge visual novel game opening tv size op denkare vn japanese video game denkare metal rock jrock j-rock sinnoh dust idu5t du5t
BeatmapID:2991833
BeatmapSetID:1447060

[Difficulty]
HPDrainRate:7
CircleSize:4.2
OverallDifficulty:9.6
ApproachRate:9.6
SliderMultiplier:2
SliderTickRate:2

[Events]
//Background and Video events
0,0,"bg.jpg",0,0
//Break Periods
//Storyboard Layer 0 (Background)
//Storyboard Layer 1 (Fail)
//Storyboard Layer 2 (Pass)
//Storyboard Layer 3 (Foreground)
//Storyboard Layer 4 (Overlay)
//Storyboard Sound Samples

[TimingPoints]
2139,375,4,2,2,30,1,0
7764,-100,4,2,0,70,0,0
9639,-76.9230769230769,4,2,0,70,0,0
10389,-100,4,2,0,70,0,0
12639,-76.9230769230769,4,2,0,70,0,0
13389,-100,4,2,0,70,0,0
23889,-100,4,2,0,50,0,0
29139,-100,4,2,0,40,0,0
32139,-100,4,2,0,60,0,0
35139,-100,4,2,0,40,0,0
38139,-100,4,2,0,60,0,0
42264,-100,4,2,0,50,0,0
42826,-100,4,2,0,70,0,0
44139,-100,4,2,0,50,0,0
44701,-100,4,2,0,60,0,0
45264,-100,4,2,0,50,0,0
45826,-100,4,2,0,70,0,0
46389,-100,4,2,0,50,0,0
47701,-100,4,2,0,60,0,0
48264,-100,4,2,0,50,0,0
48826,-100,4,2,0,70,0,0
49389,-100,4,2,0,60,0,0
50701,-100,4,2,0,70,0,0
51264,-100,4,2,0,80,0,0
51826,-100,4,2,0,90,0,0
52389,-100,4,2,0,60,0,0
53701,-100,4,2,0,70,0,0
54639,-100,4,2,0,70,0,1
65889,-100,4,2,0,80,0,1
66639,-100,4,2,0,80,0,1
78639,-100,4,2,0,70,0,0
90732,-100,4,2,0,30,0,0
92139,-100,4,2,0,20,0,0
93639,-100,4,2,0,10,0,0
95139,-100,4,2,0,5,0,0
96639,-100,4,2,0,80,0,0

[Colours]
Combo1 : 85,170,255
Combo2 : 192,192,192

[HitObjects]
399,298,8139,6,0,L|416:183,1,100,4|0,1:2|0:0,0:0:0:0:
259,207,8420,2,0,L|245:77,1,100,4|0,0:3|0:0,0:0:0:0:
403,88,8701,1,4,0:3:0:0:
142,48,8889,2,0,L|130:104,1,50,0|0,1:0|1:0,0:0:0:0:
283,97,9170,2,0,L|296:156,1,50,4|0,0:3|0:0,0:0:0:0:
141,217,9451,2,0,L|81:213,1,50,4|4,0:3|0:3,0:0:0:0:
304,310,9639,6,0,L|101:300,2,194.999991073609,4|4|4,1:2|0:3|0:3,0:0:0:0:
41,218,10389,2,0,L|48:98,1,100,2|0,1:0|0:0,0:0:0:0:
96,122,10670,1,4,0:3:0:0:
254,130,10764,1,0,1:0:0:0:
283,156,10826,1,0,1:0:0:0:
288,195,10889,1,0,1:0:0:0:
264,226,10951,1,0,1:0:0:0:
226,240,11014,1,0,1:0:0:0:
186,234,11076,1,0,1:0:0:0:
356,308,11139,6,0,L|465:304,1,100,4|0,1:2|0:0,0:0:0:0:
296,61,11420,2,0,L|184:50,1,100,4|0,0:3|0:0,0:0:0:0:
351,178,11701,1,4,0:3:0:0:
92,138,11889,2,0,L|76:202,1,50,0|0,1:0|1:0,0:0:0:0:
233,248,12170,2,0,L|246:172,1,50,4|4,0:3|0:3,0:0:0:0:
396,152,12451,2,0,L|407:91,1,50,4|4,0:3|0:3,0:0:0:0:
190,327,12639,6,0,L|398:347,2,194.999991073609,4|4|4,1:2|0:3|0:3,0:0:0:0:
453,264,13389,2,0,L|465:156,1,100,4|0,1:2|0:0,0:0:0:0:
414,158,13670,1,4,0:3:0:0:
212,148,13764,1,0,1:0:0:0:
165,144,13826,1,0,1:0:0:0:
212,148,13889,1,0,1:0:0:0:
371,61,13951,1,0,1:0:0:0:
418,60,14014,1,0,1:0:0:0:
371,61,14076,1,0,1:0:0:0:
163,286,14139,6,0,L|93:290,2,50,4|0|4,1:2|1:0|0:3,0:0:0:0:
314,289,14420,1,0,1:0:0:0:
213,254,14514,2,0,L|207:189,1,50,4|0,0:3|1:0,0:0:0:0:
411,30,14701,6,0,L|415:79,1,50,4|0,0:3|1:0,0:0:0:0:
312,71,14889,2,0,L|319:137,1,50,4|0,0:3|1:0,0:0:0:0:
475,167,15076,1,4,0:3:0:0:
320,187,15170,1,0,1:0:0:0:
166,201,15264,2,0,L|162:139,1,50,4|0,0:3|1:0,0:0:0:0:
370,241,15451,2,0,L|377:314,1,50,4|0,0:3|0:0,0:0:0:0:
118,53,15639,6,0,L|186:51,1,50,4|4,0:3|0:3,0:0:0:0:
273,53,15826,2,0,L|336:50,1,50,4|4,0:3|0:3,0:0:0:0:
427,44,16014,1,4,0:3:0:0:
117,288,16201,2,0,P|65:263|140:171,1,200,0|4,1:0|0:3,0:0:0:0:
170,163,16670,1,4,0:3:0:0:
323,76,16764,1,0,1:0:0:0:
170,163,16951,1,4,0:3:0:0:
434,273,17139,6,0,L|378:269,1,50,4|4,0:3|0:3,0:0:0:0:
281,254,17326,2,0,L|212:245,1,50,4|4,0:3|0:3,0:0:0:0:
128,225,17514,1,4,0:3:0:0:
391,199,17701,2,0,P|450:180|393:87,1,200,0|8,1:0|0:3,0:0:0:0:
351,87,18170,1,0,0:0:0:0:
194,62,18264,1,4,0:3:0:0:
351,87,18451,2,0,L|410:89,1,50,0|0,1:0|1:0,0:0:0:0:
144,286,18639,5,4,1:2:0:0:
94,286,18732,2,0,L|90:220,1,50,0|4,1:0|0:3,0:0:0:0:
251,239,18920,1,0,1:0:0:0:
352,242,19014,2,0,L|349:178,1,50,4|0,0:3|1:0,0:0:0:0:
142,69,19201,6,0,L|146:130,1,50,4|0,0:3|1:0,0:0:0:0:
249,105,19389,2,0,L|253:166,1,50,4|0,0:3|1:0,0:0:0:0:
97,226,19576,1,4,0:3:0:0:
252,231,19670,1,0,1:0:0:0:
409,240,19764,2,0,L|412:316,1,50,4|0,0:3|1:0,0:0:0:0:
208,151,19951,2,0,L|204:89,1,50,4|0,0:3|1:3,0:0:0:0:
466,47,20139,6,0,L|475:123,1,50,4|4,0:3|0:3,0:0:0:0:
371,46,20326,2,0,L|350:114,1,50,4|4,0:3|0:3,0:0:0:0:
466,47,20514,1,4,0:3:0:0:
202,313,20701,2,0,L|405:301,1,200,0|4,1:0|0:3,0:0:0:0:
451,297,21170,1,4,0:3:0:0:
297,197,21264,1,0,1:0:0:0:
451,297,21451,1,4,0:3:0:0:
157,58,21639,6,0,L|141:123,1,50,4|4,0:3|0:3,0:0:0:0:
251,105,21826,2,0,L|260:168,1,50,4|4,0:3|0:3,0:0:0:0:
158,57,22014,1,4,0:3:0:0:
419,237,22201,2,0,L|200:218,1,200,0|4,1:0|0:3,0:0:0:0:
170,211,22670,1,0,0:0:0:0:
347,145,22764,2,0,L|384:144,2,33.3333333333333,0|0|0,1:0|1:0|1:0,0:0:0:0:
178,106,22951,2,0,L|116:100,1,50,0|0,1:0|0:0,0:0:0:0:
422,332,23139,6,0,P|489:306|408:248,3,200,4|0|0|0,1:0|0:0|0:0|0:0,0:0:0:0:
142,159,24639,5,4,0:3:0:0:
294,180,24920,1,4,0:3:0:0:
142,159,25201,1,4,0:3:0:0:
294,180,25389,1,4,0:3:0:0:
142,159,25670,1,4,0:3:0:0:
294,180,25951,1,4,0:3:0:0:
31,300,26139,6,0,L|26:91,1,200,4|0,0:0|0:0,0:0:0:0:
212,63,26889,1,0,0:0:0:0:
122,58,27076,1,0,0:0:0:0:
31,53,27264,1,0,0:0:0:0:
318,284,27639,5,2,0:0:0:0:
138,268,28014,1,0,0:0:0:0:
416,161,28389,1,2,0:0:0:0:
469,103,28576,1,0,0:0:0:0:
328,72,28764,1,8,0:3:0:0:
469,103,28951,1,8,0:3:0:0:
159,296,29139,6,0,P|102:267|187:199,1,200,4|0,0:2|3:0,0:0:0:0:
350,217,29889,2,0,L|342:108,1,100,2|0,0:0|0:0,0:0:0:0:
240,125,30264,2,0,L|229:19,1,100,0|0,0:0|0:0,0:0:0:0:
391,293,30639,2,0,L|397:74,1,200,2|0,0:0|0:0,0:0:0:0:
113,161,31389,6,0,L|3:158,1,100,2|0,0:0|0:0,0:0:0:0:
113,161,31764,1,4,0:3:0:0:
14,158,31951,1,4,0:3:0:0:
273,174,32139,5,4,1:2:0:0:
172,279,32326,1,4,0:3:0:0:
222,275,32420,1,4,0:3:0:0:
271,270,32514,1,4,0:3:0:0:
320,263,32607,1,4,0:3:0:0:
159,191,32795,2,0,L|153:128,1,50,4|4,0:3|0:3,0:0:0:0:
315,71,33076,2,0,L|321:142,1,50,4|4,0:3|0:3,0:0:0:0:
159,192,33451,1,0,0:0:0:0:
321,193,33639,5,0,0:0:0:0:
217,289,33826,2,0,L|230:231,1,50,4|4,0:3|0:3,0:0:0:0:
291,238,34014,2,0,L|309:179,1,50,4|4,0:3|0:3,0:0:0:0:
146,90,34295,2,0,L|155:158,1,50,4|4,0:3|0:3,0:0:0:0:
312,29,34576,2,0,L|319:98,1,50,4|4,0:3|0:3,0:0:0:0:
29,272,35139,6,0,L|251:252,1,200,4|0,0:2|0:0,0:0:0:0:
408,212,35889,2,0,L|420:107,1,100,2|0,0:0|0:0,0:0:0:0:
313,135,36264,2,0,L|325:30,1,100,4|0,0:3|0:0,0:0:0:0:
162,231,36639,5,0,0:0:0:0:
261,238,36826,2,0,L|269:128,1,100,0|2,0:0|0:0,0:0:0:0:
168,130,37201,1,0,0:0:0:0:
327,156,37389,1,4,0:3:0:0:
366,66,37576,1,2,0:3:0:0:
225,28,37764,1,8,0:3:0:0:
366,66,37951,1,8,0:3:0:0:
103,264,38139,5,4,1:2:0:0:
211,254,38326,2,0,L|228:188,1,50,4|4,0:3|0:3,0:0:0:0:
292,209,38514,2,0,L|310:142,1,50,4|0,0:3|0:0,0:0:0:0:
145,78,38795,2,0,L|124:149,1,50,4|4,0:3|0:3,0:0:0:0:
293,82,39076,2,0,L|312:26,1,50,4|0,0:3|0:0,0:0:0:0:
258,27,39264,2,0,L|143:24,1,100,0|0,0:0|0:0,0:0:0:0:
361,33,39639,5,0,0:0:0:0:
467,104,39826,2,0,L|386:106,1,50,4|4,0:3|0:3,0:0:0:0:
366,105,40014,2,0,L|285:105,1,50,4|4,0:3|0:3,0:0:0:0:
477,207,40295,2,0,L|455:276,1,50,4|4,0:3|0:3,0:0:0:0:
301,189,40576,2,0,L|363:197,1,50,4|4,0:3|0:3,0:0:0:0:
468,142,40764,1,8,0:3:0:0:
491,98,40826,1,8,0:3:0:0:
477,49,40889,1,8,0:3:0:0:
432,28,40951,1,0,1:0:0:0:
170,232,41139,6,0,L|98:236,1,50,4|4,0:3|0:3,0:0:0:0:
120,234,41326,2,0,L|179:230,1,50,4|4,0:3|0:3,0:0:0:0:
396,148,41701,2,0,L|459:145,1,50,4|4,0:3|0:3,0:0:0:0:
445,145,41889,2,0,L|388:149,1,50,4|4,0:3|0:3,0:0:0:0:
289,157,42076,2,0,L|288:98,1,50,0|0,0:0|0:0,0:0:0:0:
465,29,42264,2,0,L|395:31,1,50,0|0,1:0|1:0,0:0:0:0:
240,42,42451,2,0,L|162:43,1,50,0|0,1:0|1:0,0:0:0:0:
69,43,42732,5,0,0:0:0:0:
273,278,42826,2,0,L|281:215,1,50,4|4,0:3|0:3,0:0:0:0:
175,209,43014,2,0,L|170:144,1,50,4|4,0:3|0:3,0:0:0:0:
412,97,43389,1,4,1:0:0:0:
312,165,43576,1,0,0:0:0:0:
473,279,43764,1,0,0:0:0:0:
35,277,44139,6,0,L|52:202,1,50,4|4,0:3|0:3,0:0:0:0:
114,225,44326,2,0,L|128:162,1,50,4|4,0:3|0:3,0:0:0:0:
343,159,44701,2,0,L|329:97,1,50,4|4,0:3|0:3,0:0:0:0:
257,111,44889,2,0,L|239:49,1,50,4|4,0:3|0:3,0:0:0:0:
344,68,45076,2,0,L|333:19,1,50,0|0,0:0|0:0,0:0:0:0:
140,190,45264,2,0,L|206:193,1,50,0|0,1:0|1:0,0:0:0:0:
387,205,45451,2,0,L|458:206,1,50,0|0,1:0|1:0,0:0:0:0:
211,108,45826,6,0,L|278:111,1,50,4|4,0:3|0:3,0:0:0:0:
367,117,46014,2,0,L|451:121,1,50,4|4,0:3|0:3,0:0:0:0:
56,294,46389,2,0,L|46:84,1,200,4|0,1:0|0:0,0:0:0:0:
347,201,47139,6,0,L|405:205,1,50,4|4,0:3|0:3,0:0:0:0:
396,204,47326,2,0,L|335:199,1,50,4|4,0:3|0:3,0:0:0:0:
122,168,47701,2,0,L|56:164,1,50,4|4,0:3|0:3,0:0:0:0:
72,164,47889,2,0,L|134:171,1,50,4|4,0:3|0:3,0:0:0:0:
226,180,48076,2,0,L|231:116,1,50,0|0,0:0|0:0,0:0:0:0:
53,44,48264,2,0,L|109:47,1,50,0|0,1:0|1:0,0:0:0:0:
277,56,48451,2,0,L|339:58,1,50,0|0,1:0|1:0,0:0:0:0:
449,71,48732,5,0,0:0:0:0:
247,291,48826,2,0,L|238:223,1,50,4|4,0:3|0:3,0:0:0:0:
344,243,49014,2,0,L|357:176,1,50,4|4,0:3|0:3,0:0:0:0:
112,61,49389,1,4,1:0:0:0:
211,108,49576,1,0,0:0:0:0:
51,235,49764,2,0,L|58:178,1,50,0|0,1:0|1:0,0:0:0:0:
256,194,49951,2,0,L|265:133,1,50,0|0,1:0|1:0,0:0:0:0:
441,152,50139,6,0,P|416:102|274:58,1,200,4|0,0:3|0:0,0:0:0:0:
26,244,50701,2,0,P|51:194|193:150,1,200,4|0,0:3|0:0,0:0:0:0:
474,309,51264,6,0,P|381:283|426:205,1,200,4|0,0:3|0:0,0:0:0:0:
80,172,51826,2,0,P|173:146|118:68,1,200,4|0,0:3|0:0,0:0:0:0:
494,40,52389,5,4,1:0:0:0:
408,88,52576,1,4,0:3:0:0:
387,180,52764,1,4,0:3:0:0:
469,252,52951,1,4,0:3:0:0:
206,240,53139,5,4,1:2:0:0:
418,182,53420,1,4,0:3:0:0:
74,62,53701,1,0,1:0:0:0:
418,182,53889,1,0,1:0:0:0:
482,102,54076,2,0,L|431:96,1,50,0|0,1:0|1:0,0:0:0:0:
227,78,54264,2,0,L|165:71,1,50,0|0,1:0|1:0,0:0:0:0:
425,288,54451,2,0,L|495:293,1,50,0|0,1:0|1:0,0:0:0:0:
121,258,54639,6,0,L|111:200,1,50,4|0,1:0|0:0,0:0:0:0:
277,202,54920,2,0,L|292:137,1,50,6|0,0:3|1:0,0:0:0:0:
44,138,55201,1,6,0:3:0:0:
54,99,55295,2,0,L|155:109,1,100,4|4,0:3|0:3,0:0:0:0:
355,126,55576,2,0,L|245:115,1,100,2|6,1:3|0:3,0:0:0:0:
268,74,55857,1,4,0:3:0:0:
379,63,55951,1,6,0:3:0:0:
75,298,56139,6,0,L|65:236,1,50,4|0,1:2|0:0,0:0:0:0:
228,219,56420,2,0,L|217:160,1,50,6|0,0:3|1:0,0:0:0:0:
480,138,56701,1,4,0:3:0:0:
467,96,56795,2,0,L|356:111,1,100,4|4,0:3|0:3,0:0:0:0:
162,137,57076,1,2,1:3:0:0:
424,280,57264,2,0,L|483:283,1,50,0|0,1:0|0:0,0:0:0:0:
473,282,57451,2,0,L|415:279,1,50,8|0,0:3|0:0,0:0:0:0:
188,267,57639,6,0,L|128:263,1,50,4|0,1:2|0:0,0:0:0:0:
337,197,57826,1,2,0:0:0:0:
163,165,57920,2,0,L|94:162,1,50,4|0,0:3|1:0,0:0:0:0:
317,93,58107,1,2,0:0:0:0:
100,100,58201,2,0,P|21:69|23:11,1,150,2|4,0:0|0:3,0:0:0:0:
224,27,58576,2,0,L|293:23,1,50,2|0,1:3|0:0,0:0:0:0:
94,199,58764,2,0,L|97:267,1,50,6|0,0:3|0:3,0:0:0:0:
194,275,58951,2,0,L|126:278,1,50,2|4,1:3|0:3,0:0:0:0:
394,250,59139,6,0,L|456:246,1,50,4|0,1:2|0:0,0:0:0:0:
302,148,59420,2,0,L|231:152,1,50,4|0,0:3|1:0,0:0:0:0:
358,58,59701,2,0,L|421:55,1,50,4|4,0:3|0:3,0:0:0:0:
256,238,60076,2,0,L|320:236,1,50,0|0,1:0|0:0,0:0:0:0:
206,124,60264,2,0,L|206:194,1,50,6|4,0:3|0:3,0:0:0:0:
384,88,60451,1,2,1:3:0:0:
211,67,60545,1,0,1:0:0:0:
28,262,60639,6,0,L|21:202,1,50,4|0,1:2|0:0,0:0:0:0:
184,210,60920,2,0,L|188:270,1,50,6|0,0:3|1:0,0:0:0:0:
450,60,61201,1,6,0:3:0:0:
442,106,61295,2,0,L|322:117,1,100,4|6,0:3|0:3,0:0:0:0:
134,129,61576,1,0,1:0:0:0:
262,118,61764,2,0,L|271:181,1,50,4|4,0:3|0:3,0:0:0:0:
58,256,61951,2,0,L|112:261,1,50,8|0,0:3|0:0,0:0:0:0:
360,288,62139,6,0,L|372:217,1,50,4|0,1:0|0:0,0:0:0:0:
109,175,62420,2,0,L|101:111,1,50,4|0,0:3|1:0,0:0:0:0:
407,120,62701,1,6,0:3:0:0:
421,82,62795,2,0,L|308:63,1,100,0|4,0:0|0:3,0:0:0:0:
117,35,63076,1,2,1:3:0:0:
258,336,63264,2,0,L|265:272,1,50,6|4,0:3|0:3,0:0:0:0:
98,189,63451,2,0,L|37:184,1,50,4|0,0:3|0:0,0:0:0:0:
312,221,63639,5,4,1:2:0:0:
365,194,63732,1,0,0:0:0:0:
385,137,63826,1,0,0:0:0:0:
359,82,63920,1,4,0:3:0:0:
199,77,64014,1,0,1:0:0:0:
359,82,64201,2,0,L|301:79,1,50,0|0,1:0|1:0,0:0:0:0:
55,276,64389,2,0,P|18:227|86:170,1,150,4|4,1:2|0:3,0:0:0:0:
228,180,64764,1,0,1:0:0:0:
69,167,64951,2,0,L|125:172,1,50,4|0,0:3|0:0,0:0:0:0:
375,272,65139,6,0,L|387:208,1,50,4|0,1:2|0:0,0:0:0:0:
121,119,65420,2,0,L|110:58,1,50,4|0,0:3|1:0,0:0:0:0:
425,92,65701,2,0,L|440:32,1,50,4|4,0:3|0:3,0:0:0:0:
269,204,65889,2,0,L|204:207,1,50,0|4,1:0|0:3,0:0:0:0:
306,176,66076,2,0,L|368:175,1,50,4|4,0:3|0:3,0:0:0:0:
153,78,66264,2,0,L|73:81,1,50,2|0,1:3|1:0,0:0:0:0:
358,52,66451,2,0,L|436:49,1,50,2|0,1:3|1:0,0:0:0:0:
97,295,66639,6,0,L|12:235,1,100,4|0,1:0|1:0,0:0:0:0:
223,197,66920,2,0,L|230:140,1,50,6|4,0:3|0:3,0:0:0:0:
141,133,67107,1,4,0:3:0:0:
354,247,67201,2,0,L|463:227,1,100,0|4,1:0|0:3,0:0:0:0:
403,239,67482,1,4,0:3:0:0:
199,72,67576,2,0,L|187:132,1,50,0|4,1:0|0:3,0:0:0:0:
386,145,67764,2,0,L|306:160,1,50,2|4,0:3|0:3,0:0:0:0:
145,182,67951,1,2,1:3:0:0:
396,329,68139,6,0,L|499:312,1,100,6|0,0:3|1:0,0:0:0:0:
280,255,68420,2,0,L|274:193,1,50,2|4,0:3|0:3,0:0:0:0:
367,193,68607,1,4,0:3:0:0:
159,104,68701,2,0,L|267:93,1,100,2|4,1:3|0:3,0:0:0:0:
308,87,68982,1,4,0:3:0:0:
107,192,69076,2,0,L|45:197,1,50,2|4,1:3|0:3,0:0:0:0:
261,278,69264,2,0,L|323:271,1,50,6|4,0:3|0:3,0:0:0:0:
207,282,69451,1,0,1:0:0:0:
472,212,69639,6,0,L|355:199,1,100,4|2,1:0|1:2,0:0:0:0:
194,133,69920,2,0,L|256:129,1,50,4|4,0:3|0:3,0:0:0:0:
421,121,70107,1,4,0:3:0:0:
206,234,70201,2,0,L|86:218,1,100,2|4,1:3|0:3,0:0:0:0:
156,226,70482,1,4,0:3:0:0:
359,164,70576,2,0,L|420:169,1,50,0|4,1:3|0:3,0:0:0:0:
203,43,70764,2,0,L|197:103,1,50,6|4,0:3|0:3,0:0:0:0:
403,107,70951,1,2,1:3:0:0:
140,301,71139,6,0,L|35:279,1,100,6|0,0:3|1:0,0:0:0:0:
203,195,71514,2,0,L|135:183,1,50,4|4,0:3|0:3,0:0:0:0:
357,287,71701,2,0,L|469:273,1,100,0|4,1:0|0:3,0:0:0:0:
406,281,71982,1,4,0:3:0:0:
212,61,72076,2,0,L|201:122,1,50,0|4,1:0|0:3,0:0:0:0:
296,171,72264,2,0,L|239:159,1,50,6|4,0:3|0:3,0:0:0:0:
48,107,72451,1,0,1:0:0:0:
348,226,72639,6,0,L|471:216,1,100,4|0,1:0|1:0,0:0:0:0:
248,167,72920,2,0,L|240:103,1,50,2|0,0:3|0:0,0:0:0:0:
324,107,73107,1,4,0:3:0:0:
123,286,73201,2,0,L|18:271,1,100,6|4,1:3|0:3,0:0:0:0:
73,276,73482,1,4,0:3:0:0:
281,214,73576,2,0,L|273:292,1,50,0|0,1:0|0:0,0:0:0:0:
71,80,73764,2,0,L|149:85,1,50,4|4,0:3|0:3,0:0:0:0:
331,87,73951,1,0,1:0:0:0:
69,190,74139,6,0,L|187:178,1,100,6|0,0:3|1:0,0:0:0:0:
371,84,74420,1,2,0:3:0:0:
301,78,74514,1,4,0:3:0:0:
231,73,74607,1,4,0:3:0:0:
441,297,74701,2,0,L|496:207,1,100,2|4,1:3|0:3,0:0:0:0:
417,208,74982,1,4,0:3:0:0:
261,200,75076,1,0,1:0:0:0:
104,192,75170,1,0,1:0:0:0:
286,69,75264,2,0,L|340:73,1,50,10|8,0:3|0:3,0:0:0:0:
133,107,75451,2,0,L|189:112,1,50,6|4,0:3|0:3,0:0:0:0:
439,316,75639,6,0,L|502:319,1,50,4|4,1:0|0:3,0:0:0:0:
488,318,75826,2,0,L|434:315,1,50,0|0,1:0|0:0,0:0:0:0:
285,213,76014,2,0,L|280:271,1,50,4|4,0:3|0:3,0:0:0:0:
438,187,76201,2,0,L|446:125,1,50,0|0,1:0|0:0,0:0:0:0:
240,126,76389,2,0,L|169:121,1,50,4|4,0:3|0:3,0:0:0:0:
190,122,76576,2,0,L|241:127,1,50,4|4,0:3|0:3,0:0:0:0:
441,16,76764,2,0,L|436:73,1,50,0|4,1:0|0:3,0:0:0:0:
280,55,76951,1,6,0:3:0:0:
126,46,77045,1,6,0:3:0:0:
352,272,77139,5,6,0:3:0:0:
401,275,77232,1,0,0:0:0:0:
352,272,77326,1,0,0:0:0:0:
138,141,77420,1,6,0:3:0:0:
213,149,77514,1,0,1:0:0:0:
288,158,77607,1,0,0:0:0:0:
66,51,77701,2,0,L|9:48,1,50,6|4,0:3|0:3,0:0:0:0:
277,259,77889,2,0,L|329:260,1,50,4|4,0:3|0:3,0:0:0:0:
229,204,78076,2,0,L|165:206,1,50,4|4,0:3|0:3,0:0:0:0:
430,76,78264,2,0,L|485:73,1,50,0|0,1:0|1:0,0:0:0:0:
177,38,78451,2,0,L|108:40,1,50,0|0,1:0|1:0,0:0:0:0:
484,310,78639,6,0,L|491:252,1,50,4|0,1:0|0:0,0:0:0:0:
326,217,78920,2,0,L|333:159,1,50,4|0,0:3|0:0,0:0:0:0:
490,173,79201,1,4,0:3:0:0:
189,293,79389,2,0,L|180:234,1,50,0|0,1:0|0:0,0:0:0:0:
336,167,79670,2,0,L|329:107,1,50,0|0,1:0|0:0,0:0:0:0:
168,114,79951,1,0,1:0:0:0:
472,266,80139,6,0,L|410:261,1,50,4|0,1:2|0:0,0:0:0:0:
261,242,80420,2,0,L|195:236,1,50,4|0,0:3|0:0,0:0:0:0:
371,149,80701,1,4,0:3:0:0:
74,171,80889,1,4,0:3:0:0:
60,123,80982,2,0,L|167:109,1,100,0|4,0:0|0:3,0:0:0:0:
361,83,81264,2,0,L|414:73,2,33.3333333333333,0|0|0,1:0|1:0|1:0,0:0:0:0:
214,105,81451,1,0,1:0:0:0:
474,292,81639,5,4,1:0:0:0:
486,243,81732,2,0,L|381:231,1,100,0|0,0:0|0:0,0:0:0:0:
292,181,82014,2,0,L|411:171,1,100,4|4,0:3|0:3,0:0:0:0:
406,125,82295,1,0,0:3:0:0:
201,241,82389,2,0,L|134:246,1,50,4|4,1:2|0:3,0:0:0:0:
239,243,82576,2,0,L|298:238,1,50,0|0,0:3|0:0,0:0:0:0:
114,110,82764,2,0,L|11:104,1,100,4|0,1:2|0:0,0:0:0:0:
28,61,83045,1,0,0:0:0:0:
238,159,83139,6,0,L|249:91,1,50,6|4,1:2|0:3,0:0:0:0:
163,95,83326,1,4,0:3:0:0:
366,141,83420,2,0,L|433:148,1,50,0|4,0:0|0:3,0:0:0:0:
276,45,83701,2,0,L|204:40,1,50,4|0,0:3|0:0,0:0:0:0:
434,286,83889,2,0,L|490:289,1,50,4|0,1:2|0:0,0:0:0:0:
483,288,84076,2,0,L|426:286,1,50,4|4,0:3|0:3,0:0:0:0:
224,173,84264,2,0,L|285:177,1,50,0|0,1:0|1:0,0:0:0:0:
493,98,84451,2,0,L|428:95,1,50,0|0,1:0|1:0,0:0:0:0:
178,276,84639,6,0,L|69:269,1,100,4|0,0:3|1:0,0:0:0:0:
287,197,84920,2,0,L|354:203,2,50,6|0|4,0:3|0:0|0:3,0:0:0:0:
86,172,85201,1,2,1:3:0:0:
349,100,85389,2,0,L|459:93,1,100,0|0,1:0|1:0,0:0:0:0:
248,55,85670,1,2,0:3:0:0:
182,53,85764,2,0,L|187:117,1,50,4|0,0:3|0:0,0:0:0:0:
403,242,85951,1,2,1:3:0:0:
142,300,86139,6,0,L|27:283,1,100,4|0,0:3|1:0,0:0:0:0:
268,231,86420,2,0,L|333:227,1,50,2|4,0:3|0:3,0:0:0:0:
268,231,86607,1,4,0:3:0:0:
114,238,86701,1,2,1:3:0:0:
367,155,86889,2,0,L|258:144,1,100,0|0,1:0|1:0,0:0:0:0:
389,50,87264,2,0,L|388:124,1,50,4|4,0:3|0:3,0:0:0:0:
169,85,87451,1,0,1:0:0:0:
430,284,87639,6,0,L|499:286,1,50,4|4,1:2|0:3,0:0:0:0:
479,285,87826,2,0,L|422:283,1,50,4|0,0:3|0:0,0:0:0:0:
269,183,88014,2,0,L|213:182,1,50,4|0,0:3|0:0,0:0:0:0:
269,183,88201,2,0,L|327:184,1,50,4|0,0:3|0:0,0:0:0:0:
129,114,88389,2,0,L|74:111,1,50,4|0,1:2|0:0,0:0:0:0:
129,114,88576,2,0,L|184:117,1,50,4|0,0:3|0:0,0:0:0:0:
407,227,88764,6,0,L|395:290,1,50,4|0,1:2|0:0,0:0:0:0:
303,252,88951,2,0,L|292:309,1,50,4|0,0:3|0:0,0:0:0:0:
487,128,89139,2,0,L|472:199,1,50,4|4,1:3|0:3,0:0:0:0:
271,67,89326,2,0,L|341:71,1,50,0|0,1:0|0:3,0:0:0:0:
371,75,89514,2,0,L|433:76,1,50,4|4,0:3|0:3,0:0:0:0:
195,280,89701,6,0,L|190:348,1,50,0|0,1:0|0:0,0:0:0:0:
291,236,89889,2,0,L|356:235,1,50,4|0,1:2|0:0,0:0:0:0:
141,79,90076,2,0,L|203:79,1,50,4|0,0:3|0:0,0:0:0:0:
496,59,90264,1,0,1:0:0:0:
340,45,90357,1,0,1:0:0:0:
186,30,90451,1,0,1:0:0:0:
24,20,90545,1,0,1:0:0:0:
340,45,90639,1,4,1:0:0:0:
256,192,90826,12,0,96264,0:0:0:0:
369,212,96639,6,0,L|289:211,1,50,0|0,1:0|1:0,0:0:0:0:
110,104,96826,2,0,L|179:107,1,50,0|0,1:0|1:0,0:0:0:0:
422,119,97014,1,0,0:0:0:0:
