osu file format v14

[General]
AudioFilename: audio.mp3
AudioLeadIn: 0
PreviewTime: 54264
Countdown: 0
SampleSet: Soft
StackLeniency: 0.7
Mode: 2
LetterboxInBreaks: 0
WidescreenStoryboard: 1

[Editor]
Bookmarks: 30991
DistanceSpacing: 1.3
BeatDivisor: 4
GridSize: 8
TimelineZoom: 2.1

[Metadata]
Title:Gareki no Yume
TitleUnicode:瓦礫の夢
Artist:Denkishiki Karen Ongaku Shuudan
ArtistUnicode:電気式華憐音楽集団
Creator:-Luminate
Version:Cup
Source:サクラノモリ†ドリーマーズ
Tags:Sakura no Mori Dreamers moonstone eroge visual novel game opening tv size op denkare vn japanese video game denkare metal rock jrock j-rock sinnoh dust idu5t du5t
BeatmapID:2980841
BeatmapSetID:1447060

[Difficulty]
HPDrainRate:2
CircleSize:2.5
OverallDifficulty:6.2
ApproachRate:6.2
SliderMultiplier:0.9
SliderTickRate:1

[Events]
//Background and Video events
0,0,"bg.jpg",0,0
//Break Periods
2,26339,28119
//Storyboard Layer 0 (Background)
//Storyboard Layer 1 (Fail)
//Storyboard Layer 2 (Pass)
//Storyboard Layer 3 (Foreground)
//Storyboard Layer 4 (Overlay)
//Storyboard Sound Samples

[TimingPoints]
2139,375,4,2,2,30,1,0
7764,-100,4,2,0,70,0,0
8139,-50,4,2,0,70,0,0
14139,-50,4,2,0,70,0,0
15732,-50,4,2,0,70,0,0
18639,-50,4,2,0,70,0,0
20232,-50,4,2,0,70,0,0
23889,-50,4,2,0,50,0,0
29139,-100,4,2,0,40,0,0
32139,-50,4,2,0,60,0,0
35139,-100,4,2,0,40,0,0
38139,-50,4,2,0,60,0,0
41701,-50,4,2,0,60,0,0
42264,-50,4,2,0,50,0,0
42826,-50,4,2,0,70,0,0
44139,-50,4,2,0,50,0,0
44701,-50,4,2,0,60,0,0
45264,-50,4,2,0,50,0,0
45826,-50,4,2,0,70,0,0
46389,-50,4,2,0,50,0,0
47701,-50,4,2,0,60,0,0
48264,-50,4,2,0,50,0,0
48826,-50,4,2,0,70,0,0
49389,-50,4,2,0,60,0,0
50701,-50,4,2,0,70,0,0
51264,-50,4,2,0,80,0,0
51826,-50,4,2,0,90,0,0
52389,-50,4,2,0,60,0,0
53139,-50,4,2,0,60,0,0
53420,-50,4,2,0,60,0,0
53701,-50,4,2,0,70,0,0
54639,-50,4,2,0,70,0,1
64389,-50,4,2,0,70,0,1
65889,-50,4,2,0,80,0,1
66264,-50,4,2,0,80,0,0
66639,-50,4,2,0,80,0,1
78639,-50,4,2,0,70,0,0
90639,-50,4,2,0,70,0,0
90732,-50,4,2,0,30,0,0
92139,-50,4,2,0,20,0,0
93639,-50,4,2,0,10,0,0
95139,-50,4,2,0,5,0,0
96639,-50,4,2,0,80,0,0

[Colours]
Combo1 : 85,170,255
Combo2 : 192,192,192

[HitObjects]
118,304,8139,6,0,P|94:208|126:160,1,135,4|4,1:2|0:3,0:0:0:0:
240,176,8701,1,4,0:3:0:0:
328,176,8889,2,0,P|352:232|312:312,1,135,0|4,1:0|0:3,0:0:0:0:
196,297,9451,1,4,0:3:0:0:
196,241,9639,5,4,1:2:0:0:
320,160,9920,1,4,0:3:0:0:
176,96,10201,1,4,0:3:0:0:
128,80,10389,1,2,1:0:0:0:
248,136,10764,2,0,L|248:256,1,90,0|0,1:0|1:0,0:0:0:0:
336,120,11139,6,0,L|456:216,2,135,4|4|4,1:2|0:3|0:3,0:0:0:0:
248,104,11889,1,0,1:0:0:0:
128,160,12170,1,4,0:3:0:0:
248,232,12451,1,4,0:3:0:0:
320,264,12639,6,0,L|328:112,1,135,4|4,1:2|0:3,0:0:0:0:
176,152,13201,1,4,0:3:0:0:
104,240,13389,2,0,L|96:56,1,180,4|0,1:2|1:0,0:0:0:0:
280,336,14139,6,0,L|400:248,2,135,4|0|4,1:2|1:0|0:3,0:0:0:0:
96,336,15076,1,4,0:3:0:0:
120,240,15264,1,4,0:3:0:0:
144,152,15451,1,4,0:3:0:0:
224,200,15639,6,0,L|48:96,1,180,4|4,0:3|0:3,0:0:0:0:
148,109,16201,2,0,L|319:209,1,180,0|4,1:0|0:3,0:0:0:0:
304,200,16764,1,0,1:0:0:0:
144,352,17139,6,0,P|112:256|152:192,1,180,4|4,0:3|0:3,0:0:0:0:
224,160,17701,2,0,L|408:64,1,180,0|8,1:0|0:3,0:0:0:0:
384,160,18264,1,4,0:3:0:0:
320,208,18451,1,0,1:0:0:0:
248,328,18639,6,0,L|128:240,2,135,4|0|4,1:2|1:0|0:3,0:0:0:0:
432,328,19576,1,4,0:3:0:0:
408,232,19764,1,4,0:3:0:0:
384,144,19951,1,4,0:3:0:0:
304,192,20139,6,0,L|480:88,1,180,4|4,0:3|0:3,0:0:0:0:
379,101,20701,2,0,L|208:201,1,180,0|4,1:0|0:3,0:0:0:0:
224,192,21264,1,0,1:0:0:0:
384,344,21639,6,0,P|416:248|376:184,1,180,4|4,0:3|0:3,0:0:0:0:
304,152,22201,2,0,L|120:56,1,180,0|4,1:0|0:3,0:0:0:0:
120,128,22764,1,0,1:0:0:0:
144,184,22951,1,0,1:0:0:0:
240,184,23139,5,4,1:0:0:0:
256,192,23514,12,4,26139,0:0:0:0:
64,216,29139,5,4,0:2:0:0:
224,312,29889,2,0,L|224:216,1,90,2|0,0:0|0:0,0:0:0:0:
96,264,30639,2,0,L|96:168,1,90,2|0,0:0|0:0,0:0:0:0:
232,144,31389,1,2,0:0:0:0:
448,320,32139,5,4,1:2:0:0:
448,240,32326,1,4,0:3:0:0:
448,160,32514,1,4,0:3:0:0:
320,136,32889,2,0,L|232:64,2,90,4|4|0,0:3|0:3|0:0,0:0:0:0:
184,336,33639,5,0,0:0:0:0:
184,264,33826,1,4,0:3:0:0:
184,184,34014,1,4,0:3:0:0:
64,144,34389,2,0,L|136:80,2,90,4|4|0,0:3|0:3|0:0,0:0:0:0:
216,304,35139,5,4,0:2:0:0:
432,296,35889,2,0,L|432:200,1,90,2|4,0:0|0:3,0:0:0:0:
304,248,36639,2,0,L|304:152,1,90,0|2,0:0|0:0,0:0:0:0:
440,120,37389,1,4,0:3:0:0:
240,320,38139,5,4,1:2:0:0:
152,280,38326,1,4,0:3:0:0:
152,192,38514,1,4,0:3:0:0:
328,176,38889,2,0,L|416:104,2,90,4|4|0,0:3|0:3|0:0,0:0:0:0:
152,280,39639,5,0,0:0:0:0:
240,240,39826,1,4,0:3:0:0:
328,200,40014,1,4,0:3:0:0:
144,176,40389,2,0,L|136:72,1,90,4|4,0:3|0:3,0:0:0:0:
232,104,40764,2,0,L|240:0,1,90,8|0,0:3|1:0,0:0:0:0:
128,240,41139,6,0,P|104:160|136:56,1,180,4|0,0:3|0:0,0:0:0:0:
224,64,41701,1,4,0:3:0:0:
80,344,42264,2,0,L|240:224,1,180,0|0,1:0|0:0,0:0:0:0:
224,235,42826,6,0,L|72:352,1,180,4|0,0:3|0:0,0:0:0:0:
80,232,43389,1,4,1:0:0:0:
168,256,43576,1,0,0:0:0:0:
248,280,43764,1,0,0:0:0:0:
432,280,44139,6,0,P|456:200|424:96,1,180,4|0,0:3|0:0,0:0:0:0:
336,104,44701,1,4,0:3:0:0:
472,320,45264,2,0,L|312:200,1,180,0|0,1:0|0:0,0:0:0:0:
248,248,45826,6,0,L|336:72,1,180,4|0,0:3|0:0,0:0:0:0:
248,344,46389,2,0,P|176:272|272:144,1,270,4|0,1:0|0:0,0:0:0:0:
336,224,47139,6,0,P|368:168|320:48,1,180,4|0,0:3|0:0,0:0:0:0:
256,64,47701,1,4,0:3:0:0:
80,320,48264,2,0,L|256:192,1,180,0|0,1:0|0:0,0:0:0:0:
225,214,48826,6,0,L|48:96,1,180,4|0,0:3|0:0,0:0:0:0:
75,114,49389,2,0,L|160:48,2,90,4|0|0,1:0|0:0|1:0,0:0:0:0:
248,184,50139,5,4,0:3:0:0:
416,240,50701,1,4,0:3:0:0:
248,304,51264,1,4,0:3:0:0:
72,248,51826,1,4,0:3:0:0:
296,264,52389,2,0,P|328:176|272:72,1,180,4|4,1:0|0:3,0:0:0:0:
224,96,52951,1,4,0:3:0:0:
160,216,53139,6,0,L|288:104,2,135,4|4|0,1:2|0:3|1:0,0:0:0:0:
72,264,53889,2,0,L|72:64,1,180,0|0,1:0|1:0,0:0:0:0:
168,80,54451,1,0,1:0:0:0:
256,80,54639,6,0,L|376:192,2,135,4|6|6,1:0|0:3|0:3,0:0:0:0:
64,248,55576,1,2,1:3:0:0:
64,168,55764,1,6,0:3:0:0:
136,136,55951,1,6,0:3:0:0:
224,296,56139,6,0,L|232:128,1,135,4|6,1:2|0:3,0:0:0:0:
384,320,56701,2,0,L|368:128,1,180,4|2,0:3|1:3,0:0:0:0:
368,72,57264,1,0,1:0:0:0:
192,136,57639,6,0,L|328:240,2,135,4|4|2,1:2|0:3|0:0,0:0:0:0:
392,344,58576,1,2,1:3:0:0:
424,280,58764,1,6,0:3:0:0:
392,216,58951,1,2,1:3:0:0:
304,200,59139,6,0,L|176:96,2,135,4|4|4,1:2|0:3|0:3,0:0:0:0:
112,328,60076,1,0,1:0:0:0:
32,296,60264,2,0,L|32:176,1,90,6|2,0:3|1:3,0:0:0:0:
120,184,60639,6,0,L|256:80,2,135,4|6|6,1:2|0:3|0:3,0:0:0:0:
272,304,61576,1,0,1:0:0:0:
272,304,61764,1,4,0:3:0:0:
464,248,62139,6,0,L|336:160,1,135,4|4,1:0|0:3,0:0:0:0:
224,192,62701,2,0,P|184:88|240:32,1,180,6|2,0:3|1:3,0:0:0:0:
312,40,63264,1,6,0:3:0:0:
224,40,63451,1,4,0:3:0:0:
136,40,63639,5,4,1:2:0:0:
288,144,64014,1,0,1:0:0:0:
112,336,64389,2,0,P|96:224|120:152,1,180,4|0,1:2|1:0,0:0:0:0:
200,144,64951,1,4,0:3:0:0:
280,136,65139,6,0,L|112:24,1,180,4|0,1:2|1:0,0:0:0:0:
304,336,65889,2,0,P|320:248|288:144,1,180,0|2,1:0|1:3,0:0:0:0:
208,144,66451,1,2,1:3:0:0:
112,144,66639,6,0,L|248:48,2,135,4|6|0,1:0|0:3|1:0,0:0:0:0:
264,312,67576,2,0,L|336:248,2,90,0|2|2,1:0|0:3|1:3,0:0:0:0:
176,304,68139,6,0,P|160:216|192:160,1,135,6|2,0:3|0:3,0:0:0:0:
328,168,68701,2,0,L|160:48,1,180,2|2,1:3|1:3,0:0:0:0:
256,32,69264,1,6,0:3:0:0:
408,336,69639,6,0,L|288:232,2,135,4|4|2,1:0|0:3|1:3,0:0:0:0:
232,304,70576,2,0,L|240:192,1,90,0|6,1:3|0:3,0:0:0:0:
320,200,70951,1,2,1:3:0:0:
408,192,71139,6,0,L|272:56,1,180,6|4,0:3|0:3,0:0:0:0:
192,64,71701,1,0,1:0:0:0:
120,136,71889,1,4,0:3:0:0:
120,224,72076,1,0,1:0:0:0:
200,272,72264,1,6,0:3:0:0:
376,312,72639,6,0,L|504:200,1,135,4|2,1:0|0:3,0:0:0:0:
352,304,73201,2,0,L|344:112,1,180,6|0,1:3|1:0,0:0:0:0:
424,120,73764,1,4,0:3:0:0:
248,168,74139,6,0,L|128:64,2,135,6|2|2,0:3|0:3|1:3,0:0:0:0:
112,328,75076,2,0,L|24:264,2,90,0|10|6,1:0|0:3|0:3,0:0:0:0:
208,328,75639,6,0,L|376:216,1,180,4|4,1:0|0:3,0:0:0:0:
432,168,76201,1,0,1:0:0:0:
360,96,76389,2,0,L|176:216,1,180,4|0,0:3|1:0,0:0:0:0:
384,344,77139,6,0,P|408:256|368:192,1,135,6|6,0:3|0:3,0:0:0:0:
256,192,77701,1,6,0:3:0:0:
168,272,77889,2,0,L|160:88,1,180,4|0,0:3|1:0,0:0:0:0:
256,88,78451,1,0,1:0:0:0:
352,272,78639,6,0,L|232:176,2,135,4|4|4,1:0|0:3|0:3,0:0:0:0:
440,248,79389,1,0,1:0:0:0:
320,288,79670,1,0,1:0:0:0:
184,336,79951,1,0,1:0:0:0:
104,296,80139,6,0,L|216:216,2,135,4|4|4,1:2|0:3|0:3,0:0:0:0:
24,224,80889,2,0,P|24:120|96:64,1,180,4|0,0:3|1:0,0:0:0:0:
160,64,81451,1,0,1:0:0:0:
264,288,81639,6,0,L|272:80,1,180,4|4,1:0|0:3,0:0:0:0:
440,328,82389,2,0,L|448:144,1,180,4|4,1:2|1:2,0:0:0:0:
376,112,82951,1,0,0:0:0:0:
296,88,83139,5,6,1:2:0:0:
168,288,83514,2,0,L|160:176,1,90,4|4,0:3|0:3,0:0:0:0:
248,160,83889,2,0,P|296:232|240:312,1,180,4|0,1:2|1:0,0:0:0:0:
80,320,84639,6,0,L|200:224,2,135,4|6|2,0:3|0:3|1:3,0:0:0:0:
80,240,85389,1,0,1:0:0:0:
192,288,85670,1,2,0:3:0:0:
312,336,85951,1,2,1:3:0:0:
384,288,86139,6,0,L|272:208,2,135,4|2|2,0:3|0:3|1:3,0:0:0:0:
464,232,86889,2,0,P|480:120|408:64,1,180,0|4,1:0|0:3,0:0:0:0:
352,64,87451,1,0,1:0:0:0:
248,288,87639,6,0,L|240:80,1,180,4|4,1:2|0:3,0:0:0:0:
80,168,88389,2,0,L|232:64,1,180,4|4,1:2|1:2,0:0:0:0:
72,304,89139,5,4,1:3:0:0:
64,200,89326,1,0,1:0:0:0:
248,192,89701,1,0,1:0:0:0:
328,344,89889,2,0,L|336:152,1,180,4|0,1:2|1:0,0:0:0:0:
248,144,90451,1,0,1:0:0:0:
336,104,90639,5,4,1:0:0:0:
256,192,91014,12,0,96920,1:0:0:0:
