osu file format v14

[General]
AudioFilename: audio.mp3
AudioLeadIn: 0
PreviewTime: 162016
Countdown: 0
SampleSet: Soft
StackLeniency: 0.7
Mode: 0
LetterboxInBreaks: 0
WidescreenStoryboard: 0

[Editor]
Bookmarks: 16141,82141,184141
DistanceSpacing: 0.8
BeatDivisor: 8
GridSize: 4
TimelineZoom: 3.100005

[Metadata]
Title:Endless ripples
TitleUnicode:Endless ripples
Artist:Denkishiki Karen Ongaku Shuudan
ArtistUnicode:電気式華憐音楽集団
Creator:app
Version:Torture
Source:夢幻廻廊2~螺旋~
Tags:japanese rock black cyc karen denkare yousei teikoku fairy yui itsuki ecchi eroge visual novel video game ending mugen kairou 2 ~rasen~
BeatmapID:3537981
BeatmapSetID:1731078

[Difficulty]
HPDrainRate:5
CircleSize:5
OverallDifficulty:7.5
ApproachRate:8
SliderMultiplier:2.8
SliderTickRate:1

[Events]
//Background and Video events
0,0,"TheWorms.png",0,0
//Break Periods
//Storyboard Layer 0 (Background)
//Storyboard Layer 1 (Fail)
//Storyboard Layer 2 (Pass)
//Storyboard Layer 3 (Foreground)
//Storyboard Layer 4 (Overlay)
//Storyboard Sound Samples

[TimingPoints]
141,1000,4,2,2,30,1,0
33016,-100,4,2,2,5,0,0
33141,-100,4,2,2,30,0,0
34516,-100,4,2,2,5,0,0
34641,-100,4,2,2,30,0,0
41016,-100,4,2,2,5,0,0
41141,-100,4,2,2,30,0,0
42516,-100,4,2,2,5,0,0
42641,-100,4,2,2,30,0,0
50141,-100,4,2,2,40,0,0
81141,-100,4,2,2,30,0,0
82141,1000,4,2,2,50,1,0
82141,-86.9565217391304,4,2,2,50,0,0
113516,-86.9565217391304,4,2,2,5,0,0
113641,-43.4782608695652,4,2,2,55,0,0
113766,-43.4782608695652,4,2,2,5,0,0
114141,-43.4782608695652,4,2,2,55,0,0
114641,-86.9565217391304,4,2,2,55,0,0
118516,-86.9565217391304,4,2,2,5,0,0
118641,-86.9565217391304,4,2,2,55,0,0
132141,1000,4,2,2,65,1,1
132141,-74.0740740740741,4,2,2,65,0,1
132641,-74.0740740740741,4,2,2,60,0,0
140141,-74.0740740740741,4,2,2,65,0,1
140641,-74.0740740740741,4,2,2,60,0,0
148141,-74.0740740740741,4,2,2,65,0,1
148516,-74.0740740740741,4,2,2,5,0,1
148641,-74.0740740740741,4,2,2,60,0,0
149016,-74.0740740740741,4,2,2,5,0,0
149141,-74.0740740740741,4,2,2,60,0,0
152141,-74.0740740740741,4,2,2,65,0,1
152516,-74.0740740740741,4,2,2,5,0,1
152641,-74.0740740740741,4,2,2,60,0,0
153016,-74.0740740740741,4,2,2,5,0,0
153141,-74.0740740740741,4,2,2,60,0,0
156141,-74.0740740740741,4,2,2,65,0,1
156516,-74.0740740740741,4,2,2,5,0,1
156641,-74.0740740740741,4,2,2,60,0,0
159766,-74.0740740740741,4,2,2,5,0,0
159891,-74.0740740740741,4,2,2,60,0,0
160016,-74.0740740740741,4,2,2,5,0,0
160141,-74.0740740740741,4,2,2,65,0,1
160641,-74.0740740740741,4,2,2,60,0,0
163641,-74.0740740740741,4,2,2,55,0,0
164141,-74.0740740740741,4,2,2,70,0,1
169391,-74.0740740740741,4,2,2,5,0,1
169474,-74.0740740740741,4,2,2,70,0,1
169724,-74.0740740740741,4,2,2,5,0,1
169807,-74.0740740740741,4,2,2,70,0,1
180141,-74.0740740740741,4,2,2,50,0,0
182141,-74.0740740740741,4,2,2,30,0,0
184141,-100,4,2,2,40,0,0
198141,-100,4,2,2,60,0,0
199641,-74.0740740740741,4,2,2,55,0,0
200141,-74.0740740740741,4,2,2,65,0,1
200641,-74.0740740740741,4,2,2,60,0,0
208141,-74.0740740740741,4,2,2,65,0,1
208641,-74.0740740740741,4,2,2,60,0,0
216141,-74.0740740740741,4,2,2,65,0,1
216516,-74.0740740740741,4,2,2,5,0,1
216641,-74.0740740740741,4,2,2,60,0,0
217016,-74.0740740740741,4,2,2,5,0,0
217141,-74.0740740740741,4,2,2,60,0,0
220141,-74.0740740740741,4,2,2,65,0,1
220516,-74.0740740740741,4,2,2,5,0,1
220641,-74.0740740740741,4,2,2,60,0,0
221016,-74.0740740740741,4,2,2,5,0,0
221141,-74.0740740740741,4,2,2,60,0,0
224141,-74.0740740740741,4,2,2,65,0,1
224516,-74.0740740740741,4,2,2,5,0,1
224641,-74.0740740740741,4,2,2,60,0,0
227766,-74.0740740740741,4,2,2,5,0,0
227891,-74.0740740740741,4,2,2,60,0,0
228016,-74.0740740740741,4,2,2,5,0,0
228141,-74.0740740740741,4,2,2,65,0,1
228641,-74.0740740740741,4,2,2,60,0,0
230141,-74.0740740740741,4,2,2,50,0,0
231141,-74.0740740740741,4,2,2,30,0,0
232641,-100,4,2,2,30,0,0
247141,-181.818181818182,4,2,2,30,0,0
247266,-181.818181818182,4,2,3,5,0,0
250141,-208.333333333333,4,2,2,30,0,0
250266,-208.333333333333,4,2,3,5,0,0
254141,923.076923076923,4,2,2,20,1,0
254141,-100,4,2,2,20,0,0
254325,967.741935483871,4,2,2,20,1,0
254527,1000,4,2,2,20,1,0
254653,-133.333333333333,4,2,2,5,0,0

[Colours]
Combo1 : 179,123,123
Combo2 : 217,132,38
Combo3 : 157,113,68
Combo4 : 219,211,125

[HitObjects]
38,252,141,6,0,P|107:252|177:247,1,140,2|0,0:0|0:0,0:0:0:0:
209,320,1141,2,0,P|176:317|129:316,1,70,0|2,0:0|0:0,0:0:0:0:
139,315,2141,6,0,P|217:308|309:307,1,140,2|0,0:0|0:0,0:0:0:0:
412,256,3141,1,0,0:0:0:0:
361,360,3641,1,0,0:0:0:0:
485,304,4141,6,0,L|478:165,1,140,2|0,0:0|0:0,0:0:0:0:
412,118,5141,2,0,L|407:189,1,70,0|2,0:0|0:0,0:0:0:0:
407,187,6141,6,0,L|400:46,1,140,2|0,0:0|0:0,0:0:0:0:
208,8,7141,1,0,0:0:0:0:
275,121,7641,1,0,0:0:0:0:
164,191,8141,6,0,P|120:195|16:199,1,140,2|0,0:0|0:0,0:0:0:0:
223,335,9141,2,0,P|227:283|227:263,1,70,0|2,0:0|0:0,0:0:0:0:
213,345,10141,6,0,P|213:288|221:193,1,140,2|0,0:0|0:0,0:0:0:0:
256,66,11141,1,0,0:0:0:0:
184,143,11641,1,0,0:0:0:0:
350,150,12141,6,0,P|347:80|347:11,1,140,2|0,0:0|0:0,0:0:0:0:
176,194,13141,2,0,L|246:197,1,70,0|2,0:0|0:0,0:0:0:0:
163,210,14141,6,0,B|308:209,1,140,2|0,0:0|0:0,0:0:0:0:
440,252,15141,1,0,0:0:0:0:
440,252,16141,6,0,P|392:236|304:284,1,140,2|0,0:0|0:0,0:0:0:0:
326,297,16891,1,0,0:0:0:0:
302,295,17141,1,0,0:0:0:0:
285,318,17391,1,0,0:0:0:0:
299,360,17641,2,0,L|224:349,1,70
117,349,18141,6,0,B|137:309|137:309|112:207,1,140,2|0,0:0|0:0,0:0:0:0:
65,160,18891,1,0,0:0:0:0:
65,160,19141,2,0,P|100:153|132:140,1,70
204,112,19641,2,0,P|242:118|271:128,1,70
368,24,20141,6,0,L|372:180,1,140,2|0,0:0|0:0,0:0:0:0:
392,184,20891,1,0,0:0:0:0:
380,200,21141,1,0,0:0:0:0:
373,227,21391,1,0,0:0:0:0:
392,280,21641,2,0,P|386:314|382:362,1,70
452,325,22141,6,0,P|370:316|308:350,1,140,2|0,0:0|0:0,0:0:0:0:
252,315,22891,1,0,0:0:0:0:
252,315,23141,2,0,P|251:278|255:245,1,70
134,340,23641,2,0,P|138:312|130:260,1,70
16,164,24141,6,0,P|85:159|154:148,1,140,2|0,0:0|0:0,0:0:0:0:
175,129,24891,1,0,0:0:0:0:
199,132,25141,1,0,0:0:0:0:
227,104,25391,1,0,0:0:0:0:
290,129,25641,2,0,P|331:122|371:120,1,70
452,51,26141,6,0,P|428:117|456:207,1,140,2|0,0:0|0:0,0:0:0:0:
475,252,26891,1,0,0:0:0:0:
475,252,27141,2,0,B|400:259,1,70
285,318,27641,2,0,B|356:325,1,70
166,317,28141,5,2,0:0:0:0:
166,317,28641,2,0,P|170:257|170:225,1,70
106,194,29141,1,0,0:0:0:0:
120,197,29391,1,0,0:0:0:0:
145,183,29641,1,0,0:0:0:0:
171,182,29891,1,0,0:0:0:0:
214,136,30141,6,0,B|334:96|294:172|422:120,1,210,2|0,0:0|0:0,0:0:0:0:
418,121,31141,1,0,0:0:0:0:
418,121,31391,1,0,0:0:0:0:
491,38,32141,5,2,0:0:0:0:
298,14,32641,2,0,P|298:90|294:136,1,105
292,184,33141,1,0,0:0:0:0:
415,320,33391,2,0,P|417:250|422:179,1,140
288,252,34141,2,0,P|252:248|160:244,1,105,2|0,0:0|0:0,0:0:0:0:
100,236,34641,6,0,P|136:172|105:105,2,140
191,49,36141,1,2,0:0:0:0:
36,36,36641,5,0,0:0:0:0:
36,36,37141,1,0,0:0:0:0:
36,36,37391,2,0,L|175:32,1,140
285,0,38141,6,0,B|311:30|316:96|276:107|217:140|266:200,1,210,2|0,0:0|0:0,0:0:0:0:
187,252,39141,2,0,B|169:225|169:225|235:190|295:238|306:306,1,210
376,378,40141,5,2,0:0:0:0:
458,214,40641,2,0,P|437:261|442:313,1,105
468,373,41141,1,0,0:0:0:0:
233,344,41391,2,0,P|295:306|371:337,1,140
284,240,42141,2,0,P|305:192|303:140,1,105,2|0,0:0|0:0,0:0:0:0:
423,92,42641,6,0,P|361:78|370:6,2,140
389,236,44141,1,2,0:0:0:0:
283,156,44641,5,0,0:0:0:0:
283,156,45141,1,0,0:0:0:0:
283,156,45391,2,0,L|118:161,1,140
3,218,46141,6,0,B|46:207|51:165|70:220|122:188|122:188|91:233|136:235|98:280,1,210,2|0,0:0|0:0,0:0:0:0:
167,321,47141,2,0,B|148:341|125:345|125:345|229:414|245:297|348:345,1,280
48,368,50141,5,0,0:0:0:0:
40,360,50641,2,0,P|48:284|103:269,1,140,2|2,0:0|0:0,0:0:0:0:
122,282,51641,1,2,0:0:0:0:
111,303,51891,1,2,0:0:0:0:
196,323,52141,5,0,0:0:0:0:
240,163,52641,1,2,0:0:0:0:
341,40,53141,1,2,0:0:0:0:
251,170,53641,1,2,0:0:0:0:
332,308,54141,6,0,B|368:300|396:324|396:324|456:256|396:188|396:188|404:224|380:256,1,280,2|0,0:0|0:0,0:0:0:0:
224,292,55641,1,2,0:0:0:0:
164,222,55891,2,0,P|117:256|65:330,1,140,2|0,0:0|0:0,0:0:0:0:
29,183,56641,5,2,0:0:0:0:
185,49,57141,1,2,0:0:0:0:
307,214,57641,1,2,0:0:0:0:
148,320,58141,5,0,0:0:0:0:
156,328,58641,2,0,B|235:332|196:367|293:370,1,140,2|2,0:0|0:0,0:0:0:0:
311,353,59641,1,2,0:0:0:0:
290,329,59891,1,2,0:0:0:0:
365,300,60141,5,0,0:0:0:0:
199,229,60641,1,2,0:0:0:0:
280,97,61141,1,2,0:0:0:0:
68,136,61641,1,2,0:0:0:0:
102,315,62141,6,0,P|220:328|259:192,1,280,2|0,0:0|0:0,0:0:0:0:
60,51,63641,1,2,0:0:0:0:
68,43,63891,2,0,B|108:23|92:11|120:-5|120:-5|115:77|180:111|180:111|217:50|290:65|290:65|252:143|338:182|353:114|326:108,1,490,2|0,0:0|0:0,0:0:0:0:
240,348,66141,5,0,0:0:0:0:
244,356,66391,1,0,0:0:0:0:
180,320,66641,5,2,0:0:0:0:
172,344,66891,1,0,0:0:0:0:
143,337,67141,2,0,P|103:337|59:341,1,70,2|0,0:0|0:0,0:0:0:0:
245,282,67641,2,0,P|285:282|329:286,1,70,2|2,0:0|0:0,0:0:0:0:
344,152,68141,5,0,0:0:0:0:
341,171,68391,1,0,0:0:0:0:
480,132,68641,5,2,0:0:0:0:
412,160,68891,1,0,0:0:0:0:
492,148,69141,2,0,P|496:196|500:224,1,70,2|0,0:0|0:0,0:0:0:0:
400,304,69641,2,0,P|404:269|406:234,1,70,2|2,0:0|0:0,0:0:0:0:
244,336,70141,5,0,0:0:0:0:
232,272,70391,1,0,0:0:0:0:
228,300,70641,5,2,0:0:0:0:
220,280,70891,1,0,0:0:0:0:
205,312,71141,2,0,P|168:307|124:294,1,70,2|0,0:0|0:0,0:0:0:0:
140,178,71641,5,2,0:0:0:0:
132,192,71891,2,0,B|187:182|216:222|276:210,1,140,2|0,0:0|0:0,0:0:0:0:
342,230,72641,1,0,0:0:0:0:
388,282,72891,1,0,0:0:0:0:
421,351,73141,6,0,P|423:287|434:211,1,140,2|0,0:0|0:0,0:0:0:0:
486,122,73891,1,0,0:0:0:0:
413,128,74141,5,0,0:0:0:0:
373,76,74391,1,0,0:0:0:0:
299,50,74641,2,0,P|290:119|294:189,1,140,2|2,0:0|0:0,0:0:0:0:
38,107,75641,5,2,0:0:0:0:
42,124,75891,2,0,B|99:31|49:-28|-67:-21|-21:100|99:105|38:-26|137:-1|205:9,1,350,2|0,0:0|0:0,0:0:0:0:
188,160,77641,5,2,0:0:0:0:
200,148,77891,2,0,B|212:216|266:224|266:224|246:338|432:336|388:217|327:239,1,350,2|2,0:0|0:0,0:0:0:0:
200,269,79391,5,2,0:0:0:0:
128,212,79641,1,2,0:0:0:0:
28,292,79891,1,2,0:0:0:0:
96,100,80141,5,2,0:0:0:0:
416,284,81141,1,2,0:0:0:0:
456,53,82141,6,0,P|380:79|386:162,1,161.000003070831,4|0,1:2|0:0,0:0:0:0:
416,284,83141,1,8,0:0:0:0:
416,284,83391,1,0,0:0:0:0:
250,301,84141,5,0,0:0:0:0:
161,204,84641,2,0,B|119:283|187:285|146:366,2,161.000003070831,0|8|0,1:0|0:0|0:0,0:0:0:0:
298,167,86141,6,0,P|258:113|158:141,1,161.000003070831,0|0,1:0|0:0,0:0:0:0:
76,213,87141,1,8,0:0:0:0:
76,213,87391,1,0,0:0:0:0:
129,320,88141,5,0,0:0:0:0:
233,251,88641,2,0,B|337:279|337:279|305:279|273:307,2,161.000003070831,0|8|0,1:0|0:0|0:0,0:0:0:0:
399,43,90141,6,0,L|392:204,1,161.000003070831,0|0,1:0|0:0,0:0:0:0:
480,132,91141,1,8,0:0:0:0:
480,132,91391,1,0,0:0:0:0:
483,285,92141,6,0,P|451:274|335:334,1,161.000003070831,0|0,1:0|0:0,0:0:0:0:
233,215,93141,1,8,0:0:0:0:
270,298,93641,1,0,0:0:0:0:
16,136,94141,6,0,B|72:152|96:193|96:193|119:171|154:160,1,161.000003070831,0|0,1:0|0:0,0:0:0:0:
280,128,95141,1,8,0:0:0:0:
212,104,95391,1,0,0:0:0:0:
335,239,96141,5,0,0:0:0:0:
408,220,96391,2,0,B|399:181|399:181|416:142,1,80.5000015354157,0|0,1:0|0:0,0:0:0:0:
280,128,96891,2,0,B|287:168|287:168|271:204,1,80.5000015354157,0|8,1:0|0:0,0:0:0:0:
496,332,98141,6,0,B|448:296|380:309|380:309|404:356,1,161.000003070831,4|2,1:2|1:2,0:0:0:0:
224,304,99141,5,10,0:0:0:0:
320,260,99391,1,2,0:2:0:0:
260,228,99641,2,0,P|256:180|256:140,1,80.5000015354157,0|0,1:0|0:0,0:0:0:0:
272,120,100016,1,0,0:0:0:0:
272,120,100141,5,2,1:2:0:0:
181,41,100391,1,0,1:0:0:0:
326,13,100641,2,0,P|286:7|246:1,1,80.5000015354157,0|0,0:0|1:0,0:0:0:0:
117,187,101141,6,0,P|117:142|141:103,1,80.5000015354157,10|0,0:0|0:0,0:0:0:0:
24,268,101641,2,0,P|63:273|103:279,1,80.5000015354157,2|0,0:0|0:0,0:0:0:0:
124,308,102016,1,0,0:0:0:0:
124,308,102141,6,0,B|160:272|216:264|216:264|264:296,1,161.000003070831,0|2,1:0|1:2,0:0:0:0:
472,272,103141,5,10,0:0:0:0:
496,380,103391,1,2,0:0:0:0:
468,256,103641,2,0,P|430:248|388:245,1,80.5000015354157
356,248,104016,1,0,0:0:0:0:
356,248,104141,5,2,1:2:0:0:
332,152,104391,1,0,1:0:0:0:
460,176,104641,1,0,0:0:0:0:
484,48,104891,1,0,1:0:0:0:
356,24,105141,2,0,B|262:5,1,80.5000015354157,10|0,0:0|0:0,0:0:0:0:
218,173,105641,2,0,B|312:154,1,80.5000015354157,2|0,0:0|0:0,0:0:0:0:
332,152,106016,1,0,0:0:0:0:
332,152,106141,6,0,B|358:247|307:211|328:313,1,161.000003070831,0|2,1:0|1:2,0:0:0:0:
150,209,107141,5,10,0:0:0:0:
125,347,107391,1,2,0:0:0:0:
206,290,107641,1,0,0:0:0:0:
67,265,107891,1,0,0:0:0:0:
64,284,108016,1,0,0:0:0:0:
60,304,108141,5,2,1:2:0:0:
206,290,108391,1,0,1:0:0:0:
264,344,108641,2,0,P|304:348|356:352,1,80.5000015354157,0|0,0:0|1:0,0:0:0:0:
416,252,109141,2,0,P|375:255|335:259,1,80.5000015354157,10|0,0:0|0:0,0:0:0:0:
232,216,109641,2,0,P|240:176|240:136,1,80.5000015354157,2|0,0:0|0:0,0:0:0:0:
260,108,110016,1,0,0:0:0:0:
260,108,110141,6,0,P|264:208|264:288,1,161.000003070831,0|2,1:0|1:2,0:0:0:0:
444,368,111141,5,10,0:0:0:0:
348,340,111391,1,2,0:0:0:0:
376,244,111641,1,0,0:0:0:0:
478,278,111891,1,0,0:0:0:0:
478,278,112016,1,0,0:0:0:0:
478,278,112141,5,2,1:2:0:0:
336,348,112391,1,0,1:0:0:0:
448,380,112641,1,0,0:0:0:0:
368,232,112891,1,0,1:0:0:0:
212,296,113141,2,0,P|216:242|216:169,1,120.750002303124,10|0,0:0|0:0,0:0:0:0:
272,124,113641,6,0,B|240:80|192:84|192:84|168:128|96:120|96:120|116:108|124:94,1,241.500004606247
148,28,114141,1,4,1:2:0:0:
449,50,114641,6,0,B|420:150|479:109|445:226,1,161.000003070831,2|10,1:2|0:0,0:0:0:0:
504,264,115391,1,2,0:0:0:0:
440,308,115641,2,0,P|398:312|350:326,1,80.5000015354157
315,226,116141,2,0,P|276:216|236:214,1,80.5000015354157,2|0,1:2|0:0,0:0:0:0:
96,280,116641,6,0,L|105:363,1,80.5000015354157,2|0,1:2|1:0,0:0:0:0:
64,197,117141,2,0,L|149:215,1,80.5000015354157,10|0,0:0|0:0,0:0:0:0:
101,42,117641,2,0,L|83:125,1,80.5000015354157,2|0,0:0|0:0,0:0:0:0:
373,133,118141,6,0,L|245:108,1,120.750002303124,4|0,1:2|0:0,0:0:0:0:
192,95,118641,1,2,0:0:0:0:
296,372,119141,5,10,0:0:0:0:
268,292,119391,1,2,0:0:0:0:
351,308,119641,1,0,0:0:0:0:
194,284,119891,1,0,0:0:0:0:
194,284,120016,1,0,0:0:0:0:
194,284,120141,6,0,B|136:248|75:268|75:268|104:300,1,161.000003070831,2|0,1:2|0:0,0:0:0:0:
28,328,120891,1,0,1:0:0:0:
84,380,121141,2,0,B|164:376,1,80.5000015354157,10|0,0:0|0:0,0:0:0:0:
232,312,121641,2,0,B|324:320,1,80.5000015354157
464,383,122141,6,0,P|480:334|431:220,1,161.000003070831,4|2,1:2|1:2,0:0:0:0:
282,112,123141,5,10,0:0:0:0:
398,154,123391,1,2,0:0:0:0:
353,81,123641,1,0,0:0:0:0:
446,233,123891,1,0,0:0:0:0:
446,233,124016,1,0,0:0:0:0:
446,233,124141,2,0,L|451:325,1,80.5000015354157,2|0,1:2|0:0,0:0:0:0:
228,165,124641,6,0,P|191:149|152:153,1,80.5000015354157,2|0,1:2|1:0,0:0:0:0:
280,89,125141,2,0,P|264:52|235:26,1,80.5000015354157,10|0,0:0|0:0,0:0:0:0:
365,138,125641,2,0,P|380:101|377:62,1,80.5000015354157,2|0,1:2|0:0,0:0:0:0:
172,0,126141,6,0,P|144:72|156:164,1,161.000003070831,4|2,1:2|1:2,0:0:0:0:
220,192,126891,1,0,0:0:0:0:
124,224,127141,2,0,P|84:228|28:232,1,80.5000015354157,10|2,0:0|0:0,0:0:0:0:
274,273,127641,2,0,P|234:269|194:267,1,80.5000015354157,0|2,0:0|0:0,0:0:0:0:
401,280,128141,6,0,B|434:228|410:170|410:170|404:197|388:215,1,161.000003070831,2|0,1:2|0:0,0:0:0:0:
331,167,128891,1,0,1:0:0:0:
348,48,129141,5,10,0:0:0:0:
331,167,129391,1,8,0:0:0:0:
232,12,129641,5,8,0:0:0:0:
248,240,129891,1,0,1:0:0:0:
136,80,130141,5,8,0:0:0:0:
331,167,130391,1,0,1:0:0:0:
359,163,130516,1,8,0:0:0:0:
383,147,130641,1,0,1:0:0:0:
324,28,130891,5,8,0:0:0:0:
248,240,131141,1,8,0:0:0:0:
249,269,131266,1,0,1:0:0:0:
250,298,131391,1,8,0:0:0:0:
416,328,131641,5,0,1:0:0:0:
440,344,131766,1,0,1:0:0:0:
416,356,131891,1,8,0:0:0:0:
80,268,132141,6,0,P|91:179|55:78,1,189.000000720978,4|2,1:2|1:2,0:0:0:0:
159,205,132891,1,0,0:0:0:0:
250,298,133141,2,0,P|241:250|256:190,1,94.5000003604889,10|0,0:0|0:0,0:0:0:0:
306,85,133641,1,2,0:0:0:0:
148,60,133891,1,2,0:0:0:0:
167,39,134016,1,0,1:0:0:0:
199,31,134141,5,0,1:0:0:0:
126,190,134391,1,0,1:0:0:0:
292,96,134641,1,2,0:0:0:0:
107,203,134891,1,0,1:0:0:0:
306,85,135141,6,0,P|354:89|434:89,1,94.5000003604889,10|0,0:0|1:0,0:0:0:0:
187,210,135641,2,0,P|139:214|59:214,1,94.5000003604889,2|0,0:0|1:0,0:0:0:0:
296,360,136141,6,0,L|312:160,1,189.000000720978,2|0,1:2|1:0,0:0:0:0:
440,336,137141,1,8,0:0:0:0:
424,260,137391,1,0,0:0:0:0:
296,360,137641,1,2,0:0:0:0:
232,220,137891,1,2,0:0:0:0:
232,220,138016,1,0,1:0:0:0:
232,220,138141,5,0,1:0:0:0:
104,320,138391,1,0,1:0:0:0:
46,214,138641,1,2,0:0:0:0:
183,107,138891,1,0,1:0:0:0:
232,220,139141,5,10,0:0:0:0:
96,140,139391,1,0,1:0:0:0:
236,64,139641,2,0,P|288:60|336:56,1,94.5000003604889,2|0,0:0|1:0,0:0:0:0:
480,117,140141,6,0,P|431:112|389:232,1,189.000000720978,4|2,1:2|1:2,0:0:0:0:
268,329,140891,1,0,0:0:0:0:
213,200,141141,2,0,P|257:184|303:193,1,94.5000003604889,10|0,0:0|0:0,0:0:0:0:
101,230,141641,1,2,0:0:0:0:
168,352,141891,1,2,0:0:0:0:
134,346,142016,1,0,1:0:0:0:
103,359,142141,5,0,1:0:0:0:
9,198,142391,1,0,1:0:0:0:
28,311,142641,1,2,0:0:0:0:
84,137,142891,1,0,1:0:0:0:
158,69,143141,6,0,B|203:84|203:84|254:73,1,94.5000003604889,10|0,0:0|1:0,0:0:0:0:
239,271,143641,2,0,B|194:256|194:256|143:267,1,94.5000003604889,2|0,0:0|1:0,0:0:0:0:
51,66,144141,6,0,B|19:174|91:142|51:270,1,189.000000720978,2|0,1:2|1:0,0:0:0:0:
336,75,145141,1,8,0:0:0:0:
232,56,145391,1,0,0:0:0:0:
193,197,145641,1,2,0:0:0:0:
371,183,145891,1,2,0:0:0:0:
371,183,146016,1,0,1:0:0:0:
371,183,146141,5,0,1:0:0:0:
188,297,146391,1,0,1:0:0:0:
256,339,146641,5,0,0:0:0:0:
297,134,146891,1,0,1:0:0:0:
401,287,147141,5,8,0:0:0:0:
182,212,147391,1,0,1:0:0:0:
144,219,147516,1,0,1:0:0:0:
121,249,147641,1,8,0:0:0:0:
245,327,147891,1,8,0:0:0:0:
458,287,148141,6,0,P|465:223|479:140,1,141.750000540733,4|0,1:2|0:0,0:0:0:0:
485,82,148641,2,0,P|442:49|348:65,1,141.750000540733,2|0,1:2|0:0,0:0:0:0:
304,97,149141,1,10,0:0:0:0:
135,30,149641,5,2,0:0:0:0:
252,172,149891,1,2,0:0:0:0:
252,172,150016,1,0,1:0:0:0:
252,172,150141,1,0,1:0:0:0:
72,204,150391,1,0,1:0:0:0:
24,8,150641,6,0,P|24:32|20:112,1,94.5000003604889,2|0,0:0|1:0,0:0:0:0:
115,49,151141,2,0,P|119:96|120:144,1,94.5000003604889,10|0,0:0|0:0,0:0:0:0:
216,12,151641,2,0,P|213:59|212:106,1,94.5000003604889,2|2,0:0|0:0,0:0:0:0:
324,288,152141,6,0,B|290:258|290:258|236:256|191:294,1,141.750000540733,4|0,1:2|0:0,0:0:0:0:
134,322,152641,2,0,P|114:258|134:182,1,141.750000540733,2|0,1:2|0:0,0:0:0:0:
165,128,153141,1,10,0:0:0:0:
352,136,153641,5,2,0:0:0:0:
224,56,153891,1,2,0:0:0:0:
252,32,154016,1,0,1:0:0:0:
268,0,154141,1,0,1:0:0:0:
256,152,154391,1,0,1:0:0:0:
384,220,154641,6,0,P|428:216|480:216,1,94.5000003604889,0|0,0:0|1:0,0:0:0:0:
288,304,155141,2,0,P|244:300|192:300,1,94.5000003604889,10|0,0:0|0:0,0:0:0:0:
99,316,155641,1,2,0:0:0:0:
174,239,155891,1,2,0:0:0:0:
24,380,156141,6,0,B|34:326|7:289|16:224,1,141.750000540733,4|0,1:2|0:0,0:0:0:0:
18,168,156641,1,2,1:2:0:0:
284,92,157141,5,10,0:0:0:0:
130,136,157391,1,0,0:0:0:0:
106,12,157641,1,2,0:0:0:0:
232,199,157891,1,2,0:0:0:0:
232,199,158016,1,0,1:0:0:0:
232,199,158141,5,0,1:0:0:0:
273,70,158391,1,0,1:0:0:0:
328,252,158641,2,0,P|364:256|432:260,1,94.5000003604889,0|0,0:0|1:0,0:0:0:0:
494,132,159141,2,0,P|446:134|399:139,1,94.5000003604889,8|0,0:0|0:0,0:0:0:0:
212,296,159641,6,0,P|206:323|204:352,1,47.2500001802444,2|0,0:0|0:0,0:0:0:0:
128,208,159891,2,0,P|120:228|108:264,1,47.2500001802444,2|0,0:0|0:0,0:0:0:0:
284,156,160141,6,0,B|273:224|273:224|289:268|289:268|281:340,1,189.000000720978,4|0,1:2|1:0,0:0:0:0:
448,132,161141,1,8,0:0:0:0:
464,64,161391,1,0,0:0:0:0:
292,20,161641,1,0,0:0:0:0:
308,140,161891,1,0,0:0:0:0:
308,140,162016,1,0,1:0:0:0:
308,140,162141,6,0,B|286:125|264:120|264:120|212:136,1,94.5000003604889,4|0,1:2|1:0,0:0:0:0:
135,182,162641,2,0,B|147:152|147:134|147:134|126:91,1,94.5000003604889,0|0,0:0|1:0,0:0:0:0:
64,8,163141,1,8,0:0:0:0:
216,48,163391,1,0,1:0:0:0:
39,180,163641,6,0,L|37:149,2,31.500000120163,0|0|0,1:0|1:0|1:0,1:0:0:0:
26,283,163891,2,0,L|28:251,2,31.500000120163,0|0|0,1:0|1:0|1:0,1:0:0:0:
92,322,164141,5,6,0:0:0:0:
148,254,164391,1,2,0:0:0:0:
204,322,164641,1,2,1:2:0:0:
260,254,164891,1,2,0:0:0:0:
316,186,165141,5,10,0:0:0:0:
260,118,165391,1,2,0:0:0:0:
204,186,165641,1,2,0:0:0:0:
148,118,165891,1,2,0:0:0:0:
148,118,166016,1,0,1:0:0:0:
148,118,166141,6,0,P|76:114|36:110,1,94.5000003604889,2|0,1:2|1:0,0:0:0:0:
213,38,166641,2,0,P|285:34|325:30,1,94.5000003604889,0|0,0:0|1:0,0:0:0:0:
460,80,167141,1,8,0:0:0:0:
399,9,167391,1,0,1:0:0:0:
475,167,167641,2,0,B|471:207|471:207|463:219|463:219|459:259,1,94.5000003604889,2|0,0:0|1:0,0:0:0:0:
478,382,168141,6,0,B|473:341|452:367|444:321|444:321|397:368|333:348,1,189.000000720978,6|0,1:2|1:0,0:0:0:0:
167,296,168891,1,2,0:0:0:0:
303,276,169141,6,0,B|336:243|336:243|335:172,1,94.5000003604889,10|0,0:0|0:0,0:0:0:0:
267,170,169474,6,0,B|234:203|234:203|235:274,1,94.5000003604889,2|0,0:0|0:0,0:0:0:0:
323,123,169807,6,0,P|287:106|253:80,1,78.7500003004074,2|0,0:0|1:0,0:0:0:0:
169,40,170141,5,2,0:0:0:0:
186,77,170266,1,2,0:0:0:0:
166,117,170391,1,2,1:2:0:0:
190,157,170516,1,2,0:0:0:0:
166,197,170641,6,0,L|170:232,2,31.500000120163,2|2|2,0:0|0:0|0:0,0:0:0:0:
148,182,170891,2,0,L|144:217,2,31.500000120163,2|2|2,1:2|0:0|0:0,0:0:0:0:
111,198,171141,6,0,P|110:252|107:294,1,94.5000003604889,10|0,0:0|1:0,0:0:0:0:
133,317,171516,2,0,P|123:338|119:362,1,47.2500001802444,2|0,0:0|0:0,0:0:0:0:
53,339,171891,1,2,1:2:0:0:
412,352,172141,6,0,P|329:338|340:237,1,189.000000720978,6|0,1:2|1:0,0:0:0:0:
509,146,173141,2,0,B|430:92|402:214|330:163,1,189.000000720978,8|2,0:0|0:0,0:0:0:0:
381,295,174016,5,0,1:0:0:0:
381,295,174141,1,2,1:2:0:0:
456,347,174391,1,0,1:0:0:0:
327,369,174641,2,0,P|280:377|232:385,1,94.5000003604889,0|0,0:0|1:0,0:0:0:0:
60,376,175141,6,0,B|72:332|72:332|54:263,1,94.5000003604889,10|0,0:0|1:0,0:0:0:0:
140,229,175516,2,0,B|104:206|104:206|133:303,1,141.750000540733,2|2,0:0|1:2,0:0:0:0:
468,220,176141,6,0,B|398:208|330:236|330:236|354:216|362:200,1,189.000000720978,6|0,1:2|1:0,0:0:0:0:
206,69,177141,2,0,B|228:52|232:20|232:20|284:64|356:48,1,189.000000720978,8|2,0:0|1:2,0:0:0:0:
288,155,178016,5,0,1:0:0:0:
288,155,178141,1,2,0:0:0:0:
100,120,178391,1,0,1:0:0:0:
232,258,178641,1,2,0:0:0:0:
206,69,178891,1,0,1:0:0:0:
106,245,179141,5,10,0:0:0:0:
156,11,179391,1,2,1:2:0:0:
88,36,179641,5,2,0:0:0:0:
257,124,179891,2,0,P|258:140|262:155,2,31.500000120163,2|0|0,1:2|0:0|0:0,0:0:0:0:
284,60,180141,5,2,0:0:0:0:
228,324,182141,1,2,0:0:0:0:
256,192,184141,5,0,0:0:0:0:
384,256,184641,2,0,L|391:116,2,140,2|2|2,0:0|0:0|0:0,0:0:0:0:
296,284,185891,1,2,0:0:0:0:
228,224,186141,2,0,P|156:221|131:293,1,140,0|2,0:0|0:0,0:0:0:0:
308,96,187141,5,2,0:0:0:0:
388,84,187641,1,2,0:0:0:0:
240,160,188141,2,0,P|181:158|87:147,2,140,2|0|0,0:0|0:0|0:0,0:0:0:0:
85,274,189641,6,0,P|77:322|73:354,1,70,2|2,0:0|0:0,0:0:0:0:
272,375,190141,2,0,P|270:314|254:224,1,140,0|2,0:0|0:0,0:0:0:0:
180,120,191141,1,2,0:0:0:0:
356,180,191641,1,2,0:0:0:0:
242,57,192141,5,0,0:0:0:0:
78,183,192641,2,0,P|82:299|82:343,2,140,2|2|2,0:0|0:0|0:0,0:0:0:0:
152,237,193891,1,2,0:0:0:0:
238,208,194141,2,0,B|319:195|290:232|398:216,1,140,0|2,0:0|0:0,0:0:0:0:
496,372,195141,5,2,0:0:0:0:
428,328,195641,1,2,0:0:0:0:
350,348,196141,5,2,0:0:0:0:
256,192,196266,12,2,197641,0:0:0:0:
144,68,198141,5,12,0:0:0:0:
240,248,198391,1,0,1:0:0:0:
237,276,198516,1,8,0:0:0:0:
106,213,198891,5,8,0:0:0:0:
323,160,199141,1,8,0:0:0:0:
243,53,199391,1,0,1:0:0:0:
175,302,199641,6,0,B|168:342,2,31.500000120163,0|0|0,1:0|1:0|1:0,1:0:0:0:
238,290,199891,2,0,B|243:258,2,31.500000120163,0|0|0,1:0|1:0|1:0,1:0:0:0:
294,347,200141,6,0,P|302:283|326:149,1,189.000000720978,4|2,1:2|1:2,0:0:0:0:
190,101,200891,1,0,0:0:0:0:
175,302,201141,2,0,P|171:254|165:208,1,94.5000003604889,10|0,0:0|0:0,0:0:0:0:
23,195,201641,1,2,0:0:0:0:
115,92,201891,1,2,0:0:0:0:
115,92,202016,1,0,1:0:0:0:
115,92,202141,5,0,1:0:0:0:
178,222,202391,1,0,1:0:0:0:
86,339,202641,2,0,P|82:303|70:239,1,94.5000003604889,2|0,0:0|1:0,0:0:0:0:
267,268,203141,2,0,P|259:324|259:372,1,94.5000003604889,10|0,0:0|1:0,0:0:0:0:
117,131,203641,2,0,P|163:128|213:115,1,94.5000003604889,2|0,0:0|1:0,0:0:0:0:
445,164,204141,6,0,P|400:162|362:280,1,189.000000720978,2|0,1:2|1:0,0:0:0:0:
272,66,205141,1,8,0:0:0:0:
384,9,205391,1,0,0:0:0:0:
259,82,205641,1,2,0:0:0:0:
429,116,205891,1,2,0:0:0:0:
402,125,206016,1,0,1:0:0:0:
381,144,206141,5,0,1:0:0:0:
259,82,206391,1,0,1:0:0:0:
220,264,206641,1,2,0:0:0:0:
406,208,206891,1,0,1:0:0:0:
278,172,207141,5,10,0:0:0:0:
287,358,207391,1,0,1:0:0:0:
438,268,207641,2,0,P|393:271|344:279,1,94.5000003604889,2|0,0:0|1:0,0:0:0:0:
142,373,208141,6,0,P|154:284|106:175,1,189.000000720978,4|2,1:2|1:2,0:0:0:0:
261,158,208891,1,0,0:0:0:0:
299,346,209141,2,0,P|287:308|298:253,1,94.5000003604889,10|0,0:0|0:0,0:0:0:0:
356,86,209641,1,2,0:0:0:0:
201,12,209891,1,2,0:0:0:0:
233,16,210016,1,0,1:0:0:0:
265,20,210141,5,0,1:0:0:0:
365,97,210391,1,0,1:0:0:0:
262,187,210641,2,0,P|208:192|157:204,1,94.5000003604889,2|0,0:0|1:0,0:0:0:0:
403,308,211141,2,0,B|450:302|450:302|505:332,1,94.5000003604889,10|0,0:0|1:0,0:0:0:0:
512,129,211641,2,0,B|465:135|465:135|421:110,1,94.5000003604889,2|0,0:0|1:0,0:0:0:0:
290,297,212141,6,0,B|321:186|256:229|292:107,1,189.000000720978,2|0,1:2|1:0,0:0:0:0:
104,284,213141,1,8,0:0:0:0:
214,167,213391,1,0,0:0:0:0:
54,194,213641,1,2,0:0:0:0:
199,306,213891,1,2,0:0:0:0:
199,306,214016,1,0,1:0:0:0:
199,306,214141,5,0,1:0:0:0:
155,113,214391,1,0,1:0:0:0:
376,149,214641,5,0,0:0:0:0:
345,275,214891,1,0,1:0:0:0:
235,242,215141,5,8,0:0:0:0:
193,17,215391,1,0,1:0:0:0:
163,6,215516,1,0,1:0:0:0:
130,5,215641,1,8,0:0:0:0:
250,97,215891,1,8,0:0:0:0:
382,281,216141,6,0,P|374:209|363:124,1,141.750000540733,4|0,1:2|0:0,0:0:0:0:
326,73,216641,2,0,P|386:105|486:89,1,141.750000540733,2|0,1:2|0:0,0:0:0:0:
512,58,217141,1,10,0:0:0:0:
365,140,217641,5,2,0:0:0:0:
258,194,217891,1,2,0:0:0:0:
258,194,218016,1,0,1:0:0:0:
258,194,218141,1,0,1:0:0:0:
275,303,218391,1,0,1:0:0:0:
168,350,218641,6,0,P|168:326|172:246,1,94.5000003604889,2|0,0:0|1:0,0:0:0:0:
84,376,219141,2,0,P|83:329|79:282,1,94.5000003604889,10|0,0:0|0:0,0:0:0:0:
0,343,219641,2,0,P|0:295|4:248,1,94.5000003604889,2|2,1:2|0:0,0:0:0:0:
127,50,220141,6,0,P|127:122|118:223,1,141.750000540733,4|0,1:2|0:0,0:0:0:0:
114,260,220641,2,0,B|195:279|174:239|257:258,1,141.750000540733,2|0,1:2|0:0,0:0:0:0:
323,273,221141,1,10,0:0:0:0:
432,104,221641,5,2,0:0:0:0:
304,144,221891,1,2,0:0:0:0:
272,136,222016,1,0,1:0:0:0:
240,128,222141,1,0,1:0:0:0:
332,12,222391,1,0,1:0:0:0:
444,120,222641,6,0,P|440:168|440:224,1,94.5000003604889,0|0,0:0|1:2,0:0:0:0:
336,272,223141,2,0,P|340:320|340:376,1,94.5000003604889,10|0,0:0|0:0,0:0:0:0:
468,376,223641,1,2,0:0:0:0:
439,214,223891,1,2,0:0:0:0:
340,366,224141,6,0,B|292:319|250:377|201:356,1,141.750000540733,4|0,1:2|0:0,0:0:0:0:
163,307,224641,1,2,1:2:0:0:
56,64,225141,5,10,0:0:0:0:
172,136,225391,1,0,0:0:0:0:
64,180,225641,1,2,0:0:0:0:
170,26,225891,1,2,0:0:0:0:
170,26,226016,1,0,1:0:0:0:
170,26,226141,5,0,1:0:0:0:
292,110,226391,1,0,1:0:0:0:
208,234,226641,1,0,0:0:0:0:
83,148,226891,1,0,1:0:0:0:
0,276,227141,2,0,P|2:330|2:390,1,94.5000003604889,8|0,0:0|0:0,0:0:0:0:
162,225,227641,6,0,P|185:226|208:234,1,47.2500001802444,2|0,0:0|0:0,0:0:0:0:
292,110,227891,2,0,P|314:103|338:103,1,47.2500001802444,2|0,0:0|0:0,0:0:0:0:
464,184,228141,6,0,B|472:260|472:260|460:288|460:288|468:376,2,189.000000720978,4|0|10,1:2|1:0|0:0,0:0:0:0:
338,103,229391,1,2,0:0:0:0:
497,58,229641,1,2,0:0:0:0:
330,115,229891,1,2,0:0:0:0:
300,74,230016,1,0,1:0:0:0:
314,28,230141,5,6,1:2:0:0:
378,336,231141,1,2,0:0:0:0:
180,216,232141,5,2,0:0:0:0:
56,332,232641,2,0,P|60:256|48:168,1,140
32,120,233391,1,0,0:0:0:0:
200,80,234141,5,2,0:0:0:0:
200,80,234641,1,0,0:0:0:0:
244,144,235141,2,0,P|308:152|384:120,1,140
484,48,236141,5,2,0:0:0:0:
444,216,236641,2,0,L|440:368,1,140
368,328,237391,1,0,0:0:0:0:
288,192,238141,5,2,0:0:0:0:
288,192,238641,1,0,0:0:0:0:
244,260,239141,2,0,P|192:256|112:288,1,140
24,364,240141,5,2,0:0:0:0:
164,340,240641,2,0,L|324:332,1,140
368,304,241391,1,0,0:0:0:0:
268,144,242141,5,2,0:0:0:0:
268,144,242641,1,0,0:0:0:0:
340,172,243141,2,0,P|340:140|344:32,1,140
204,0,244141,5,2,0:0:0:0:
212,196,244641,2,0,P|172:212|71:169,1,140
36,136,245391,1,0,0:0:0:0:
164,40,246141,5,2,0:0:0:0:
204,140,246641,1,0,0:0:0:0:
293,120,247141,6,0,B|325:72|385:80|385:80|401:156|357:184|357:184|397:220|401:260|401:260|337:292|261:256,1,442.750013511658
246,279,250141,2,0,B|190:315|108:280|108:280|112:231|161:187|161:187|108:153|122:58|122:58|197:55|234:112,1,520.800012714844,2|0,0:0|0:0,0:0:0:0:
273,74,254141,6,0,L|275:50,1,23.3333333333333
301,94,254325,2,0,L|298:138,1,23.3333333333333
347,68,254528,5,2,0:0:0:0:
256,192,254653,12,0,258027,0:0:0:0:
