osu file format v14

[General]
AudioFilename: audio.mp3
AudioLeadIn: 0
PreviewTime: 121317
Countdown: 0
SampleSet: Soft
StackLeniency: 0.4
Mode: 0
LetterboxInBreaks: 0
WidescreenStoryboard: 1

[Editor]
Bookmarks: 161721,172837,180604,197812,198421,199030,200248,201771,201924,252634
DistanceSpacing: 0.5
BeatDivisor: 4
GridSize: 4
TimelineZoom: 2.100006

[Metadata]
Title:Aoki Kotou no Anguis
TitleUnicode:碧き孤島のアングゥィス
Artist:Denkishiki Karen Ongaku Shuudan
ArtistUnicode:電気式華憐音楽集団
Creator:OliBomby
Version:TheBlank's Insane
Source:
Tags:denkare metal power gothic japanese carnaval the abyss theblank
BeatmapID:2069602
BeatmapSetID:989342

[Difficulty]
HPDrainRate:5
CircleSize:3.6
OverallDifficulty:8.6
ApproachRate:9
SliderMultiplier:1.4
SliderTickRate:1

[Events]
//Background and Video events
0,0,"background.jpg",0,0
//Break Periods
//Storyboard Layer 0 (Background)
//Storyboard Layer 1 (Fail)
//Storyboard Layer 2 (Pass)
//Storyboard Layer 3 (Foreground)
//Storyboard Layer 4 (Overlay)
//Storyboard Sound Samples

[TimingPoints]
452,304.568527918782,4,2,1,70,1,0
1061,-100,4,2,2,70,0,0
1517,-100,4,2,1,70,0,0
1670,-100,4,2,2,70,0,0
2126,-100,4,2,1,70,0,0
2279,-100,4,2,2,70,0,0
2583,-100,4,2,1,70,0,0
3497,-100,4,2,2,70,0,0
3954,-100,4,2,1,70,0,0
4106,-100,4,2,2,70,0,0
4563,-100,4,2,1,70,0,0
5020,-83.3333333333333,4,2,1,70,0,0
5629,-100,4,2,1,70,0,0
5781,-100,4,2,2,70,0,0
5934,-100,4,2,1,70,0,0
6390,-100,4,2,2,70,0,0
6543,-100,4,2,1,70,0,0
6999,-100,4,2,2,70,0,0
7152,-100,4,2,1,70,0,0
7761,-100,4,2,4,70,0,0
7913,-100,4,2,1,70,0,0
8827,-100,4,2,4,70,0,0
10198,-83.3333333333333,4,2,2,70,0,0
10426,-83.3333333333333,4,2,2,5,0,0
10502,-90.9090909090909,4,2,1,70,0,0
12177,-71.4285714285714,4,2,1,70,0,0
12405,-71.4285714285714,4,2,1,5,0,0
12482,-71.4285714285714,4,2,4,70,0,0
12634,-90.9090909090909,4,2,1,70,0,0
12862,-90.9090909090909,4,2,1,5,0,0
12939,-90.9090909090909,4,2,1,70,0,0
15375,-76.9230769230769,4,2,4,70,0,0
15603,-76.9230769230769,4,2,4,5,0,0
15680,-76.9230769230769,4,2,1,70,0,0
15832,-90.9090909090909,4,2,1,70,0,0
17278,-90.9090909090909,4,2,1,5,0,0
17355,-90.9090909090909,4,2,4,70,0,0
17507,-90.9090909090909,4,2,1,70,0,0
18573,-71.4285714285714,4,2,1,70,0,0
18801,-71.4285714285714,4,2,1,5,0,0
18878,-71.4285714285714,4,2,1,70,0,0
19792,-83.3333333333333,4,2,2,70,0,0
20096,-83.3333333333333,4,2,1,5,0,0
21771,-83.3333333333333,4,2,1,70,0,0
22304,-83.3333333333333,4,2,1,5,0,0
22380,-90.9090909090909,4,2,2,70,0,0
22532,-90.9090909090909,4,2,1,70,0,0
22990,-99.9999999999999,4,2,3,70,0,0
23903,-90.9090909090909,4,2,1,70,0,0
25426,-99.9999999999999,4,2,4,70,0,0
25654,-99.9999999999999,4,2,1,70,0,0
26340,-90.9090909090909,4,2,1,70,0,0
26949,-71.4285714285714,4,2,1,70,0,0
27254,-90.9090909090909,4,2,2,70,0,0
27558,-90.9090909090909,4,2,1,70,0,0
29004,-90.9090909090909,4,2,1,5,0,0
29081,-90.9090909090909,4,2,1,70,0,0
29690,-83.3333333333333,4,2,3,70,0,0
29791,-83.3333333333333,4,2,3,5,0,0
29893,-83.3333333333333,4,2,3,70,0,0
29994,-83.3333333333333,4,2,3,5,0,0
30096,-83.3333333333333,4,2,3,70,0,0
30197,-83.3333333333333,4,2,3,5,0,0
30299,-83.3333333333333,4,2,3,70,0,0
30400,-83.3333333333333,4,2,3,5,0,0
30502,-83.3333333333333,4,2,3,70,0,0
30603,-83.3333333333333,4,2,3,5,0,0
30705,-83.3333333333333,4,2,1,70,0,0
30806,-83.3333333333333,4,2,1,5,0,0
30908,-83.3333333333333,4,2,2,70,0,0
31213,-83.3333333333333,4,2,1,70,0,0
32127,-83.3333333333333,4,2,2,70,0,0
32355,-83.3333333333333,4,2,1,5,0,0
32431,-83.3333333333333,4,2,1,70,0,0
37000,-100,4,2,2,70,0,0
37152,-100,4,2,1,70,0,0
40959,-100,4,2,4,70,0,0
41187,-100,4,2,4,5,0,0
41264,-100,4,2,3,70,0,0
41568,-100,4,2,1,70,0,0
42177,-83.3333333333333,4,2,2,70,0,0
42329,-83.3333333333333,4,2,1,70,0,0
43091,-83.3333333333333,4,2,2,70,0,0
43243,-83.3333333333333,4,2,1,70,0,0
47583,-83.3333333333333,4,2,1,5,0,0
47660,-83.3333333333333,4,2,1,70,0,0
47888,-83.3333333333333,4,2,1,5,0,0
47964,-83.3333333333333,4,2,2,70,0,0
48116,-83.3333333333333,4,2,1,70,0,0
49639,-83.3333333333333,4,2,2,70,0,0
49867,-83.3333333333333,4,2,1,5,0,0
49944,-83.3333333333333,4,2,3,70,0,0
50248,-83.3333333333333,4,2,1,70,0,0
50401,-83.3333333333333,4,2,2,70,0,0
50553,-83.3333333333333,4,2,1,70,0,0
53142,-111.111111111111,4,2,1,70,0,0
53751,-111.111111111111,4,2,1,5,0,0
53903,-83.3333333333333,4,2,2,70,0,1
54055,-83.3333333333333,4,2,1,70,0,1
55122,-83.3333333333333,4,2,2,70,0,1
55274,-83.3333333333333,4,2,1,70,0,1
56340,-83.3333333333333,4,2,2,70,0,1
56492,-83.3333333333333,4,2,1,70,0,1
57558,-83.3333333333333,4,2,2,70,0,1
57710,-83.3333333333333,4,2,1,70,0,1
58624,-111.111111111111,4,2,1,70,0,1
58852,-111.111111111111,4,2,1,5,0,1
58929,-83.3333333333333,4,2,2,70,0,1
59157,-83.3333333333333,4,2,1,5,0,1
59233,-83.3333333333333,4,2,1,70,0,1
59538,-83.3333333333333,4,2,2,70,0,1
59842,-83.3333333333333,4,2,1,70,0,1
59995,-83.3333333333333,4,2,2,70,0,1
60147,-83.3333333333333,4,2,1,70,0,1
60756,-83.3333333333333,4,2,2,70,0,1
61061,-83.3333333333333,4,2,1,70,0,1
61822,-83.3333333333333,4,2,5,70,0,1
62431,-83.3333333333333,4,2,2,70,0,1
62583,-83.3333333333333,4,2,1,70,0,1
63649,-71.4285714285714,4,2,2,70,0,1
63877,-71.4285714285714,4,2,1,5,0,1
63954,-71.4285714285714,4,2,1,70,0,1
64106,-83.3333333333333,4,2,1,70,0,1
64411,-83.3333333333333,4,2,2,70,0,1
64715,-83.3333333333333,4,2,1,70,0,1
64868,-83.3333333333333,4,2,2,70,0,1
65020,-83.3333333333333,4,2,1,70,0,1
65325,-83.3333333333333,4,2,4,70,0,1
65629,-83.3333333333333,4,2,2,70,0,1
65934,-83.3333333333333,4,2,1,70,0,1
66086,-83.3333333333333,4,2,2,70,0,1
66238,-83.3333333333333,4,2,1,70,0,1
66543,-83.3333333333333,4,2,4,70,0,1
66847,-83.3333333333333,4,2,2,70,0,1
67152,-83.3333333333333,4,2,1,70,0,1
67304,-83.3333333333333,4,2,2,70,0,1
67456,-83.3333333333333,4,2,1,70,0,1
67761,-83.3333333333333,4,2,4,70,0,1
67913,-83.3333333333333,4,2,1,70,0,1
68675,-83.3333333333333,4,2,2,70,0,1
68979,-83.3333333333333,4,2,1,70,0,1
70350,-83.3333333333333,4,2,2,70,0,1
70578,-83.3333333333333,4,2,1,5,0,1
70655,-83.3333333333333,4,2,1,70,0,1
71111,-83.3333333333333,4,2,2,70,0,1
71263,-83.3333333333333,4,2,1,70,0,1
73471,-83.3333333333333,4,2,1,5,0,1
73548,-83.3333333333333,4,2,4,70,0,1
74005,-83.3333333333333,4,2,3,70,0,1
74614,-83.3333333333333,4,2,1,70,0,1
75984,-83.3333333333333,4,2,2,70,0,1
76898,-83.3333333333333,4,2,1,70,0,0
78421,-71.4285714285714,4,2,2,70,0,0
78649,-71.4285714285714,4,2,2,5,0,0
78726,-71.4285714285714,4,2,1,70,0,0
78878,-100,4,2,1,70,0,0
80401,-71.4285714285714,4,2,1,70,0,0
80629,-71.4285714285714,4,2,1,5,0,0
80705,-71.4285714285714,4,2,4,70,0,0
80858,-100,4,2,1,70,0,0
82990,-90.9090909090909,4,2,1,70,0,0
83599,-71.4285714285714,4,2,4,70,0,0
83827,-71.4285714285714,4,2,4,5,0,0
83903,-71.4285714285714,4,2,1,70,0,0
84056,-100,4,2,1,70,0,0
85274,-71.4285714285714,4,2,1,70,0,0
85502,-71.4285714285714,4,2,1,5,0,0
85578,-71.4285714285714,4,2,4,70,0,0
85731,-100,4,2,1,70,0,0
88015,-100,4,2,2,70,0,0
89995,-100,4,2,1,70,0,0
90299,-71.4285714285714,4,2,1,70,0,0
90527,-71.4285714285714,4,2,1,5,0,0
90604,-90.9090909090909,4,2,2,70,0,0
90756,-90.9090909090909,4,2,1,70,0,0
91213,-100,4,2,3,70,0,0
92127,-90.9090909090909,4,2,1,70,0,0
93649,-100,4,2,4,70,0,0
93877,-100,4,2,1,70,0,0
94259,-90.9090909090909,4,2,1,70,0,0
95172,-71.4285714285714,4,2,1,70,0,0
95400,-71.4285714285714,4,2,1,5,0,0
95477,-90.9090909090909,4,2,2,70,0,0
95629,-90.9090909090909,4,2,1,70,0,0
97913,-83.3333333333333,4,2,3,70,0,0
98014,-83.3333333333333,4,2,3,5,0,0
98116,-83.3333333333333,4,2,3,70,0,0
98217,-83.3333333333333,4,2,3,5,0,0
98320,-83.3333333333333,4,2,3,70,0,0
98421,-83.3333333333333,4,2,3,5,0,0
98523,-83.3333333333333,4,2,3,70,0,0
98624,-83.3333333333333,4,2,3,5,0,0
98726,-83.3333333333333,4,2,3,70,0,0
98827,-83.3333333333333,4,2,3,5,0,0
98929,-83.3333333333333,4,2,1,70,0,0
99030,-83.3333333333333,4,2,1,5,0,0
99132,-83.3333333333333,4,2,2,70,0,0
99436,-83.3333333333333,4,2,1,70,0,0
100350,-66.6666666666667,4,2,2,70,0,0
100578,-66.6666666666667,4,2,1,5,0,0
100655,-66.6666666666667,4,2,1,70,0,0
100807,-90.9090909090909,4,2,1,70,0,0
103015,-90.9090909090909,4,2,1,5,0,0
103091,-90.9090909090909,4,2,1,70,0,0
105223,-90.9090909090909,4,2,2,70,0,0
105375,-90.9090909090909,4,2,1,70,0,0
109182,-90.9090909090909,4,2,4,70,0,0
109487,-90.9090909090909,4,2,3,70,0,0
109792,-90.9090909090909,4,2,1,70,0,0
110401,-83.3333333333333,4,2,2,70,0,0
110553,-83.3333333333333,4,2,1,70,0,0
111314,-83.3333333333333,4,2,2,70,0,0
111467,-83.3333333333333,4,2,1,70,0,0
115197,-83.3333333333333,4,2,1,5,0,0
115274,-83.3333333333333,4,2,1,70,0,0
115806,-83.3333333333333,4,2,1,5,0,0
115883,-83.3333333333333,4,2,1,70,0,0
116111,-83.3333333333333,4,2,1,5,0,0
116188,-83.3333333333333,4,2,2,70,0,0
116264,-83.3333333333333,4,2,1,70,0,0
117863,-83.3333333333333,4,2,2,70,0,0
118167,-83.3333333333333,4,2,3,70,0,0
118472,-83.3333333333333,4,2,1,70,0,0
118624,-83.3333333333333,4,2,2,70,0,0
118776,-83.3333333333333,4,2,1,70,0,0
121213,-83.3333333333333,4,2,1,50,0,0
121670,-83.3333333333333,4,2,5,50,0,0
121822,-83.3333333333333,4,2,3,50,0,0
121974,-83.3333333333333,4,2,1,50,0,0
122127,-83.3333333333333,4,2,2,70,0,1
122355,-83.3333333333333,4,2,1,5,0,1
122431,-83.3333333333333,4,2,1,70,0,1
123345,-83.3333333333333,4,2,2,70,0,1
123497,-83.3333333333333,4,2,1,70,0,1
124563,-83.3333333333333,4,2,2,70,0,1
124715,-83.3333333333333,4,2,1,70,0,1
125781,-83.3333333333333,4,2,2,70,0,1
125933,-83.3333333333333,4,2,1,70,0,1
127152,-83.3333333333333,4,2,2,70,0,1
127304,-83.3333333333333,4,2,1,70,0,1
127761,-83.3333333333333,4,2,2,70,0,1
128066,-83.3333333333333,4,2,1,70,0,1
128218,-83.3333333333333,4,2,2,70,0,1
128370,-83.3333333333333,4,2,1,70,0,1
128979,-83.3333333333333,4,2,2,70,0,1
129284,-83.3333333333333,4,2,1,70,0,1
130045,-83.3333333333333,4,2,5,70,0,1
130655,-83.3333333333333,4,2,2,70,0,1
130959,-83.3333333333333,4,2,1,70,0,1
131873,-71.4285714285714,4,2,2,70,0,1
132101,-71.4285714285714,4,2,1,5,0,1
132177,-71.4285714285714,4,2,1,70,0,1
132330,-83.3333333333333,4,2,1,70,0,1
132634,-83.3333333333333,4,2,2,70,0,1
132939,-83.3333333333333,4,2,1,70,0,1
133091,-83.3333333333333,4,2,2,70,0,1
133243,-83.3333333333333,4,2,1,70,0,1
133548,-83.3333333333333,4,2,4,70,0,1
133853,-83.3333333333333,4,2,2,70,0,1
134157,-83.3333333333333,4,2,1,70,0,1
134309,-71.4285714285714,4,2,2,70,0,1
134537,-71.4285714285714,4,2,1,5,0,1
134614,-71.4285714285714,4,2,1,70,0,1
134766,-83.3333333333333,4,2,4,70,0,1
135071,-83.3333333333333,4,2,2,70,0,1
135375,-83.3333333333333,4,2,1,70,0,1
135528,-83.3333333333333,4,2,2,70,0,1
135680,-83.3333333333333,4,2,1,70,0,1
135984,-83.3333333333333,4,2,4,70,0,1
136137,-83.3333333333333,4,2,1,70,0,1
136594,-71.4285714285714,4,2,1,70,0,1
136822,-71.4285714285714,4,2,1,5,0,1
136898,-83.3333333333333,4,2,2,70,0,1
137507,-83.3333333333333,4,2,1,70,0,1
138573,-83.3333333333333,4,2,2,70,0,1
138725,-83.3333333333333,4,2,1,70,0,1
139335,-83.3333333333333,4,2,2,70,0,1
139487,-83.3333333333333,4,2,1,70,0,1
141467,-71.4285714285714,4,2,1,70,0,1
141695,-71.4285714285714,4,2,1,5,0,1
141771,-71.4285714285714,4,2,4,70,0,1
142228,-71.4285714285714,4,2,3,70,0,1
142837,-71.4285714285714,4,2,1,70,0,1
144208,-71.4285714285714,4,2,2,70,0,1
145122,-71.4285714285714,4,2,1,70,0,0
145578,-71.4285714285714,4,2,5,70,0,0
145730,-71.4285714285714,4,2,1,70,0,0
145883,-83.3333333333333,4,2,1,70,0,0
146644,-83.3333333333333,4,2,2,70,0,0
146796,-83.3333333333333,4,2,1,70,0,0
146949,-83.3333333333333,4,2,2,70,0,0
147101,-83.3333333333333,4,2,1,70,0,0
147254,-83.3333333333333,4,2,2,70,0,0
147406,-83.3333333333333,4,2,1,70,0,0
147863,-83.3333333333333,4,2,2,70,0,0
148015,-83.3333333333333,4,2,1,70,0,0
148167,-83.3333333333333,4,2,2,70,0,0
148320,-83.3333333333333,4,2,1,70,0,0
148472,-83.3333333333333,4,2,2,70,0,0
148624,-83.3333333333333,4,2,1,70,0,0
149081,-83.3333333333333,4,2,2,70,0,0
149233,-83.3333333333333,4,2,1,70,0,0
149386,-83.3333333333333,4,2,2,70,0,0
149538,-83.3333333333333,4,2,1,70,0,0
149690,-83.3333333333333,4,2,2,70,0,0
149842,-83.3333333333333,4,2,1,70,0,0
150756,-83.3333333333333,4,2,4,70,0,0
150908,-83.3333333333333,4,2,1,70,0,0
151517,-83.3333333333333,4,2,2,70,0,0
151669,-83.3333333333333,4,2,1,70,0,0
151822,-83.3333333333333,4,2,2,70,0,0
151974,-83.3333333333333,4,2,1,70,0,0
152127,-83.3333333333333,4,2,2,70,0,0
152279,-83.3333333333333,4,2,1,70,0,0
152736,-83.3333333333333,4,2,2,70,0,0
152888,-83.3333333333333,4,2,1,70,0,0
153040,-83.3333333333333,4,2,2,70,0,0
153193,-83.3333333333333,4,2,1,70,0,0
153345,-83.3333333333333,4,2,2,70,0,0
153497,-83.3333333333333,4,2,1,70,0,0
153954,-83.3333333333333,4,2,2,70,0,0
154106,-83.3333333333333,4,2,1,70,0,0
154259,-83.3333333333333,4,2,2,70,0,0
154411,-83.3333333333333,4,2,1,70,0,0
154563,-83.3333333333333,4,2,2,70,0,0
154715,-83.3333333333333,4,2,1,70,0,0
155629,-83.3333333333333,4,2,4,70,0,0
155781,-83.3333333333333,4,2,1,70,0,0
156086,-125,4,2,1,70,0,0
156314,-125,4,2,1,5,0,0
156391,-125,4,2,2,70,0,0
158827,-125,4,2,2,50,0,0
159436,-125,4,2,1,50,0,0
168573,-125,4,2,2,50,0,0
169030,-125,4,2,1,50,0,0
178015,-125,4,2,2,50,0,0
178624,-125,4,2,1,50,0,0
179538,-142.857142857143,4,2,3,50,0,0
179995,-111.111111111111,4,2,3,50,0,0
180147,-111.111111111111,4,2,1,50,0,0
180604,-90.9090909090909,4,2,2,70,0,0
180832,-90.9090909090909,4,2,1,5,0,0
180908,-90.9090909090909,4,2,1,70,0,0
183040,-90.9090909090909,4,2,2,70,0,0
183192,-90.9090909090909,4,2,1,70,0,0
185553,-90.9090909090909,4,2,1,5,0,0
185629,-90.9090909090909,4,2,2,70,0,0
185781,-90.9090909090909,4,2,1,70,0,0
188066,-90.9090909090909,4,2,4,70,0,0
188218,-90.9090909090909,4,2,1,70,0,0
188523,-90.9090909090909,4,2,6,70,0,0
188675,-90.9090909090909,4,2,5,70,0,0
189132,-71.4285714285714,4,2,1,70,0,0
189589,-83.3333333333333,4,2,1,70,0,0
190350,-83.3333333333333,4,2,4,70,0,0
190807,-83.3333333333333,4,2,1,70,0,0
190959,-83.3333333333333,4,2,4,70,0,0
191796,-83.3333333333333,4,2,4,5,0,0
191873,-83.3333333333333,4,2,4,70,0,0
192025,-83.3333333333333,4,2,1,70,0,0
192177,-83.3333333333333,4,2,4,70,0,0
192330,-83.3333333333333,4,2,1,70,0,0
192482,-83.3333333333333,4,2,4,70,0,0
192634,-83.3333333333333,4,2,1,70,0,0
192787,-83.3333333333333,4,2,4,70,0,0
193243,-83.3333333333333,4,2,1,70,0,0
193396,-83.3333333333333,4,2,4,70,0,0
193548,-83.3333333333333,4,2,1,70,0,0
193700,-83.3333333333333,4,2,4,70,0,0
193853,-83.3333333333333,4,2,2,70,0,0
194233,-83.3333333333333,4,2,1,5,0,0
194309,-83.3333333333333,4,2,4,70,0,0
194462,-83.3333333333333,4,2,1,70,0,0
194614,-83.3333333333333,4,2,4,70,0,0
194766,-83.3333333333333,4,2,1,70,0,0
195071,-71.4285714285714,4,2,1,70,0,0
195299,-71.4285714285714,4,2,1,5,0,0
195375,-83.3333333333333,4,2,4,70,0,0
195680,-83.3333333333333,4,2,1,70,0,0
196137,-83.3333333333333,4,2,4,70,0,0
196898,-83.3333333333333,4,2,1,70,0,0
197203,-83.3333333333333,4,2,4,70,0,0
197355,-83.3333333333333,4,2,1,70,0,0
197812,-83.3333333333333,4,2,2,70,0,0
197964,-83.3333333333333,4,2,4,70,0,0
198040,-83.3333333333333,4,2,1,70,0,0
198269,-83.3333333333333,4,2,7,70,0,0
198345,-83.3333333333333,4,2,1,70,0,0
198573,-83.3333333333333,4,2,7,70,0,0
198649,-83.3333333333333,4,2,1,70,0,0
198878,-83.3333333333333,4,2,4,70,0,0
198954,-83.3333333333333,4,2,1,70,0,0
199182,-83.3333333333333,4,2,7,70,0,0
199258,-83.3333333333333,4,2,5,70,0,0
199639,-83.3333333333333,4,2,7,70,0,0
199715,-83.3333333333333,4,2,5,70,0,0
199792,-83.3333333333333,4,2,7,70,0,0
199868,-83.3333333333333,4,2,5,70,0,0
200096,-71.4285714285714,4,2,4,70,0,0
200324,-71.4285714285714,4,2,4,5,0,0
200401,-71.4285714285714,4,2,5,70,0,0
200705,-71.4285714285714,4,2,4,70,0,0
200858,-71.4285714285714,4,2,1,70,0,0
201010,-71.4285714285714,4,2,4,70,0,0
201162,-71.4285714285714,4,2,1,70,0,0
201314,-71.4285714285714,4,2,4,70,0,0
201618,-71.4285714285714,4,2,3,70,0,0
201924,-83.3333333333333,4,2,4,70,0,0
202000,-83.3333333333333,4,2,1,70,0,0
202990,-83.3333333333333,4,2,2,70,0,0
203142,-83.3333333333333,4,2,1,70,0,0
203903,-83.3333333333333,4,2,2,70,0,0
204208,-83.3333333333333,4,2,1,70,0,0
208395,-83.3333333333333,4,2,1,5,0,0
208472,-83.3333333333333,4,2,1,70,0,0
208700,-83.3333333333333,4,2,1,5,0,0
208776,-83.3333333333333,4,2,2,70,0,0
208929,-83.3333333333333,4,2,1,70,0,0
209233,-71.4285714285714,4,2,1,70,0,0
209461,-71.4285714285714,4,2,1,5,0,0
209538,-71.4285714285714,4,2,1,70,0,0
209995,-83.3333333333333,4,2,1,70,0,0
210452,-83.3333333333333,4,2,2,70,0,0
210756,-83.3333333333333,4,2,1,70,0,0
211213,-83.3333333333333,4,2,2,70,0,0
211365,-83.3333333333333,4,2,1,70,0,0
212583,-71.4285714285714,4,2,1,70,0,0
213954,-111.111111111111,4,2,1,70,0,0
214563,-111.111111111111,4,2,1,5,0,0
214715,-83.3333333333333,4,2,2,70,0,1
214867,-83.3333333333333,4,2,1,70,0,1
215934,-83.3333333333333,4,2,2,70,0,1
216086,-83.3333333333333,4,2,1,70,0,1
217152,-71.4285714285714,4,2,2,70,0,1
217380,-71.4285714285714,4,2,1,5,0,1
217457,-71.4285714285714,4,2,1,70,0,1
217609,-83.3333333333333,4,2,1,70,0,1
218370,-83.3333333333333,4,2,2,70,0,1
218522,-83.3333333333333,4,2,1,70,0,1
219436,-71.4285714285714,4,2,1,70,0,1
219664,-71.4285714285714,4,2,1,5,0,1
219741,-83.3333333333333,4,2,2,70,0,1
219893,-83.3333333333333,4,2,1,70,0,1
220350,-83.3333333333333,4,2,2,70,0,1
220655,-83.3333333333333,4,2,1,70,0,1
220807,-83.3333333333333,4,2,2,70,0,1
220959,-83.3333333333333,4,2,1,70,0,1
221568,-83.3333333333333,4,2,2,70,0,1
221873,-83.3333333333333,4,2,1,70,0,1
222634,-83.3333333333333,4,2,5,70,0,1
223243,-83.3333333333333,4,2,2,70,0,1
223547,-83.3333333333333,4,2,1,70,0,1
224462,-71.4285714285714,4,2,2,70,0,1
224690,-71.4285714285714,4,2,1,5,0,1
224766,-71.4285714285714,4,2,1,70,0,1
224919,-83.3333333333333,4,2,1,70,0,1
225223,-83.3333333333333,4,2,2,70,0,1
225528,-83.3333333333333,4,2,1,70,0,1
225680,-83.3333333333333,4,2,2,70,0,1
225832,-83.3333333333333,4,2,1,70,0,1
226137,-83.3333333333333,4,2,4,70,0,1
226365,-83.3333333333333,4,2,4,5,0,1
226441,-83.3333333333333,4,2,2,70,0,1
226746,-83.3333333333333,4,2,1,70,0,1
226898,-83.3333333333333,4,2,2,70,0,1
227050,-83.3333333333333,4,2,1,70,0,1
227355,-83.3333333333333,4,2,4,70,0,1
227660,-83.3333333333333,4,2,2,70,0,1
227964,-83.3333333333333,4,2,1,70,0,1
228116,-83.3333333333333,4,2,2,70,0,1
228268,-83.3333333333333,4,2,1,70,0,1
228573,-83.3333333333333,4,2,4,70,0,1
228726,-83.3333333333333,4,2,1,70,0,1
229182,-71.4285714285714,4,2,1,70,0,1
229410,-71.4285714285714,4,2,1,5,0,1
229487,-90.9090909090909,4,2,2,70,0,1
230096,-90.9090909090909,4,2,1,70,0,1
230705,-83.3333333333333,4,2,1,70,0,1
231162,-83.3333333333333,4,2,2,70,0,1
231390,-83.3333333333333,4,2,1,5,0,1
231467,-83.3333333333333,4,2,1,70,0,1
231924,-83.3333333333333,4,2,2,70,0,1
232076,-83.3333333333333,4,2,1,70,0,1
234284,-83.3333333333333,4,2,1,5,0,1
234360,-83.3333333333333,4,2,4,70,0,1
234817,-83.3333333333333,4,2,1,70,0,1
235731,-83.3333333333333,4,2,3,70,0,1
236264,-83.3333333333333,4,2,1,70,0,1
236797,-83.3333333333333,4,2,2,70,0,1
237710,-83.3333333333333,4,2,1,70,0,0
238167,-83.3333333333333,4,2,5,70,0,0
238319,-83.3333333333333,4,2,1,70,0,0
239233,-83.3333333333333,4,2,2,70,0,0
239385,-83.3333333333333,4,2,1,70,0,0
239538,-83.3333333333333,4,2,2,70,0,0
239690,-83.3333333333333,4,2,1,70,0,0
239842,-83.3333333333333,4,2,2,70,0,0
239995,-83.3333333333333,4,2,1,70,0,0
240452,-83.3333333333333,4,2,2,70,0,0
240604,-83.3333333333333,4,2,1,70,0,0
240756,-83.3333333333333,4,2,2,70,0,0
240908,-83.3333333333333,4,2,1,70,0,0
241061,-83.3333333333333,4,2,2,70,0,0
241213,-83.3333333333333,4,2,1,70,0,0
241670,-83.3333333333333,4,2,2,70,0,0
241822,-83.3333333333333,4,2,1,70,0,0
241974,-83.3333333333333,4,2,2,70,0,0
242127,-83.3333333333333,4,2,1,70,0,0
242279,-83.3333333333333,4,2,2,70,0,0
242431,-83.3333333333333,4,2,1,70,0,0
243345,-83.3333333333333,4,2,4,70,0,0
243497,-83.3333333333333,4,2,1,70,0,0
244106,-83.3333333333333,4,2,2,70,0,0
244258,-83.3333333333333,4,2,1,70,0,0
244411,-83.3333333333333,4,2,2,70,0,0
244563,-83.3333333333333,4,2,1,70,0,0
244715,-83.3333333333333,4,2,2,70,0,0
244868,-83.3333333333333,4,2,1,70,0,0
245325,-83.3333333333333,4,2,2,70,0,0
245477,-83.3333333333333,4,2,1,70,0,0
245629,-83.3333333333333,4,2,2,70,0,0
245781,-83.3333333333333,4,2,1,70,0,0
245934,-83.3333333333333,4,2,2,70,0,0
246086,-83.3333333333333,4,2,1,70,0,0
246543,-83.3333333333333,4,2,2,70,0,0
246695,-83.3333333333333,4,2,1,70,0,0
246847,-83.3333333333333,4,2,2,70,0,0
247000,-83.3333333333333,4,2,1,70,0,0
247152,-83.3333333333333,4,2,2,70,0,0
247304,-83.3333333333333,4,2,1,70,0,0
247761,-76.9230769230769,4,2,1,70,0,0
248218,-76.9230769230769,4,2,4,70,0,0
248370,-76.9230769230769,4,2,1,70,0,0
248979,-76.9230769230769,4,2,2,70,0,0
249817,300.751879699248,4,2,2,70,1,0
250268,351.082504388531,4,2,1,70,1,0
250619,270.27027027027,4,2,2,70,1,0
250889,317.460317460317,4,2,1,70,1,0
251047,-100,4,2,2,70,0,0
251206,292.682926829268,4,2,1,70,1,0
251645,299.102691924227,4,2,4,70,1,0
252243,304.568527918782,4,2,1,70,1,0
252433,304.568527918782,4,2,1,70,1,0
252433,-500,4,2,1,70,0,0
252661,-250,4,2,1,5,0,0

[Colours]
Combo1 : 234,140,36
Combo2 : 205,66,50

[HitObjects]
34,95,452,5,8,2:0:0:0:
34,95,604,1,8,2:0:0:0:
141,35,756,2,0,L|217:48,1,70,0|2,1:0|2:3,2:0:0:0:
287,137,1061,1,0,2:0:0:0:
287,137,1213,1,0,2:0:0:0:
180,197,1365,2,0,L|104:184,1,70,0|2,1:0|2:3,2:0:0:0:
2,243,1670,1,0,2:0:0:0:
2,243,1822,1,0,2:0:0:0:
85,332,1974,2,0,L|161:343,1,70,0|2,1:0|2:3,2:0:0:0:
316,310,2279,5,0,2:0:0:0:
379,355,2431,1,0,2:0:0:0:
448,318,2583,1,2,1:3:0:0:
389,200,2736,1,2,3:3:0:0:
389,195,2812,1,0,3:0:0:0:
389,190,2888,5,8,2:0:0:0:
480,90,3040,1,8,2:0:0:0:
401,21,3193,2,0,L|319:13,1,70,0|2,1:0|2:3,2:0:0:0:
217,4,3497,1,0,2:0:0:0:
217,4,3649,1,0,2:0:0:0:
205,115,3802,2,0,L|198:184,1,70,0|2,1:0|2:3,2:0:0:0:
60,255,4106,1,0,2:0:0:0:
60,255,4259,1,0,2:0:0:0:
72,144,4411,2,0,L|78:74,1,70,0|2,1:0|2:3,2:0:0:0:
148,257,4715,5,8,2:3:0:0:
153,263,4792,1,8,2:3:0:0:
159,270,4868,1,4,2:3:0:0:
165,276,4944,1,0,3:0:0:0:
170,283,5020,2,0,P|219:262|273:281,1,84,8|0,2:0|2:0,2:0:0:0:
276,282,5248,1,0,2:0:0:0:
276,282,5325,1,10,2:0:0:0:
286,259,5629,6,0,P|314:238|331:207,1,70,0|0,1:0|2:0,2:0:0:0:
498,187,5934,1,10,2:0:0:0:
487,167,6238,6,0,P|460:146|443:115,1,70,0|0,1:0|2:0,2:0:0:0:
316,20,6543,1,10,2:0:0:0:
329,0,6847,6,0,P|371:13|421:5,1,70,0|0,1:0|2:0,2:0:0:0:
341,148,7152,5,8,2:3:0:0:
337,139,7228,1,8,2:3:0:0:
334,131,7304,1,4,2:3:0:0:
331,123,7380,1,0,3:0:0:0:
328,115,7457,2,0,L|237:94,1,70,12|0,2:0|2:0,2:0:0:0:
132,70,7761,5,12,2:0:0:0:
188,208,7913,1,10,2:0:0:0:
40,187,8066,2,0,L|-11:180,1,35,0|0,3:0|3:0,2:0:0:0:
93,317,8218,5,12,2:0:0:0:
117,151,8370,1,10,2:0:0:0:
248,254,8523,2,0,L|293:282,1,35,0|0,3:0|3:0,2:0:0:0:
209,376,8675,5,12,2:0:0:0:
272,147,8827,1,12,2:0:0:0:
512,94,10198,6,0,B|457:86|457:86|436:93|436:93|387:86,1,126,4|0,3:2|2:0,2:0:0:0:
353,104,10502,2,0,L|257:91,1,77,8|2,2:0|2:3,2:0:0:0:
188,31,10807,1,0,3:0:0:0:
97,91,10959,2,0,P|78:127|80:171,1,77,2|8,2:3|2:0,2:0:0:0:
140,261,11264,6,0,L|63:268,1,77,2|0,2:3|3:0,2:0:0:0:
179,376,11568,1,2,2:3:0:0:
179,376,11721,2,0,L|255:383,1,77,8|2,2:0|2:3,2:0:0:0:
365,351,12025,1,0,3:0:0:0:
396,212,12177,2,0,B|389:275|389:275|373:289|373:289|363:361,1,147,12|0,2:0|2:0,2:0:0:0:
360,384,12482,1,12,2:0:0:0:
314,231,12634,6,0,P|276:189|220:190,1,115.5,0|0,3:0|2:0,2:0:0:0:
169,254,12939,2,0,L|172:167,1,77,8|2,2:0|2:3,2:0:0:0:
55,93,13243,2,0,P|98:113|150:97,1,77,0|2,3:0|2:3,2:0:0:0:
216,40,13548,2,0,P|249:21|287:23,1,77,8|2,2:0|2:3,2:0:0:0:
393,92,13853,6,0,L|401:168,1,77,0|2,3:0|2:3,2:0:0:0:
412,290,14157,1,8,2:0:0:0:
308,239,14309,1,2,3:3:0:0:
308,239,14386,1,0,3:0:0:0:
308,239,14462,2,0,L|250:233,1,38.5,8|8,2:3|2:3,2:0:0:0:
260,322,14614,2,0,L|202:316,1,38.5,6|0,3:3|3:0,2:0:0:0:
126,192,14766,2,0,L|114:302,1,77,8|2,2:0|2:3,2:0:0:0:
27,358,15071,5,0,3:0:0:0:
27,358,15375,2,0,L|8:182,1,136.5,12|0,2:0|2:0,2:0:0:0:
7,186,15680,1,0,3:0:0:0:
106,98,15832,2,0,P|146:99|197:139,1,77,2|8,2:3|2:0,2:0:0:0:
229,42,16137,2,0,P|256:70|264:135,1,77,2|0,2:3|3:0,2:0:0:0:
181,214,16441,5,2,2:3:0:0:
337,256,16594,2,0,L|260:262,1,77,8|2,2:0|2:3,2:0:0:0:
127,276,16898,1,0,3:0:0:0:
318,173,17050,2,0,B|363:168|363:168|372:172|372:172|431:165,1,115.5,12|0,2:0|2:0,2:0:0:0:
462,160,17355,1,12,2:0:0:0:
484,298,17507,6,0,L|494:406,1,77,0|2,3:0|2:3,2:0:0:0:
326,302,17812,2,0,P|274:297|236:314,1,77,8|2,2:0|2:3,2:0:0:0:
145,384,18116,1,0,3:0:0:0:
145,384,18269,2,0,L|122:293,1,77,2|8,2:3|2:0,2:0:0:0:
142,127,18573,6,0,P|96:170|-4:134,1,147,12|0,2:0|2:0,2:0:0:0:
69,93,18878,1,10,2:0:0:0:
283,196,19030,1,10,2:0:0:0:
273,64,19182,1,0,3:0:0:0:
273,64,19259,1,0,3:0:0:0:
273,64,19335,2,0,L|331:45,1,49,10|0,2:0|3:0,2:0:0:0:
461,113,19487,2,0,L|403:94,1,49,0|0,3:0|3:0,2:0:0:0:
283,196,19639,2,0,L|341:177,1,49,8|0,2:0|3:0,2:0:0:0:
498,205,19792,6,0,P|464:274|506:363,1,168,4|0,3:2|2:0,2:0:0:0:
495,354,21771,5,8,2:3:0:0:
465,357,21847,1,8,2:3:0:0:
436,361,21924,1,4,2:3:0:0:
407,365,22000,1,0,3:0:0:0:
378,369,22076,2,0,B|333:343|333:343|242:356,1,126,12|0,2:0|2:0,2:0:0:0:
213,384,22380,6,0,P|220:328|200:294,1,77,4|0,3:2|2:0,2:0:0:0:
126,231,22685,2,0,P|112:191|121:151,1,77,2|0,2:1|3:0,2:0:0:0:
140,128,22913,1,0,3:0:0:0:
140,128,22990,2,0,B|192:114|192:114|241:128,2,105,10|0|0,2:3|3:0|3:0,2:0:0:0:
312,42,23751,1,0,3:0:0:0:
312,42,23827,1,0,3:0:0:0:
312,42,23903,2,0,L|345:138,1,77,2|0,3:1|2:0,2:0:0:0:
390,230,24208,6,0,P|450:210|491:229,1,77,12|0,2:0|3:0,2:0:0:0:
503,227,24436,1,8,2:0:0:0:
503,227,24512,1,0,3:0:0:0:
448,312,24665,1,8,2:0:0:0:
370,370,24817,6,0,P|311:385|264:376,1,77,2|0,2:1|3:0,2:0:0:0:
246,376,25045,1,0,3:0:0:0:
246,376,25122,1,2,3:1:0:0:
56,340,25426,2,0,B|105:320|105:320|157:339,2,105,10|0|0,2:0|3:0|3:0,2:0:0:0:
41,229,26035,5,12,2:0:0:0:
191,185,26188,1,0,3:0:0:0:
191,185,26264,1,8,2:3:0:0:
191,185,26340,2,0,L|116:186,1,38.5,8|4,2:3|2:3,2:0:0:0:
97,100,26492,2,0,L|55:100,1,38.5,0|0,3:0|3:0,2:0:0:0:
214,44,26644,1,10,2:0:0:0:
283,151,26797,1,0,3:0:0:0:
331,0,26949,2,0,L|394:136,1,147,12|0,2:0|2:0,2:0:0:0:
512,206,27254,6,0,P|430:209|381:274,1,154,4|2,3:2|2:1,2:0:0:0:
484,308,27710,1,0,3:0:0:0:
484,308,27787,1,0,3:0:0:0:
484,308,27863,1,2,3:1:0:0:
400,379,28091,1,0,3:0:0:0:
303,329,28320,1,0,3:0:0:0:
125,302,28624,1,0,3:0:0:0:
97,384,28776,2,0,L|76:235,1,115.5,2|0,3:1|2:0,2:0:0:0:
24,182,29081,6,0,P|69:186|116:157,1,77,12|0,2:0|3:0,2:0:0:0:
126,146,29309,1,8,2:0:0:0:
126,146,29386,2,0,L|128:78,1,38.5,0|0,3:0|3:0,2:0:0:0:
27,47,29538,2,0,L|28:5,1,38.5,8|0,2:0|3:0,2:0:0:0:
178,29,29690,6,0,P|206:59|218:101,1,56,4|0,3:2|2:0,2:0:0:0:
304,55,29893,2,0,P|302:96|281:134,1,56,4|0,3:2|2:0,2:0:0:0:
374,162,30096,2,0,P|344:189|302:201,1,56,4|0,3:2|2:0,2:0:0:0:
348,288,30299,2,0,P|306:286|268:265,1,56,4|0,3:2|2:0,2:0:0:0:
241,358,30502,2,0,P|213:328|201:286,1,56,4|0,3:2|2:0,2:0:0:0:
115,331,30705,2,0,P|116:289|137:251,1,56,8|0,2:0|2:0,2:0:0:0:
205,191,30908,5,4,3:2:0:0:
205,191,31213,1,8,2:0:0:0:
13,138,31365,1,4,3:1:0:0:
13,138,31670,2,0,L|64:122,2,42,0|0|8,3:0|3:0|2:0,2:0:0:0:
6,122,32127,6,0,B|56:107|56:107|81:110|81:110|154:83,1,126,4|0,3:2|2:0,2:0:0:0:
153,61,32431,2,0,L|246:26,2,84,8|0|2,2:0|3:0|2:1,2:0:0:0:
211,156,32888,2,0,L|256:140,2,42,8|4|8,2:3|2:3|2:0,2:0:0:0:
335,112,33193,1,0,3:0:0:0:
450,201,33345,6,0,P|458:241|448:282,1,84,2|0,3:1|2:0,2:0:0:0:
295,249,33649,2,0,L|379:244,1,84,8|0,2:0|3:0,2:0:0:0:
326,343,33954,1,2,2:1:0:0:
226,329,34106,2,0,L|215:264,2,42,8|4|8,2:3|2:3|2:0,2:0:0:0:
122,217,34411,1,0,3:0:0:0:
148,384,34563,6,0,L|134:289,1,84,2|0,3:1|2:0,2:0:0:0:
116,183,34868,1,8,2:0:0:0:
260,105,35020,2,0,P|229:133|188:141,1,84,0|2,3:0|2:1,2:0:0:0:
53,108,35325,2,0,L|6:111,2,42,8|4|8,2:3|2:3|2:0,2:0:0:0:
97,16,35629,1,0,3:0:0:0:
291,35,35781,5,8,2:3:0:0:
320,38,35858,1,4,2:3:0:0:
349,41,35934,1,0,3:0:0:0:
378,45,36010,1,0,3:0:0:0:
407,48,36086,1,8,2:0:0:0:
512,176,36238,2,0,L|401:164,1,84,4|0,3:1|2:0,2:0:0:0:
293,228,36543,1,8,2:3:0:0:
293,228,36619,1,4,2:3:0:0:
293,228,36695,1,8,2:0:0:0:
293,228,37000,6,0,P|275:270|281:320,1,70,4|0,3:2|2:0,2:0:0:0:
358,380,37304,1,8,2:0:0:0:
226,363,37457,2,0,P|195:323|194:275,1,70,0|2,3:0|2:1,2:0:0:0:
208,172,37761,2,0,L|216:124,2,35,8|4|8,2:3|2:3|2:0,2:0:0:0:
118,268,38066,1,0,3:0:0:0:
87,123,38218,6,0,L|75:196,1,70,2|0,3:1|2:0,2:0:0:0:
6,58,38523,1,8,2:0:0:0:
104,18,38675,2,0,L|180:31,1,70,0|2,3:0|2:1,2:0:0:0:
299,3,38979,2,0,L|357:-3,2,35,8|4|8,2:3|2:3|2:0,2:0:0:0:
383,67,39284,1,0,3:0:0:0:
201,144,39436,6,0,P|251:135|292:159,1,70,4|8,3:1|2:0,2:0:0:0:
298,158,39665,1,8,2:0:0:0:
298,158,39741,1,8,2:0:0:0:
233,284,39893,2,0,L|237:215,1,70,2|0,3:0|2:0,2:0:0:0:
364,314,40198,2,0,L|360:383,1,70,2|0,3:0|2:0,2:0:0:0:
375,192,40502,5,12,2:0:0:0:
364,314,40655,1,0,3:0:0:0:
430,257,40807,1,0,3:0:0:0:
233,284,40959,2,0,L|121:277,1,105,12|0,2:0|2:0,2:0:0:0:
99,278,41264,6,0,L|104:217,1,35,8|8,2:0|2:0,2:0:0:0:
17,184,41416,2,0,L|22:123,1,35,8|8,2:3|2:3,2:0:0:0:
106,28,41568,1,4,2:3:0:0:
83,36,41644,1,4,2:3:0:0:
58,39,41721,1,0,3:0:0:0:
34,33,41797,1,0,3:0:0:0:
14,21,41873,1,8,2:0:0:0:
14,21,42177,6,0,L|136:4,1,84,4|0,3:2|2:0,2:0:0:0:
172,117,42482,2,0,L|255:128,1,84,4|0,3:1|2:0,2:0:0:0:
330,21,42787,2,0,L|452:4,1,84,4|0,3:1|2:0,2:0:0:0:
497,75,43091,5,4,3:2:0:0:
413,9,43243,1,2,2:3:0:0:
353,154,43396,1,8,2:0:0:0:
419,93,43548,1,2,2:3:0:0:
512,208,43700,5,0,3:0:0:0:
432,173,43853,1,2,2:3:0:0:
439,270,44005,1,8,2:0:0:0:
359,235,44157,1,2,2:3:0:0:
293,384,44309,5,0,3:0:0:0:
367,314,44462,1,2,2:3:0:0:
211,319,44614,5,8,2:0:0:0:
219,217,44766,1,2,2:3:0:0:
113,357,44919,6,0,L|62:285,1,84,0|2,3:0|2:3,2:0:0:0:
105,189,45223,1,8,2:0:0:0:
64,288,45375,1,2,2:3:0:0:
26,144,45528,6,0,P|65:108|120:106,1,84,0|2,3:0|2:3,2:0:0:0:
196,156,45832,1,8,2:0:0:0:
164,50,45984,1,2,2:3:0:0:
287,164,46137,5,0,3:0:0:0:
333,89,46289,2,0,L|335:27,2,42,2|2|8,2:3|2:0|2:0,2:0:0:0:
247,87,46594,1,2,2:3:0:0:
281,247,46746,6,0,L|377:251,1,84,0|2,3:0|2:3,2:0:0:0:
196,156,47050,1,8,2:0:0:0:
194,185,47127,1,8,2:0:0:0:
193,214,47203,1,8,2:0:0:0:
192,244,47279,1,8,2:0:0:0:
191,273,47355,2,0,P|133:245|64:280,1,126,4|0,3:1|2:0,2:0:0:0:
15,323,47660,2,0,P|68:286|72:209,1,126,4|0,3:1|2:0,2:0:0:0:
59,145,47964,5,4,3:2:0:0:
129,55,48116,2,0,L|157:18,2,42,8|8|8,2:0|2:0|2:0,2:0:0:0:
275,134,48421,2,0,L|272:37,1,84,4|0,3:1|2:0,2:0:0:0:
409,43,48726,1,0,3:0:0:0:
272,50,48878,1,10,2:0:0:0:
338,0,49030,1,0,3:0:0:0:
348,154,49182,6,0,L|350:237,1,84,12|0,2:0|3:0,2:0:0:0:
352,271,49411,1,0,3:0:0:0:
352,271,49487,1,8,2:0:0:0:
510,336,49639,2,0,P|454:309|396:355,1,126,4|0,3:2|2:0,2:0:0:0:
378,345,49944,2,0,L|306:343,1,42,8|8,2:0|2:0,2:0:0:0:
266,274,50096,2,0,L|194:272,1,42,8|8,2:3|2:3,2:0:0:0:
113,341,50248,1,4,2:3:0:0:
113,341,50325,1,4,2:3:0:0:
113,341,50401,6,0,L|115:251,1,84,4|2,3:2|3:0,2:0:0:0:
221,173,50705,2,0,P|180:183|142:168,1,84,8|2,2:0|2:3,2:0:0:0:
107,39,51010,1,0,3:0:0:0:
188,101,51162,1,2,3:0:0:0:
4,90,51314,2,0,L|-1:-12,1,84,8|2,2:0|2:3,2:0:0:0:
107,39,51619,5,4,3:1:0:0:
286,0,51771,2,0,L|345:4,2,42,8|8|8,2:0|2:0|2:0,2:0:0:0:
353,77,52076,1,2,3:0:0:0:
420,154,52380,1,2,3:0:0:0:
487,231,52685,1,2,3:0:0:0:
502,380,52990,5,8,2:3:0:0:
502,380,53066,1,8,2:3:0:0:
502,380,53142,2,0,B|361:419|406:283|263:320,1,252,4|0,2:3|2:0,2:0:0:0:
178,384,53903,6,0,P|182:339|152:283,1,84,4|0,3:2|2:0,2:0:0:0:
45,225,54208,1,2,3:0:0:0:
171,186,54360,2,0,L|257:160,1,84,8|2,2:0|2:3,2:0:0:0:
353,58,54665,1,0,3:0:0:0:
396,196,54817,1,2,3:0:0:0:
335,139,54969,1,8,2:0:0:0:
495,90,55122,6,0,L|500:0,1,84,4|0,3:2|2:0,2:0:0:0:
414,114,55426,1,2,3:0:0:0:
297,0,55578,1,8,2:0:0:0:
216,134,55731,2,0,L|221:44,1,84,2|0,3:0|2:0,2:0:0:0:
304,8,56035,1,2,3:0:0:0:
224,140,56188,1,8,2:0:0:0:
35,0,56340,6,0,L|30:83,1,84,4|0,3:2|2:0,2:0:0:0:
119,158,56644,1,2,3:0:0:0:
30,83,56797,1,8,2:0:0:0:
0,252,56949,1,2,2:3:0:0:
41,162,57101,1,0,3:0:0:0:
166,233,57254,1,2,3:0:0:0:
81,242,57406,1,8,2:0:0:0:
239,344,57558,6,0,L|240:259,1,84,4|0,3:2|2:0,2:0:0:0:
259,159,57863,1,0,3:0:0:0:
425,270,58015,2,0,P|373:285|335:268,1,84,10|8,2:0|2:0,2:0:0:0:
317,257,58243,1,8,2:0:0:0:
317,257,58320,2,0,L|329:184,1,42,8|8,2:3|2:3,2:0:0:0:
448,191,58472,2,0,L|436:118,1,42,4|0,2:3|3:0,2:0:0:0:
318,61,58624,2,0,P|381:68|414:38,1,94.5000000000001,12|0,2:0|2:0,2:0:0:0:
419,31,58929,6,0,L|264:8,1,126,4|0,3:2|2:0,2:0:0:0:
256,7,59233,1,8,2:0:0:0:
231,86,59386,1,0,2:0:0:0:
85,25,59538,1,2,3:1:0:0:
171,26,59690,1,2,3:1:0:0:
41,93,59842,1,8,2:0:0:0:
164,172,59995,6,0,L|161:284,1,84,4|0,3:2|2:0,2:0:0:0:
163,371,60299,1,0,3:0:0:0:
250,282,60452,2,0,P|295:272|339:292,1,84,8|0,2:0|2:0,2:0:0:0:
441,384,60756,1,2,3:1:0:0:
419,305,60908,1,0,3:0:0:0:
503,212,61061,2,0,L|503:116,1,84,8|0,2:0|3:0,2:0:0:0:
441,58,61365,6,0,P|482:50|524:-8,1,84,12|0,2:0|3:0,2:0:0:0:
380,142,61594,1,0,3:0:0:0:
380,142,61670,2,0,P|339:134|297:76,1,84,8|4,2:0|3:2,2:0:0:0:
270,4,61974,1,8,2:0:0:0:
126,82,62127,1,4,3:2:0:0:
176,0,62279,1,8,2:0:0:0:
268,198,62431,6,0,L|215:85,1,84,4|0,3:2|2:0,2:0:0:0:
79,155,62736,1,8,2:3:0:0:
79,155,62812,1,8,2:3:0:0:
79,155,62888,2,0,L|95:206,1,42,4|4,2:3|2:3,2:0:0:0:
93,316,63040,2,0,L|68:363,1,42,0|0,3:0|3:0,2:0:0:0:
2,256,63193,1,8,2:0:0:0:
236,274,63345,1,8,2:0:0:0:
236,274,63649,6,0,B|292:278|292:278|317:294|317:294|386:297,1,147,4|0,3:2|2:0,2:0:0:0:
413,299,63954,1,0,3:0:0:0:
345,210,64106,2,0,L|462:214,1,84,8|0,2:0|2:0,2:0:0:0:
484,149,64411,1,2,3:1:0:0:
459,68,64563,1,2,3:1:0:0:
428,212,64715,1,8,2:0:0:0:
378,48,64868,6,0,L|463:68,1,84,4|0,3:2|2:0,2:0:0:0:
339,139,65172,1,0,3:0:0:0:
248,81,65325,2,0,L|223:0,1,84,10|0,2:0|2:0,2:0:0:0:
100,29,65629,1,2,3:1:0:0:
100,29,65705,1,0,3:0:0:0:
100,29,65781,1,2,3:1:0:0:
248,81,65934,1,8,2:0:0:0:
55,195,66086,6,0,L|140:146,1,84,4|0,3:2|2:0,2:0:0:0:
249,233,66391,1,0,3:0:0:0:
117,309,66543,2,0,L|44:350,1,84,10|0,2:0|2:0,2:0:0:0:
197,376,66847,1,2,3:1:0:0:
275,330,67000,1,2,3:1:0:0:
411,384,67152,1,8,2:0:0:0:
434,218,67304,6,0,L|422:311,1,84,4|0,3:2|2:0,2:0:0:0:
338,188,67609,1,0,3:0:0:0:
359,52,67761,1,10,2:0:0:0:
457,36,67913,1,8,2:3:0:0:
457,36,67990,1,8,2:3:0:0:
457,36,68066,2,0,L|450:100,1,42,4|4,2:3|2:3,2:0:0:0:
438,176,68218,2,0,L|431:240,1,42,0|0,3:0|3:0,2:0:0:0:
304,113,68370,2,0,L|222:100,1,84,12|0,2:0|2:0,2:0:0:0:
153,257,68675,6,0,P|131:171|88:87,1,168,4|0,3:2|2:0,2:0:0:0:
52,0,69132,2,0,L|0:-5,2,42,0|0|8,3:0|3:0|2:0,2:0:0:0:
0,87,69487,1,8,2:3:0:0:
71,159,69690,1,4,2:3:0:0:
0,321,69893,6,0,P|48:299|94:316,1,84,4|8,3:1|2:0,2:0:0:0:
97,319,70122,1,8,2:0:0:0:
97,319,70198,2,0,L|164:308,1,42,8|0,2:0|2:0,2:0:0:0:
290,384,70350,2,0,P|264:315|285:232,1,126,4|0,3:2|2:0,2:0:0:0:
283,243,70655,2,0,L|356:231,1,42,8|8,2:0|2:0,2:0:0:0:
383,308,70807,2,0,L|426:247,1,42,8|8,2:0|2:0,2:0:0:0:
499,283,70959,2,0,L|487:210,1,42,8|8,2:0|2:0,2:0:0:0:
411,92,71111,6,0,L|409:202,1,84,4|10,3:2|2:0,2:0:0:0:
303,89,71416,2,0,L|305:35,2,42,0|0|10,3:0|3:0|2:0,2:0:0:0:
221,180,71721,2,0,P|167:185|130:156,1,84,0|10,3:0|2:0,2:0:0:0:
70,80,72025,2,0,L|77:38,2,42,0|0|10,3:0|3:0|2:0,2:0:0:0:
29,263,72330,6,0,L|48:172,1,84,4|10,3:1|2:0,2:0:0:0:
147,278,72634,1,0,3:0:0:0:
147,278,72710,1,0,3:0:0:0:
147,278,72787,1,8,2:0:0:0:
262,369,72939,2,0,P|290:374|313:368,1,42,8|8,2:3|2:3,2:0:0:0:
340,281,73091,2,0,P|360:278|381:283,1,42,4|0,2:3|3:0,2:0:0:0:
494,384,73243,2,0,P|476:337|500:246,1,126,12|0,2:0|2:0,2:0:0:0:
511,228,73548,5,12,2:0:0:0:
400,66,73700,1,8,2:0:0:0:
400,66,74005,5,8,2:3:0:0:
211,121,74157,1,8,2:0:0:0:
211,121,74462,5,8,2:0:0:0:
204,317,74614,1,8,2:0:0:0:
204,317,74919,5,8,2:3:0:0:
388,384,75071,1,4,2:3:0:0:
388,384,75375,6,0,L|371:323,2,42,8|8|4,2:3|2:3|2:3,2:0:0:0:
320,133,75680,1,12,2:0:0:0:
306,94,75984,5,12,3:2:0:0:
141,84,76137,1,12,3:2:0:0:
141,84,76213,1,0,3:0:0:0:
141,84,76289,2,0,P|141:122|157:154,1,42,0|0,3:0|3:0,2:0:0:0:
249,188,76441,5,12,3:2:0:0:
74,173,76594,1,12,3:2:0:0:
74,173,76670,1,0,3:0:0:0:
74,173,76746,2,0,P|101:200|134:211,1,42,0|0,3:0|3:0,2:0:0:0:
239,286,76898,5,8,2:3:0:0:
220,113,77050,1,4,2:3:0:0:
290,161,78040,1,0,2:0:0:0:
39,360,78421,6,0,B|99:351|99:351|128:366|128:366|181:358,1,147,4|0,3:2|2:0,2:0:0:0:
211,353,78726,1,8,2:0:0:0:
218,260,78878,2,0,L|119:274,1,70,2|0,2:3|3:0,2:0:0:0:
49,181,79182,2,0,L|148:167,1,70,2|8,2:3|2:0,2:0:0:0:
213,53,79487,6,0,P|213:98|233:132,1,70,2|0,2:3|3:0,2:0:0:0:
322,158,79792,1,2,2:3:0:0:
293,73,79944,1,8,2:0:0:0:
439,28,80096,1,2,2:3:0:0:
373,94,80248,1,0,3:0:0:0:
500,242,80401,2,0,B|481:167|481:167|422:120,1,147,12|0,2:0|2:0,2:0:0:0:
373,94,80705,1,12,2:0:0:0:
344,238,80858,6,0,L|366:325,1,70,0|2,3:0|2:3,2:0:0:0:
512,322,81162,2,0,P|470:314|426:331,1,70,8|2,2:0|2:3,2:0:0:0:
377,384,81467,1,0,3:0:0:0:
280,335,81619,1,2,2:3:0:0:
125,384,81771,2,0,L|107:303,1,70,8|2,2:0|2:3,2:0:0:0:
74,219,82076,5,0,3:0:0:0:
6,280,82228,1,2,2:3:0:0:
158,235,82380,2,0,P|153:190|136:163,1,70,8|2,2:0|3:3,2:0:0:0:
117,142,82609,1,0,3:0:0:0:
117,142,82685,2,0,L|69:139,1,35,8|8,2:3|2:3,2:0:0:0:
185,64,82837,2,0,L|219:61,1,35,6|0,2:3|3:0,2:0:0:0:
20,20,82990,2,0,P|70:15|109:31,1,77,8|2,2:0|2:3,2:0:0:0:
195,146,83294,5,0,3:0:0:0:
195,146,83599,2,0,B|257:138|257:138|277:145|277:145|348:136,1,147,12|0,2:0|2:0,2:0:0:0:
367,133,83903,1,0,3:0:0:0:
365,51,84056,2,0,L|295:62,1,70,2|8,2:3|2:0,2:0:0:0:
443,124,84360,6,0,L|512:112,1,70,2|0,2:3|3:0,2:0:0:0:
415,202,84665,1,2,2:3:0:0:
429,289,84817,1,8,2:0:0:0:
443,376,84969,1,2,2:3:0:0:
443,376,85122,1,0,3:0:0:0:
238,269,85274,2,0,B|215:227|215:227|328:250,1,147,12|0,2:0|2:0,2:0:0:0:
348,256,85578,1,12,2:0:0:0:
216,384,85731,6,0,L|123:367,1,70,0|2,3:0|2:3,2:0:0:0:
31,273,86035,2,0,P|80:275|115:304,1,70,8|2,2:0|2:3,2:0:0:0:
147,371,86340,1,0,3:0:0:0:
197,284,86492,1,2,2:3:0:0:
31,273,86644,1,8,2:0:0:0:
190,158,86797,6,0,P|192:112|180:62,1,70,12|0,2:0|2:0,2:0:0:0:
70,9,87101,1,10,2:0:0:0:
93,209,87254,1,10,2:0:0:0:
188,88,87406,1,0,3:0:0:0:
188,88,87482,1,0,3:0:0:0:
188,88,87558,2,0,L|233:85,1,35,8|8,2:3|2:3,2:0:0:0:
277,8,87710,2,0,L|311:5,1,35,0|0,3:0|3:0,2:0:0:0:
368,140,87863,1,8,2:0:0:0:
512,0,88015,1,4,3:2:0:0:
483,283,89995,5,8,2:3:0:0:
458,279,90071,1,8,2:3:0:0:
434,276,90147,1,4,2:3:0:0:
410,273,90223,1,0,3:0:0:0:
386,270,90299,2,0,B|347:301|347:301|245:292,1,147,12|0,2:0|2:0,2:0:0:0:
244,214,90604,6,0,L|344:223,1,77,4|0,3:2|2:0,2:0:0:0:
250,292,90908,1,2,2:1:0:0:
164,190,91061,1,0,3:0:0:0:
164,190,91137,1,0,3:0:0:0:
164,190,91213,2,0,B|115:173|115:173|59:196,2,105,10|0|0,2:3|3:0|3:0,2:0:0:0:
105,367,91974,1,0,3:0:0:0:
105,367,92050,1,0,3:0:0:0:
105,367,92127,2,0,P|65:375|25:364,1,77,2|0,3:1|2:0,2:0:0:0:
0,270,92431,6,0,L|12:178,1,77,12|0,2:0|3:0,2:0:0:0:
12,161,92660,1,8,2:0:0:0:
12,161,92736,2,0,L|57:139,1,38.5,0|0,3:0|3:0,2:0:0:0:
54,55,92888,2,0,L|101:71,1,38.5,8|0,2:0|3:0,2:0:0:0:
218,109,93040,5,2,2:1:0:0:
291,0,93193,2,0,L|352:-7,2,38.5,0|0|2,3:0|3:0|3:1,2:0:0:0:
496,87,93649,2,0,B|445:70|445:70|391:93,2,105,10|0|0,2:0|3:0|3:0,2:0:0:0:
452,221,94259,6,0,L|453:309,1,77,12|0,2:0|3:0,2:0:0:0:
455,327,94487,1,8,2:3:0:0:
455,327,94563,1,4,2:3:0:0:
368,281,94715,1,0,3:0:0:0:
254,384,94868,1,10,2:0:0:0:
274,289,95020,1,0,3:0:0:0:
119,384,95172,2,0,L|98:224,1,147,12|0,2:0|2:0,2:0:0:0:
132,182,95477,6,0,P|96:196|59:191,1,77,4|0,3:2|2:0,2:0:0:0:
0,97,95781,1,2,2:1:0:0:
147,31,95934,2,0,L|114:-4,2,38.5,0|0|2,3:0|3:0|3:1,2:0:0:0:
228,113,96314,1,0,3:0:0:0:
338,63,96543,1,0,3:0:0:0:
338,63,96847,2,0,L|381:42,2,38.5,0|0|2,3:0|3:0|3:1,2:0:0:0:
503,32,97304,6,0,L|513:141,1,77,12|0,2:0|3:0,2:0:0:0:
512,139,97533,1,8,2:0:0:0:
512,139,97609,1,0,2:0:0:0:
401,184,97761,1,8,2:0:0:0:
396,302,97913,6,0,P|388:332|355:378,1,56,4|0,3:2|2:0,2:0:0:0:
294,304,98116,2,0,P|267:319|211:328,1,56,4|0,3:2|2:0,2:0:0:0:
221,234,98320,2,0,P|191:226|145:193,1,56,4|0,3:2|2:0,2:0:0:0:
219,132,98523,2,0,P|203:105|194:49,1,56,4|0,3:2|2:0,2:0:0:0:
289,59,98726,2,0,P|297:29|330:-16,1,56,4|0,3:2|2:0,2:0:0:0:
391,57,98929,2,0,P|417:41|473:32,1,56,8|0,2:0|2:0,2:0:0:0:
464,127,99132,5,4,3:2:0:0:
464,127,99436,1,8,2:0:0:0:
512,309,99589,1,4,3:1:0:0:
512,309,99893,1,0,3:0:0:0:
509,332,99969,1,0,3:0:0:0:
512,355,100045,1,8,2:0:0:0:
512,355,100350,6,0,B|423:372|454:303|367:318,1,157.5,4|0,3:2|2:0,2:0:0:0:
336,327,100655,1,8,2:0:0:0:
221,384,100807,2,0,L|197:310,1,77,0|2,3:0|2:1,2:0:0:0:
86,300,101111,2,0,L|77:263,2,38.5,8|4|8,2:3|2:3|2:0,2:0:0:0:
29,361,101416,1,0,3:0:0:0:
41,184,101568,6,0,P|95:177|140:203,1,77,2|0,3:1|2:0,2:0:0:0:
167,264,101873,1,8,2:0:0:0:
278,150,102025,2,0,P|224:143|179:169,1,77,0|2,3:0|2:1,2:0:0:0:
350,233,102330,2,0,L|410:238,2,38.5,8|4|8,2:3|2:3|2:0,2:0:0:0:
242,223,102634,1,0,3:0:0:0:
353,118,102787,6,0,B|402:112|402:112|421:120|421:120|490:114,1,115.5,2|0,3:1|2:0,2:0:0:0:
498,113,103091,1,8,2:0:0:0:
512,34,103243,2,0,L|431:40,1,77,0|2,3:0|2:1,2:0:0:0:
353,118,103548,2,0,L|351:68,2,38.5,8|4|8,2:3|2:3|2:0,2:0:0:0:
260,52,103853,1,0,3:0:0:0:
165,157,104005,5,8,2:3:0:0:
162,130,104081,1,4,2:3:0:0:
160,103,104157,1,0,3:0:0:0:
158,76,104233,1,0,3:0:0:0:
156,49,104309,1,8,2:0:0:0:
30,182,104462,2,0,L|37:286,1,77,4|0,3:1|2:0,2:0:0:0:
179,303,104766,1,8,2:3:0:0:
179,303,104842,1,4,2:3:0:0:
179,303,104919,2,0,P|129:295|87:318,1,77,8|0,2:0|3:0,2:0:0:0:
293,384,105223,6,0,L|399:374,1,77,4|0,3:2|2:0,2:0:0:0:
486,364,105528,1,8,2:0:0:0:
479,268,105680,2,0,P|432:263|386:288,1,77,0|2,3:0|2:1,2:0:0:0:
369,376,105984,2,0,L|372:324,2,38.5,8|4|8,2:3|2:3|2:0,2:0:0:0:
291,300,106289,1,0,3:0:0:0:
410,196,106441,6,0,L|404:280,1,77,2|0,3:1|2:0,2:0:0:0:
291,300,106746,1,8,2:0:0:0:
303,164,106898,2,0,L|309:80,1,77,0|2,3:0|2:1,2:0:0:0:
472,102,107203,1,8,2:3:0:0:
472,102,107279,1,4,2:3:0:0:
472,102,107355,2,0,P|419:109|381:84,1,77,8|0,2:0|3:0,2:0:0:0:
232,21,107660,6,0,P|195:9|158:19,1,77,4|8,3:1|2:0,2:0:0:0:
131,35,107888,1,8,2:0:0:0:
131,35,107964,1,8,2:0:0:0:
7,143,108116,1,2,3:0:0:0:
184,183,108421,1,2,3:0:0:0:
59,326,108726,5,12,2:0:0:0:
59,326,108878,2,0,L|46:374,2,38.5,0|0|0,3:0|3:0|3:0,2:0:0:0:
254,290,109182,2,0,P|197:282|167:296,1,77,12|0,2:0|2:0,2:0:0:0:
320,384,109487,5,8,2:0:0:0:
320,384,109563,1,8,2:0:0:0:
320,384,109639,2,0,L|320:332,1,38.5,8|8,2:0|2:3,2:0:0:0:
452,261,109792,1,4,2:3:0:0:
430,275,109868,1,4,2:3:0:0:
403,283,109944,1,0,3:0:0:0:
377,280,110020,1,0,3:0:0:0:
353,266,110096,1,8,2:0:0:0:
394,115,110401,6,0,L|400:199,1,84,4|0,3:2|2:0,2:0:0:0:
221,83,110705,2,0,L|215:-8,1,84,4|0,3:1|2:0,2:0:0:0:
79,185,111010,2,0,L|84:272,1,84,4|0,3:1|2:0,2:0:0:0:
159,346,111314,5,4,3:2:0:0:
85,269,111467,1,2,2:3:0:0:
188,163,111619,1,8,2:0:0:0:
175,259,111771,1,2,2:3:0:0:
336,255,111924,5,0,3:0:0:0:
250,219,112076,1,2,2:3:0:0:
233,384,112228,1,8,2:0:0:0:
266,296,112380,1,2,2:3:0:0:
413,364,112533,5,0,3:0:0:0:
311,361,112685,1,2,2:3:0:0:
415,255,112837,5,8,2:0:0:0:
344,180,112990,1,2,2:3:0:0:
493,179,113142,6,0,L|495:95,1,84,0|2,3:0|2:3,2:0:0:0:
462,0,113446,1,8,2:0:0:0:
403,60,113599,1,2,2:3:0:0:
333,10,113751,6,0,L|235:17,1,84,0|2,3:0|2:3,2:0:0:0:
183,150,114056,2,0,P|193:104|180:64,1,84,8|2,2:0|2:3,2:0:0:0:
168,44,114284,1,0,2:0:0:0:
168,44,114360,5,0,3:0:0:0:
11,110,114512,2,0,L|5:62,2,42,2|2|8,2:3|2:0|2:0,2:0:0:0:
112,109,114817,1,2,2:3:0:0:
0,216,114969,6,0,L|12:347,1,126,0|0,3:0|2:0,2:0:0:0:
17,377,115274,2,0,L|76:363,1,42,8|8,2:0|2:0,2:0:0:0:
114,303,115426,2,0,L|154:312,1,42,8|8,2:0|2:0,2:0:0:0:
307,384,115578,2,0,P|288:334|327:256,1,126,4|0,3:1|2:0,2:0:0:0:
427,273,115883,2,0,P|377:292|299:253,1,126,4|0,3:1|2:0,2:0:0:0:
295,247,116188,6,0,P|277:217|274:195,1,42,4|0,3:2|2:0,2:0:0:0:
294,95,116340,2,0,L|305:47,2,42,8|8|8,2:0|2:0|2:0,2:0:0:0:
373,211,116644,2,0,L|391:129,1,84,4|0,3:1|2:0,2:0:0:0:
477,69,116949,1,0,3:0:0:0:
347,36,117101,1,10,2:0:0:0:
421,11,117254,1,0,3:0:0:0:
254,0,117406,6,0,L|161:37,1,84,12|0,2:0|3:0,2:0:0:0:
146,45,117634,1,0,3:0:0:0:
146,45,117710,1,8,2:0:0:0:
65,207,117863,2,0,L|43:40,1,168,4|8,3:2|2:0,2:0:0:0:
41,5,118243,1,8,2:0:0:0:
41,5,118320,2,0,L|-12:14,1,42,8|8,2:0|2:3,2:0:0:0:
146,45,118472,2,0,L|199:36,1,42,4|4,2:3|2:3,2:0:0:0:
65,207,118624,6,0,P|116:189|157:201,1,84,4|2,3:2|3:0,2:0:0:0:
238,332,118929,2,0,L|223:237,1,84,8|2,2:0|2:3,2:0:0:0:
288,173,119233,1,8,2:0:0:0:
286,165,119309,1,8,2:0:0:0:
284,157,119386,1,8,2:3:0:0:
400,196,119538,2,0,L|462:184,3,42,8|8|4|4,2:3|2:3|2:3|2:3,2:0:0:0:
466,269,119842,5,4,3:1:0:0:
512,81,119995,2,0,L|520:35,2,42,8|8|8,2:0|2:0|2:0,2:0:0:0:
407,86,120299,1,2,3:0:0:0:
314,60,120604,1,2,3:0:0:0:
221,34,120908,1,2,3:0:0:0:
118,44,121213,5,8,2:3:0:0:
118,44,121289,1,4,2:3:0:0:
118,44,121365,2,0,L|102:93,1,42,8|8,2:3|2:3,2:0:0:0:
180,124,121517,2,0,L|164:173,1,42,4|4,2:3|2:3,2:0:0:0:
118,291,121670,2,0,P|165:272|212:285,1,84,10|8,2:0|2:3,2:0:0:0:
218,289,121898,1,8,2:3:0:0:
217,288,121974,2,0,L|219:351,1,42,4|4,2:3|2:3,2:0:0:0:
28,336,122127,6,0,P|19:293|53:211,1,126,4|0,3:2|2:0,2:0:0:0:
73,198,122431,1,0,3:0:0:0:
30,49,122583,1,8,2:0:0:0:
9,136,122736,1,0,2:0:0:0:
180,86,122888,1,2,3:0:0:0:
94,111,123040,1,2,3:0:0:0:
115,24,123193,1,8,2:0:0:0:
199,163,123345,6,0,P|235:142|256:106,1,84,4|0,3:2|2:0,2:0:0:0:
260,0,123649,1,2,3:0:0:0:
439,26,123802,1,8,2:0:0:0:
326,150,123954,2,0,L|339:60,1,84,2|0,3:0|2:0,2:0:0:0:
439,26,124259,1,2,3:0:0:0:
326,150,124411,1,8,2:0:0:0:
510,99,124563,6,0,L|425:125,1,84,4|0,3:2|2:0,2:0:0:0:
326,150,124868,1,2,3:0:0:0:
355,256,125020,1,8,2:0:0:0:
484,202,125172,1,2,2:3:0:0:
398,188,125325,1,0,3:0:0:0:
379,346,125477,1,2,3:0:0:0:
281,217,125629,1,8,2:0:0:0:
163,384,125781,6,0,L|150:284,1,84,4|0,3:2|2:0,2:0:0:0:
171,183,126086,1,0,3:0:0:0:
5,236,126238,2,0,P|58:245|104:221,1,84,10|0,2:0|2:0,2:0:0:0:
171,183,126543,1,0,3:0:0:0:
44,131,126695,1,0,3:0:0:0:
225,69,126847,2,0,L|320:34,1,84,12|0,2:0|2:0,2:0:0:0:
426,170,127152,6,0,P|392:124|392:74,1,84,4|0,3:2|2:0,2:0:0:0:
427,3,127457,1,8,2:0:0:0:
471,99,127609,1,0,2:0:0:0:
303,39,127761,1,2,3:1:0:0:
388,98,127913,1,2,3:1:0:0:
294,142,128066,1,8,2:0:0:0:
431,266,128218,6,0,L|539:240,1,84,4|0,3:2|2:0,2:0:0:0:
426,170,128523,1,0,3:0:0:0:
348,252,128675,2,0,P|356:304|382:337,1,84,8|0,2:0|2:0,2:0:0:0:
463,365,128979,1,2,3:1:0:0:
376,327,129132,1,0,3:0:0:0:
271,384,129284,1,8,2:0:0:0:
245,260,129436,1,0,3:0:0:0:
93,384,129589,6,0,L|85:280,1,84,12|0,2:0|3:0,2:0:0:0:
85,268,129817,1,0,3:0:0:0:
85,268,129893,1,8,2:0:0:0:
158,180,130045,1,4,3:2:0:0:
0,89,130198,2,0,P|49:68|89:74,1,84,8|4,2:0|3:2,2:0:0:0:
105,82,130426,1,0,2:0:0:0:
105,82,130502,1,8,2:0:0:0:
172,347,130655,6,0,L|157:172,1,168,4|8,3:2|2:3,2:0:0:0:
159,148,131035,1,8,2:3:0:0:
159,148,131111,2,0,L|209:145,1,42,4|4,2:3|2:3,2:0:0:0:
274,203,131264,2,0,L|324:200,1,42,0|0,3:0|3:0,2:0:0:0:
403,70,131416,1,8,2:0:0:0:
508,243,131568,1,8,2:0:0:0:
508,243,131873,6,0,B|449:251|449:251|430:267|430:267|326:277,1,147,4|0,3:2|2:0,2:0:0:0:
333,277,132177,1,0,3:0:0:0:
210,384,132330,2,0,L|195:279,1,84,8|0,2:0|2:0,2:0:0:0:
145,234,132634,1,2,3:1:0:0:
198,300,132787,1,2,3:1:0:0:
61,246,132939,1,8,2:0:0:0:
255,216,133091,6,0,L|240:111,1,84,4|0,3:2|2:0,2:0:0:0:
227,35,133396,1,0,3:0:0:0:
80,106,133548,2,0,P|122:114|163:96,1,84,10|0,2:0|2:0,2:0:0:0:
236,44,133853,1,2,3:1:0:0:
236,44,133929,1,0,3:0:0:0:
236,44,134005,2,0,L|291:39,1,42,2|0,3:1|3:0,2:0:0:0:
299,130,134157,2,0,L|354:125,1,42,8|0,2:0|3:0,2:0:0:0:
465,16,134309,6,0,P|450:81|471:161,1,147,4|0,3:2|2:0,2:0:0:0:
492,179,134614,1,0,3:0:0:0:
435,251,134766,2,0,P|464:269|535:265,1,84,10|0,2:0|2:0,2:0:0:0:
385,182,135071,1,2,3:1:0:0:
322,246,135223,1,2,3:1:0:0:
211,155,135375,1,8,2:0:0:0:
191,337,135528,6,0,L|201:241,1,84,4|0,3:2|2:0,2:0:0:0:
121,197,135832,1,0,3:0:0:0:
199,253,135984,1,10,2:0:0:0:
111,298,136137,1,0,3:0:0:0:
47,131,136289,1,4,2:3:0:0:
75,122,136365,1,4,2:3:0:0:
103,113,136441,1,0,3:0:0:0:
131,104,136517,1,0,3:0:0:0:
159,95,136594,2,0,B|192:52|192:52|284:26,1,147,12|0,2:0|2:0,2:0:0:0:
357,0,136898,6,0,P|317:33|416:152,1,252,4|0,3:2|3:0,2:0:0:0:
437,146,137431,1,0,3:0:0:0:
437,146,137507,1,8,2:0:0:0:
395,230,137710,1,8,2:3:0:0:
449,306,137913,1,4,2:3:0:0:
449,306,138116,5,4,3:1:0:0:
323,274,138269,2,0,L|276:282,2,42,8|8|8,2:0|2:0|2:0,2:0:0:0:
182,384,138573,2,0,L|171:283,1,84,4|0,3:2|2:0,2:0:0:0:
230,176,138878,1,8,2:0:0:0:
206,193,138954,1,8,2:0:0:0:
178,202,139030,1,8,2:0:0:0:
149,201,139106,1,8,2:0:0:0:
122,190,139182,1,8,2:0:0:0:
159,36,139335,6,0,L|170:123,1,84,4|10,3:2|2:0,2:0:0:0:
249,28,139639,2,0,L|303:13,2,42,0|0|10,3:0|3:0|2:0,2:0:0:0:
367,131,139944,2,0,P|308:119|283:91,1,84,0|10,3:0|2:0,2:0:0:0:
451,81,140248,2,0,L|447:28,2,42,0|0|10,3:0|3:0|2:0,2:0:0:0:
465,248,140553,6,0,L|458:157,1,84,4|10,3:1|2:0,2:0:0:0:
357,246,140858,1,0,3:0:0:0:
357,246,140934,1,0,3:0:0:0:
357,246,141010,2,0,L|360:287,1,42,8|8,2:0|2:3,2:0:0:0:
272,384,141162,1,4,2:3:0:0:
243,378,141238,1,4,2:3:0:0:
214,372,141314,1,0,3:0:0:0:
185,367,141391,1,0,3:0:0:0:
156,361,141467,2,0,L|142:215,1,147,12|0,2:0|2:0,2:0:0:0:
139,185,141771,5,12,2:0:0:0:
261,40,141924,1,8,2:0:0:0:
261,40,142228,5,8,2:3:0:0:
436,111,142380,1,0,3:0:0:0:
436,111,142685,5,8,2:0:0:0:
422,299,142837,1,8,2:0:0:0:
422,299,143142,5,8,2:3:0:0:
238,343,143294,1,4,2:3:0:0:
238,343,143599,6,0,L|263:278,2,49,8|8|0,2:0|2:0|3:0,2:0:0:0:
321,132,143903,1,12,2:0:0:0:
314,150,144208,5,12,3:2:0:0:
190,57,144360,1,12,3:2:0:0:
190,57,144436,1,0,3:0:0:0:
189,57,144512,2,0,P|179:79|178:103,1,49,0|0,3:0|3:0,2:0:0:0:
250,196,144665,5,12,3:2:0:0:
95,130,144817,1,12,3:2:0:0:
95,130,144893,1,0,3:0:0:0:
94,130,144969,2,0,P|103:152|119:170,1,49,0|0,3:0|3:0,2:0:0:0:
233,269,145122,5,8,2:3:0:0:
312,76,145274,2,0,L|365:65,2,49,4|0|0,2:3|3:0|3:0,2:0:0:0:
328,209,145578,6,0,L|446:187,1,98,12|8,2:0|2:3,2:0:0:0:
455,186,145807,1,8,2:3:0:0:
455,186,145883,2,0,L|445:127,1,42,4|4,2:3|2:3,2:0:0:0:
481,330,146035,5,0,3:0:0:0:
454,334,146111,1,8,2:0:0:0:
428,338,146188,1,8,2:0:0:0:
401,342,146264,1,8,2:0:0:0:
375,346,146340,2,0,L|319:355,1,42,8|8,2:0|2:0,2:0:0:0:
270,279,146492,2,0,L|214:288,1,42,8|8,2:0|2:0,2:0:0:0:
119,384,146644,6,0,L|109:326,2,42,4|0|8,3:2|3:0|2:0,2:0:0:0:
154,263,146949,1,2,3:1:0:0:
154,263,147101,1,8,2:0:0:0:
0,215,147254,1,2,3:1:0:0:
22,298,147406,1,8,2:0:0:0:
128,178,147558,2,0,L|115:119,2,42,0|0|8,3:0|3:0|2:0,2:0:0:0:
44,45,147863,6,0,L|-11:55,2,42,2|0|8,3:1|3:0|2:0,2:0:0:0:
141,6,148167,1,2,3:1:0:0:
193,81,148320,1,8,2:0:0:0:
284,0,148472,1,2,3:1:0:0:
284,0,148624,1,8,2:0:0:0:
292,113,148776,2,0,L|294:166,2,42,0|0|8,3:0|3:0|2:0,2:0:0:0:
425,82,149081,6,0,L|469:53,2,42,2|0|8,3:1|3:0|2:0,2:0:0:0:
472,158,149386,1,2,3:1:0:0:
414,222,149538,1,8,2:0:0:0:
468,302,149690,1,2,3:1:0:0:
468,302,149842,1,8,2:0:0:0:
397,376,149995,2,0,L|343:374,2,42,0|0|8,3:0|3:0|2:0,2:0:0:0:
240,384,150299,5,12,2:0:0:0:
240,384,150452,2,0,L|240:332,1,42,0|0,3:0|3:0,2:0:0:0:
145,351,150604,2,0,L|145:299,1,42,0|0,3:0|3:0,2:0:0:0:
145,181,150756,1,12,2:0:0:0:
145,181,150908,2,0,L|145:129,1,42,0|0,3:0|3:0,2:0:0:0:
240,143,151061,2,0,L|240:91,1,42,0|0,3:0|3:0,2:0:0:0:
78,33,151213,2,0,P|130:43|186:18,1,84,12|0,2:0|2:0,2:0:0:0:
188,20,151441,1,0,2:0:0:0:
188,20,151517,6,0,L|247:17,2,42,4|0|8,3:2|3:0|2:0,2:0:0:0:
307,85,151822,1,2,3:1:0:0:
307,85,151974,1,8,2:0:0:0:
421,26,152127,1,2,3:1:0:0:
481,92,152279,1,8,2:0:0:0:
356,165,152431,2,0,L|357:224,2,42,0|0|8,3:0|3:0|2:0,2:0:0:0:
453,296,152736,6,0,L|512:295,2,42,2|0|8,3:1|3:0|2:0,2:0:0:0:
381,368,153040,1,2,3:1:0:0:
320,283,153193,1,8,2:0:0:0:
239,381,153345,1,2,3:1:0:0:
239,381,153497,1,8,2:0:0:0:
167,279,153649,2,0,L|136:234,2,42,0|0|8,3:0|3:0|2:0,2:0:0:0:
51,187,153954,6,0,L|9:190,2,42,2|0|8,3:1|3:0|2:0,2:0:0:0:
146,135,154259,1,2,3:1:0:0:
146,135,154411,1,8,2:0:0:0:
60,94,154563,1,2,3:1:0:0:
168,51,154715,1,8,2:0:0:0:
42,12,154868,2,0,L|-4:0,2,42,0|0|8,3:0|3:0|2:0,2:0:0:0:
195,51,155172,5,12,2:0:0:0:
281,5,155325,2,0,L|330:2,1,42,0|0,3:0|3:0,2:0:0:0:
326,79,155477,2,0,L|375:76,1,42,0|0,3:0|3:0,2:0:0:0:
469,20,155629,1,12,2:0:0:0:
434,132,155781,2,0,L|432:187,1,42,0|0,3:0|3:0,2:0:0:0:
510,167,155934,2,0,L|508:223,1,42,0|0,3:0|3:0,2:0:0:0:
400,299,156086,2,0,P|439:285|478:298,1,84,12|0,2:0|2:0,2:0:0:0:
503,320,156391,5,4,3:2:0:0:
256,192,156467,12,0,158523,2:0:0:0:
144,384,158827,6,0,L|133:271,3,112,4|0|0|0,3:2|3:0|3:0|3:0,2:0:0:0:
9,326,160045,2,0,L|20:213,3,112,0|0|0|0,3:0|3:0|3:0|3:0,2:0:0:0:
145,169,161264,6,0,L|258:158,1,112,0|0,3:0|3:0,2:0:0:0:
139,39,161873,2,0,L|26:28,1,112,0|0,3:0|3:0,2:0:0:0:
147,153,162482,2,0,L|260:142,1,112,2|2,3:1|3:1,2:0:0:0:
141,23,163091,2,0,L|28:12,1,112,0|0,3:0|3:0,2:0:0:0:
326,42,163700,5,4,3:1:0:0:
326,42,164005,1,0,3:0:0:0:
326,42,164309,1,0,3:0:0:0:
326,42,164614,1,0,3:0:0:0:
486,48,164919,5,0,3:0:0:0:
486,48,165223,1,0,3:0:0:0:
486,48,165528,1,0,3:0:0:0:
486,48,165832,1,0,3:0:0:0:
366,168,166137,5,2,3:1:0:0:
403,86,166441,1,2,3:1:0:0:
455,159,166746,1,0,3:0:0:0:
417,241,167050,1,2,3:1:0:0:
275,175,167355,6,0,L|278:300,1,112,2|0,3:1|3:0,2:0:0:0:
281,373,167812,5,8,2:0:0:0:
182,384,167964,1,8,2:0:0:0:
112,342,168116,1,8,2:3:0:0:
79,281,168269,1,8,2:3:0:0:
83,229,168421,1,4,2:3:0:0:
108,201,168573,5,4,3:2:0:0:
108,201,168878,2,0,L|164:169,1,56,0|4,3:0|2:3,2:0:0:0:
258,112,169182,1,0,3:0:0:0:
106,27,169487,1,8,2:3:0:0:
120,203,169792,2,0,L|168:175,2,56,0|4|0,3:0|2:3|3:0,2:0:0:0:
270,114,170401,1,8,2:3:0:0:
409,38,170705,1,0,3:0:0:0:
409,38,170858,2,0,L|411:83,1,28,4|4,2:3|2:3,2:0:0:0:
417,160,171010,5,0,3:0:0:0:
266,220,171314,2,0,L|191:253,1,56,0|4,3:0|2:3,2:0:0:0:
261,383,171619,1,0,3:0:0:0:
406,300,171924,1,8,2:3:0:0:
256,218,172228,2,0,L|204:240,2,56,0|4|0,3:0|2:3|3:0,2:0:0:0:
396,298,172837,1,8,2:3:0:0:
251,381,173142,1,0,3:0:0:0:
251,381,173294,2,0,L|198:369,1,28,4|4,2:3|2:3,2:0:0:0:
120,348,173446,5,4,3:1:0:0:
256,289,173751,2,0,L|246:233,1,56,0|4,3:0|2:3,2:0:0:0:
225,126,174056,1,0,3:0:0:0:
100,235,174360,1,8,2:3:0:0:
265,283,174665,6,0,L|255:227,2,56,0|4|0,3:0|2:3|3:0,2:0:0:0:
109,229,175274,1,8,2:3:0:0:
105,108,175578,1,0,3:0:0:0:
105,108,175731,2,0,L|72:72,1,28,4|4,2:3|2:3,2:0:0:0:
24,26,175883,5,2,3:1:0:0:
181,19,176188,2,0,P|208:18|240:16,1,56,0|4,3:0|2:3,2:0:0:0:
334,83,176492,1,0,3:0:0:0:
202,183,176797,1,8,2:3:0:0:
190,29,177101,2,0,P|217:27|245:26,2,56,0|4|0,3:0|2:3|3:0,2:0:0:0:
211,193,177710,1,8,2:3:0:0:
343,93,178015,5,4,3:2:0:0:
493,152,178624,1,2,2:3:0:0:
493,178,178929,1,2,2:3:0:0:
493,204,179233,1,2,2:3:0:0:
388,288,179538,6,0,L|374:262,5,24.5,8|8|0|0|8|8,2:0|2:0|3:0|3:0|2:3|2:3,2:0:0:0:
359,245,179995,6,0,L|316:246,1,31.5,0|0,3:0|3:0,2:0:0:0:
240,326,180147,2,0,L|197:327,1,31.5,4|4,2:3|2:3,2:0:0:0:
145,213,180299,1,0,3:0:0:0:
145,213,180375,1,0,3:0:0:0:
145,213,180452,1,12,2:0:0:0:
19,318,180604,6,0,B|14:273|14:273|18:264|18:264|11:205,1,115.50000352478,4|0,3:2|2:0,2:0:0:0:
7,170,180908,1,0,3:0:0:0:
144,109,181061,2,0,P|100:126|57:114,1,77,8|0,2:0|2:0,2:0:0:0:
8,6,181365,1,2,3:0:0:0:
96,44,181517,1,2,3:0:0:0:
217,0,181670,1,8,2:0:0:0:
264,170,181822,6,0,L|241:87,1,77,4|0,3:1|2:0,2:0:0:0:
322,21,182127,1,2,3:0:0:0:
409,0,182279,1,8,2:0:0:0:
405,155,182431,1,2,3:0:0:0:
405,155,182583,6,0,L|384:80,1,77,0|2,2:0|3:0,2:0:0:0:
487,210,182888,1,8,2:0:0:0:
417,318,183040,6,0,L|317:329,1,77,4|0,3:2|2:0,2:0:0:0:
238,271,183345,1,2,3:0:0:0:
155,364,183497,1,8,2:0:0:0:
78,222,183649,1,2,2:3:0:0:
78,222,183802,6,0,L|153:282,1,77,0|2,3:0|3:0,2:0:0:0:
192,161,184106,1,8,2:0:0:0:
88,80,184259,2,0,L|13:20,1,77,4|0,3:1|2:0,2:0:0:0:
180,65,184563,6,0,L|226:58,1,38.5,0|0,3:0|3:0,2:0:0:0:
340,42,184715,1,8,2:0:0:0:
290,167,184868,1,8,2:0:0:0:
290,167,184944,1,8,2:0:0:0:
290,167,185020,2,0,L|272:105,1,38.5,8|8,2:3|2:3,2:0:0:0:
396,124,185172,2,0,L|414:186,1,38.5,4|0,2:3|3:0,2:0:0:0:
371,284,185325,2,0,P|407:249|482:259,1,115.5,12|0,2:0|2:0,2:0:0:0:
488,265,185629,5,4,3:2:0:0:
450,354,185781,1,0,2:0:0:0:
353,365,185934,1,8,2:0:0:0:
294,286,186086,1,0,2:0:0:0:
177,360,186238,1,2,3:0:0:0:
248,223,186391,1,2,3:0:0:0:
131,297,186543,1,8,2:0:0:0:
242,135,186695,6,0,L|345:118,1,77,4|0,3:1|2:0,2:0:0:0:
429,66,187000,1,0,3:0:0:0:
429,66,187152,1,10,2:0:0:0:
445,197,187304,1,0,2:0:0:0:
317,122,187457,1,2,3:0:0:0:
401,269,187609,1,0,3:0:0:0:
273,194,187761,2,0,P|230:198|187:238,1,77,8|0,2:0|3:0,2:0:0:0:
141,373,188066,6,0,L|130:296,1,77,12|2,2:0|3:0,2:0:0:0:
125,267,188294,1,0,3:0:0:0:
125,267,188370,1,10,2:0:0:0:
0,163,188523,2,0,P|37:141|95:149,1,77,4|8,3:2|2:0,2:0:0:0:
202,216,188827,1,4,3:2:0:0:
154,85,188979,1,8,2:0:0:0:
343,222,189132,6,0,B|372:147|372:147|366:114|366:114|397:38,1,196,4|8,3:1|2:0,2:0:0:0:
409,10,189512,1,8,2:0:0:0:
409,10,189589,2,0,L|475:34,1,42,8|8,2:0|2:0,2:0:0:0:
332,72,189741,1,0,3:0:0:0:
332,72,189817,1,0,3:0:0:0:
332,72,189893,2,0,L|265:47,1,42,8|8,2:3|2:3,2:0:0:0:
418,174,190045,2,0,L|485:199,1,42,0|0,3:0|3:0,2:0:0:0:
219,205,190198,1,12,2:0:0:0:
179,384,190350,6,0,L|194:282,1,84,4|0,3:2|2:0,2:0:0:0:
119,168,190655,1,0,3:0:0:0:
202,216,190807,1,8,1:2:0:0:
27,221,190959,1,0,3:0:0:0:
136,157,191111,1,8,2:0:0:0:
0,48,191264,2,0,P|54:29|109:39,1,84,2|8,3:0|2:0,2:0:0:0:
272,100,191568,6,0,P|206:108|174:30,1,126,4|0,3:2|2:0,2:0:0:0:
168,26,191873,1,2,3:0:0:0:
248,2,192025,1,8,1:2:0:0:
324,39,192177,1,2,3:0:0:0:
460,0,192330,1,8,1:2:0:0:
512,170,192482,1,2,3:0:0:0:
415,68,192634,1,8,1:2:0:0:
376,253,192787,6,0,L|396:154,1,84,4|0,3:2|2:0,2:0:0:0:
272,100,193091,1,2,3:0:0:0:
369,149,193243,1,8,1:2:0:0:
271,258,193396,1,2,3:0:0:0:
291,177,193548,1,8,1:2:0:0:
132,261,193700,1,2,3:0:0:0:
296,260,193853,1,8,1:2:0:0:
71,196,194005,6,0,P|46:274|77:336,1,126,4|0,3:2|2:0,2:0:0:0:
93,348,194309,1,0,3:0:0:0:
241,258,194462,1,10,1:2:0:0:
132,261,194614,1,0,3:0:0:0:
185,146,194766,1,8,2:3:0:0:
185,146,194842,1,8,2:3:0:0:
185,146,194919,2,0,L|129:119,1,42,0|0,3:0|3:0,2:0:0:0:
43,39,195071,6,0,B|106:36|106:36|127:46|127:46|207:41,1,147,12|0,2:0|2:0,2:0:0:0:
204,29,195375,2,0,B|248:16|248:16|307:32,1,84,4|0,3:2|2:0,2:0:0:0:
408,58,195680,1,10,2:0:0:0:
408,58,195832,1,0,1:0:0:0:
357,155,195984,1,2,3:1:0:0:
250,103,196137,1,2,3:0:0:0:
241,258,196289,1,8,2:0:0:0:
454,228,196441,6,0,L|474:326,1,84,4|0,3:1|2:0,2:0:0:0:
405,384,196746,1,0,3:0:0:0:
470,310,196898,1,10,1:2:0:0:
368,270,197050,1,0,2:0:0:0:
398,365,197203,1,2,3:0:0:0:
244,384,197355,1,0,3:0:0:0:
325,338,197507,1,10,1:2:0:0:
241,258,197660,1,0,3:0:0:0:
145,335,197812,6,0,L|103:332,1,42,12|0,1:2|1:0,2:0:0:0:
241,258,197964,2,0,L|282:260,1,42,0|0,3:0|1:0,2:0:0:0:
114,177,198116,1,8,1:2:0:0:
114,177,198193,1,0,1:0:0:0:
114,177,198269,2,0,L|72:174,1,42,4|0,3:2|1:0,2:0:0:0:
8,43,198421,6,0,P|33:40|58:46,1,42,8|0,1:2|1:0,2:0:0:0:
147,101,198573,2,0,P|167:103|188:100,1,42,4|0,3:2|1:0,2:0:0:0:
262,17,198726,1,8,1:2:0:0:
262,17,198802,1,0,1:0:0:0:
262,17,198878,6,0,L|266:58,3,42,4|0|0|0,3:1|1:0|1:0|1:0,2:0:0:0:
378,98,199182,2,0,L|374:43,1,42,4|0,3:2|1:0,2:0:0:0:
489,94,199335,2,0,L|492:135,3,42,8|0|4|0,1:2|1:0|1:2|1:0,2:0:0:0:
353,191,199639,6,0,L|298:180,1,42,0|0,3:0|3:0,2:0:0:0:
470,280,199792,2,0,L|525:269,1,42,4|0,3:2|3:0,2:0:0:0:
337,321,199944,1,8,1:2:0:0:
512,384,200096,6,0,L|348:326,1,147,4|0,3:2|2:0,2:0:0:0:
337,321,200401,1,4,3:2:0:0:
246,384,200553,1,8,2:0:0:0:
182,236,200705,1,4,3:2:0:0:
259,304,200858,1,0,1:0:0:0:
166,216,201010,1,0,3:0:0:0:
135,384,201162,1,8,1:2:0:0:
11,190,201314,6,0,B|-13:102|59:86|25:0,1,196,4|0,3:1|3:0,2:0:0:0:
133,153,201771,1,8,2:0:0:0:
133,153,201847,1,8,2:0:0:0:
133,152,201924,6,0,P|147:164|167:174,1,42,0|0,3:0|3:0,2:0:0:0:
266,38,202076,2,0,P|289:42|307:40,1,42,8|8,2:3|2:3,2:0:0:0:
324,195,202228,2,0,P|346:175|360:153,1,42,0|0,3:0|3:0,2:0:0:0:
473,45,202380,2,0,P|470:74|476:100,1,42,4|4,2:3|2:3,2:0:0:0:
512,248,202533,1,0,3:0:0:0:
512,248,202609,1,0,3:0:0:0:
512,248,202685,1,8,2:0:0:0:
417,344,202990,6,0,L|513:324,1,84,4|0,3:2|2:0,2:0:0:0:
255,257,203294,2,0,L|351:277,1,84,4|0,3:1|2:0,2:0:0:0:
91,361,203599,2,0,L|187:341,1,84,4|0,3:1|2:0,2:0:0:0:
74,250,203903,6,0,L|69:199,3,42,4|0|0|0,3:2|3:0|3:0|3:0,2:0:0:0:
161,236,204208,2,0,L|156:185,3,42,10|0|0|0,3:2|3:0|3:0|3:0,2:0:0:0:
275,196,204512,5,2,3:0:0:0:
275,196,204589,1,0,3:0:0:0:
275,196,204665,2,0,L|280:145,1,42,0|0,3:0|3:0,2:0:0:0:
414,153,204817,2,0,L|409:111,1,42,10|0,3:2|3:0,2:0:0:0:
324,81,204969,2,0,L|319:39,1,42,0|0,3:0|3:0,2:0:0:0:
235,13,205122,6,0,L|182:17,3,42,2|0|0|0,3:0|3:0|3:0|3:0,2:0:0:0:
100,79,205426,2,0,L|47:83,1,42,10|0,3:2|3:0,2:0:0:0:
191,114,205578,2,0,L|244:118,1,42,0|0,3:0|3:0,2:0:0:0:
77,187,205731,2,0,L|130:191,3,42,2|0|0|0,3:0|3:0|3:0|3:0,2:0:0:0:
34,307,206035,5,10,3:2:0:0:
34,307,206111,1,0,3:0:0:0:
34,307,206188,1,0,3:0:0:0:
34,307,206264,1,0,3:0:0:0:
34,307,206340,6,0,L|30:254,3,42,2|0|0|0,3:0|3:0|3:0|3:0,2:0:0:0:
129,359,206644,2,0,L|136:299,3,42,10|0|0|0,3:2|3:0|3:0|3:0,2:0:0:0:
279,293,206949,6,0,L|342:288,1,42,2|0,3:0|3:0,2:0:0:0:
189,242,207101,2,0,L|126:237,1,42,0|0,3:0|3:0,2:0:0:0:
299,179,207254,2,0,L|362:174,1,42,10|0,3:2|3:0,2:0:0:0:
209,128,207406,2,0,L|146:123,1,42,0|0,3:2|3:0,2:0:0:0:
332,70,207558,6,0,L|395:75,3,42,2|0|0|0,3:0|3:0|3:0|3:0,2:0:0:0:
501,91,207863,5,8,2:0:0:0:
500,116,207939,1,8,2:0:0:0:
499,141,208015,1,8,2:0:0:0:
497,166,208091,1,8,2:0:0:0:
496,191,208167,2,0,P|452:177|374:235,1,126,4|0,3:1|2:0,2:0:0:0:
353,269,208472,2,0,B|377:236|377:236|358:138,1,126,4|0,3:1|2:0,2:0:0:0:
350,114,208776,5,4,3:2:0:0:
219,212,208929,2,0,L|165:207,2,42,8|8|8,2:0|2:0|2:0,2:0:0:0:
216,241,209233,2,0,B|153:235|153:235|135:244|135:244|64:238,1,147,4|0,3:1|2:0,2:0:0:0:
37,236,209538,1,0,3:0:0:0:
116,167,209690,1,10,2:0:0:0:
9,116,209842,1,0,3:0:0:0:
136,27,209995,6,0,P|194:34|222:68,1,84,12|0,2:0|3:0,2:0:0:0:
229,78,210223,1,0,3:0:0:0:
229,78,210299,1,8,2:0:0:0:
298,208,210452,2,0,L|328:37,1,168,4|8,3:2|2:0,2:0:0:0:
335,8,210832,1,8,2:0:0:0:
335,8,210908,2,0,L|392:17,1,42,8|8,2:0|2:0,2:0:0:0:
399,93,211061,2,0,L|456:102,1,42,8|8,2:0|2:0,2:0:0:0:
489,203,211213,5,4,3:2:0:0:
489,203,211365,1,10,2:0:0:0:
367,241,211517,2,0,L|301:212,2,42,0|0|10,3:0|3:0|2:0,2:0:0:0:
466,310,211822,1,0,3:0:0:0:
466,310,211974,1,10,2:0:0:0:
344,348,212127,2,0,L|278:319,2,42,2|0|8,3:0|3:0|2:0,2:0:0:0:
172,384,212431,5,4,3:1:0:0:
215,229,212583,2,0,L|230:177,2,49,8|8|8,2:0|2:0|2:0,2:0:0:0:
110,226,212888,1,2,3:0:0:0:
55,156,213193,1,2,3:0:0:0:
0,86,213497,1,2,3:0:0:0:
87,4,213802,5,8,2:3:0:0:
87,4,213878,1,8,2:3:0:0:
87,4,213954,2,0,B|228:-37|185:99|328:59,1,252,4|0,2:3|2:0,2:0:0:0:
392,154,214715,6,0,P|395:88|404:68,1,84,4|0,3:2|2:0,2:0:0:0:
464,0,215020,1,0,3:0:0:0:
512,103,215172,2,0,P|509:169|500:189,1,84,8|0,2:0|2:0,2:0:0:0:
419,242,215477,1,0,3:0:0:0:
503,184,215629,1,2,3:0:0:0:
512,305,215781,1,8,2:0:0:0:
345,331,215934,6,0,L|442:316,1,84,4|0,3:2|2:0,2:0:0:0:
245,239,216238,2,0,L|329:251,1,84,2|8,3:0|2:0,2:0:0:0:
159,341,216543,2,0,L|256:326,1,84,2|0,3:0|2:0,2:0:0:0:
123,226,216847,1,2,3:0:0:0:
159,341,217000,1,8,2:0:0:0:
22,249,217152,6,0,B|28:185|28:185|41:171|41:171|49:85,1,147,4|0,3:2|2:0,2:0:0:0:
50,72,217457,1,0,3:0:0:0:
139,17,217609,2,0,L|243:32,1,84,10|0,2:0|2:0,2:0:0:0:
265,124,217913,1,2,3:0:0:0:
331,60,218066,1,2,3:0:0:0:
223,28,218218,1,8,2:0:0:0:
358,143,218370,6,0,L|442:154,1,84,4|0,3:2|2:0,2:0:0:0:
512,236,218675,1,0,3:0:0:0:
395,289,218827,2,0,L|312:277,1,84,10|8,2:0|2:0,2:0:0:0:
287,271,219056,1,8,2:0:0:0:
285,270,219132,2,0,L|274:334,1,42,8|8,2:3|2:3,2:0:0:0:
258,165,219284,2,0,L|269:101,1,42,4|0,2:3|3:0,2:0:0:0:
172,303,219436,2,0,B|107:290|107:290|90:295|90:295|29:282,1,147,12|0,2:0|2:0,2:0:0:0:
0,276,219741,6,0,L|22:170,1,84,4|0,3:2|2:0,2:0:0:0:
166,155,220045,2,0,P|116:163|81:141,1,84,8|0,2:0|2:0,2:0:0:0:
23,58,220350,1,2,3:1:0:0:
108,14,220502,1,2,3:1:0:0:
176,72,220655,1,8,2:0:0:0:
344,0,220807,6,0,L|355:97,1,84,4|0,3:2|2:0,2:0:0:0:
368,175,221111,1,0,3:0:0:0:
491,198,221264,2,0,L|482:114,1,84,8|0,2:0|2:0,2:0:0:0:
439,36,221568,1,2,3:1:0:0:
354,83,221721,1,0,3:0:0:0:
482,114,221873,1,10,2:0:0:0:
368,175,222025,1,0,3:0:0:0:
512,287,222177,6,0,L|431:266,1,84,12|0,2:0|3:0,2:0:0:0:
401,258,222406,1,0,3:0:0:0:
401,258,222482,2,0,P|397:314|359:353,1,84,8|4,2:0|3:2,2:0:0:0:
276,379,222787,1,8,2:0:0:0:
223,287,222939,2,0,L|169:278,2,42,4|0|8,3:2|3:0|2:0,2:0:0:0:
65,384,223243,6,0,P|92:336|79:215,1,168,4|8,3:2|2:3,2:0:0:0:
70,201,223624,1,8,2:3:0:0:
70,201,223700,2,0,L|3:204,1,42,4|4,2:3|2:3,2:0:0:0:
144,115,223853,2,0,L|211:112,1,42,0|0,3:0|3:0,2:0:0:0:
301,13,224005,1,8,2:0:0:0:
376,191,224157,1,8,2:0:0:0:
376,191,224462,6,0,B|403:127|403:127|399:107|399:107|422:52,1,147,4|0,3:2|2:0,2:0:0:0:
438,18,224766,1,0,3:0:0:0:
512,99,224919,2,0,L|471:195,1,84,8|0,2:0|2:0,2:0:0:0:
447,254,225223,1,2,3:1:0:0:
376,191,225375,1,2,3:1:0:0:
363,305,225528,1,8,2:0:0:0:
256,185,225680,6,0,L|168:191,1,84,4|0,3:2|2:0,2:0:0:0:
79,242,225984,1,0,3:0:0:0:
0,103,226137,2,0,P|45:71|125:102,1,126,10|0,2:0|2:0,2:0:0:0:
138,112,226441,1,2,3:1:0:0:
201,56,226594,1,0,3:0:0:0:
274,98,226746,1,8,2:0:0:0:
378,0,226898,6,0,L|474:6,1,84,4|0,3:2|2:0,2:0:0:0:
512,112,227203,1,0,3:0:0:0:
376,191,227355,2,0,P|366:231|377:271,1,84,10|0,2:0|2:0,2:0:0:0:
457,331,227660,1,2,3:1:0:0:
377,271,227812,1,2,3:1:0:0:
310,378,227964,1,10,2:0:0:0:
236,258,228116,6,0,L|137:269,1,84,4|0,3:2|2:0,2:0:0:0:
98,358,228421,1,0,3:0:0:0:
46,241,228573,1,10,2:0:0:0:
153,267,228726,1,0,3:0:0:0:
47,141,228878,2,0,L|6:137,1,42,4|4,2:3|2:3,2:0:0:0:
151,75,229030,2,0,L|193:71,1,42,0|0,3:0|3:0,2:0:0:0:
292,201,229182,2,0,L|308:39,1,147,12|0,2:0|2:0,2:0:0:0:
312,20,229487,6,0,P|370:26|448:165,1,231,4|0,3:2|3:0,2:0:0:0:
443,193,230020,1,0,3:0:0:0:
443,193,230096,1,8,2:0:0:0:
415,282,230299,1,8,2:3:0:0:
466,370,230502,1,4,2:3:0:0:
302,350,230705,6,0,L|207:341,1,84,4|8,3:1|2:0,2:0:0:0:
190,340,230934,1,8,2:0:0:0:
190,340,231010,1,8,2:0:0:0:
102,224,231162,2,0,P|118:292|71:356,1,126,4|0,3:2|2:0,2:0:0:0:
56,359,231467,2,0,L|58:290,1,42,8|8,2:0|2:0,2:0:0:0:
0,234,231619,2,0,L|2:165,1,42,8|8,2:0|2:0,2:0:0:0:
106,118,231771,1,8,2:0:0:0:
106,118,231847,1,8,2:0:0:0:
106,118,231924,6,0,P|166:129|216:110,1,84,4|10,3:2|2:0,2:0:0:0:
284,41,232228,2,0,L|287:-9,2,42,0|0|10,3:0|3:0|2:0,2:0:0:0:
352,139,232533,2,0,P|393:154|450:139,1,84,0|10,3:0|2:0,2:0:0:0:
509,50,232837,2,0,L|515:-22,2,42,0|0|8,3:0|3:0|2:0,2:0:0:0:
512,212,233142,6,0,L|501:311,1,84,4|10,3:1|2:0,2:0:0:0:
498,326,233370,1,0,2:0:0:0:
498,326,233446,1,0,3:0:0:0:
409,272,233599,1,8,2:0:0:0:
334,347,233751,2,0,L|277:350,1,42,8|4,2:3|2:3,2:0:0:0:
274,270,233903,2,0,L|217:267,1,42,0|0,3:0|3:0,2:0:0:0:
97,384,234056,2,0,L|107:231,1,126,12|0,2:0|2:0,2:0:0:0:
108,229,234360,5,12,2:0:0:0:
169,28,234512,1,8,2:0:0:0:
169,28,234817,5,8,2:3:0:0:
230,229,234969,1,8,2:3:0:0:
230,229,235274,5,8,2:3:0:0:
291,28,235426,1,4,2:3:0:0:
291,28,235731,5,8,2:0:0:0:
352,229,235883,1,8,2:0:0:0:
352,229,236188,6,0,L|302:205,2,42,8|4|0,2:3|2:3|3:0,2:0:0:0:
219,382,236492,1,12,2:0:0:0:
199,378,236797,5,12,3:2:0:0:
230,229,236949,1,12,3:2:0:0:
230,229,237025,1,0,3:0:0:0:
230,229,237101,2,0,P|203:234|181:251,1,42,0|0,3:0|3:0,2:0:0:0:
180,373,237254,5,12,3:2:0:0:
118,202,237406,1,12,3:2:0:0:
118,202,237482,1,0,3:0:0:0:
118,202,237558,2,0,P|103:229|98:252,1,42,0|0,3:0|3:0,2:0:0:0:
162,369,237710,5,8,2:3:0:0:
322,239,237863,1,4,2:3:0:0:
322,239,238015,6,0,L|380:245,1,42,0|0,3:0|3:0,2:0:0:0:
446,347,238167,2,0,L|362:338,1,84,12|8,2:0|2:3,2:0:0:0:
328,337,238396,1,8,2:3:0:0:
328,337,238472,2,0,L|322:387,1,42,4|4,2:3|2:3,2:0:0:0:
224,214,238624,5,0,3:0:0:0:
228,185,238700,1,8,2:0:0:0:
233,156,238776,1,8,2:0:0:0:
238,127,238853,1,8,2:0:0:0:
243,98,238929,2,0,L|298:90,1,42,8|8,2:0|2:0,2:0:0:0:
355,161,239081,2,0,L|396:154,1,42,8|8,2:0|2:0,2:0:0:0:
485,41,239233,6,0,L|474:-16,2,42,4|0|8,3:2|3:0|2:0,2:0:0:0:
501,138,239538,1,2,3:1:0:0:
396,154,239690,1,8,2:0:0:0:
387,55,239842,1,2,3:1:0:0:
387,55,239995,1,8,2:0:0:0:
264,2,240147,2,0,L|216:12,2,42,0|0|8,3:0|3:0|2:0,2:0:0:0:
109,36,240452,6,0,L|117:77,2,42,2|0|8,3:1|3:0|2:0,2:0:0:0:
43,158,240756,1,2,3:1:0:0:
43,158,240908,1,8,2:0:0:0:
144,190,241061,1,2,3:1:0:0:
34,260,241213,1,8,2:0:0:0:
182,309,241365,2,0,L|237:302,2,42,0|0|8,3:0|3:0|2:0,2:0:0:0:
342,384,241670,6,0,L|336:342,2,42,2|0|8,3:1|3:0|2:0,2:0:0:0:
317,245,241974,1,2,3:1:0:0:
317,245,242127,1,8,2:0:0:0:
415,280,242279,1,2,3:1:0:0:
400,182,242431,1,8,2:0:0:0:
507,286,242583,2,0,L|513:336,2,42,0|0|8,3:0|3:0|2:0,2:0:0:0:
397,150,242888,6,0,P|448:132|492:150,1,84,12|0,2:0|3:0,2:0:0:0:
497,154,243116,1,0,3:0:0:0:
497,155,243193,2,0,L|504:215,1,42,0|0,3:0|3:0,2:0:0:0:
479,22,243345,1,12,2:0:0:0:
385,71,243497,2,0,L|325:78,1,42,0|0,3:0|3:0,2:0:0:0:
345,0,243649,2,0,L|285:7,1,42,0|0,3:0|3:0,2:0:0:0:
240,87,243802,1,12,2:0:0:0:
102,43,243954,2,0,L|96:-1,1,42,0|0,2:0|2:0,2:0:0:0:
165,116,244106,6,0,L|173:174,2,42,4|0|8,3:2|3:0|2:0,2:0:0:0:
40,163,244411,1,2,3:1:0:0:
112,228,244563,1,8,2:0:0:0:
13,278,244715,1,2,3:1:0:0:
13,278,244868,1,8,2:0:0:0:
168,308,245020,2,0,L|233:298,2,42,0|0|8,3:0|3:0|2:0,2:0:0:0:
308,384,245325,6,0,L|298:319,2,42,2|0|8,3:1|3:0|2:0,2:0:0:0:
382,245,245629,1,2,3:1:0:0:
382,245,245781,1,8,2:0:0:0:
402,342,245934,1,2,3:1:0:0:
297,265,246086,1,8,2:0:0:0:
386,161,246238,2,0,L|437:151,2,42,0|0|8,3:0|3:0|2:0,2:0:0:0:
273,62,246543,6,0,L|263:11,2,42,2|0|8,3:1|3:0|2:0,2:0:0:0:
253,162,246847,1,2,3:1:0:0:
181,82,247000,1,8,2:0:0:0:
100,176,247152,1,2,3:1:0:0:
100,176,247304,1,8,2:0:0:0:
23,48,247457,2,0,L|31:-1,2,42,0|0|8,3:0|3:0|2:0,2:0:0:0:
13,202,247761,6,0,L|101:175,1,91,12|0,2:0|3:0,2:0:0:0:
131,165,247990,1,0,3:0:0:0:
131,165,248066,2,0,L|182:150,1,45.5,0|0,3:0|3:0,2:0:0:0:
81,272,248218,1,12,2:0:0:0:
192,343,248370,1,0,3:0:0:0:
218,334,248446,1,0,3:0:0:0:
244,326,248523,1,0,3:0:0:0:
270,318,248599,1,0,3:0:0:0:
297,308,248675,6,0,B|353:307|379:257|379:257|422:228|471:252,1,182,12|4,2:0|3:2,2:0:0:0:
430,325,249817,5,4,3:2:0:0:
399,128,250268,5,4,3:1:0:0:
306,64,250619,5,4,3:2:0:0:
204,54,250889,5,4,3:1:0:0:
128,96,251047,1,4,3:2:0:0:
88,171,251206,6,0,L|71:210,1,35,0|0,3:0|3:0,2:0:0:0:
116,193,251352,2,0,L|133:232,1,35,0|0,3:0|3:0,2:0:0:0:
93,216,251498,2,0,L|76:255,1,35,0|0,3:0|3:0,2:0:0:0:
95,296,251645,5,12,2:0:0:0:
200,377,252243,6,0,L|195:327,2,35,0|0|0,3:0|3:0|3:0,2:0:0:0:
216,377,252433,2,0,B|222:375|222:375|258:373,1,42,8|2,2:0|2:3,2:0:0:0:
256,192,252965,12,0,255478,2:0:0:0:
