osu file format v14

[General]
AudioFilename: audio.mp3
AudioLeadIn: 0
PreviewTime: 121317
Countdown: 0
SampleSet: Soft
StackLeniency: 0.2
Mode: 0
LetterboxInBreaks: 0
WidescreenStoryboard: 1

[Editor]
Bookmarks: 172837,180604,197812,198421,199030,200248,201771,201924,246543,252634,255680,259335
DistanceSpacing: 0.5
BeatDivisor: 4
GridSize: 32
TimelineZoom: 2.3

[Metadata]
Title:Aoki Kotou no Anguis
TitleUnicode:碧き孤島のアングゥィス
Artist:Denkishiki Karen Ongaku Shuudan
ArtistUnicode:電気式華憐音楽集団
Creator:OliBomby
Version:Ardens Spes
Source:
Tags:denkare metal power gothic japanese carnaval the abyss theblank
BeatmapID:2069601
BeatmapSetID:989342

[Difficulty]
HPDrainRate:6
CircleSize:4
OverallDifficulty:9
ApproachRate:9.3
SliderMultiplier:1.4
SliderTickRate:1

[Events]
//Background and Video events
0,0,"background.jpg",0,0
//Break Periods
//Storyboard Layer 0 (Background)
//Storyboard Layer 1 (Fail)
//Storyboard Layer 2 (Pass)
//Storyboard Layer 3 (Foreground)
//Storyboard Layer 4 (Overlay)
//Storyboard Sound Samples

[TimingPoints]
452,304.568527918782,4,2,1,70,1,0
1061,-100,4,2,2,70,0,0
1517,-100,4,2,1,70,0,0
1670,-100,4,2,2,70,0,0
2126,-100,4,2,1,70,0,0
2279,-100,4,2,2,70,0,0
2583,-83.3333333333333,4,2,1,70,0,0
2812,-83.3333333333333,4,2,1,5,0,0
2888,-83.3333333333333,4,2,1,70,0,0
3193,-100,4,2,1,70,0,0
3497,-100,4,2,2,70,0,0
3954,-100,4,2,1,70,0,0
4106,-100,4,2,2,70,0,0
4563,-100,4,2,1,70,0,0
5020,-83.3333333333333,4,2,1,70,0,0
5248,-83.3333333333333,4,2,1,5,0,0
5325,-50,4,2,1,70,0,0
5401,-50,4,2,1,5,0,0
5629,-100,4,2,1,70,0,0
5781,-100,4,2,2,70,0,0
5934,-50,4,2,1,70,0,0
6010,-50,4,2,1,5,0,0
6238,-100,4,2,1,70,0,0
6390,-100,4,2,2,70,0,0
6543,-50,4,2,1,70,0,0
6619,-50,4,2,1,5,0,0
6847,-100,4,2,1,70,0,0
6999,-100,4,2,2,70,0,0
7152,-100,4,2,1,70,0,0
7457,-83.3333333333333,4,2,1,70,0,0
7685,-83.3333333333333,4,2,1,5,0,0
7761,-83.3333333333333,4,2,4,70,0,0
7913,-83.3333333333333,4,2,1,70,0,0
8827,-83.3333333333333,4,2,4,70,0,0
10198,-76.9230769230769,4,2,2,70,0,0
10426,-76.9230769230769,4,2,2,5,0,0
10502,-76.9230769230769,4,2,1,70,0,0
12177,-66.6666666666667,4,2,1,70,0,0
12482,-66.6666666666667,4,2,4,70,0,0
12939,-76.9230769230769,4,2,4,70,0,0
13243,-76.9230769230769,4,2,1,70,0,0
15375,-76.9230769230769,4,2,4,70,0,0
15679,-76.9230769230769,4,2,1,70,0,0
17050,-66.6666666666667,4,2,1,70,0,0
17355,-66.6666666666667,4,2,4,70,0,0
17812,-76.9230769230769,4,2,4,70,0,0
18116,-76.9230769230769,4,2,1,70,0,0
18573,-66.6666666666667,4,2,1,70,0,0
18801,-66.6666666666667,4,2,1,5,0,0
18878,-66.6666666666667,4,2,1,70,0,0
19792,-333.333333333333,4,2,2,70,0,0
20248,-333.333333333333,4,2,1,5,0,0
21771,-333.333333333333,4,2,1,70,0,0
22076,-1000,4,2,1,70,0,0
22304,-1000,4,2,1,5,0,0
22380,-100,4,2,2,70,0,0
22990,-100,4,2,3,70,0,0
23903,-100,4,2,1,70,0,0
25426,-100,4,2,4,70,0,0
25654,-100,4,2,1,70,0,0
26949,-333.333333333333,4,2,1,70,0,0
27254,-100,4,2,2,70,0,0
27863,-100,4,2,1,70,0,0
28548,-100,4,2,1,5,0,0
28624,-100,4,2,1,70,0,0
29690,-100,4,2,3,70,0,0
30705,-100,4,2,1,70,0,0
30908,-76.9230769230769,4,2,2,70,0,0
31136,-76.9230769230769,4,2,1,5,0,0
31213,-76.9230769230769,4,2,1,70,0,0
32127,-66.6666666666667,4,2,2,70,0,0
32431,-66.6666666666667,4,2,1,70,0,0
36238,-83.3333333333333,4,2,1,70,0,0
37000,-83.3333333333333,4,2,2,70,0,0
37152,-83.3333333333333,4,2,1,70,0,0
40959,-83.3333333333333,4,2,4,70,0,0
41264,-83.3333333333333,4,2,3,70,0,0
41568,-83.3333333333333,4,2,1,70,0,0
42177,-50,4,2,2,70,0,0
42405,-50,4,2,1,5,0,0
42482,-50,4,2,1,70,0,0
42710,-50,4,2,1,5,0,0
42787,-50,4,2,1,70,0,0
43015,-50,4,2,1,5,0,0
43091,-50,4,2,2,70,0,0
43243,-50,4,2,1,70,0,0
43700,-76.9230769230769,4,2,1,70,0,0
47583,-76.9230769230769,4,2,1,5,0,0
47660,-76.9230769230769,4,2,1,70,0,0
47888,-76.9230769230769,4,2,1,5,0,0
47964,-76.9230769230769,4,2,2,70,0,0
48116,-76.9230769230769,4,2,1,70,0,0
48421,-62.5,4,2,1,70,0,0
48649,-62.5,4,2,1,5,0,0
48726,-62.5,4,2,1,70,0,0
49182,-83.3333333333333,4,2,1,70,0,0
49639,-66.6666666666667,4,2,2,70,0,0
49867,-66.6666666666667,4,2,1,5,0,0
49944,-133.333333333333,4,2,3,70,0,0
50248,-133.333333333333,4,2,1,70,0,0
50401,-133.333333333333,4,2,2,70,0,0
50553,-133.333333333333,4,2,1,70,0,0
50705,-83.3333333333333,4,2,1,70,0,0
52076,-100,4,2,1,70,0,0
52152,-100,4,2,1,5,0,0
52380,-83.3333333333333,4,2,1,70,0,0
52456,-83.3333333333333,4,2,1,5,0,0
52685,-71.4285714285714,4,2,1,70,0,0
52761,-71.4285714285714,4,2,1,5,0,0
52990,-71.4285714285714,4,2,1,70,0,0
53142,-333.333333333333,4,2,1,70,0,0
53751,-333.333333333333,4,2,1,5,0,0
53903,-71.4285714285714,4,2,2,70,0,1
54207,-71.4285714285714,4,2,1,70,0,1
55122,-71.4285714285714,4,2,2,70,0,1
55274,-71.4285714285714,4,2,1,70,0,1
56340,-71.4285714285714,4,2,2,70,0,1
56644,-71.4285714285714,4,2,1,70,0,1
57558,-71.4285714285714,4,2,2,70,0,1
58015,-71.4285714285714,4,2,1,70,0,1
58929,-71.4285714285714,4,2,2,70,0,1
59233,-71.4285714285714,4,2,1,70,0,1
59538,-71.4285714285714,4,2,2,70,0,1
59842,-71.4285714285714,4,2,1,70,0,1
59995,-71.4285714285714,4,2,2,70,0,1
60452,-71.4285714285714,4,2,1,70,0,1
60756,-71.4285714285714,4,2,2,70,0,1
61061,-71.4285714285714,4,2,1,70,0,1
61822,-71.4285714285714,4,2,5,70,0,1
62431,-71.4285714285714,4,2,2,70,0,1
62583,-71.4285714285714,4,2,1,70,0,1
63193,-71.4285714285714,4,2,1,70,0,0
63649,-71.4285714285714,4,2,2,70,0,1
64106,-71.4285714285714,4,2,1,70,0,1
64411,-71.4285714285714,4,2,2,70,0,1
64715,-71.4285714285714,4,2,1,70,0,1
64868,-71.4285714285714,4,2,2,70,0,1
65020,-71.4285714285714,4,2,1,70,0,1
65325,-71.4285714285714,4,2,4,70,0,1
65629,-71.4285714285714,4,2,2,70,0,1
65933,-71.4285714285714,4,2,1,70,0,1
66086,-71.4285714285714,4,2,2,70,0,1
66543,-71.4285714285714,4,2,4,70,0,1
66847,-71.4285714285714,4,2,2,70,0,1
67152,-71.4285714285714,4,2,1,70,0,1
67304,-71.4285714285714,4,2,2,70,0,1
67761,-71.4285714285714,4,2,4,70,0,1
67913,-71.4285714285714,4,2,1,70,0,1
68675,-71.4285714285714,4,2,2,70,0,1
68979,-71.4285714285714,4,2,1,70,0,1
70350,-71.4285714285714,4,2,2,70,0,1
70654,-71.4285714285714,4,2,1,70,0,1
71111,-71.4285714285714,4,2,2,70,0,1
71263,-71.4285714285714,4,2,1,70,0,1
73548,-71.4285714285714,4,2,4,70,0,1
73852,-71.4285714285714,4,2,3,70,0,1
74614,-71.4285714285714,4,2,1,70,0,1
75984,-71.4285714285714,4,2,2,70,0,1
76060,-71.4285714285714,4,2,1,5,0,1
76137,-71.4285714285714,4,2,2,70,0,1
76517,-71.4285714285714,4,2,1,5,0,1
76594,-71.4285714285714,4,2,2,70,0,1
76898,-71.4285714285714,4,2,1,70,0,0
76974,-71.4285714285714,4,2,1,5,0,0
77050,-71.4285714285714,4,2,1,70,0,0
78040,-125,4,2,1,70,0,0
78116,-125,4,2,1,5,0,0
78421,-76.9230769230769,4,2,2,70,0,0
78649,-76.9230769230769,4,2,2,5,0,0
78726,-76.9230769230769,4,2,1,70,0,0
80705,-66.6666666666667,4,2,4,70,0,0
81162,-76.9230769230769,4,2,4,70,0,0
81467,-76.9230769230769,4,2,1,70,0,0
83599,-76.9230769230769,4,2,4,70,0,0
83903,-76.9230769230769,4,2,1,70,0,0
85578,-66.6666666666667,4,2,4,70,0,0
86035,-76.9230769230769,4,2,4,70,0,0
86340,-76.9230769230769,4,2,1,70,0,0
86797,-66.6666666666667,4,2,1,70,0,0
87025,-66.6666666666667,4,2,1,5,0,0
87101,-66.6666666666667,4,2,1,70,0,0
88015,-333.333333333333,4,2,2,70,0,0
88471,-333.333333333333,4,2,1,5,0,0
89995,-333.333333333333,4,2,1,70,0,0
90299,-1000,4,2,1,70,0,0
90527,-1000,4,2,1,5,0,0
90604,-100,4,2,2,70,0,0
90908,-100,4,2,1,70,0,0
91213,-100,4,2,3,70,0,0
92127,-100,4,2,1,70,0,0
93649,-100,4,2,4,70,0,0
93878,-100,4,2,1,70,0,0
95172,-333.333333333333,4,2,1,70,0,0
95400,-333.333333333333,4,2,1,5,0,0
95477,-100,4,2,2,70,0,0
95781,-100,4,2,1,70,0,0
97685,-100,4,2,1,5,0,0
97761,-100,4,2,1,70,0,0
97913,-100,4,2,3,70,0,0
98929,-100,4,2,1,70,0,0
99132,-76.9230769230769,4,2,2,70,0,0
99360,-76.9230769230769,4,2,1,5,0,0
99436,-76.9230769230769,4,2,1,70,0,0
100350,-66.6666666666667,4,2,2,70,0,0
100654,-66.6666666666667,4,2,1,70,0,0
104462,-83.3333333333333,4,2,1,70,0,0
105223,-83.3333333333333,4,2,2,70,0,0
105375,-83.3333333333333,4,2,1,70,0,0
109182,-83.3333333333333,4,2,4,70,0,0
109487,-83.3333333333333,4,2,3,70,0,0
109792,-83.3333333333333,4,2,1,70,0,0
110401,-50,4,2,2,70,0,0
110629,-50,4,2,1,5,0,0
110705,-50,4,2,1,70,0,0
110933,-50,4,2,1,5,0,0
111010,-50,4,2,1,70,0,0
111238,-50,4,2,1,5,0,0
111314,-50,4,2,2,70,0,0
111467,-50,4,2,1,70,0,0
111924,-76.9230769230769,4,2,1,70,0,0
115806,-76.9230769230769,4,2,1,5,0,0
115883,-76.9230769230769,4,2,1,70,0,0
116111,-76.9230769230769,4,2,1,5,0,0
116188,-76.9230769230769,4,2,2,70,0,0
116340,-76.9230769230769,4,2,1,70,0,0
116644,-62.5,4,2,1,70,0,0
116872,-62.5,4,2,1,5,0,0
116949,-62.5,4,2,1,70,0,0
117406,-83.3333333333333,4,2,1,70,0,0
117863,-66.6666666666667,4,2,2,70,0,0
118091,-66.6666666666667,4,2,1,5,0,0
118167,-133.333333333333,4,2,3,70,0,0
118472,-133.333333333333,4,2,1,70,0,0
118624,-133.333333333333,4,2,2,70,0,0
118776,-133.333333333333,4,2,1,70,0,0
118929,-83.3333333333333,4,2,1,70,0,0
120299,-100,4,2,1,70,0,0
120375,-100,4,2,1,5,0,0
120604,-83.3333333333333,4,2,1,70,0,0
120680,-83.3333333333333,4,2,1,5,0,0
120908,-71.4285714285714,4,2,1,70,0,0
120984,-71.4285714285714,4,2,1,5,0,0
121213,-71.4285714285714,4,2,1,50,0,0
121670,-71.4285714285714,4,2,5,50,0,0
121746,-71.4285714285714,4,2,3,50,0,0
121974,-71.4285714285714,4,2,1,50,0,0
122127,-71.4285714285714,4,2,2,70,0,1
122583,-71.4285714285714,4,2,1,70,0,1
123345,-71.4285714285714,4,2,2,70,0,1
123497,-71.4285714285714,4,2,1,70,0,1
124563,-71.4285714285714,4,2,2,70,0,1
124867,-71.4285714285714,4,2,1,70,0,1
125781,-71.4285714285714,4,2,2,70,0,1
126238,-71.4285714285714,4,2,1,70,0,1
127152,-71.4285714285714,4,2,2,70,0,1
127304,-71.4285714285714,4,2,1,70,0,1
127761,-71.4285714285714,4,2,2,70,0,1
128066,-71.4285714285714,4,2,1,70,0,1
128218,-71.4285714285714,4,2,2,70,0,1
128675,-71.4285714285714,4,2,1,70,0,1
128979,-71.4285714285714,4,2,2,70,0,1
129284,-71.4285714285714,4,2,1,70,0,1
130045,-71.4285714285714,4,2,5,70,0,1
130655,-71.4285714285714,4,2,2,70,0,1
130807,-71.4285714285714,4,2,1,70,0,1
131416,-71.4285714285714,4,2,1,70,0,0
131873,-71.4285714285714,4,2,2,70,0,1
132330,-71.4285714285714,4,2,1,70,0,1
132634,-71.4285714285714,4,2,2,70,0,1
132939,-71.4285714285714,4,2,1,70,0,1
133091,-71.4285714285714,4,2,2,70,0,1
133243,-71.4285714285714,4,2,1,70,0,1
133548,-71.4285714285714,4,2,4,70,0,1
133853,-71.4285714285714,4,2,2,70,0,1
134157,-71.4285714285714,4,2,1,70,0,1
134309,-71.4285714285714,4,2,2,70,0,1
134766,-71.4285714285714,4,2,4,70,0,1
135071,-71.4285714285714,4,2,2,70,0,1
135375,-71.4285714285714,4,2,1,70,0,1
135528,-71.4285714285714,4,2,2,70,0,1
135984,-71.4285714285714,4,2,4,70,0,1
136137,-71.4285714285714,4,2,1,70,0,1
136898,-71.4285714285714,4,2,2,70,0,1
137202,-71.4285714285714,4,2,1,70,0,1
138573,-71.4285714285714,4,2,2,70,0,1
138877,-71.4285714285714,4,2,1,70,0,1
139335,-71.4285714285714,4,2,2,70,0,1
139487,-71.4285714285714,4,2,1,70,0,1
141771,-71.4285714285714,4,2,4,70,0,1
142076,-71.4285714285714,4,2,3,70,0,1
142837,-71.4285714285714,4,2,1,70,0,1
144208,-71.4285714285714,4,2,2,70,0,1
144284,-71.4285714285714,4,2,1,5,0,1
144360,-71.4285714285714,4,2,2,70,0,1
144741,-71.4285714285714,4,2,1,5,0,1
144817,-71.4285714285714,4,2,2,70,0,1
145122,-71.4285714285714,4,2,1,70,0,0
145198,-71.4285714285714,4,2,1,5,0,0
145274,-125,4,2,1,70,0,0
145578,-76.9230769230769,4,2,5,70,0,0
145730,-76.9230769230769,4,2,1,70,0,0
146644,-90.9090909090909,4,2,2,70,0,0
146796,-90.9090909090909,4,2,1,70,0,0
146949,-90.9090909090909,4,2,2,70,0,0
147101,-90.9090909090909,4,2,1,70,0,0
147254,-90.9090909090909,4,2,2,70,0,0
147406,-90.9090909090909,4,2,1,70,0,0
147863,-90.9090909090909,4,2,2,70,0,0
148015,-90.9090909090909,4,2,1,70,0,0
148167,-90.9090909090909,4,2,2,70,0,0
148320,-90.9090909090909,4,2,1,70,0,0
148472,-90.9090909090909,4,2,2,70,0,0
148624,-90.9090909090909,4,2,1,70,0,0
149081,-90.9090909090909,4,2,2,70,0,0
149233,-90.9090909090909,4,2,1,70,0,0
149386,-90.9090909090909,4,2,2,70,0,0
149538,-90.9090909090909,4,2,1,70,0,0
149690,-90.9090909090909,4,2,2,70,0,0
149842,-90.9090909090909,4,2,1,70,0,0
150756,-90.9090909090909,4,2,4,70,0,0
150908,-90.9090909090909,4,2,1,70,0,0
151517,-90.9090909090909,4,2,2,70,0,0
151670,-90.9090909090909,4,2,1,70,0,0
151822,-90.9090909090909,4,2,2,70,0,0
151974,-90.9090909090909,4,2,1,70,0,0
152127,-90.9090909090909,4,2,2,70,0,0
152279,-90.9090909090909,4,2,1,70,0,0
152736,-90.9090909090909,4,2,2,70,0,0
152888,-90.9090909090909,4,2,1,70,0,0
153040,-90.9090909090909,4,2,2,70,0,0
153193,-90.9090909090909,4,2,1,70,0,0
153345,-90.9090909090909,4,2,2,70,0,0
153497,-90.9090909090909,4,2,1,70,0,0
153954,-90.9090909090909,4,2,2,70,0,0
154106,-90.9090909090909,4,2,1,70,0,0
154259,-90.9090909090909,4,2,2,70,0,0
154411,-90.9090909090909,4,2,1,70,0,0
154563,-90.9090909090909,4,2,2,70,0,0
154715,-90.9090909090909,4,2,1,70,0,0
155629,-90.9090909090909,4,2,4,70,0,0
155781,-90.9090909090909,4,2,1,70,0,0
156391,-90.9090909090909,4,2,2,70,0,0
158827,-90.9090909090909,4,2,2,50,0,0
159132,-250,4,2,2,50,0,0
159284,-250,4,2,1,50,0,0
164005,-111.111111111111,4,2,1,50,0,0
166441,-100,4,2,1,50,0,0
168573,-100,4,2,2,50,0,0
168878,-58.8235294117647,4,2,2,50,0,0
169030,-58.8235294117647,4,2,1,50,0,0
178015,-58.8235294117647,4,2,2,50,0,0
178624,-58.8235294117647,4,2,1,50,0,0
179538,-58.8235294117647,4,2,3,50,0,0
180147,-58.8235294117647,4,2,1,50,0,0
180604,-66.6666666666667,4,2,2,70,0,0
180832,-66.6666666666667,4,2,1,5,0,0
180908,-66.6666666666667,4,2,1,70,0,0
183040,-66.6666666666667,4,2,2,70,0,0
183344,-66.6666666666667,4,2,1,70,0,0
185629,-66.6666666666667,4,2,2,70,0,0
185781,-66.6666666666667,4,2,1,70,0,0
187989,-66.6666666666667,4,2,1,5,0,0
188066,-66.6666666666667,4,2,4,70,0,0
188218,-66.6666666666667,4,2,1,70,0,0
188523,-66.6666666666667,4,2,6,70,0,0
188675,-66.6666666666667,4,2,5,70,0,0
189132,-66.6666666666667,4,2,1,70,0,0
190350,-62.5,4,2,4,70,0,0
190807,-62.5,4,2,1,70,0,0
190959,-62.5,4,2,4,70,0,0
191796,-62.5,4,2,4,5,0,0
191873,-62.5,4,2,4,70,0,0
192025,-62.5,4,2,1,70,0,0
192177,-62.5,4,2,4,70,0,0
192330,-62.5,4,2,1,70,0,0
192482,-62.5,4,2,4,70,0,0
192634,-62.5,4,2,1,70,0,0
192787,-62.5,4,2,4,70,0,0
193243,-62.5,4,2,1,70,0,0
193396,-62.5,4,2,4,70,0,0
193548,-62.5,4,2,1,70,0,0
193700,-62.5,4,2,4,70,0,0
193853,-62.5,4,2,2,70,0,0
194309,-62.5,4,2,4,70,0,0
194462,-62.5,4,2,1,70,0,0
194614,-62.5,4,2,4,70,0,0
194690,-62.5,4,2,1,70,0,0
195375,-62.5,4,2,4,70,0,0
195680,-62.5,4,2,1,70,0,0
196137,-62.5,4,2,4,70,0,0
196898,-62.5,4,2,1,70,0,0
197203,-62.5,4,2,4,70,0,0
197355,-62.5,4,2,1,70,0,0
197507,-71.4285714285714,4,2,1,70,0,0
197812,-71.4285714285714,4,2,2,70,0,0
197964,-71.4285714285714,4,2,4,70,0,0
198040,-71.4285714285714,4,2,1,70,0,0
198269,-71.4285714285714,4,2,7,70,0,0
198345,-71.4285714285714,4,2,1,70,0,0
198573,-71.4285714285714,4,2,7,70,0,0
198649,-71.4285714285714,4,2,1,70,0,0
198878,-71.4285714285714,4,2,4,70,0,0
198954,-71.4285714285714,4,2,1,70,0,0
199182,-71.4285714285714,4,2,7,70,0,0
199258,-71.4285714285714,4,2,5,70,0,0
199639,-71.4285714285714,4,2,7,70,0,0
199715,-71.4285714285714,4,2,5,70,0,0
199792,-71.4285714285714,4,2,7,70,0,0
199868,-71.4285714285714,4,2,5,70,0,0
200096,-71.4285714285714,4,2,4,70,0,0
200400,-71.4285714285714,4,2,5,70,0,0
200705,-71.4285714285714,4,2,4,70,0,0
200858,-71.4285714285714,4,2,1,70,0,0
201010,-71.4285714285714,4,2,4,70,0,0
201162,-71.4285714285714,4,2,1,70,0,0
201314,-62.5,4,2,4,70,0,0
201618,-62.5,4,2,3,70,0,0
201924,-62.5,4,2,4,70,0,0
202000,-62.5,4,2,1,70,0,0
202990,-50,4,2,2,70,0,0
203218,-50,4,2,1,5,0,0
203294,-50,4,2,1,70,0,0
203522,-50,4,2,1,5,0,0
203599,-50,4,2,1,70,0,0
203827,-50,4,2,1,5,0,0
203903,-50,4,2,2,70,0,0
204208,-50,4,2,1,70,0,0
205731,-90.9090909090909,4,2,1,70,0,0
208167,-76.9230769230769,4,2,1,70,0,0
208395,-76.9230769230769,4,2,1,5,0,0
208472,-76.9230769230769,4,2,1,70,0,0
208700,-76.9230769230769,4,2,1,5,0,0
208776,-76.9230769230769,4,2,2,70,0,0
208929,-76.9230769230769,4,2,1,70,0,0
209461,-76.9230769230769,4,2,1,5,0,0
209538,-76.9230769230769,4,2,1,70,0,0
210452,-76.9230769230769,4,2,2,70,0,0
210756,-76.9230769230769,4,2,1,70,0,0
211213,-76.9230769230769,4,2,2,70,0,0
211365,-76.9230769230769,4,2,1,70,0,0
212888,-90.9090909090909,4,2,1,70,0,0
212964,-90.9090909090909,4,2,1,5,0,0
213193,-76.9230769230769,4,2,1,70,0,0
213269,-76.9230769230769,4,2,1,5,0,0
213497,-66.6666666666667,4,2,1,70,0,0
213573,-66.6666666666667,4,2,1,5,0,0
213802,-66.6666666666667,4,2,1,70,0,0
213954,-333.333333333333,4,2,1,70,0,0
214563,-333.333333333333,4,2,1,5,0,0
214715,-71.4285714285714,4,2,2,70,0,1
215172,-71.4285714285714,4,2,1,70,0,1
215934,-71.4285714285714,4,2,2,70,0,1
216086,-71.4285714285714,4,2,1,70,0,1
217152,-71.4285714285714,4,2,2,70,0,1
217609,-71.4285714285714,4,2,1,70,0,1
218370,-71.4285714285714,4,2,2,70,0,1
218827,-71.4285714285714,4,2,1,70,0,1
219741,-71.4285714285714,4,2,2,70,0,1
219893,-71.4285714285714,4,2,1,70,0,1
220350,-71.4285714285714,4,2,2,70,0,1
220655,-71.4285714285714,4,2,1,70,0,1
220807,-71.4285714285714,4,2,2,70,0,1
221264,-71.4285714285714,4,2,1,70,0,1
221568,-71.4285714285714,4,2,2,70,0,1
221873,-71.4285714285714,4,2,1,70,0,1
222634,-71.4285714285714,4,2,5,70,0,1
223243,-71.4285714285714,4,2,2,70,0,1
223395,-71.4285714285714,4,2,1,70,0,1
224005,-71.4285714285714,4,2,1,70,0,0
224462,-71.4285714285714,4,2,2,70,0,1
224919,-71.4285714285714,4,2,1,70,0,1
225223,-71.4285714285714,4,2,2,70,0,1
225528,-71.4285714285714,4,2,1,70,0,1
225680,-71.4285714285714,4,2,2,70,0,1
225832,-71.4285714285714,4,2,1,70,0,1
226137,-71.4285714285714,4,2,4,70,0,1
226441,-71.4285714285714,4,2,2,70,0,1
226746,-71.4285714285714,4,2,1,70,0,1
226898,-71.4285714285714,4,2,2,70,0,1
227355,-71.4285714285714,4,2,4,70,0,1
227660,-71.4285714285714,4,2,2,70,0,1
227964,-71.4285714285714,4,2,1,70,0,1
228116,-71.4285714285714,4,2,2,70,0,1
228573,-71.4285714285714,4,2,4,70,0,1
228726,-71.4285714285714,4,2,1,70,0,1
229487,-71.4285714285714,4,2,2,70,0,1
229791,-71.4285714285714,4,2,1,70,0,1
231162,-71.4285714285714,4,2,2,70,0,1
231466,-71.4285714285714,4,2,1,70,0,1
231924,-71.4285714285714,4,2,2,70,0,1
232076,-71.4285714285714,4,2,1,70,0,1
234360,-71.4285714285714,4,2,4,70,0,1
234665,-71.4285714285714,4,2,1,70,0,1
235731,-71.4285714285714,4,2,3,70,0,1
236264,-71.4285714285714,4,2,1,70,0,1
236797,-71.4285714285714,4,2,2,70,0,1
236873,-71.4285714285714,4,2,1,5,0,1
236949,-71.4285714285714,4,2,2,70,0,1
237330,-71.4285714285714,4,2,1,5,0,1
237406,-71.4285714285714,4,2,2,70,0,1
237710,-71.4285714285714,4,2,1,70,0,0
237786,-71.4285714285714,4,2,1,5,0,0
237863,-71.4285714285714,4,2,1,70,0,0
238015,-90.9090909090909,4,2,1,70,0,0
238167,-90.9090909090909,4,2,5,70,0,0
238320,-90.9090909090909,4,2,1,70,0,0
239233,-90.9090909090909,4,2,2,70,0,0
239385,-90.9090909090909,4,2,1,70,0,0
239538,-90.9090909090909,4,2,2,70,0,0
239690,-90.9090909090909,4,2,1,70,0,0
239842,-90.9090909090909,4,2,2,70,0,0
239995,-90.9090909090909,4,2,1,70,0,0
240452,-90.9090909090909,4,2,2,70,0,0
240604,-90.9090909090909,4,2,1,70,0,0
240756,-90.9090909090909,4,2,2,70,0,0
240908,-90.9090909090909,4,2,1,70,0,0
241061,-90.9090909090909,4,2,2,70,0,0
241213,-90.9090909090909,4,2,1,70,0,0
241670,-90.9090909090909,4,2,2,70,0,0
241822,-90.9090909090909,4,2,1,70,0,0
241974,-90.9090909090909,4,2,2,70,0,0
242127,-90.9090909090909,4,2,1,70,0,0
242279,-90.9090909090909,4,2,2,70,0,0
242431,-90.9090909090909,4,2,1,70,0,0
243345,-90.9090909090909,4,2,4,70,0,0
243497,-90.9090909090909,4,2,1,70,0,0
244106,-90.9090909090909,4,2,2,70,0,0
244259,-90.9090909090909,4,2,1,70,0,0
244411,-90.9090909090909,4,2,2,70,0,0
244563,-90.9090909090909,4,2,1,70,0,0
244715,-90.9090909090909,4,2,2,70,0,0
244868,-90.9090909090909,4,2,1,70,0,0
245325,-90.9090909090909,4,2,2,70,0,0
245477,-90.9090909090909,4,2,1,70,0,0
245629,-90.9090909090909,4,2,2,70,0,0
245781,-90.9090909090909,4,2,1,70,0,0
245934,-90.9090909090909,4,2,2,70,0,0
246086,-90.9090909090909,4,2,1,70,0,0
246543,-90.9090909090909,4,2,2,70,0,0
246695,-90.9090909090909,4,2,1,70,0,0
246847,-90.9090909090909,4,2,2,70,0,0
247000,-90.9090909090909,4,2,1,70,0,0
247152,-90.9090909090909,4,2,2,70,0,0
247304,-90.9090909090909,4,2,1,70,0,0
248218,-90.9090909090909,4,2,4,70,0,0
248370,-90.9090909090909,4,2,1,70,0,0
248675,-71.4285714285714,4,2,1,70,0,0
248903,-71.4285714285714,4,2,1,5,0,0
248979,-71.4285714285714,4,2,2,70,0,0
249817,300.751879699248,4,2,2,70,1,0
250268,351.082504388531,4,2,1,70,1,0
250619,270.27027027027,4,2,2,70,1,0
250889,317.460317460317,4,2,1,70,1,0
251047,-100,4,2,2,70,0,0
251206,292.682926829268,4,2,1,70,1,0
251645,299.102691924227,4,2,4,70,1,0
252243,304.568527918782,4,2,1,70,1,0
252433,304.568527918782,4,2,1,70,1,0
252433,-125,4,2,1,70,0,0
252661,-250,4,2,1,5,0,0

[Colours]
Combo1 : 234,140,36
Combo2 : 205,66,50

[HitObjects]
256,64,452,5,8,2:0:0:0:
256,320,604,1,8,2:0:0:0:
111,193,756,2,0,L|19:193,1,70,0|2,1:0|2:3,2:0:0:0:
264,72,1061,5,0,2:0:0:0:
264,72,1213,1,0,2:0:0:0:
119,201,1365,2,0,L|27:201,1,70,0|2,1:0|2:3,2:0:0:0:
271,81,1670,5,0,2:0:0:0:
271,81,1822,1,0,2:0:0:0:
126,210,1974,2,0,L|34:210,1,70,0|2,1:0|2:3,2:0:0:0:
280,91,2279,5,0,2:0:0:0:
280,91,2431,1,0,2:0:0:0:
138,224,2583,2,0,B|187:234|234:210|234:210|260:234,1,126,2|0,1:3|2:0,2:0:0:0:
314,311,2888,5,8,2:0:0:0:
310,29,3040,1,8,2:0:0:0:
443,200,3193,2,0,L|528:201,1,70,0|2,1:0|2:3,2:0:0:0:
308,319,3497,5,0,2:0:0:0:
308,319,3649,1,0,2:0:0:0:
437,208,3802,2,0,L|522:209,1,70,0|2,1:0|2:3,2:0:0:0:
303,327,4106,5,0,2:0:0:0:
303,327,4259,1,0,2:0:0:0:
432,216,4411,2,0,L|517:217,1,70,0|2,1:0|2:3,2:0:0:0:
189,274,4715,5,8,2:3:0:0:
183,258,4792,1,8,2:3:0:0:
177,242,4868,1,4,2:3:0:0:
172,226,4944,1,0,3:0:0:0:
166,211,5020,2,0,B|171:194|171:194|162:133|162:133|173:81,1,126,8|0,2:0|2:0,2:0:0:0:
81,220,5325,6,0,L|63:288,1,70,10|0,2:0|2:0,2:0:0:0:
251,70,5629,2,0,L|251:-19,1,70,0|0,1:0|2:0,2:0:0:0:
425,224,5934,6,0,L|443:292,1,70,10|0,2:0|2:0,2:0:0:0:
261,70,6238,2,0,L|261:-19,1,70,0|0,1:0|2:0,2:0:0:0:
45,224,6543,6,0,L|23:292,1,70,10|0,2:0|2:0,2:0:0:0:
241,70,6847,2,0,L|241:-19,1,70,0|0,1:0|2:0,2:0:0:0:
487,220,7152,5,8,2:3:0:0:
492,236,7228,1,8,2:3:0:0:
498,252,7304,1,4,2:3:0:0:
504,268,7380,1,0,3:0:0:0:
511,288,7457,2,0,B|482:326|482:326|437:330|385:318,1,126,12|0,2:0|2:0,2:0:0:0:
352,307,7761,5,12,2:0:0:0:
256,116,7913,1,10,2:0:0:0:
138,344,8066,5,0,3:0:0:0:
133,351,8142,1,0,3:0:0:0:
129,358,8218,1,12,2:0:0:0:
255,92,8370,1,10,2:0:0:0:
374,344,8523,5,0,3:0:0:0:
379,351,8599,1,0,3:0:0:0:
383,358,8675,1,12,2:0:0:0:
255,68,8827,1,12,2:0:0:0:
195,37,10198,6,0,P|121:61|53:29,1,136.5,4|0,3:2|2:0,2:0:0:0:
40,10,10502,2,0,P|41:67|23:123,1,91,8|2,2:0|2:3,2:0:0:0:
144,178,10807,1,0,3:0:0:0:
144,178,10959,2,0,L|53:187,1,91,2|8,2:3|2:0,2:0:0:0:
269,232,11264,2,0,L|360:241,1,91,2|0,2:3|3:0,2:0:0:0:
381,83,11568,5,2,2:3:0:0:
475,221,11721,1,8,2:0:0:0:
393,70,11873,1,2,2:3:0:0:
481,119,12025,1,0,3:0:0:0:
216,116,12177,6,0,B|191:153|191:153|182:218,1,105,12|0,2:0|3:0,2:0:0:0:
329,384,12482,2,0,B|336:339|314:309|314:309|318:261|318:261|281:235|273:192,1,210,12|2,2:0|2:3,2:0:0:0:
27,373,12939,6,0,L|123:384,1,91,8|2,2:0|2:3,2:0:0:0:
224,295,13243,2,0,L|128:306,1,91,0|2,3:0|2:3,2:0:0:0:
27,208,13548,2,0,L|123:219,1,91,8|2,2:0|2:3,2:0:0:0:
275,226,13853,5,0,3:0:0:0:
166,101,14005,2,0,P|108:87|61:106,1,91,2|8,2:3|2:0,2:0:0:0:
214,11,14309,5,2,2:3:0:0:
244,148,14462,1,0,3:0:0:0:
383,34,14614,1,2,2:3:0:0:
272,69,14766,1,8,2:0:0:0:
458,111,14919,1,2,2:3:0:0:
474,0,15071,1,0,3:0:0:0:
468,8,15375,6,0,P|443:69|503:180,1,182,12|0,2:0|3:0,2:0:0:0:
360,111,15832,2,0,L|251:99,1,91,2|8,2:3|2:0,2:0:0:0:
422,253,16137,2,0,L|531:241,1,91,2|0,2:3|3:0,2:0:0:0:
343,362,16441,5,2,2:3:0:0:
355,186,16594,1,8,2:0:0:0:
328,364,16746,1,2,2:3:0:0:
416,267,16898,1,0,3:0:0:0:
152,384,17050,6,0,B|145:325|145:325|89:260,1,105,12|0,2:0|3:0,2:0:0:0:
144,112,17355,2,0,B|190:175|190:175|167:231|167:231|223:296,1,210,12|2,2:0|2:3,2:0:0:0:
0,175,17812,6,0,L|14:70,1,91,8|2,2:0|2:3,2:0:0:0:
21,263,18116,1,0,3:0:0:0:
113,123,18269,1,2,2:3:0:0:
93,133,18421,1,8,2:0:0:0:
260,47,18573,6,0,B|298:27|298:27|382:25|382:25|417:40,1,157.5,12|0,2:0|2:0,2:0:0:0:
455,58,18878,1,10,2:0:0:0:
333,236,19030,1,10,2:0:0:0:
273,123,19182,1,0,3:0:0:0:
282,128,19259,1,0,3:0:0:0:
291,133,19335,5,10,2:0:0:0:
186,223,19487,1,0,3:0:0:0:
351,239,19639,1,8,2:0:0:0:
73,331,19792,2,0,L|26:376,1,63.0000000000001,4|0,3:2|2:0,2:0:0:0:
252,222,21771,5,8,2:3:0:0:
257,207,21847,1,8,2:3:0:0:
258,191,21924,1,4,2:3:0:0:
255,176,22000,1,0,3:0:0:0:
291,134,22076,6,0,L|298:125,1,10.5,12|0,2:0|2:0,2:0:0:0:
230,18,22380,6,0,B|196:51|196:51|81:49|81:49|35:81,1,210,4|0,3:2|3:0,2:0:0:0:
11,99,22913,1,0,3:0:0:0:
9,104,22990,2,0,B|46:147|46:147|111:137,1,105,10|0,2:3|3:0,2:0:0:0:
24,248,23446,2,0,P|91:274|102:343,1,140,0|0,3:0|3:0,2:0:0:0:
89,373,23827,1,0,3:0:0:0:
87,378,23903,1,2,3:1:0:0:
213,268,24208,6,0,L|294:273,1,70,12|0,2:0|3:0,2:0:0:0:
365,276,24436,1,8,2:0:0:0:
365,276,24512,2,0,L|342:230,2,35,0|0|8,3:0|3:0|2:0,2:0:0:0:
420,384,24817,5,2,2:1:0:0:
490,288,24969,1,0,3:0:0:0:
490,288,25045,1,0,3:0:0:0:
490,288,25122,2,0,L|449:200,1,70,2|0,3:1|2:0,2:0:0:0:
376,44,25426,2,0,B|423:69|423:69|478:45,2,105,10|0|0,2:0|3:0|3:0,2:0:0:0:
343,194,26035,5,12,2:0:0:0:
262,88,26188,1,0,3:0:0:0:
254,72,26264,1,8,2:3:0:0:
252,54,26340,1,8,2:3:0:0:
254,37,26416,1,4,2:3:0:0:
262,21,26492,1,0,3:0:0:0:
349,204,26644,5,10,2:0:0:0:
173,173,26797,1,0,3:0:0:0:
334,303,26949,2,0,L|330:340,1,31.5,12|0,2:0|2:0,2:0:0:0:
250,384,27254,6,0,B|258:334|258:334|131:357|131:357|139:326,1,210,4|0,3:2|3:0,2:0:0:0:
152,286,27787,1,0,3:0:0:0:
152,286,27863,1,2,3:1:0:0:
44,302,28015,2,0,L|10:307,2,35,0|0|2,2:0|3:0|2:1,2:0:0:0:
41,182,28320,2,0,P|87:173|119:111,1,105,0|0,3:0|2:0,2:0:0:0:
123,82,28624,1,0,3:0:0:0:
0,24,28776,1,2,3:1:0:0:
119,98,29081,6,0,L|197:159,1,70,12|0,2:0|3:0,2:0:0:0:
294,144,29309,2,0,L|238:100,1,70,8|0,2:0|3:0,2:0:0:0:
218,0,29538,1,8,2:0:0:0:
209,238,29690,5,4,3:2:0:0:
388,98,29893,1,4,3:2:0:0:
180,3,30096,1,4,3:2:0:0:
237,264,30299,5,4,3:2:0:0:
402,59,30502,1,4,3:2:0:0:
143,6,30705,1,8,2:0:0:0:
274,287,30908,6,0,B|267:211|267:211|296:149,1,136.5,4|0,3:2|2:0,2:0:0:0:
319,117,31213,1,8,2:0:0:0:
317,366,31365,2,0,B|241:388|208:318|127:346,1,182,4|0,3:1|3:0,2:0:0:0:
116,348,31746,1,0,3:0:0:0:
116,348,31822,1,8,2:0:0:0:
170,180,32127,6,0,B|125:142|125:142|109:193|50:218|-6:195,1,210,4|8,3:2|2:0,2:0:0:0:
192,255,32583,1,0,3:0:0:0:
36,113,32736,1,2,2:1:0:0:
106,42,32888,1,8,2:3:0:0:
114,35,32964,1,4,2:3:0:0:
122,28,33040,1,8,2:0:0:0:
1,14,33193,1,0,3:0:0:0:
225,126,33345,6,0,B|281:135|328:117|328:117|332:58|286:15,1,210,2|8,3:1|2:0,2:0:0:0:
305,203,33802,1,0,3:0:0:0:
460,106,33954,1,2,2:1:0:0:
392,28,34106,1,8,2:3:0:0:
384,21,34182,1,4,2:3:0:0:
375,14,34259,1,8,2:0:0:0:
378,158,34411,1,0,3:0:0:0:
500,271,34563,6,0,B|520:323|504:380|504:380|452:345|375:362,1,210,2|8,3:1|2:0,2:0:0:0:
272,384,35020,2,0,L|292:278,1,105,0|2,3:0|2:1,2:0:0:0:
211,202,35325,1,8,2:3:0:0:
203,194,35401,1,4,2:3:0:0:
196,186,35477,1,8,2:0:0:0:
343,217,35629,1,0,3:0:0:0:
197,297,35781,5,8,2:3:0:0:
190,308,35858,1,4,2:3:0:0:
184,320,35934,1,0,3:0:0:0:
181,332,36010,1,0,3:0:0:0:
181,345,36086,1,8,2:0:0:0:
29,203,36238,2,0,B|19:169|19:169|47:147|47:147|23:94|49:48,1,168,4|8,3:1|2:3,2:0:0:0:
65,24,36619,1,4,2:3:0:0:
65,24,36695,2,0,P|94:57|103:108,1,84,8|0,2:0|3:0,2:0:0:0:
359,5,37000,6,0,L|255:-2,1,84,4|0,3:2|2:0,2:0:0:0:
427,85,37304,1,8,2:0:0:0:
427,85,37457,1,0,3:0:0:0:
487,175,37609,6,0,L|390:181,1,84,2|8,2:1|2:3,2:0:0:0:
370,181,37837,1,4,2:3:0:0:
370,181,37913,1,8,2:0:0:0:
502,279,38066,1,0,3:0:0:0:
330,359,38218,6,0,L|345:254,1,84,2|0,3:1|2:0,2:0:0:0:
223,372,38523,1,8,2:0:0:0:
223,372,38675,1,0,3:0:0:0:
121,384,38827,6,0,L|136:279,1,84,2|8,2:1|2:3,2:0:0:0:
138,264,39056,1,4,2:3:0:0:
138,264,39132,1,8,2:0:0:0:
0,375,39284,1,0,3:0:0:0:
6,143,39436,5,4,3:1:0:0:
216,192,39589,1,8,2:0:0:0:
240,198,39665,1,8,2:0:0:0:
265,204,39741,1,8,2:0:0:0:
53,242,39893,2,0,L|34:131,1,84,2|0,3:0|2:0,2:0:0:0:
321,308,40198,2,0,L|340:197,1,84,2|0,3:0|2:0,2:0:0:0:
429,354,40502,5,12,2:0:0:0:
358,131,40655,1,0,3:0:0:0:
361,122,40731,1,0,3:0:0:0:
364,113,40807,2,0,L|296:99,1,42,0|0,3:0|2:0,2:0:0:0:
171,80,40959,2,0,P|157:37|163:0,1,84,12|0,2:0|2:0,2:0:0:0:
170,188,41264,5,8,2:0:0:0:
172,205,41340,1,8,2:0:0:0:
174,223,41416,1,8,2:3:0:0:
176,242,41492,1,8,2:3:0:0:
132,252,41568,1,4,2:3:0:0:
132,262,41644,1,4,2:3:0:0:
131,272,41721,1,0,3:0:0:0:
130,283,41797,1,0,3:0:0:0:
163,332,41873,5,8,2:0:0:0:
257,384,42177,6,0,P|243:315|344:228,1,210,4|0,3:2|2:0,2:0:0:0:
512,276,42482,2,0,B|467:258|419:287|419:287|414:305|414:305|371:335|324:321,1,210,4|0,3:1|2:0,2:0:0:0:
384,145,42787,2,0,P|469:124|419:190,1,210,4|0,3:1|2:0,2:0:0:0:
325,214,43091,5,4,3:2:0:0:
304,30,43243,1,2,2:3:0:0:
312,213,43396,1,8,2:0:0:0:
290,29,43548,1,2,2:3:0:0:
197,225,43700,6,0,L|212:338,1,91,0|2,3:0|2:3,2:0:0:0:
137,56,44005,2,0,L|122:169,1,91,8|2,2:0|2:3,2:0:0:0:
277,123,44309,5,0,3:0:0:0:
41,145,44462,1,2,2:3:0:0:
274,134,44614,1,8,2:0:0:0:
38,156,44766,1,2,2:3:0:0:
310,215,44919,6,0,L|410:201,1,91,0|2,3:0|2:3,2:0:0:0:
383,384,45223,1,8,2:0:0:0:
469,267,45375,1,2,2:3:0:0:
257,335,45528,6,0,L|157:321,1,91,0|2,3:0|2:3,2:0:0:0:
117,219,45832,1,8,2:0:0:0:
0,284,45984,1,2,2:3:0:0:
243,241,46137,5,0,3:0:0:0:
79,333,46289,1,2,2:3:0:0:
81,341,46365,1,2,2:0:0:0:
83,349,46441,1,8,2:0:0:0:
127,221,46594,1,2,2:3:0:0:
47,111,46746,6,0,P|24:68|31:20,1,91,0|2,3:0|2:3,2:0:0:0:
206,4,47050,1,8,2:0:0:0:
223,34,47127,1,8,2:0:0:0:
230,67,47203,1,8,2:0:0:0:
227,101,47279,1,8,2:0:0:0:
213,132,47355,6,0,B|246:150|246:150|355:138,1,136.5,4|0,3:1|2:0,2:0:0:0:
353,243,47660,2,0,B|381:218|381:218|490:205,1,136.5,4|0,3:1|2:0,2:0:0:0:
509,117,47964,5,4,3:2:0:0:
481,306,48116,1,8,2:0:0:0:
477,328,48193,1,8,2:0:0:0:
473,350,48269,1,8,2:0:0:0:
355,226,48421,2,0,B|365:170|365:170|409:142|409:142|423:64,1,168,4|0,3:1|2:0,2:0:0:0:
427,46,48726,5,0,3:0:0:0:
465,233,48878,1,10,2:0:0:0:
305,58,49030,1,0,3:0:0:0:
265,260,49182,6,0,L|247:361,1,84,12|0,2:0|3:0,2:0:0:0:
245,374,49411,1,0,3:0:0:0:
242,383,49487,1,8,2:0:0:0:
86,248,49639,2,0,P|21:264|72:315,1,157.5,4|0,3:2|2:0,2:0:0:0:
135,309,49944,6,0,L|177:323,1,26.2500000000001,8|8,2:0|2:0,2:0:0:0:
165,235,50096,2,0,L|197:223,1,26.2500000000001,8|8,2:3|2:3,2:0:0:0:
120,170,50248,2,0,L|137:128,1,26.2500000000001,4|4,2:3|2:3,2:0:0:0:
176,38,50401,5,4,3:2:0:0:
182,25,50553,1,2,3:0:0:0:
51,62,50705,2,0,P|31:92|22:162,1,84,8|2,2:0|2:3,2:0:0:0:
262,104,51010,2,0,P|282:74|290:3,1,84,0|2,3:0|3:0,2:0:0:0:
282,214,51314,1,8,2:0:0:0:
276,227,51467,1,2,2:3:0:0:
388,17,51619,5,4,3:1:0:0:
432,147,51771,1,8,2:0:0:0:
435,154,51847,1,8,2:0:0:0:
438,161,51924,1,8,2:0:0:0:
359,281,52076,6,0,L|302:268,1,35,2|0,3:0|2:0,2:0:0:0:
141,272,52380,6,0,L|117:196,1,42,2|0,3:0|2:0,2:0:0:0:
65,85,52685,6,0,L|118:26,1,49,2|0,3:0|2:0,2:0:0:0:
271,6,52990,5,8,2:3:0:0:
271,6,53066,1,8,2:3:0:0:
271,6,53142,2,0,B|279:50|279:50|245:73,1,84.0000000000001,4|0,2:3|2:0,2:0:0:0:
226,194,53903,6,0,B|276:159|276:159|428:161,1,196,4|2,3:2|3:0,2:0:0:0:
512,384,54360,1,8,2:0:0:0:
434,239,54512,1,2,2:3:0:0:
241,384,54665,1,0,3:0:0:0:
307,246,54817,1,2,3:0:0:0:
380,369,54969,1,8,2:0:0:0:
96,267,55122,6,0,L|-22:291,1,98,4|0,3:2|2:0,2:0:0:0:
257,198,55426,2,0,L|375:222,1,98,2|8,3:0|2:0,2:0:0:0:
96,169,55731,2,0,L|-22:193,1,98,2|0,3:0|2:0,2:0:0:0:
257,100,56035,2,0,L|375:124,1,98,2|8,3:0|2:0,2:0:0:0:
191,299,56340,6,0,B|176:243|176:243|182:142|182:142|162:74,1,196,4|2,3:2|3:0,2:0:0:0:
8,5,56797,1,8,2:0:0:0:
96,169,56949,1,2,2:3:0:0:
2,16,57101,1,0,3:0:0:0:
90,180,57254,1,2,3:0:0:0:
0,113,57406,1,8,2:0:0:0:
245,28,57558,6,0,B|331:17|331:17|339:11|339:11|398:36|470:17,1,196,4|0,3:2|3:0,2:0:0:0:
512,166,58015,1,10,2:0:0:0:
397,221,58167,5,8,2:0:0:0:
389,244,58243,1,8,2:0:0:0:
385,268,58320,1,8,2:3:0:0:
386,292,58396,1,8,2:3:0:0:
392,316,58472,1,4,2:3:0:0:
401,339,58548,1,0,3:0:0:0:
415,359,58624,2,0,L|518:373,1,98,12|0,2:0|2:0,2:0:0:0:
183,284,58929,6,0,B|127:256|56:263|24:305|24:305|58:335,1,196,4|8,3:2|2:0,2:0:0:0:
142,384,59386,1,0,2:0:0:0:
104,175,59538,1,2,3:1:0:0:
104,175,59690,1,2,3:1:0:0:
35,296,59842,1,8,2:0:0:0:
211,155,59995,6,0,P|156:80|42:84,1,196,4|0,3:2|3:0,2:0:0:0:
200,243,60452,2,0,P|256:233|300:170,1,98,8|0,2:0|2:0,2:0:0:0:
317,63,60756,1,2,3:1:0:0:
361,240,60908,1,0,3:0:0:0:
399,71,61061,2,0,P|436:40|484:34,1,98,8|0,2:0|3:0,2:0:0:0:
286,182,61365,5,12,2:0:0:0:
486,212,61517,1,0,3:0:0:0:
495,213,61594,1,0,3:0:0:0:
504,214,61670,1,8,2:0:0:0:
413,371,61822,1,4,3:2:0:0:
389,199,61974,5,8,2:0:0:0:
228,372,62127,1,4,3:2:0:0:
511,369,62279,1,8,2:0:0:0:
229,265,62431,2,0,L|114:287,1,98,4|0,3:2|2:0,2:0:0:0:
26,354,62736,5,8,2:3:0:0:
22,370,62812,1,8,2:3:0:0:
30,383,62888,1,4,2:3:0:0:
47,383,62964,1,4,2:3:0:0:
56,370,63040,1,0,3:0:0:0:
53,354,63116,1,0,3:0:0:0:
39,348,63193,5,8,2:0:0:0:
39,160,63345,1,8,2:0:0:0:
31,169,63649,6,0,B|62:198|62:198|125:203|173:142|156:63,1,196,4|0,3:2|3:0,2:0:0:0:
33,66,64106,1,8,2:0:0:0:
180,153,64259,1,0,2:0:0:0:
336,0,64411,1,2,3:1:0:0:
204,62,64563,1,2,3:1:0:0:
277,132,64715,1,8,2:0:0:0:
484,95,64868,6,0,L|506:-7,1,98,4|0,3:2|2:0,2:0:0:0:
511,206,65172,1,0,3:0:0:0:
326,232,65325,2,0,L|304:130,1,98,10|0,2:0|2:0,2:0:0:0:
433,229,65629,1,2,3:1:0:0:
441,257,65705,1,0,3:0:0:0:
449,282,65781,2,0,L|428:377,1,98,2|8,3:1|2:0,2:0:0:0:
210,238,66086,6,0,B|168:190|81:197|55:252|55:252|97:269,1,196,4|0,3:2|3:0,2:0:0:0:
280,315,66543,1,10,2:0:0:0:
287,157,66695,1,0,2:0:0:0:
136,319,66847,1,2,3:1:0:0:
128,331,67000,1,2,3:1:0:0:
294,325,67152,1,8,2:0:0:0:
97,151,67304,6,0,B|70:117|19:85|19:85|78:79|140:54,1,196,4|0,3:2|3:0,2:0:0:0:
226,2,67761,1,10,2:0:0:0:
337,106,67913,1,8,2:3:0:0:
327,118,67990,1,8,2:3:0:0:
319,133,68066,1,4,2:3:0:0:
314,148,68142,1,4,2:3:0:0:
312,165,68218,1,0,3:0:0:0:
312,181,68294,1,0,3:0:0:0:
315,197,68370,1,12,2:0:0:0:
505,186,68675,6,0,B|516:134|486:92|486:92|455:47|482:-12,1,196,4|0,3:2|2:0,2:0:0:0:
420,156,69132,1,0,3:0:0:0:
415,164,69208,1,0,3:0:0:0:
411,172,69284,5,8,2:0:0:0:
253,118,69487,1,8,2:3:0:0:
381,2,69690,1,4,2:3:0:0:
300,239,69893,5,4,3:1:0:0:
486,289,70045,1,8,2:0:0:0:
499,290,70122,1,8,2:0:0:0:
512,291,70198,1,8,2:0:0:0:
311,336,70350,2,0,B|257:345|212:300|204:256|204:256|196:286|152:325,1,196,4|8,3:2|2:0,2:0:0:0:
161,315,70731,1,8,2:0:0:0:
139,326,70807,1,8,2:0:0:0:
114,329,70883,1,8,2:0:0:0:
89,325,70959,1,8,2:0:0:0:
68,312,71035,1,8,2:0:0:0:
52,292,71111,6,0,P|35:347|11:381,1,98,4|10,3:2|2:0,2:0:0:0:
10,191,71416,1,0,3:0:0:0:
10,181,71492,1,0,3:0:0:0:
10,171,71568,1,10,2:0:0:0:
202,247,71721,2,0,L|305:238,1,98,0|10,3:0|2:0,2:0:0:0:
149,122,72025,1,0,3:0:0:0:
149,112,72101,1,0,3:0:0:0:
149,102,72177,1,10,2:0:0:0:
300,48,72330,6,0,B|392:57|392:57|396:94|427:129|479:131,1,196,4|0,3:1|3:0,2:0:0:0:
497,125,72710,1,0,3:0:0:0:
505,120,72787,2,0,L|491:45,1,49,8|4,2:0|2:3,2:0:0:0:
329,181,72939,2,0,L|343:106,1,49,8|8,2:3|2:3,2:0:0:0:
488,277,73091,2,0,L|474:202,1,49,4|0,2:3|3:0,2:0:0:0:
381,373,73243,5,12,2:0:0:0:
367,384,73548,5,12,2:0:0:0:
128,346,73700,2,0,L|154:247,1,98,8|0,2:0|3:0,2:0:0:0:
19,384,74005,5,8,2:3:0:0:
258,346,74157,2,0,L|232:247,1,98,8|0,2:0|3:0,2:0:0:0:
197,43,74462,5,8,2:0:0:0:
60,200,74614,2,0,P|32:154|24:92,1,98,8|0,2:0|3:0,2:0:0:0:
180,42,74919,5,8,2:3:0:0:
317,200,75071,2,0,P|345:154|353:92,1,98,4|0,2:3|3:0,2:0:0:0:
184,226,75375,5,8,2:3:0:0:
185,250,75452,1,8,2:3:0:0:
192,273,75528,1,4,2:3:0:0:
206,293,75604,1,0,3:0:0:0:
222,312,75680,2,0,L|340:299,1,98,12|0,2:0|2:0,2:0:0:0:
494,217,75984,6,0,L|446:168,1,49,12|0,3:2|2:0,2:0:0:0:
312,73,76137,2,0,L|360:24,1,49,12|0,3:2|3:0,2:0:0:0:
490,0,76289,5,0,3:0:0:0:
493,8,76365,1,0,3:0:0:0:
496,16,76441,2,0,L|448:65,1,49,12|0,3:2|2:0,2:0:0:0:
311,178,76594,2,0,L|359:227,1,49,12|0,3:2|3:0,2:0:0:0:
479,329,76746,5,0,3:0:0:0:
487,335,76822,1,0,3:0:0:0:
495,341,76898,2,0,L|493:277,1,49,8|0,2:3|2:0,2:0:0:0:
493,110,77050,1,4,2:3:0:0:
436,173,78040,2,0,P|429:198|428:218,1,28,0|0,2:0|2:0,2:0:0:0:
274,19,78421,6,0,P|268:89|279:158,1,136.5,4|0,3:2|2:0,2:0:0:0:
297,186,78726,2,0,P|325:137|331:89,1,91,8|2,2:0|2:3,2:0:0:0:
164,201,79030,1,0,3:0:0:0:
164,201,79182,2,0,L|155:292,1,91,2|8,2:3|2:0,2:0:0:0:
75,90,79487,2,0,L|66:-1,1,91,2|0,2:3|3:0,2:0:0:0:
0,243,79792,5,2,2:3:0:0:
177,184,79944,1,8,2:0:0:0:
0,231,80096,1,2,2:3:0:0:
84,168,80248,1,0,3:0:0:0:
224,363,80401,6,0,P|282:379|351:361,1,91,12|0,2:0|3:0,2:0:0:0:
382,223,80705,2,0,B|336:212|324:168|324:168|326:229|276:292,1,210,12|2,2:0|2:3,2:0:0:0:
493,132,81162,6,0,L|378:149,1,91,8|2,2:0|2:3,2:0:0:0:
249,63,81467,2,0,L|364:80,1,91,0|2,3:0|2:3,2:0:0:0:
506,2,81771,2,0,L|391:19,1,91,8|2,2:0|2:3,2:0:0:0:
283,219,82076,5,0,3:0:0:0:
171,106,82228,2,0,P|157:52|177:0,1,91,2|8,2:3|2:0,2:0:0:0:
207,247,82533,5,2,2:3:0:0:
54,309,82685,1,0,3:0:0:0:
78,140,82837,1,2,2:3:0:0:
133,278,82990,1,8,2:0:0:0:
0,174,83142,1,2,2:3:0:0:
158,109,83294,1,0,3:0:0:0:
171,106,83599,6,0,P|213:179|209:299,1,182,12|0,2:0|3:0,2:0:0:0:
94,366,84056,2,0,L|-15:354,1,91,2|8,2:3|2:0,2:0:0:0:
223,264,84360,2,0,L|332:252,1,91,2|0,2:3|3:0,2:0:0:0:
498,317,84665,5,2,2:3:0:0:
285,369,84817,1,8,2:0:0:0:
484,302,84969,1,2,2:3:0:0:
397,384,85122,1,0,3:0:0:0:
497,104,85274,6,0,P|432:115|394:153,1,91,12|0,2:0|3:0,2:0:0:0:
256,15,85578,2,0,B|316:-2|361:21|361:21|357:82|313:128,1,210,12|2,2:0|2:3,2:0:0:0:
194,234,86035,6,0,B|148:229|148:229|105:251,1,91,8|2,2:0|2:3,2:0:0:0:
171,358,86340,1,0,3:0:0:0:
37,272,86492,1,2,2:3:0:0:
31,286,86644,1,8,2:0:0:0:
174,63,86797,6,0,B|213:33|213:33|203:158,1,157.5,12|0,2:0|2:0,2:0:0:0:
194,214,87101,1,10,2:0:0:0:
405,140,87254,1,10,2:0:0:0:
324,65,87406,1,0,3:0:0:0:
315,58,87482,1,0,3:0:0:0:
306,52,87558,6,0,L|383:46,1,52.5,8|8,2:3|2:3,2:0:0:0:
512,78,87710,2,0,L|438:86,1,52.5,0|0,3:0|3:0,2:0:0:0:
292,143,87863,1,8,2:0:0:0:
466,307,88015,2,0,L|512:351,1,63.0000000000001,4|0,3:2|2:0,2:0:0:0:
263,335,89995,5,8,2:3:0:0:
266,324,90071,1,8,2:3:0:0:
268,314,90147,1,4,2:3:0:0:
270,304,90223,1,0,3:0:0:0:
249,250,90299,6,0,L|244:239,1,10.5,12|0,2:0|2:0,2:0:0:0:
321,209,90604,6,0,B|305:172|305:172|289:137|291:93|313:57,1,140,4|2,3:2|2:1,2:0:0:0:
402,11,91061,1,0,3:0:0:0:
402,11,91137,1,0,3:0:0:0:
402,11,91213,2,0,B|427:60|427:60|410:114,1,105,10|0,2:3|3:0,2:0:0:0:
445,234,91670,2,0,P|407:193|436:102,1,140,0|0,3:0|3:0,2:0:0:0:
450,90,92050,1,0,3:0:0:0:
450,90,92127,1,2,3:1:0:0:
495,340,92431,6,0,L|404:333,1,70,12|0,2:0|3:0,2:0:0:0:
365,384,92660,2,0,L|274:377,1,70,8|0,2:0|3:0,2:0:0:0:
237,323,92888,1,8,2:0:0:0:
134,245,93040,5,2,2:1:0:0:
26,372,93193,1,0,3:0:0:0:
32,370,93269,1,0,3:0:0:0:
38,368,93345,1,2,3:1:0:0:
154,336,93649,5,10,2:0:0:0:
39,211,93878,1,0,3:0:0:0:
199,171,94106,1,0,3:0:0:0:
55,13,94259,5,12,2:0:0:0:
192,87,94411,2,0,L|262:67,1,70,0|4,3:0|2:3,2:0:0:0:
294,56,94639,1,0,3:0:0:0:
294,56,94715,1,0,3:0:0:0:
88,98,94868,5,10,2:0:0:0:
245,0,95020,1,0,3:0:0:0:
101,118,95172,2,0,L|117:154,1,31.5,12|0,2:0|2:0,2:0:0:0:
166,263,95477,6,0,P|212:233|291:248,1,140,4|2,3:2|2:1,2:0:0:0:
236,321,95934,1,0,3:0:0:0:
348,178,96086,2,0,L|332:93,1,70,2|0,3:1|2:0,2:0:0:0:
325,65,96314,1,0,3:0:0:0:
325,65,96391,1,2,2:1:0:0:
461,6,96543,2,0,L|445:91,1,70,0|2,3:0|2:1,2:0:0:0:
343,192,96847,1,0,3:0:0:0:
338,197,96924,1,0,3:0:0:0:
333,202,97000,1,2,3:1:0:0:
143,192,97304,6,0,L|79:127,1,70,12|0,2:0|3:0,2:0:0:0:
116,58,97533,2,0,L|165:107,1,70,8|0,2:0|2:0,2:0:0:0:
241,117,97761,1,8,2:0:0:0:
346,317,97913,5,4,3:2:0:0:
148,265,98116,1,4,3:2:0:0:
285,124,98320,1,4,3:2:0:0:
313,363,98523,5,4,3:2:0:0:
123,222,98726,1,4,3:2:0:0:
331,131,98929,1,8,2:0:0:0:
27,301,99132,6,0,P|-1:239|11:157,1,136.5,4|0,3:2|2:0,2:0:0:0:
22,133,99436,1,8,2:0:0:0:
132,365,99589,2,0,B|181:381|219:346|219:346|254:312|302:321,1,182,4|0,3:1|3:0,2:0:0:0:
322,330,99969,1,0,3:0:0:0:
322,330,100045,1,8,2:0:0:0:
512,74,100350,6,0,B|439:79|439:79|404:121|404:121|311:127,1,210,4|8,3:2|2:0,2:0:0:0:
294,203,100807,1,0,3:0:0:0:
483,155,100959,1,2,2:1:0:0:
365,43,101111,1,8,2:3:0:0:
373,36,101188,1,4,2:3:0:0:
381,29,101264,1,8,2:0:0:0:
484,0,101416,1,0,3:0:0:0:
230,25,101568,6,0,B|125:26|140:103|30:78,1,210,2|8,3:1|2:0,2:0:0:0:
71,0,102025,1,0,3:0:0:0:
218,133,102177,1,2,2:1:0:0:
102,194,102330,1,8,2:3:0:0:
110,187,102406,1,4,2:3:0:0:
119,180,102482,1,8,2:0:0:0:
200,109,102634,1,0,3:0:0:0:
333,244,102787,6,0,B|376:312|369:384|369:384|332:375|288:343,1,210,2|8,3:1|2:0,2:0:0:0:
300,176,103243,1,0,3:0:0:0:
227,352,103396,1,2,2:1:0:0:
442,311,103548,1,8,2:3:0:0:
452,308,103624,1,4,2:3:0:0:
462,307,103700,2,0,P|445:250|451:189,1,105,8|0,2:0|3:0,2:0:0:0:
490,40,104005,5,8,2:3:0:0:
489,64,104081,1,4,2:3:0:0:
491,88,104157,1,0,3:0:0:0:
500,111,104233,1,0,3:0:0:0:
512,132,104309,1,8,2:0:0:0:
305,11,104462,2,0,B|245:2|169:38|169:38|162:59|174:82,1,168,4|8,3:1|2:3,2:0:0:0:
179,97,104842,1,4,2:3:0:0:
179,97,104919,1,8,2:0:0:0:
267,44,105071,1,0,3:0:0:0:
0,105,105223,6,0,L|104:112,1,84,4|0,3:2|2:0,2:0:0:0:
24,24,105528,1,8,2:0:0:0:
24,24,105680,1,0,3:0:0:0:
0,210,105832,6,0,L|97:204,1,84,2|8,2:1|2:3,2:0:0:0:
115,205,106061,1,4,2:3:0:0:
115,205,106137,1,8,2:0:0:0:
5,122,106289,1,0,3:0:0:0:
150,376,106441,6,0,L|135:271,1,84,2|0,3:1|2:0,2:0:0:0:
54,379,106746,1,8,2:0:0:0:
54,379,106898,1,0,3:0:0:0:
259,364,107050,6,0,L|244:259,1,84,2|8,2:1|2:3,2:0:0:0:
242,253,107279,1,4,2:3:0:0:
242,253,107355,1,8,2:0:0:0:
161,376,107507,1,0,3:0:0:0:
418,297,107660,5,4,3:1:0:0:
240,178,107812,1,8,2:0:0:0:
215,181,107888,1,8,2:0:0:0:
190,185,107964,1,8,2:0:0:0:
404,212,108116,2,0,L|390:112,1,84,2|0,3:0|2:0,2:0:0:0:
60,215,108421,2,0,L|74:115,1,84,2|0,3:0|2:0,2:0:0:0:
143,291,108726,5,12,2:0:0:0:
161,74,108878,1,0,3:0:0:0:
160,82,108954,1,0,3:0:0:0:
159,90,109030,2,0,L|226:88,1,42,0|0,3:0|2:0,2:0:0:0:
339,79,109182,2,0,P|328:31|304:-10,1,84,12|0,2:0|2:0,2:0:0:0:
463,19,109487,5,8,2:0:0:0:
477,26,109563,1,8,2:0:0:0:
488,37,109639,1,8,2:0:0:0:
494,50,109715,1,8,2:3:0:0:
455,91,109792,1,4,2:3:0:0:
452,101,109868,1,4,2:3:0:0:
452,111,109944,1,0,3:0:0:0:
454,121,110020,1,0,3:0:0:0:
482,175,110096,5,8,2:0:0:0:
279,369,110401,6,0,B|308:305|308:305|382:306|382:306|412:373,1,210,4|0,3:2|2:0,2:0:0:0:
512,307,110705,2,0,B|489:365|489:365|425:217,1,210,4|0,3:1|2:0,2:0:0:0:
285,148,111010,2,0,P|308:229|358:161,1,210,4|0,3:1|2:0,2:0:0:0:
292,60,111314,5,4,3:2:0:0:
92,88,111467,1,2,2:3:0:0:
285,69,111619,1,8,2:0:0:0:
85,97,111771,1,2,2:3:0:0:
300,152,111924,6,0,L|409:170,1,91,0|2,3:0|2:3,2:0:0:0:
142,242,112228,2,0,L|251:224,1,91,8|2,2:0|2:3,2:0:0:0:
0,161,112533,5,0,3:0:0:0:
43,368,112685,1,2,2:3:0:0:
9,161,112837,1,8,2:0:0:0:
52,368,112990,1,2,2:3:0:0:
111,176,113142,6,0,L|97:76,1,91,0|2,3:0|2:3,2:0:0:0:
20,160,113446,1,8,2:0:0:0:
142,11,113599,1,2,2:3:0:0:
219,172,113751,6,0,L|205:272,1,91,0|2,3:0|2:3,2:0:0:0:
268,384,114056,1,8,2:0:0:0:
364,289,114208,1,2,2:3:0:0:
161,340,114360,5,0,3:0:0:0:
357,261,114512,1,2,2:3:0:0:
359,269,114589,1,2,2:0:0:0:
361,277,114665,1,8,2:0:0:0:
267,371,114817,1,2,2:3:0:0:
244,188,114969,6,0,P|255:140|275:103,1,91,0|2,3:0|2:3,2:0:0:0:
397,0,115274,1,8,2:0:0:0:
433,8,115350,1,8,2:0:0:0:
467,32,115426,1,8,2:0:0:0:
488,67,115502,1,8,2:0:0:0:
494,105,115578,6,0,B|459:159|459:159|481:259,1,136.5,4|0,3:1|2:0,2:0:0:0:
386,269,115883,2,0,B|440:303|440:303|462:403,1,136.5,4|0,3:1|2:0,2:0:0:0:
352,368,116188,5,4,3:2:0:0:
365,182,116340,1,8,2:0:0:0:
367,159,116416,1,8,2:0:0:0:
369,137,116492,1,8,2:0:0:0:
289,310,116644,2,0,B|238:337|238:337|171:332|171:332|105:371,1,168,4|0,3:1|2:0,2:0:0:0:
89,384,116949,5,0,3:0:0:0:
223,256,117101,1,10,2:0:0:0:
6,296,117254,1,0,3:0:0:0:
169,171,117406,6,0,P|223:157|273:164,1,84,12|0,2:0|3:0,2:0:0:0:
279,166,117634,1,0,3:0:0:0:
279,166,117710,1,8,2:0:0:0:
97,29,117863,2,0,B|57:0|57:0|31:119,1,157.5,4|0,3:2|2:0,2:0:0:0:
22,177,118167,6,0,L|-7:173,1,26.2500000000001,8|8,2:0|2:0,2:0:0:0:
87,216,118320,2,0,L|63:233,1,26.2500000000001,8|8,2:0|2:3,2:0:0:0:
160,179,118472,2,0,L|156:210,1,26.2500000000001,4|4,2:3|2:3,2:0:0:0:
137,322,118624,5,4,3:2:0:0:
134,342,118776,1,2,3:0:0:0:
240,257,118929,2,0,P|256:205|246:161,1,84,8|2,2:0|2:3,2:0:0:0:
395,236,119233,1,8,2:0:0:0:
415,239,119309,1,8,2:0:0:0:
436,243,119386,1,8,2:3:0:0:
354,127,119538,2,0,L|359:84,3,42,8|8|4|4,2:3|2:3|2:3|2:3,2:0:0:0:
374,4,119842,5,4,3:1:0:0:
215,66,119995,1,8,2:0:0:0:
194,63,120071,1,8,2:0:0:0:
173,60,120147,1,8,2:0:0:0:
109,187,120299,6,0,L|88:227,1,35,2|0,3:0|2:0,2:0:0:0:
269,235,120604,6,0,L|271:313,1,42,2|0,3:0|2:0,2:0:0:0:
450,61,120908,6,0,L|488:121,1,49,2|0,3:0|2:0,2:0:0:0:
506,260,121213,5,8,2:3:0:0:
509,269,121289,1,4,2:3:0:0:
512,278,121365,5,8,2:3:0:0:
500,299,121441,1,8,2:3:0:0:
478,310,121517,1,4,2:3:0:0:
453,310,121594,1,4,2:3:0:0:
430,301,121670,5,10,2:0:0:0:
383,274,121746,1,8,2:0:0:0:
329,274,121822,1,8,2:3:0:0:
283,302,121898,1,8,2:3:0:0:
261,351,121974,2,0,P|291:361|317:359,1,49,4|4,2:3|2:3,2:0:0:0:
398,177,122127,6,0,B|356:179|356:179|278:168|278:168|198:179,1,196,4|0,3:2|3:0,2:0:0:0:
112,370,122583,1,8,2:0:0:0:
223,255,122736,1,0,2:0:0:0:
28,161,122888,1,2,3:0:0:0:
31,326,123040,1,2,3:0:0:0:
239,253,123193,1,8,2:0:0:0:
111,50,123345,6,0,B|56:32|56:32|-9:33,1,98,4|0,3:2|2:0,2:0:0:0:
266,22,123649,2,0,B|322:33|322:33|378:67,1,98,2|8,3:0|2:0,2:0:0:0:
95,138,123954,2,0,B|40:120|40:120|-25:121,1,98,2|0,3:0|2:0,2:0:0:0:
250,110,124259,2,0,B|306:121|306:121|362:155,1,98,2|8,3:0|2:0,2:0:0:0:
178,0,124563,6,0,B|185:61|185:61|171:126|171:126|189:210,1,196,4|2,3:2|3:0,2:0:0:0:
448,249,125020,1,8,2:0:0:0:
233,272,125172,1,2,2:3:0:0:
458,257,125325,1,0,3:0:0:0:
231,285,125477,1,2,3:0:0:0:
360,351,125629,1,8,2:0:0:0:
495,131,125781,6,0,B|512:94|512:94|497:40|433:17|381:45,1,196,4|0,3:2|3:0,2:0:0:0:
224,183,126238,2,0,L|359:200,1,98,10|0,2:0|2:0,2:0:0:0:
304,56,126543,1,0,3:0:0:0:
306,46,126619,1,0,3:0:0:0:
308,36,126695,1,0,3:0:0:0:
108,60,126847,2,0,L|-27:43,1,98,12|0,2:0|2:0,2:0:0:0:
174,290,127152,6,0,P|185:340|167:402,1,98,4|0,3:2|2:0,2:0:0:0:
12,260,127457,2,0,P|0:209|18:147,1,98,8|0,2:0|2:0,2:0:0:0:
261,194,127761,1,2,3:1:0:0:
92,209,127913,1,2,3:1:0:0:
289,317,128066,1,8,2:0:0:0:
296,66,128218,6,0,B|314:47|328:22|328:22|415:52|428:122,1,196,4|0,3:2|3:0,2:0:0:0:
374,211,128675,1,8,2:0:0:0:
462,0,128827,1,0,2:0:0:0:
355,203,128979,1,2,3:1:0:0:
512,117,129132,1,0,3:0:0:0:
460,286,129284,2,0,L|350:304,1,98,8|0,2:0|3:0,2:0:0:0:
149,154,129589,5,12,2:0:0:0:
209,338,129741,2,0,L|227:396,2,49,0|0|8,3:0|3:0|2:0,2:0:0:0:
142,135,130045,1,4,3:2:0:0:
290,323,130198,5,8,2:0:0:0:
82,238,130350,1,4,3:2:0:0:
332,255,130502,1,8,2:0:0:0:
9,293,130655,2,0,P|-7:244|21:173,1,98,4|0,3:2|2:0,2:0:0:0:
60,75,130959,5,8,2:3:0:0:
81,66,131035,1,8,2:3:0:0:
87,43,131111,1,4,2:3:0:0:
72,24,131188,1,4,2:3:0:0:
48,26,131264,1,0,3:0:0:0:
36,46,131340,1,0,3:0:0:0:
44,68,131416,5,8,2:0:0:0:
156,248,131568,1,8,2:0:0:0:
166,264,131873,6,0,B|280:152|280:152|295:85,1,196,4|0,3:2|3:0,2:0:0:0:
175,39,132330,1,8,2:0:0:0:
329,0,132482,1,0,2:0:0:0:
376,199,132634,1,2,3:1:0:0:
245,97,132787,1,2,3:1:0:0:
346,74,132939,1,8,2:0:0:0:
396,288,133091,6,0,L|417:390,1,98,4|0,3:2|2:0,2:0:0:0:
512,322,133396,1,0,3:0:0:0:
328,184,133548,2,0,L|349:82,1,98,10|0,2:0|2:0,2:0:0:0:
475,191,133853,1,2,3:1:0:0:
477,200,133929,1,0,3:0:0:0:
480,209,134005,1,2,3:1:0:0:
329,343,134157,1,8,2:0:0:0:
182,209,134309,6,0,B|144:182|144:182|30:192|30:192|-3:231,1,196,4|0,3:2|3:0,2:0:0:0:
101,298,134766,1,10,2:0:0:0:
83,93,134919,1,0,2:0:0:0:
0,311,135071,1,2,3:1:0:0:
202,294,135223,1,2,3:1:0:0:
86,126,135375,1,8,2:0:0:0:
133,372,135528,6,0,B|204:385|204:385|294:355|294:355|366:360,1,196,4|0,3:2|3:0,2:0:0:0:
322,202,135984,1,10,2:0:0:0:
416,367,136137,1,0,3:0:0:0:
455,201,136289,5,4,2:3:0:0:
457,189,136365,1,4,2:3:0:0:
460,177,136441,1,0,3:0:0:0:
463,165,136517,1,0,3:0:0:0:
466,153,136594,2,0,L|356:134,1,98,12|0,2:0|2:0,2:0:0:0:
121,76,136898,6,0,B|147:32|147:32|306:19,1,196,4|0,3:2|2:0,2:0:0:0:
261,180,137355,1,0,3:0:0:0:
259,189,137431,1,0,3:0:0:0:
257,198,137507,5,8,2:0:0:0:
105,279,137710,1,8,2:3:0:0:
116,105,137913,1,4,2:3:0:0:
240,317,138116,5,4,3:1:0:0:
56,362,138269,2,0,L|4:373,2,49,8|8|8,2:0|2:0|2:0,2:0:0:0:
306,366,138573,2,0,B|331:331|328:283|292:253|292:253|312:208|344:196,1,196,4|8,3:2|2:0,2:0:0:0:
370,194,138954,1,8,2:0:0:0:
404,191,139030,1,8,2:0:0:0:
437,199,139106,1,8,2:0:0:0:
465,217,139182,1,8,2:0:0:0:
485,244,139259,1,8,2:0:0:0:
493,277,139335,6,0,L|393:293,1,98,4|10,3:2|2:0,2:0:0:0:
245,209,139639,1,0,3:0:0:0:
246,199,139715,1,0,3:0:0:0:
248,189,139792,1,10,2:0:0:0:
512,142,139944,2,0,L|399:119,1,98,0|10,3:0|2:0,2:0:0:0:
301,31,140248,1,0,3:0:0:0:
302,21,140325,1,0,3:0:0:0:
304,11,140401,1,10,2:0:0:0:
169,122,140553,6,0,P|97:132|-5:48,1,196,4|0,3:1|3:0,2:0:0:0:
18,35,140934,1,0,3:0:0:0:
23,30,141010,2,0,P|31:57|30:89,1,49,8|8,2:0|2:3,2:0:0:0:
181,99,141162,2,0,P|173:126|174:158,1,49,4|4,2:3|2:3,2:0:0:0:
37,195,141314,2,0,P|45:222|44:254,1,49,0|0,3:0|3:0,2:0:0:0:
129,346,141467,5,12,2:0:0:0:
136,360,141771,5,12,2:0:0:0:
380,281,141924,2,0,P|328:286|257:263,1,98,8|0,2:0|3:0,2:0:0:0:
421,360,142228,5,8,2:3:0:0:
177,281,142380,2,0,P|236:284|300:263,1,98,0|0,3:0|3:0,2:0:0:0:
385,10,142685,5,8,2:0:0:0:
333,206,142837,1,8,2:0:0:0:
329,215,142990,1,0,3:0:0:0:
171,10,143142,5,8,2:3:0:0:
223,206,143294,1,4,2:3:0:0:
227,215,143446,1,0,3:0:0:0:
277,95,143599,5,8,2:0:0:0:
277,330,143751,1,0,3:0:0:0:
452,147,143903,2,0,B|426:128|426:128|336:128,1,98,12|0,2:0|2:0,2:0:0:0:
55,130,144208,6,0,L|86:172,1,49,12|0,3:2|2:0,2:0:0:0:
254,274,144360,2,0,L|203:257,1,49,12|0,3:2|3:0,2:0:0:0:
19,255,144512,5,0,3:0:0:0:
14,264,144589,1,0,3:0:0:0:
10,272,144665,2,0,L|60:255,1,49,12|0,3:2|2:0,2:0:0:0:
205,130,144817,2,0,L|173:172,1,49,12|0,3:2|3:0,2:0:0:0:
131,343,144969,5,0,3:0:0:0:
131,352,145045,1,0,3:0:0:0:
131,361,145122,2,0,L|131:308,1,49,8|0,2:3|2:0,2:0:0:0:
131,87,145274,2,0,L|131:36,2,28,4|0|0,2:3|3:0|3:0,2:0:0:0:
227,38,145578,6,0,B|256:56|256:56|341:59,1,91,12|8,2:0|2:3,2:0:0:0:
321,53,145807,1,8,2:3:0:0:
329,49,145883,1,4,2:3:0:0:
337,45,145959,1,4,2:3:0:0:
345,41,146035,5,0,3:0:0:0:
373,63,146111,1,8,2:0:0:0:
387,96,146188,1,8,2:0:0:0:
387,132,146264,1,8,2:0:0:0:
374,166,146340,1,8,2:0:0:0:
372,202,146416,1,8,2:0:0:0:
384,236,146492,1,8,2:0:0:0:
408,262,146568,1,8,2:0:0:0:
440,277,146644,6,0,L|431:322,2,38.5,4|0|8,3:2|3:0|2:0,2:0:0:0:
213,345,146949,1,2,3:1:0:0:
352,369,147101,1,8,2:0:0:0:
218,326,147254,1,2,3:1:0:0:
353,355,147406,1,8,2:0:0:0:
307,243,147558,2,0,L|316:200,2,38.5,0|0|8,3:0|3:0|2:0,2:0:0:0:
66,299,147863,5,2,3:1:0:0:
58,299,147939,1,0,3:0:0:0:
50,300,148015,1,8,2:0:0:0:
136,377,148167,1,2,3:1:0:0:
157,240,148320,1,8,2:0:0:0:
149,378,148472,1,2,3:1:0:0:
170,241,148624,1,8,2:0:0:0:
239,320,148776,2,0,L|282:323,2,38.5,0|0|8,3:0|3:0|2:0,2:0:0:0:
249,87,149081,5,2,3:1:0:0:
249,79,149157,1,0,3:0:0:0:
249,71,149233,1,8,2:0:0:0:
138,22,149386,1,2,3:1:0:0:
172,161,149538,1,8,2:0:0:0:
125,26,149690,1,2,3:1:0:0:
159,165,149842,1,8,2:0:0:0:
51,117,149995,2,0,L|6:129,2,38.5,0|0|8,3:0|3:0|2:0,2:0:0:0:
271,203,150299,5,12,2:0:0:0:
329,152,150452,1,0,3:0:0:0:
334,146,150528,1,0,3:0:0:0:
339,140,150604,2,0,L|367:187,1,38.5,0|0,3:0|3:0,2:0:0:0:
470,305,150756,5,12,2:0:0:0:
419,250,150908,1,0,3:0:0:0:
414,244,150984,1,0,3:0:0:0:
409,238,151061,2,0,L|381:285,1,38.5,0|0,3:0|3:0,2:0:0:0:
326,374,151213,6,0,L|424:369,1,77,12|0,2:0|2:0,2:0:0:0:
257,293,151517,5,4,3:2:0:0:
249,294,151594,1,0,3:0:0:0:
241,295,151670,1,8,2:0:0:0:
113,241,151822,1,2,3:1:0:0:
128,383,151974,1,8,2:0:0:0:
100,241,152127,1,2,3:1:0:0:
115,383,152279,1,8,2:0:0:0:
202,299,152431,2,0,L|249:294,2,38.5,0|0|8,3:0|3:0|2:0,2:0:0:0:
264,164,152736,5,2,3:1:0:0:
272,165,152812,1,0,3:0:0:0:
280,166,152888,1,8,2:0:0:0:
408,112,153040,1,2,3:1:0:0:
393,254,153193,1,8,2:0:0:0:
421,112,153345,1,2,3:1:0:0:
406,254,153497,1,8,2:0:0:0:
319,170,153649,2,0,L|272:165,2,38.5,0|0|8,3:0|3:0|2:0,2:0:0:0:
200,52,153954,5,2,3:1:0:0:
192,53,154030,1,0,3:0:0:0:
184,54,154106,1,8,2:0:0:0:
56,0,154259,1,2,3:1:0:0:
71,142,154411,1,8,2:0:0:0:
43,0,154563,1,2,3:1:0:0:
58,142,154715,1,8,2:0:0:0:
145,58,154868,2,0,L|192:53,2,38.5,0|0|8,3:0|3:0|2:0,2:0:0:0:
227,238,155172,5,12,2:0:0:0:
306,222,155325,1,0,3:0:0:0:
313,219,155401,1,0,3:0:0:0:
320,216,155477,2,0,L|289:162,1,38.5,0|0,3:0|3:0,2:0:0:0:
222,46,155629,5,12,2:0:0:0:
301,62,155781,1,0,3:0:0:0:
308,65,155858,1,0,3:0:0:0:
315,68,155934,2,0,L|284:122,1,38.5,0|0,3:0|3:0,2:0:0:0:
218,249,156086,6,0,P|181:276|121:284,1,77,12|0,2:0|2:0,2:0:0:0:
268,344,156391,5,4,3:2:0:0:
256,192,156467,12,0,158523,2:0:0:0:
200,214,158827,5,4,3:2:0:0:
122,308,159132,6,0,L|146:284,1,28,0|0,3:0|2:0,2:0:0:0:
107,299,159436,2,0,L|131:275,1,28,0|0,3:0|2:0,2:0:0:0:
90,284,159741,1,0,3:0:0:0:
125,166,160045,6,0,L|154:161,1,28,0|0,3:0|2:0,2:0:0:0:
120,144,160350,2,0,L|149:139,1,28,0|0,3:0|2:0,2:0:0:0:
116,119,160655,1,0,3:0:0:0:
113,98,160959,1,0,3:0:0:0:
364,49,161264,5,0,3:0:0:0:
466,152,161568,6,0,L|427:147,1,28,0|0,3:0|2:0,2:0:0:0:
462,175,161873,2,0,L|423:170,1,28,0|0,3:0|2:0,2:0:0:0:
459,197,162177,1,0,3:0:0:0:
379,298,162482,6,0,L|343:307,1,28,2|0,3:1|2:0,2:0:0:0:
383,323,162787,2,0,L|347:332,1,28,2|0,3:1|2:0,2:0:0:0:
388,345,163091,1,0,3:0:0:0:
394,368,163396,1,0,3:0:0:0:
224,211,163700,5,4,3:1:0:0:
124,335,164005,6,0,L|142:267,1,63.0000000000001,0|0,3:0|2:0,2:0:0:0:
22,281,164309,2,0,L|44:348,1,63.0000000000001,0|0,3:0|2:0,2:0:0:0:
56,274,164614,1,0,3:0:0:0:
140,336,164919,2,0,L|158:268,1,63.0000000000001,0|0,3:0|2:0,2:0:0:0:
2,282,165223,2,0,L|24:349,1,63.0000000000001,0|0,3:0|2:0,2:0:0:0:
60,267,165528,1,0,3:0:0:0:
66,261,165832,1,0,3:0:0:0:
220,202,166137,5,2,3:1:0:0:
151,20,166441,6,0,L|129:102,1,70,2|0,3:1|2:0,2:0:0:0:
268,94,166746,2,0,L|244:12,1,70,0|0,3:0|2:0,2:0:0:0:
229,93,167050,1,2,3:1:0:0:
130,18,167355,2,0,L|108:100,1,70,2|0,3:1|2:0,2:0:0:0:
284,95,167660,1,0,3:0:0:0:
257,26,167812,5,8,2:0:0:0:
219,118,167964,1,8,2:0:0:0:
243,198,168116,1,8,2:3:0:0:
293,246,168269,1,8,2:3:0:0:
345,255,168421,1,4,2:3:0:0:
379,238,168573,5,4,3:2:0:0:
248,345,168878,2,0,L|374:358,1,119,0|4,3:0|2:3,2:0:0:0:
464,367,169182,1,0,3:0:0:0:
381,225,169487,1,8,2:3:0:0:
251,335,169792,2,0,L|377:348,2,119,0|4|0,3:0|2:3|3:0,2:0:0:0:
382,213,170401,1,8,2:3:0:0:
465,355,170705,1,0,3:0:0:0:
230,371,170858,5,4,2:3:0:0:
218,371,170934,1,4,2:3:0:0:
206,371,171010,1,0,3:0:0:0:
85,336,171314,2,0,B|84:291|84:291|118:225,1,119,0|4,3:0|2:3,2:0:0:0:
228,261,171619,1,0,3:0:0:0:
193,372,171924,1,8,2:3:0:0:
104,217,172228,2,0,B|69:283|69:283|71:370,2,119,0|4|0,3:0|2:3|3:0,2:0:0:0:
185,367,172837,1,8,2:3:0:0:
220,256,173142,1,0,3:0:0:0:
213,70,173294,5,4,2:3:0:0:
201,72,173370,1,4,2:3:0:0:
189,74,173446,1,4,3:1:0:0:
33,42,173751,2,0,P|29:126|64:170,1,119,0|4,3:0|2:3,2:0:0:0:
122,5,174056,1,0,3:0:0:0:
240,68,174360,1,8,2:3:0:0:
58,153,174665,2,0,P|34:99|45:41,2,119,0|4|0,3:0|2:3|3:0,2:0:0:0:
257,64,175274,1,8,2:3:0:0:
139,1,175578,1,0,3:0:0:0:
267,204,175731,5,4,2:3:0:0:
278,203,175807,1,4,2:3:0:0:
289,202,175883,1,2,3:1:0:0:
474,126,176188,2,0,L|341:94,1,119,0|4,3:0|2:3,2:0:0:0:
456,229,176492,1,0,3:0:0:0:
300,199,176797,1,8,2:3:0:0:
477,115,177101,2,0,L|344:83,2,119,0|4|0,3:0|2:3|3:0,2:0:0:0:
458,223,177710,1,8,2:3:0:0:
300,184,178015,5,4,3:2:0:0:
85,272,178624,1,2,2:3:0:0:
74,250,178929,1,2,2:3:0:0:
64,228,179233,1,2,2:3:0:0:
225,293,179538,5,8,2:0:0:0:
230,300,179614,1,8,2:0:0:0:
235,309,179690,1,0,3:0:0:0:
239,318,179766,1,0,3:0:0:0:
242,328,179842,1,8,2:3:0:0:
243,337,179919,1,8,2:3:0:0:
243,347,179995,5,0,3:0:0:0:
277,354,180071,1,0,3:0:0:0:
311,344,180147,1,4,2:3:0:0:
327,312,180223,1,4,2:3:0:0:
352,287,180299,1,0,3:0:0:0:
385,276,180375,1,0,3:0:0:0:
420,280,180452,1,12,2:0:0:0:
301,211,180604,6,0,B|297:156|297:156|249:113|251:30,1,157.5,4|0,3:2|2:0,2:0:0:0:
264,21,180908,1,0,3:0:0:0:
150,171,181061,2,0,P|92:192|40:175,1,105,8|0,2:0|2:0,2:0:0:0:
93,69,181365,5,2,3:0:0:0:
219,234,181517,1,2,3:0:0:0:
12,261,181670,1,8,2:0:0:0:
337,59,181822,6,0,P|395:38|447:55,1,105,4|0,3:1|2:0,2:0:0:0:
291,318,182127,1,2,3:0:0:0:
507,312,182279,1,8,2:0:0:0:
394,126,182431,1,2,3:0:0:0:
417,330,182583,5,0,2:0:0:0:
329,224,182736,1,2,3:0:0:0:
459,199,182888,1,8,2:0:0:0:
264,352,183040,6,0,B|243:382|243:382|192:349|126:351|79:384,1,210,4|2,3:2|3:0,2:0:0:0:
92,191,183497,1,8,2:0:0:0:
222,275,183649,1,2,2:3:0:0:
14,140,183802,5,0,3:0:0:0:
151,98,183954,1,2,3:0:0:0:
58,3,184106,1,8,2:0:0:0:
3,281,184259,6,0,L|19:389,1,105,4|0,3:1|2:0,2:0:0:0:
200,271,184563,2,0,B|183:217|183:217|184:167,1,105,0|8,3:0|2:0,2:0:0:0:
248,11,184868,5,8,2:0:0:0:
244,20,184944,1,8,2:0:0:0:
240,29,185020,1,8,2:3:0:0:
257,61,185096,1,8,2:3:0:0:
287,81,185172,1,4,2:3:0:0:
321,92,185248,1,0,3:0:0:0:
358,89,185325,1,12,2:0:0:0:
358,69,185629,5,4,3:2:0:0:
391,265,185781,1,0,2:0:0:0:
395,287,185934,1,8,2:0:0:0:
291,371,186086,5,0,2:0:0:0:
322,188,186238,1,2,3:0:0:0:
216,384,186391,5,2,3:0:0:0:
247,201,186543,1,8,2:0:0:0:
60,384,186695,6,0,B|26:320|26:320|28:281,1,105,4|0,3:1|2:0,2:0:0:0:
99,145,187000,1,0,3:0:0:0:
109,130,187152,1,10,2:0:0:0:
8,27,187304,5,0,2:0:0:0:
64,210,187457,1,2,3:0:0:0:
89,1,187609,5,0,3:0:0:0:
201,113,187761,2,0,P|198:182|164:262,1,157.5,8|0,2:0|2:0,2:0:0:0:
120,326,188066,5,12,2:0:0:0:
300,346,188218,1,2,3:0:0:0:
310,348,188294,1,0,3:0:0:0:
320,350,188370,1,10,2:0:0:0:
172,246,188523,2,0,L|59:247,1,105,4|8,3:2|2:0,2:0:0:0:
278,128,188827,5,4,3:2:0:0:
238,315,188979,1,8,2:0:0:0:
382,174,189132,2,0,L|495:175,1,105,4|0,3:1|2:0,2:0:0:0:
238,19,189436,6,0,L|265:91,1,52.5,8|8,2:0|2:0,2:0:0:0:
299,243,189589,2,0,L|276:187,1,52.5,8|8,2:0|2:0,2:0:0:0:
158,9,189741,1,0,3:0:0:0:
122,31,189817,1,0,3:0:0:0:
105,69,189893,1,8,2:3:0:0:
77,100,189969,1,8,2:3:0:0:
35,96,190045,1,0,3:0:0:0:
13,59,190122,1,0,3:0:0:0:
27,19,190198,1,12,2:0:0:0:
29,188,190350,6,0,B|51:217|56:247|56:247|6:276|-4:343|27:384,1,224,4|0,3:2|3:0,2:0:0:0:
170,384,190807,1,8,1:2:0:0:
229,166,190959,1,0,3:0:0:0:
102,330,191111,1,8,2:0:0:0:
335,286,191264,1,2,3:0:0:0:
149,186,191416,1,8,2:0:0:0:
292,355,191568,6,0,B|360:373|360:373|484:352,1,168,4|0,3:2|2:0,2:0:0:0:
508,333,191873,1,2,3:0:0:0:
302,205,192025,1,8,1:2:0:0:
512,320,192177,1,2,3:0:0:0:
291,326,192330,1,8,1:2:0:0:
508,308,192482,1,2,3:0:0:0:
302,180,192634,1,8,1:2:0:0:
489,107,192787,6,0,P|510:30|416:69,1,224,4|2,3:2|3:0,2:0:0:0:
385,232,193243,1,8,1:2:0:0:
349,31,193396,1,2,3:0:0:0:
210,189,193548,1,8,1:2:0:0:
315,11,193700,1,2,3:0:0:0:
105,19,193853,1,8,1:2:0:0:
291,150,194005,6,0,B|314:201|284:248|284:248|302:263|302:263|271:311|290:369,1,224,4|0,3:2|3:0,2:0:0:0:
420,379,194462,1,10,1:2:0:0:
203,271,194614,2,0,P|178:264|144:269,1,56,0|0,3:0|3:0,2:0:0:0:
64,366,194766,1,8,2:3:0:0:
89,376,194842,1,8,2:3:0:0:
118,384,194919,1,0,3:0:0:0:
148,384,194995,1,0,3:0:0:0:
177,380,195071,1,12,2:0:0:0:
12,134,195375,5,4,3:2:0:0:
45,280,195528,1,0,2:0:0:0:
50,297,195680,1,10,2:0:0:0:
142,88,195832,5,0,1:0:0:0:
124,269,195984,1,2,3:1:0:0:
215,97,196137,5,2,3:0:0:0:
197,278,196289,1,8,2:0:0:0:
361,165,196441,6,0,P|418:155|476:176,1,112,4|0,3:1|2:0,2:0:0:0:
512,375,196746,1,0,3:0:0:0:
413,239,196898,5,10,1:2:0:0:
364,384,197050,1,0,2:0:0:0:
331,238,197203,5,2,3:0:0:0:
282,383,197355,1,0,3:0:0:0:
230,199,197507,6,0,B|242:155|242:155|231:129|226:93,1,98,10|0,1:2|3:0,2:0:0:0:
158,42,197812,5,12,1:2:0:0:
111,13,197888,1,0,1:0:0:0:
57,16,197964,1,0,3:0:0:0:
15,50,198040,1,0,1:0:0:0:
0,102,198116,1,8,1:2:0:0:
18,154,198193,1,0,1:0:0:0:
62,185,198269,1,4,3:2:0:0:
116,185,198345,1,0,1:0:0:0:
160,154,198421,5,8,1:2:0:0:
164,197,198497,1,0,1:0:0:0:
149,238,198573,1,4,3:2:0:0:
112,263,198649,1,0,1:0:0:0:
67,268,198726,1,8,1:2:0:0:
35,298,198802,1,0,1:0:0:0:
27,341,198878,2,0,P|43:369|72:381,1,49,4|0,3:1|1:0,2:0:0:0:
202,299,199030,5,0,1:0:0:0:
209,286,199106,1,0,1:0:0:0:
216,273,199182,2,0,P|179:264|147:271,1,49,4|0,3:2|1:0,2:0:0:0:
336,358,199335,1,8,1:2:0:0:
343,371,199411,1,0,1:0:0:0:
350,384,199487,2,0,P|395:379|433:365,1,49,4|0,1:2|1:0,2:0:0:0:
492,289,199639,5,0,3:0:0:0:
500,260,199715,1,0,3:0:0:0:
487,233,199792,1,4,3:2:0:0:
462,216,199868,1,0,3:0:0:0:
432,213,199944,2,0,P|411:188|414:159,1,49,8|0,1:2|1:0,2:0:0:0:
493,4,200096,6,0,B|481:35|481:35|429:13|381:38|381:38|347:59|306:49,1,196,4|4,3:2|3:2,2:0:0:0:
147,0,200553,1,8,2:0:0:0:
302,286,200705,5,4,3:2:0:0:
2,123,200858,1,0,1:0:0:0:
321,80,201010,1,0,3:0:0:0:
85,303,201162,1,8,1:2:0:0:
160,0,201314,2,0,B|185:47|178:107|178:107|182:107|182:107|175:107|175:107|178:107|178:107|173:170|215:221,1,224,4|0,3:1|3:0,2:0:0:0:
241,320,201771,5,8,2:0:0:0:
246,330,201847,1,8,2:0:0:0:
251,340,201924,5,0,3:0:0:0:
306,365,202000,1,0,3:0:0:0:
366,361,202076,1,8,2:3:0:0:
417,327,202152,1,8,2:3:0:0:
445,273,202228,1,0,3:0:0:0:
443,212,202304,1,0,3:0:0:0:
411,160,202380,1,4,2:3:0:0:
358,130,202457,1,4,2:3:0:0:
297,131,202533,1,0,3:0:0:0:
244,161,202609,1,0,3:0:0:0:
212,213,202685,1,8,2:0:0:0:
328,243,202990,6,0,B|320:157|320:157|341:108|341:108|332:-4,1,210,4|0,3:2|2:0,2:0:0:0:
168,44,203294,2,0,P|240:88|206:2,1,210,4|0,3:1|2:0,2:0:0:0:
94,0,203599,2,0,B|50:97|146:103|91:208,1,210,4|0,3:1|2:0,2:0:0:0:
6,347,203903,5,4,3:2:0:0:
29,361,203979,1,0,3:0:0:0:
56,370,204056,1,0,3:0:0:0:
83,374,204132,1,0,3:0:0:0:
111,371,204208,1,10,3:2:0:0:
138,362,204284,1,0,3:0:0:0:
161,347,204360,1,0,3:0:0:0:
181,327,204436,1,0,3:0:0:0:
202,309,204512,1,2,3:0:0:0:
226,295,204589,1,0,3:0:0:0:
252,284,204665,1,0,3:0:0:0:
279,278,204741,1,0,3:0:0:0:
307,276,204817,1,10,3:2:0:0:
335,279,204893,1,0,3:0:0:0:
362,286,204969,1,0,3:0:0:0:
387,297,205045,1,0,3:0:0:0:
411,312,205122,5,2,3:0:0:0:
397,319,205198,1,0,3:0:0:0:
382,324,205274,1,0,3:0:0:0:
367,326,205350,1,0,3:0:0:0:
352,327,205426,1,10,3:2:0:0:
337,325,205502,1,0,3:0:0:0:
322,321,205578,1,0,3:0:0:0:
308,315,205655,1,0,3:0:0:0:
295,306,205731,6,0,L|285:364,3,38.5,2|0|0|0,3:0|3:0|3:0|3:0,2:0:0:0:
293,206,206035,2,0,L|350:215,3,38.5,10|0|0|0,3:2|3:0|3:0|3:0,2:0:0:0:
342,103,206340,5,2,3:0:0:0:
341,91,206416,1,0,3:0:0:0:
337,80,206492,1,0,3:0:0:0:
333,70,206568,1,0,3:0:0:0:
327,60,206644,1,10,3:2:0:0:
320,51,206721,1,0,3:0:0:0:
312,43,206797,1,0,3:0:0:0:
324,36,206873,1,0,3:0:0:0:
335,32,206949,6,0,L|316:68,1,38.5,2|0,3:0|3:0,2:0:0:0:
486,98,207101,2,0,L|505:62,1,38.5,0|0,3:0|3:0,2:0:0:0:
254,111,207254,2,0,L|235:147,1,38.5,10|0,3:2|3:0,2:0:0:0:
405,177,207406,2,0,L|424:141,1,38.5,0|0,3:0|3:0,2:0:0:0:
319,179,207558,5,2,3:0:0:0:
316,193,207634,1,0,3:0:0:0:
312,208,207710,1,0,3:0:0:0:
309,223,207787,1,0,3:0:0:0:
305,238,207863,5,8,2:0:0:0:
258,253,207939,1,8,2:0:0:0:
208,256,208015,1,8,2:0:0:0:
159,247,208091,1,8,2:0:0:0:
114,227,208167,6,0,B|97:271|97:271|108:381,1,136.5,4|0,3:1|2:0,2:0:0:0:
13,277,208472,2,0,B|30:233|30:233|19:123,1,136.5,4|0,3:1|2:0,2:0:0:0:
5,0,208776,5,4,3:2:0:0:
124,124,208929,1,8,2:0:0:0:
145,147,209005,1,8,2:0:0:0:
166,170,209081,1,8,2:0:0:0:
328,177,209233,2,0,B|338:115|338:115|298:7,1,136.5,4|0,3:1|2:0,2:0:0:0:
296,0,209538,5,0,3:0:0:0:
252,220,209690,1,10,2:0:0:0:
206,7,209842,1,0,3:0:0:0:
390,239,209995,6,0,L|494:252,1,91,12|0,2:0|3:0,2:0:0:0:
512,256,210223,1,0,3:0:0:0:
512,256,210299,1,8,2:0:0:0:
329,370,210452,2,0,B|259:362|259:362|215:389|215:389|123:375,1,182,4|8,3:2|2:0,2:0:0:0:
112,368,210832,1,8,2:0:0:0:
80,336,210908,1,8,2:0:0:0:
68,293,210984,1,8,2:0:0:0:
78,249,211061,1,8,2:0:0:0:
109,216,211137,1,8,2:0:0:0:
152,202,211213,6,0,L|166:310,1,91,4|10,3:2|2:0,2:0:0:0:
244,170,211517,1,0,3:0:0:0:
246,161,211594,1,0,3:0:0:0:
248,152,211670,1,10,2:0:0:0:
106,59,211822,2,0,L|92:166,1,91,0|10,3:0|2:0,2:0:0:0:
14,26,212127,1,2,3:0:0:0:
12,17,212203,1,0,3:0:0:0:
10,8,212279,1,8,2:0:0:0:
253,27,212431,6,0,B|319:32|319:32|362:52,1,91,4|8,3:1|2:0,2:0:0:0:
375,63,212660,1,8,2:0:0:0:
375,63,212736,1,8,2:0:0:0:
362,287,212888,6,0,L|359:355,1,38.5,2|0,3:0|2:0,2:0:0:0:
475,167,213193,6,0,L|488:222,1,45.5,2|0,3:0|2:0,2:0:0:0:
311,19,213497,6,0,L|292:80,1,52.5,2|0,3:0|2:0,2:0:0:0:
128,150,213802,5,8,2:3:0:0:
119,145,213878,1,8,2:3:0:0:
110,141,213954,2,0,P|98:89|103:51,1,84.0000000000001,4|0,2:3|2:0,2:0:0:0:
0,276,214715,6,0,P|91:307|215:267,1,196,4|0,3:2|3:0,2:0:0:0:
272,188,215172,1,8,2:0:0:0:
284,384,215325,1,0,2:0:0:0:
105,221,215477,1,0,3:0:0:0:
290,185,215629,1,2,3:0:0:0:
136,366,215781,1,8,2:0:0:0:
417,268,215934,6,0,P|477:258|531:272,1,98,4|0,3:2|2:0,2:0:0:0:
272,188,216238,2,0,P|212:188|154:212,1,98,2|8,3:0|2:0,2:0:0:0:
417,193,216543,2,0,P|477:183|531:197,1,98,2|0,3:0|2:0,2:0:0:0:
272,113,216847,2,0,P|212:113|154:137,1,98,2|8,3:0|2:0,2:0:0:0:
336,297,217152,6,0,B|347:256|347:256|343:140|343:140|365:77,1,196,4|0,3:2|3:0,2:0:0:0:
503,9,217609,1,10,2:0:0:0:
287,19,217761,1,0,2:0:0:0:
512,0,217913,1,2,3:0:0:0:
296,10,218066,1,2,3:0:0:0:
472,92,218218,1,8,2:0:0:0:
170,22,218370,6,0,B|139:26|109:15|109:15|56:22|19:72|29:118,1,196,4|0,3:2|3:0,2:0:0:0:
34,250,218827,1,10,2:0:0:0:
164,214,218979,5,8,2:0:0:0:
182,204,219056,1,8,2:0:0:0:
198,190,219132,1,8,2:3:0:0:
212,174,219208,1,8,2:3:0:0:
222,155,219284,1,4,2:3:0:0:
228,135,219360,1,0,3:0:0:0:
231,114,219436,2,0,L|129:116,1,98,12|0,2:0|2:0,2:0:0:0:
8,324,219741,5,4,3:2:0:0:
87,204,219893,1,0,2:0:0:0:
235,353,220045,1,8,2:0:0:0:
86,332,220198,1,0,2:0:0:0:
269,231,220350,1,2,3:1:0:0:
269,231,220502,1,2,3:1:0:0:
152,384,220655,1,8,2:0:0:0:
216,136,220807,6,0,P|308:129|379:219,1,196,4|0,3:2|3:0,2:0:0:0:
512,350,221264,2,0,L|406:365,1,98,8|0,2:0|2:0,2:0:0:0:
397,232,221568,1,2,3:1:0:0:
295,358,221721,1,0,3:0:0:0:
180,240,221873,2,0,L|277:226,1,98,10|0,2:0|3:0,2:0:0:0:
79,275,222177,5,12,2:0:0:0:
42,186,222330,1,0,3:0:0:0:
21,188,222406,1,0,3:0:0:0:
0,190,222482,1,8,2:0:0:0:
172,276,222634,1,4,3:2:0:0:
181,257,222710,1,0,3:0:0:0:
189,238,222787,1,8,2:0:0:0:
28,344,222939,1,4,3:2:0:0:
40,361,223015,1,0,3:0:0:0:
53,378,223091,1,8,2:0:0:0:
132,161,223243,2,0,P|139:103|114:38,1,98,4|0,3:2|2:0,2:0:0:0:
23,8,223548,5,8,2:3:0:0:
21,24,223624,1,8,2:3:0:0:
33,34,223700,1,4,2:3:0:0:
49,33,223776,1,4,2:3:0:0:
58,18,223853,1,0,3:0:0:0:
50,5,223929,1,0,3:0:0:0:
35,0,224005,5,8,2:0:0:0:
283,23,224157,1,8,2:0:0:0:
297,24,224462,6,0,L|252:224,1,196,4|0,3:2|3:0,2:0:0:0:
427,233,224919,1,8,2:0:0:0:
355,162,225071,1,0,2:0:0:0:
512,78,225223,1,2,3:1:0:0:
330,258,225375,1,2,3:1:0:0:
178,167,225528,1,8,2:0:0:0:
306,20,225680,6,0,P|366:2|415:19,1,98,4|0,3:2|2:0,2:0:0:0:
267,178,225984,1,0,3:0:0:0:
93,30,226137,2,0,P|45:23|0:41,1,98,10|0,2:0|2:0,2:0:0:0:
182,180,226441,1,2,3:1:0:0:
181,41,226594,1,0,3:0:0:0:
59,118,226746,1,8,2:0:0:0:
271,257,226898,6,0,B|391:333|391:333|365:260,1,196,4|0,3:2|3:0,2:0:0:0:
173,196,227355,2,0,P|157:246|163:303,1,98,10|0,2:0|2:0,2:0:0:0:
340,195,227660,1,2,3:1:0:0:
333,179,227812,1,2,3:1:0:0:
240,360,227964,1,10,2:0:0:0:
469,199,228116,6,0,P|490:123|455:7,1,196,4|0,3:2|3:0,2:0:0:0:
245,2,228573,1,10,2:0:0:0:
381,107,228726,1,0,3:0:0:0:
360,0,228878,2,0,L|305:62,1,49,4|4,2:3|2:3,2:0:0:0:
234,141,229030,1,0,3:0:0:0:
227,148,229106,1,0,3:0:0:0:
220,154,229182,1,12,2:0:0:0:
32,80,229487,6,0,P|32:-1|64:72,1,196,4|0,3:2|2:0,2:0:0:0:
155,217,229944,1,0,3:0:0:0:
161,223,230020,1,0,3:0:0:0:
166,230,230096,5,8,2:0:0:0:
13,155,230299,1,8,2:3:0:0:
156,55,230502,1,4,2:3:0:0:
238,279,230705,5,4,3:1:0:0:
37,279,230858,1,8,2:0:0:0:
28,279,230934,1,8,2:0:0:0:
19,279,231010,1,8,2:0:0:0:
195,365,231162,2,0,B|249:389|292:361|292:361|335:335|386:362,1,196,4|8,3:2|2:0,2:0:0:0:
418,371,231543,1,8,2:0:0:0:
436,344,231619,1,8,2:0:0:0:
454,317,231695,1,8,2:0:0:0:
472,290,231771,1,8,2:0:0:0:
490,264,231847,1,8,2:0:0:0:
508,238,231924,6,0,P|457:223|402:240,1,98,4|10,3:2|2:0,2:0:0:0:
295,301,232228,1,0,3:0:0:0:
295,311,232304,1,0,3:0:0:0:
295,321,232380,1,10,2:0:0:0:
251,116,232533,2,0,P|302:101|357:118,1,98,0|10,3:0|2:0,2:0:0:0:
464,179,232837,1,0,3:0:0:0:
464,189,232913,1,0,3:0:0:0:
464,199,232990,1,8,2:0:0:0:
177,187,233142,6,0,P|152:129|229:12,1,196,4|0,3:1|3:0,2:0:0:0:
250,7,233523,1,0,3:0:0:0:
250,7,233599,1,8,2:0:0:0:
40,8,233751,2,0,L|50:55,1,49,8|4,2:3|2:3,2:0:0:0:
83,178,233903,1,0,3:0:0:0:
89,211,233979,1,0,3:0:0:0:
96,244,234056,1,12,2:0:0:0:
103,274,234360,5,12,2:0:0:0:
342,293,234512,1,8,2:0:0:0:
215,384,234665,1,0,3:0:0:0:
473,274,234817,5,8,2:3:0:0:
233,293,234969,1,8,2:3:0:0:
361,384,235122,1,0,3:0:0:0:
289,62,235274,5,8,2:3:0:0:
231,301,235426,1,4,2:3:0:0:
344,301,235578,1,0,3:0:0:0:
288,54,235731,5,8,2:0:0:0:
342,293,235883,1,8,2:0:0:0:
233,293,236035,1,0,3:0:0:0:
429,200,236188,5,8,2:3:0:0:
438,198,236264,1,4,2:3:0:0:
447,196,236340,1,0,3:0:0:0:
353,7,236492,2,0,L|238:26,1,98,12|0,2:0|2:0,2:0:0:0:
8,88,236797,6,0,L|57:125,1,49,12|0,3:2|2:0,2:0:0:0:
228,88,236949,2,0,L|179:125,1,49,12|0,3:2|3:0,2:0:0:0:
18,228,237101,5,0,3:0:0:0:
9,232,237177,1,0,3:0:0:0:
0,236,237254,2,0,L|49:273,1,49,12|0,3:2|2:0,2:0:0:0:
236,236,237406,2,0,L|187:273,1,49,12|0,3:2|3:0,2:0:0:0:
119,57,237558,5,0,3:0:0:0:
118,47,237634,1,0,3:0:0:0:
119,37,237710,2,0,L|119:86,1,49,8|0,2:3|2:0,2:0:0:0:
119,318,237863,1,4,2:3:0:0:
36,371,238015,6,0,L|-5:358,2,38.5,0|0|12,3:0|3:0|2:0,2:0:0:0:
183,378,238320,1,8,2:3:0:0:
187,369,238396,1,8,2:3:0:0:
192,361,238472,1,4,2:3:0:0:
195,352,238548,1,4,2:3:0:0:
198,343,238624,5,0,3:0:0:0:
232,325,238700,1,8,2:0:0:0:
270,321,238776,1,8,2:0:0:0:
307,330,238853,1,8,2:0:0:0:
339,350,238929,1,8,2:0:0:0:
371,372,239005,1,8,2:0:0:0:
408,380,239081,1,8,2:0:0:0:
446,375,239157,1,8,2:0:0:0:
481,359,239233,6,0,L|468:313,2,38.5,4|0|8,3:2|3:0|2:0,2:0:0:0:
424,162,239538,1,2,3:1:0:0:
397,289,239690,1,8,2:0:0:0:
412,159,239842,1,2,3:1:0:0:
385,286,239995,1,8,2:0:0:0:
509,241,240147,2,0,L|466:248,2,38.5,0|0|8,3:0|3:0|2:0,2:0:0:0:
266,200,240452,5,2,3:1:0:0:
258,198,240528,1,0,3:0:0:0:
250,196,240604,1,8,2:0:0:0:
115,95,240756,1,2,3:1:0:0:
128,240,240908,1,8,2:0:0:0:
128,94,241061,1,2,3:1:0:0:
141,239,241213,1,8,2:0:0:0:
43,171,241365,2,0,L|95:178,2,38.5,0|0|8,3:0|3:0|2:0,2:0:0:0:
254,108,241670,5,2,3:1:0:0:
261,107,241746,1,0,3:0:0:0:
268,106,241822,1,8,2:0:0:0:
405,3,241974,1,2,3:1:0:0:
392,148,242127,1,8,2:0:0:0:
392,2,242279,1,2,3:1:0:0:
379,147,242431,1,8,2:0:0:0:
490,73,242583,2,0,L|438:80,2,38.5,0|0|8,3:0|3:0|2:0,2:0:0:0:
197,51,242888,5,12,2:0:0:0:
133,123,243040,1,0,3:0:0:0:
128,129,243116,1,0,3:0:0:0:
122,134,243193,2,0,L|172:151,1,38.5,0|0,3:0|3:0,2:0:0:0:
292,180,243345,5,12,2:0:0:0:
356,252,243497,1,0,3:0:0:0:
361,258,243573,1,0,3:0:0:0:
367,263,243649,2,0,L|317:280,1,38.5,0|0,3:0|3:0,2:0:0:0:
185,312,243802,5,12,2:0:0:0:
111,384,243954,2,0,L|103:330,1,38.5,0|0,2:0|2:0,2:0:0:0:
93,232,244106,5,4,3:2:0:0:
94,224,244182,1,0,3:0:0:0:
95,216,244259,1,8,2:0:0:0:
195,125,244411,1,2,3:1:0:0:
17,115,244563,1,8,2:0:0:0:
195,136,244715,1,2,3:1:0:0:
17,126,244868,1,8,2:0:0:0:
142,51,245020,2,0,L|197:41,2,38.5,0|0|8,3:0|3:0|2:0,2:0:0:0:
366,245,245325,5,2,3:1:0:0:
358,248,245401,1,0,3:0:0:0:
351,251,245477,1,8,2:0:0:0:
222,210,245629,1,2,3:1:0:0:
302,369,245781,1,8,2:0:0:0:
231,204,245934,1,2,3:1:0:0:
312,363,246086,1,8,2:0:0:0:
183,295,246238,2,0,L|146:252,2,38.5,0|0|8,3:0|3:0|2:0,2:0:0:0:
240,13,246543,5,2,3:1:0:0:
246,18,246619,1,0,3:0:0:0:
252,22,246695,1,8,2:0:0:0:
281,155,246847,1,2,3:1:0:0:
379,6,247000,1,8,2:0:0:0:
271,150,247152,1,2,3:1:0:0:
369,0,247304,1,8,2:0:0:0:
375,157,247457,2,0,L|356:209,2,38.5,0|0|8,3:0|3:0|2:0,2:0:0:0:
98,182,247761,5,12,2:0:0:0:
109,75,247913,1,0,3:0:0:0:
110,67,247990,1,0,3:0:0:0:
111,59,248066,2,0,L|171:67,1,38.5,0|0,3:0|3:0,2:0:0:0:
233,262,248218,5,12,2:0:0:0:
240,366,248370,1,0,3:0:0:0:
241,374,248446,1,0,3:0:0:0:
242,382,248523,2,0,L|286:367,1,38.5,0|0,3:0|3:0,2:0:0:0:
475,268,248675,6,0,B|491:214|491:214|480:108,1,147,12|0,2:0|2:0,2:0:0:0:
463,2,248979,5,4,3:2:0:0:
118,63,249817,5,4,3:2:0:0:
379,112,250268,5,4,3:1:0:0:
165,151,250619,5,4,3:2:0:0:
343,184,250889,5,4,3:1:0:0:
211,225,251047,1,4,3:2:0:0:
250,286,251206,5,0,3:0:0:0:
250,291,251279,1,0,3:0:0:0:
251,297,251352,1,0,3:0:0:0:
252,303,251425,1,0,3:0:0:0:
253,309,251498,1,0,3:0:0:0:
254,314,251571,1,0,3:0:0:0:
255,320,251645,5,12,2:0:0:0:
69,154,252243,6,0,L|39:193,2,35,0|0|0,3:0|3:0|3:0,2:0:0:0:
113,100,252433,2,0,P|114:37|174:86,1,168,8|0,2:0|2:0,2:0:0:0:
256,192,252965,12,0,255478,2:0:0:0:
