osu file format v14

[General]
AudioFilename: audio.mp3
AudioLeadIn: 0
PreviewTime: 195183
Countdown: 0
SampleSet: None
StackLeniency: 0.7
Mode: 2
LetterboxInBreaks: 0
WidescreenStoryboard: 1

[Editor]
Bookmarks: 407271
DistanceSpacing: 0.6
BeatDivisor: 4
GridSize: 8
TimelineZoom: 2.3

[Metadata]
Title:Aoki Kodoku
TitleUnicode:青き蟲独
Artist:Denkishiki Karen Ongaku Shuudan
ArtistUnicode:電気式華憐音楽集団
Creator:-Luminate
Version:Despicable
Source:EXTRAVAGANZA~蟲狂編~
Tags:Mushigurui Hen Black Cyc eroge visual novel video game japanese metal theme song 華憐的音楽集III Karenteki Ongaku Shuu III album whiplash! gothic denkare 電華
BeatmapID:2431127
BeatmapSetID:1151430

[Difficulty]
HPDrainRate:6
CircleSize:4.2
OverallDifficulty:9.7
ApproachRate:9.7
SliderMultiplier:1.69999990463257
SliderTickRate:2

[Events]
//Background and Video events
0,0,"safe1.jpg",0,0
//Break Periods
2,218035,241340
2,344890,347623
//Storyboard Layer 0 (Background)
//Storyboard Layer 1 (Fail)
//Storyboard Layer 2 (Pass)
//Storyboard Layer 3 (Foreground)
//Storyboard Layer 4 (Overlay)
//Storyboard Sound Samples

[TimingPoints]
3553,428.571428571429,4,2,1,20,1,0
10410,-100,4,2,1,40,0,0
12124,214.285714285714,4,2,1,55,1,0
17266,-100,4,2,1,65,0,0
18981,-100,4,2,1,75,0,0
32685,428.571428571429,4,2,1,75,1,0
33542,-62.5,4,2,0,40,0,0
42970,-80,4,2,0,50,0,0
44577,-80,4,2,0,30,0,0
44690,214.285714285714,4,2,1,60,1,0
46404,-100,4,2,1,70,0,0
93552,-100,4,2,1,55,0,0
100404,-100,4,2,1,70,0,0
103832,-100,4,2,1,80,0,1
120975,-100,4,2,1,75,0,0
122684,214.285714285714,4,2,1,75,1,0
136398,-100,4,2,1,55,0,0
144969,-100,4,2,1,60,0,0
158683,-100,4,2,1,65,0,0
164683,-100,4,2,1,70,0,0
185255,-100,4,2,1,55,0,0
192112,-100,4,2,1,70,0,0
195541,-100,4,2,1,80,0,1
212683,-100,4,2,1,75,0,0
214407,857.142857142857,4,2,1,75,1,0
214624,-100,4,2,0,30,0,0
241835,-40,4,2,0,35,0,0
255549,-39.4321766561514,4,2,0,35,0,0
257672,857.142857142857,4,2,0,35,1,0
258100,-40,4,2,1,50,0,0
258968,857.142857142857,4,2,1,50,1,0
258968,-40,4,2,1,60,0,0
272685,428.571428571429,4,2,1,70,1,0
272685,-66.6666666666667,4,2,1,70,0,0
276119,214.285714285714,4,2,1,75,1,0
288111,214.285714285714,4,2,1,75,1,0
289825,-100,4,2,1,80,0,1
303539,-100,4,2,1,75,0,0
310396,-100,4,2,1,65,0,0
317253,-100,4,2,1,75,0,1
330110,-100,4,2,1,60,0,0
330968,-100,4,2,1,75,0,1
344690,428.571428571429,4,2,0,60,1,0
348118,-100,4,2,0,30,0,0
366975,-100,4,2,0,35,0,0
371802,-100,4,2,0,55,0,0
372116,214.285714285714,4,2,1,80,1,1
389258,-100,4,2,1,75,0,0
390973,-100,4,2,1,70,0,1
409830,-100,4,2,1,70,0,0
409937,-100,4,2,1,45,0,0
411544,-100,4,2,1,35,0,0
413258,-100,4,2,1,25,0,0
414973,-100,4,2,1,15,0,0

[Colours]
Combo1 : 125,0,251
Combo2 : 234,31,26
Combo3 : 102,102,255
Combo4 : 231,24,143

[HitObjects]
256,192,8695,12,0,11910,0:0:0:0:
112,320,12124,5,4,0:0:0:0:
112,320,12231,1,2,0:0:0:0:
416,320,12552,1,2,0:0:0:0:
280,320,12766,1,2,0:0:0:0:
440,320,12981,2,0,P|472:216|400:192,1,169.999990463257,2|2,0:0|0:0,0:0:0:0:
320,176,13302,2,0,P|360:64|520:40,1,254.999985694886,10|2,0:0|0:0,0:0:0:0:
96,352,13838,6,0,L|96:248,1,84.9999952316285,4|2,0:0|0:0,0:0:0:0:
256,248,14266,1,2,0:0:0:0:
96,216,14481,1,2,0:0:0:0:
432,176,14695,1,6,0:0:0:0:
272,128,14909,1,8,0:3:0:0:
376,128,15016,2,0,P|424:64|368:8,1,169.999990463257,8|8,0:0|0:0,0:0:0:0:
264,16,15338,2,0,L|144:16,1,84.9999952316285,4|0,0:3|0:0,0:0:0:0:
384,312,15552,6,0,L|496:312,1,84.9999952316285,4|2,0:0|0:0,0:0:0:0:
248,240,15981,1,2,0:0:0:0:
432,200,16195,1,2,0:0:0:0:
80,184,16409,2,0,P|32:104|104:64,1,169.999990463257,6|0,0:0|0:0,0:0:0:0:
192,312,16731,2,0,P|48:232|32:136,1,254.999985694886,2|2,0:0|0:0,0:0:0:0:
352,168,17266,5,14,0:0:0:0:
448,136,17373,1,10,0:0:0:0:
352,112,17481,1,8,0:0:0:0:
256,88,17588,1,8,0:0:0:0:
352,72,17695,1,8,0:1:0:0:
160,288,17802,1,8,0:1:0:0:
248,256,17909,1,8,0:1:0:0:
56,200,18016,5,0,0:0:0:0:
336,312,18552,2,8,L|408:312,2,56.6666634877523
160,272,18766,1,8,0:1:0:0:
336,216,18873,1,8,0:1:0:0:
160,208,18981,5,14,0:0:0:0:
72,160,19088,2,0,L|280:160,1,169.999990463257,2|8,0:0|0:0,0:0:0:0:
144,104,19409,2,0,L|136:16,1,84.9999952316285,8|8,0:0|0:0,0:0:0:0:
336,264,19623,2,0,L|344:168,1,84.9999952316285,8|0,0:1|0:0,0:0:0:0:
144,312,19838,6,0,P|96:272|168:200,1,169.999990463257,10|8,0:0|0:1,0:0:0:0:
280,192,20159,2,0,P|328:120|256:80,1,169.999990463257,8|8,0:0|0:0,0:0:0:0:
48,72,20481,2,0,L|152:72,1,84.9999952316285,8|0,0:1|0:0,0:0:0:0:
352,72,20695,5,10,0:0:0:0:
251,72,20802,2,0,P|195:128|275:160,1,169.999990463257,10|0,0:0|0:0,0:0:0:0:
368,208,21123,2,0,L|376:304,1,84.9999952316285,8|8,0:0|0:0,0:0:0:0:
192,336,21338,2,0,L|184:240,1,84.9999952316285,8|0,0:1|0:0,0:0:0:0:
376,192,21552,6,0,L|168:192,1,169.999990463257,10|8,0:0|0:1,0:0:0:0:
96,128,21873,2,0,L|296:128,1,169.999990463257,8|8,0:0|0:0,0:0:0:0:
472,80,22195,2,0,L|384:80,1,84.9999952316285,8|0,0:1|0:0,0:0:0:0:
96,72,22409,5,6,0:0:0:0:
312,72,22516,2,0,P|360:136|280:192,1,169.999990463257,2|8,0:0|0:0,0:0:0:0:
200,288,22838,2,0,L|192:184,1,84.9999952316285,8|0,0:0|0:0,0:0:0:0:
432,336,23052,2,0,L|440:224,1,84.9999952316285,8|0,0:1|0:0,0:0:0:0:
200,208,23266,6,0,L|384:208,1,169.999990463257,10|8,0:0|0:1,0:0:0:0:
256,360,23588,2,0,P|144:312|112:232,1,169.999990463257,8|8,0:0|0:0,0:0:0:0:
304,248,23909,2,0,L|312:144,1,84.9999952316285,8|0,0:1|0:0,0:0:0:0:
88,168,24123,5,10,0:0:0:0:
16,128,24231,1,8,0:0:0:0:
88,96,24338,1,8,0:1:0:0:
256,96,24445,1,8,0:0:0:0:
448,264,24552,1,8,0:0:0:0:
360,216,24659,1,8,0:0:0:0:
448,184,24766,1,8,0:1:0:0:
256,176,24873,1,8,0:0:0:0:
88,96,24981,5,12,0:1:0:0:
192,80,25088,1,0,0:0:0:0:
288,64,25195,1,8,0:0:0:0:
88,96,25302,1,12,0:1:0:0:
192,80,25409,1,0,0:0:0:0:
288,64,25516,1,8,0:0:0:0:
80,272,25623,2,0,L|216:272,1,84.9999952316285,8|0,0:1|0:0,0:0:0:0:
352,272,25838,5,14,0:0:0:0:
432,216,25945,2,0,L|232:216,1,169.999990463257,0|8,0:0|0:0,0:0:0:0:
344,184,26266,2,0,L|352:80,1,84.9999952316285,8|8,0:0|0:0,0:0:0:0:
176,128,26481,2,0,L|288:128,1,84.9999952316285,8|0,0:1|0:0,0:0:0:0:
456,328,26695,6,0,L|240:328,1,169.999990463257,10|8,0:0|0:1,0:0:0:0:
376,296,27016,2,0,P|432:240|360:192,1,169.999990463257,8|8,0:0|0:0,0:0:0:0:
184,192,27338,2,0,L|88:192,1,84.9999952316285,8|0,0:1|0:0,0:0:0:0:
336,112,27552,5,10,0:0:0:0:
248,48,27659,2,0,L|440:48,1,169.999990463257,2|8,0:0|0:0,0:0:0:0:
328,144,27981,2,0,L|240:144,1,84.9999952316285,8|8,0:0|0:0,0:0:0:0:
40,248,28195,2,0,L|125:248,1,84.9999952316285,8|0,0:1|0:0,0:0:0:0:
304,344,28409,6,0,P|352:272|272:224,1,169.999990463257,10|8,0:0|0:1,0:0:0:0:
184,232,28731,2,0,P|136:160|216:112,1,169.999990463257,8|8,0:0|0:0,0:0:0:0:
368,112,29052,2,0,L|464:112,1,84.9999952316285,8|0,0:1|0:0,0:0:0:0:
168,320,29266,5,6,0:0:0:0:
352,320,29373,2,0,P|400:240|320:200,1,169.999990463257,2|8,0:0|0:0,0:0:0:0:
240,200,29695,2,0,L|232:104,1,84.9999952316285,8|8,0:0|0:0,0:0:0:0:
40,96,29909,2,0,L|128:96,1,84.9999952316285,8|0,0:1|0:0,0:0:0:0:
344,96,30123,6,0,L|152:96,1,169.999990463257,10|8,0:0|0:1,0:0:0:0:
264,176,30445,2,0,L|456:176,1,169.999990463257,8|8,0:0|0:0,0:0:0:0:
240,328,30766,2,0,L|232:224,1,84.9999952316285,8|0,0:1|0:0,0:0:0:0:
440,200,30981,5,10,0:0:0:0:
352,152,31088,1,8,0:0:0:0:
440,112,31195,1,8,0:1:0:0:
256,112,31302,1,8,0:0:0:0:
88,232,31409,1,8,0:0:0:0:
192,216,31516,1,8,0:0:0:0:
288,200,31623,1,8,0:1:0:0:
88,136,31731,1,8,0:0:0:0:
288,136,31838,5,8,0:1:0:0:
376,88,31945,1,0,0:0:0:0:
288,56,32052,1,0,0:0:0:0:
88,104,32159,1,8,0:1:0:0:
8,64,32266,1,0,0:0:0:0:
88,32,32373,1,0,0:0:0:0:
288,32,32481,2,0,L|376:32,1,84.9999952316285,8|0,0:3|0:0,0:0:0:0:
88,208,32685,5,4,0:0:0:0:
376,344,33542,6,0,P|520:192|280:56,2,543.999969482422,2|2|2,0:0|0:0|0:0,0:0:0:0:
32,352,36113,6,0,B|64:312|120:312|205:327|205:327|78:312|8:97|310:17|315:253|315:253|111:266|103:1|302:9,2,1087.99993896484,2|0|2,0:0|0:0|0:0,0:0:0:0:
448,360,40399,6,0,P|296:264|504:32,2,543.999969482422,2|2|2,0:0|0:0|0:0,0:0:0:0:
32,360,42970,6,0,B|152:392|264:328|160:112|56:240|56:240|168:376|240:128|224:64|24:104,1,796.874955296517,2|0,0:0|0:1,0:0:0:0:
48,64,44690,1,8,0:1:0:0:
160,96,44797,1,0,0:0:0:0:
256,160,44904,2,0,L|144:160,1,84.9999952316285,0|8,0:0|0:0,0:0:0:0:
352,176,45118,2,0,L|472:176,1,84.9999952316285,8|8,0:1|0:0,0:0:0:0:
224,328,45332,2,0,L|136:328,1,84.9999952316285,8|8,0:1|0:0,0:0:0:0:
336,296,45547,6,0,L|344:200,1,84.9999952316285,8|0,0:1|0:0,0:0:0:0:
240,224,45761,2,0,L|232:120,1,84.9999952316285,8|8,0:0|0:0,0:0:0:0:
464,136,45975,1,8,0:1:0:0:
376,96,46082,1,8,0:1:0:0:
480,48,46190,1,8,0:0:0:0:
376,16,46297,1,8,0:0:0:0:
152,16,46404,5,14,0:0:0:0:
320,56,46511,1,0,0:0:0:0:
144,144,46618,2,0,L|48:144,1,84.9999952316285,8|0,0:1|0:0,0:0:0:0:
144,144,46832,2,0,L|152:240,1,84.9999952316285,8|8,0:0|0:0,0:0:0:0:
66,228,47047,2,0,L|170:228,1,84.9999952316285,8|0,0:1|0:0,0:0:0:0:
384,328,47261,6,0,L|208:328,1,169.999990463257,10|8,0:0|0:1,0:0:0:0:
304,280,47582,2,0,L|408:280,2,84.9999952316285,8|2|0,0:0|0:0|0:0,0:0:0:0:
408,240,47904,2,0,L|408:128,1,84.9999952316285,8|0,0:1|0:0,0:0:0:0:
208,216,48118,6,0,L|200:96,1,84.9999952316285,10|0,0:0|0:0,0:0:0:0:
304,120,48332,2,0,L|312:24,1,84.9999952316285,8|0,0:1|0:0,0:0:0:0:
200,16,48547,2,0,L|296:16,1,84.9999952316285,10|8,0:0|0:0,0:0:0:0:
104,240,48761,6,0,P|128:144|208:128,1,169.999990463257,8|8,0:1|0:0,0:0:0:0:
104,96,49082,1,0,0:0:0:0:
328,144,49189,1,8,0:1:0:0:
232,208,49297,2,0,L|240:88,1,84.9999952316285,2|0,0:0|0:0,0:0:0:0:
328,144,49511,1,10,0:0:0:0:
160,312,49618,2,0,L|56:312,1,84.9999952316285,8|0,0:1|0:0,0:0:0:0:
368,256,49832,6,0,L|472:256,1,84.9999952316285,12|0,0:0|0:0,0:0:0:0:
344,176,50047,2,0,L|336:64,1,84.9999952316285,8|0,0:1|0:0,0:0:0:0:
440,56,50261,2,0,L|344:56,1,84.9999952316285,10|8,0:0|0:0,0:0:0:0:
256,104,50475,2,0,L|360:104,1,84.9999952316285,8|0,0:1|0:0,0:0:0:0:
168,272,50689,6,0,L|72:272,2,84.9999952316285,2|0|8,0:0|0:0|0:1,0:0:0:0:
272,232,51011,2,0,L|72:232,1,169.999990463257,10|8,0:0|0:0,0:0:0:0:
208,328,51332,2,0,L|304:328,1,84.9999952316285,8|0,0:1|0:0,0:0:0:0:
64,288,51547,6,0,L|72:168,1,84.9999952316285,10|0,0:0|0:0,0:0:0:0:
192,176,51761,2,0,L|96:176,2,84.9999952316285,8|8|10,0:1|0:0|0:0,0:0:0:0:
80,136,52082,1,8,0:0:0:0:
192,120,52189,2,0,L|104:120,1,84.9999952316285,8|0,0:1|0:0,0:0:0:0:
16,272,52404,6,0,L|208:272,2,169.999990463257,10|8|8,0:0|0:1|0:0,0:0:0:0:
264,344,52939,1,8,0:0:0:0:
184,304,53047,1,8,0:3:0:0:
264,272,53154,1,8,0:0:0:0:
72,312,53261,5,14,0:0:0:0:
264,240,53368,1,2,0:0:0:0:
184,208,53475,2,0,L|192:104,1,84.9999952316285,8|0,0:1|0:0,0:0:0:0:
296,128,53689,2,0,L|288:40,1,84.9999952316285,8|8,0:0|0:0,0:0:0:0:
176,48,53904,2,0,L|56:48,1,84.9999952316285,8|0,0:1|0:0,0:0:0:0:
312,344,54118,6,0,P|416:304|472:256,1,169.999990463257,10|8,0:0|0:1,0:0:0:0:
352,256,54439,2,0,P|320:168|384:136,1,169.999990463257,2|8,0:0|0:0,0:0:0:0:
480,136,54761,2,0,L|488:240,1,84.9999952316285,8|0,0:1|0:0,0:0:0:0:
312,336,54975,6,0,L|224:336,1,84.9999952316285,8|0,0:0|0:0,0:0:0:0:
120,312,55189,2,0,L|128:208,1,84.9999952316285,8|0,0:1|0:0,0:0:0:0:
240,224,55404,2,0,L|232:104,1,84.9999952316285,10|8,0:0|0:0,0:0:0:0:
136,104,55618,2,0,L|240:88,1,84.9999952316285,8|0,0:1|0:0,0:0:0:0:
424,328,55832,6,0,P|472:256|408:216,1,169.999990463257,10|8,0:0|0:1,0:0:0:0:
312,200,56154,2,0,L|488:200,1,169.999990463257,2|0,0:0|0:0,0:0:0:0:
392,144,56475,2,0,L|288:144,1,84.9999952316285,8|0,0:1|0:0,0:0:0:0:
64,368,56689,6,0,L|152:336,1,84.9999952316285,12|0,0:0|0:0,0:0:0:0:
240,328,56904,2,0,L|248:208,1,84.9999952316285,8|0,0:1|0:0,0:0:0:0:
360,224,57118,2,0,L|352:120,1,84.9999952316285,10|8,0:0|0:0,0:0:0:0:
256,136,57332,2,0,L|168:136,1,84.9999952316285,8|0,0:1|0:0,0:0:0:0:
384,304,57547,6,0,L|280:304,2,84.9999952316285,10|0|8,0:0|0:0|0:1,0:0:0:0:
280,264,57868,2,0,P|232:208|304:160,1,169.999990463257,2|8,0:0|0:0,0:0:0:0:
392,112,58189,2,0,L|272:112,1,84.9999952316285,8|0,0:1|0:0,0:0:0:0:
48,200,58404,6,0,L|232:200,2,169.999990463257,10|8|8,0:0|0:1|0:0,0:0:0:0:
136,240,58939,1,8,0:0:0:0:
40,320,59047,2,0,L|32:208,1,84.9999952316285,8|0,0:1|0:0,0:0:0:0:
288,200,59261,6,0,L|376:200,2,84.9999952316285,8|8|8,0:0|0:0|0:0,0:0:0:0:
192,208,59582,1,8,0:0:0:0:
280,256,59689,1,8,0:0:0:0:
368,304,59797,1,8,0:0:0:0:
192,328,59904,1,8,0:1:0:0:
373,200,60011,1,8,0:1:0:0:
160,144,60118,6,0,P|64:96|56:40,1,169.999990463257,6|8,0:0|0:1,0:0:0:0:
160,144,60439,2,0,P|256:96|264:40,1,169.999990463257,2|8,0:0|0:0,0:0:0:0:
160,40,60761,1,8,0:1:0:0:
330,40,60975,6,0,L|154:40,1,169.999990463257,2|8,0:0|0:1,0:0:0:0:
264,80,61297,2,0,P|368:120|384:208,1,169.999990463257,2|8,0:0|0:0,0:0:0:0:
304,224,61618,1,8,0:1:0:0:
384,272,61725,1,0,0:0:0:0:
208,240,61832,6,0,P|130:265|72:336,1,169.999990463257,2|8,0:0|0:1,0:0:0:0:
208,240,62154,2,0,P|286:265|344:344,1,169.999990463257,2|8,0:0|0:0,0:0:0:0:
88,360,62475,6,0,P|40:288|112:240,1,169.999990463257,8|2,0:1|0:0,0:0:0:0:
304,232,62904,1,8,0:1:0:0:
192,224,63011,2,0,L|176:40,1,169.999990463257,8|8,0:0|0:0,0:0:0:0:
72,48,63332,1,8,0:1:0:0:
424,328,63547,6,0,P|336:216|288:216,1,169.999990463257,4|8,0:0|0:1,0:0:0:0:
208,192,63868,2,0,L|392:192,1,169.999990463257,2|8,0:0|0:0,0:0:0:0:
472,192,64189,1,8,0:1:0:0:
280,64,64404,6,0,L|104:64,1,169.999990463257,10|8,0:0|0:1,0:0:0:0:
192,144,64725,2,0,L|392:144,1,169.999990463257,2|8,0:0|0:0,0:0:0:0:
448,144,65047,1,8,0:1:0:0:
128,328,65261,6,0,P|120:224|192:184,1,169.999990463257,2|8,0:0|0:1,0:0:0:0:
264,328,65582,2,0,L|280:128,1,169.999990463257,2|8,0:0|0:0,0:0:0:0:
384,152,65904,1,8,0:1:0:0:
56,344,66118,6,0,P|40:256|96:192,1,169.999990463257,10|0,0:0|0:0,0:0:0:0:
360,272,66439,2,0,P|376:184|320:120,1,169.999990463257,8|0,0:0|0:0,0:0:0:0:
88,120,66761,1,2,0:0:0:0:
392,352,66975,6,0,L|488:352,1,84.9999952316285,4|0,0:0|0:0,0:0:0:0:
383,267,67189,2,0,L|295:267,2,84.9999952316285,8|8|8,0:3|0:0|0:0,0:0:0:0:
272,208,67511,1,8,0:0:0:0:
184,184,67618,2,0,L|176:80,1,84.9999952316285,8|0,0:3|0:0,0:0:0:0:
416,104,67832,6,0,L|424:208,1,84.9999952316285,4|0,0:3|0:0,0:0:0:0:
337,188,68047,2,0,L|433:188,1,84.9999952316285,8|8,0:0|0:0,0:0:0:0:
320,336,68261,2,0,L|312:224,1,84.9999952316285,8|0,0:0|0:0,0:0:0:0:
416,352,68475,2,0,L|424:256,1,84.9999952316285,8|0,0:3|0:0,0:0:0:0:
160,208,68689,6,0,P|64:160|48:104,1,169.999990463257,4|0,0:3|0:0,0:0:0:0:
160,208,69011,2,0,P|256:184|296:112,1,169.999990463257,8|0,0:0|0:0,0:0:0:0:
208,104,69332,1,8,0:0:0:0:
296,80,69439,1,8,0:0:0:0:
472,80,69547,6,0,L|264:80,1,169.999990463257,8|0,0:3|0:0,0:0:0:0:
200,136,69868,2,0,L|400:136,1,169.999990463257,8|0,0:0|0:0,0:0:0:0:
472,232,70189,2,0,L|368:232,1,84.9999952316285,4|0,0:3|0:0,0:0:0:0:
128,336,70404,6,0,L|24:336,1,84.9999952316285,12|0,0:0|0:0,0:0:0:0:
272,280,70618,2,0,L|280:184,1,84.9999952316285,8|0,0:0|0:0,0:0:0:0:
184,200,70832,2,0,L|176:88,1,84.9999952316285,8|8,0:0|0:0,0:0:0:0:
368,56,71047,2,0,L|480:56,1,84.9999952316285,8|0,0:3|0:0,0:0:0:0:
208,352,71261,6,0,L|200:248,1,84.9999952316285,4|0,0:3|0:0,0:0:0:0:
304,280,71475,2,0,L|312:168,1,84.9999952316285,8|0,0:0|0:0,0:0:0:0:
208,144,71689,2,0,L|304:144,1,84.9999952316285,8|8,0:0|0:0,0:0:0:0:
408,128,71904,2,0,L|416:24,1,84.9999952316285,8|0,0:3|0:0,0:0:0:0:
152,304,72118,6,0,L|56:304,2,84.9999952316285,8|0|0,0:3|0:0|0:0,0:0:0:0:
368,304,72439,2,0,L|464:304,2,84.9999952316285,8|0|8,0:0|0:0|0:0,0:0:0:0:
152,224,72761,2,0,L|248:224,1,84.9999952316285,8|0,0:3|0:0,0:0:0:0:
480,160,72975,6,0,L|304:160,1,169.999990463257,12|0,0:1|0:0,0:0:0:0:
64,96,73297,2,0,L|248:96,1,169.999990463257,8|0,0:1|0:0,0:0:0:0:
24,288,73618,2,0,L|224:288,1,169.999990463257,8|0,0:1|0:0,0:0:0:0:
464,296,73939,2,0,L|480:112,1,169.999990463257,8|0,0:1|0:0,0:0:0:0:
248,184,74261,2,0,L|240:96,1,84.9999952316285,8|8,0:0|0:0,0:0:0:0:
480,56,74475,2,0,L|360:56,1,84.9999952316285,8|8,0:1|0:0,0:0:0:0:
168,256,74689,6,0,L|376:256,1,169.999990463257,12|0,0:1|0:0,0:0:0:0:
96,184,75011,2,0,P|64:88|128:64,1,169.999990463257,8|0,0:1|0:0,0:0:0:0:
336,64,75332,2,0,L|432:64,1,84.9999952316285,8|0,0:1|0:0,0:0:0:0:
160,352,75547,6,8,L|80:352,2,56.6666634877523
328,272,75761,1,8,0:0:0:0:
264,248,75832,1,8,0:0:0:0:
200,232,75904,1,8,0:0:0:0:
352,352,75975,2,8,L|424:352,2,56.6666634877523
160,160,76189,2,8,L|48:160,1,84.9999952316285,12|8,0:1|0:0,0:0:0:0:
336,96,76404,6,0,L|136:96,1,169.999990463257,14|0,0:0|0:0,0:0:0:0:
368,224,76725,2,0,L|176:224,1,169.999990463257,8|0,0:1|0:0,0:0:0:0:
416,336,77047,2,0,P|464:272|392:232,1,169.999990463257,8|0,0:1|0:0,0:0:0:0:
200,216,77368,2,0,P|152:136|208:104,1,169.999990463257,8|0,0:1|0:0,0:0:0:0:
400,104,77689,2,0,L|512:104,1,84.9999952316285,8|8,0:0|0:0,0:0:0:0:
280,296,77904,2,0,L|176:296,1,84.9999952316285,8|0,0:1|0:0,0:0:0:0:
416,288,78118,6,0,P|464:216|392:168,1,169.999990463257,12|0,0:1|0:0,0:0:0:0:
200,160,78439,2,0,L|384:160,1,169.999990463257,8|0,0:1|0:0,0:0:0:0:
144,312,78761,2,0,L|56:312,1,84.9999952316285,8|0,0:1|0:0,0:0:0:0:
296,272,78975,5,0,0:0:0:0:
128,224,79082,2,0,L|328:224,1,169.999990463257,8|2,0:1|0:0,0:0:0:0:
208,184,79404,1,8,0:1:0:0:
120,168,79511,1,8,0:0:0:0:
208,112,79618,1,8,0:1:0:0:
120,72,79725,1,8,0:1:0:0:
344,312,79832,6,0,L|448:312,1,84.9999952316285,4|0,0:0|0:0,0:0:0:0:
344,248,80047,2,0,L|336:144,1,84.9999952316285,8|0,0:1|0:0,0:0:0:0:
440,112,80261,2,0,L|328:112,1,84.9999952316285,8|8,0:0|0:0,0:0:0:0:
248,96,80475,2,0,L|344:48,1,84.9999952316285,8|0,0:1|0:0,0:0:0:0:
152,336,80689,6,0,P|48:296|32:208,1,169.999990463257,10|8,0:0|0:1,0:0:0:0:
152,336,81011,2,0,P|200:272|136:216,1,169.999990463257,8|8,0:0|0:0,0:0:0:0:
40,208,81332,1,8,0:1:0:0:
352,280,81547,6,0,P|456:232|472:152,1,169.999990463257,10|8,0:0|0:1,0:0:0:0:
368,176,81868,2,0,L|176:144,1,169.999990463257,8|8,0:0|0:0,0:0:0:0:
80,128,82189,1,8,0:1:0:0:
352,336,82404,6,0,L|360:240,1,84.9999952316285,8|0,0:0|0:1,0:0:0:0:
464,248,82618,2,0,L|448:160,1,84.9999952316285,8|0,0:1|0:0,0:0:0:0:
256,144,82832,2,0,L|160:136,1,84.9999952316285,8|0,0:0|0:1,0:0:0:0:
72,104,83047,2,0,L|184:96,1,84.9999952316285,8|0,0:1|0:0,0:0:0:0:
328,320,83261,5,10,0:0:0:0:
408,240,83368,2,0,L|320:240,1,84.9999952316285,0|8,0:0|0:1,0:0:0:0:
216,200,83582,2,0,L|224:96,1,84.9999952316285,0|8,0:0|0:0,0:0:0:0:
312,112,83797,1,8,0:0:0:0:
224,64,83904,2,0,L|312:64,1,84.9999952316285,8|0,0:1|0:0,0:0:0:0:
496,160,84118,6,0,L|304:160,1,169.999990463257,10|8,0:0|0:1,0:0:0:0:
424,336,84439,2,0,P|472:256|408:216,1,169.999990463257,0|8,0:0|0:0,0:0:0:0:
328,216,84761,1,8,0:1:0:0:
48,176,84975,6,0,P|8:112|96:64,1,169.999990463257,10|8,0:0|0:1,0:0:0:0:
176,64,85297,1,2,0:0:0:0:
280,72,85404,2,0,L|296:184,1,84.9999952316285,0|8,0:0|0:0,0:0:0:0:
192,208,85618,2,0,L|288:208,1,84.9999952316285,8|0,0:1|0:0,0:0:0:0:
104,328,85832,6,0,L|16:328,1,84.9999952316285,8|0,0:1|0:0,0:0:0:0:
288,280,86047,2,0,L|392:280,1,84.9999952316285,8|0,0:1|0:0,0:0:0:0:
144,184,86261,2,0,L|56:184,1,84.9999952316285,8|0,0:1|0:0,0:0:0:0:
304,80,86475,2,0,L|416:80,1,84.9999952316285,8|0,0:1|0:0,0:0:0:0:
144,328,86689,5,12,0:0:0:0:
248,320,86797,2,0,L|248:224,1,84.9999952316285,8|8,0:0|0:1,0:0:0:0:
152,200,87011,2,0,L|256:200,1,84.9999952316285,8|10,0:0|0:0,0:0:0:0:
328,168,87225,2,0,L|224:168,2,84.9999952316285,8|8|0,0:0|0:1|0:0,0:0:0:0:
136,312,87547,6,0,P|40:256|32:192,1,169.999990463257,10|8,0:0|0:1,0:0:0:0:
136,312,87868,2,0,P|232:272|264:200,1,169.999990463257,8|8,0:0|0:0,0:0:0:0:
168,216,88189,1,8,0:1:0:0:
464,216,88404,6,0,L|472:32,1,169.999990463257,10|8,0:0|0:1,0:0:0:0:
360,352,88725,2,0,P|456:304|464:216,1,169.999990463257,8|8,0:0|0:0,0:0:0:0:
376,248,89047,1,8,0:1:0:0:
80,232,89261,6,0,L|72:144,1,84.9999952316285,10|0,0:0|0:0,0:0:0:0:
176,144,89475,2,0,L|288:144,1,84.9999952316285,8|0,0:1|0:0,0:0:0:0:
168,64,89689,2,0,L|56:64,1,84.9999952316285,8|8,0:0|0:0,0:0:0:0:
304,296,89904,2,0,L|424:296,1,84.9999952316285,8|0,0:1|0:0,0:0:0:0:
216,232,90118,6,0,L|208:120,1,84.9999952316285,6|0,0:0|0:0,0:0:0:0:
304,128,90332,2,0,L|192:128,1,84.9999952316285,8|0,0:1|0:0,0:0:0:0:
112,80,90547,2,0,L|208:80,1,84.9999952316285,8|8,0:0|0:0,0:0:0:0:
104,128,90761,2,0,L|96:232,1,84.9999952316285,8|0,0:1|0:0,0:0:0:0:
336,328,90975,6,0,P|280:248|200:232,1,169.999990463257,10|8,0:0|0:1,0:0:0:0:
320,224,91297,2,0,P|408:184|432:104,1,169.999990463257,8|8,0:0|0:0,0:0:0:0:
336,120,91618,1,8,0:1:0:0:
40,248,91832,6,0,L|240:248,1,169.999990463257,10|8,0:0|0:1,0:0:0:0:
480,104,92154,2,0,L|280:104,1,169.999990463257,8|8,0:0|0:0,0:0:0:0:
208,104,92475,1,8,0:1:0:0:
496,312,92689,6,0,L|392:312,1,84.9999952316285,10|0,0:0|0:0,0:0:0:0:
200,256,92904,2,0,L|304:256,1,84.9999952316285,8|0,0:1|0:0,0:0:0:0:
480,184,93118,1,8,0:1:0:0:
400,184,93225,1,8,0:0:0:0:
360,184,93279,1,8,0:0:0:0:
200,184,93332,2,0,L|104:184,1,84.9999952316285,8|0,0:1|0:0,0:0:0:0:
392,304,93547,5,12,0:0:0:0:
264,288,93761,1,8,0:0:0:0:
336,240,93868,1,8,0:0:0:0:
264,216,93975,1,8,0:0:0:0:
400,176,94189,1,8,0:0:0:0:
184,160,94404,5,8,0:0:0:0:
320,112,94618,1,8,0:0:0:0:
248,96,94725,1,8,0:0:0:0:
392,312,94939,2,0,P|440:240|376:192,1,169.999990463257,8|8,0:0|0:0,0:0:0:0:
312,176,95261,5,8,0:0:0:0:
392,144,95368,1,8,0:0:0:0:
216,104,95582,1,8,0:0:0:0:
344,72,95797,1,8,0:0:0:0:
200,304,96011,1,8,0:0:0:0:
296,304,96118,6,0,P|384:264|376:168,1,169.999990463257,8|8,0:0|0:0,0:0:0:0:
312,192,96439,2,0,P|280:88|408:48,1,254.999985694886,8|0,0:0|0:0,0:0:0:0:
48,168,96975,6,0,L|208:48,1,169.999990463257,12|8,0:0|0:0,0:0:0:0:
104,48,97297,1,8,0:0:0:0:
183,66,97404,1,8,0:0:0:0:
48,256,97618,1,8,0:0:0:0:
256,328,97832,6,0,P|304:256|224:232,1,169.999990463257,8|8,0:0|0:0,0:0:0:0:
176,224,98154,1,8,0:0:0:0:
288,160,98368,1,8,0:0:0:0:
176,120,98582,1,8,0:0:0:0:
368,120,98689,6,0,L|376:24,1,84.9999952316285,8|8,0:0|0:0,0:0:0:0:
248,128,99011,1,8,0:0:0:0:
368,192,99225,1,8,0:0:0:0:
72,288,99439,6,0,L|64:192,1,84.9999952316285
216,200,99761,1,8,0:0:0:0:
136,160,99868,1,8,0:0:0:0:
216,128,99975,1,4,0:3:0:0:
32,112,100189,1,4,0:3:0:0:
464,336,100404,6,8,L|456:216,1,84.9999952316285,12|8,0:1|0:0,0:0:0:0:
368,256,100618,2,8,L|376:160,1,84.9999952316285
480,136,100832,2,8,L|392:136,1,84.9999952316285,8|8,0:1|0:0,0:0:0:0:
296,104,101047,2,8,L|392:96,1,84.9999952316285
184,352,101261,6,8,L|176:240,1,84.9999952316285,8|8,0:1|0:0,0:0:0:0:
280,256,101475,2,8,L|288:152,1,84.9999952316285
64,112,101689,2,8,L|160:112,1,84.9999952316285,8|8,0:1|0:0,0:0:0:0:
328,112,101904,2,8,L|440:112,1,84.9999952316285
160,304,102118,6,8,L|88:304,2,56.6666634877523,12|8|8,0:3|0:0|0:0,0:0:0:0:
328,304,102332,2,8,L|408:304,2,56.6666634877523
168,192,102547,2,8,L|248:192,1,56.6666634877523
224,136,102689,2,8,L|136:136,1,56.6666634877523
352,104,102832,2,8,L|440:104,1,56.6666634877523
144,144,102975,5,8,0:1:0:0:
56,128,103082,1,8,0:1:0:0:
224,88,103189,1,8,0:1:0:0:
56,64,103297,1,8,0:1:0:0:
256,48,103404,1,2,0:0:0:0:
344,128,103511,2,0,L|168:128,1,169.999990463257,0|8,0:0|0:0,0:0:0:0:
448,312,103832,6,0,L|456:208,1,84.9999952316285,4|0,0:0|0:0,0:0:0:0:
368,216,104047,1,8,0:1:0:0:
136,152,104154,2,0,L|320:152,1,169.999990463257,8|8,0:0|0:0,0:0:0:0:
112,288,104475,2,0,L|16:288,1,84.9999952316285,8|0,0:1|0:0,0:0:0:0:
272,240,104689,6,2,P|312:160|248:136,1,169.999990463257,10|8,0:0|0:1,0:0:0:0:
160,112,105011,1,0,0:0:0:0:
256,96,105118,2,0,L|264:8,1,84.9999952316285,8|8,0:0|0:0,0:0:0:0:
56,208,105332,2,0,L|152:208,1,84.9999952316285,8|0,0:1|0:0,0:0:0:0:
456,304,105547,6,0,L|264:304,1,169.999990463257,10|8,0:0|0:1,0:0:0:0:
384,248,105868,2,0,L|480:248,2,84.9999952316285,8|0|0,0:0|0:0|0:0,0:0:0:0:
152,240,106189,2,0,L|144:128,1,84.9999952316285,8|0,0:1|0:0,0:0:0:0:
368,152,106404,6,0,P|416:72|368:40,1,169.999990463257,2|8,0:0|0:1,0:0:0:0:
168,72,106832,1,8,0:0:0:0:
256,96,106939,1,8,0:0:0:0:
56,176,107047,2,0,L|48:280,1,84.9999952316285,8|0,0:1|0:0,0:0:0:0:
304,328,107261,6,0,L|392:328,1,84.9999952316285,14|0,0:0|0:0,0:0:0:0:
192,256,107475,2,0,L|184:152,1,84.9999952316285,8|0,0:1|0:0,0:0:0:0:
272,144,107689,1,2,0:0:0:0:
184,120,107797,1,8,0:0:0:0:
280,80,107904,2,0,L|368:80,1,84.9999952316285,8|0,0:1|0:0,0:0:0:0:
176,288,108118,5,10,0:0:0:0:
352,296,108225,2,0,L|360:176,1,84.9999952316285,2|8,0:0|0:1,0:0:0:0:
272,200,108439,1,8,0:0:0:0:
480,120,108547,2,0,L|376:120,1,84.9999952316285,8|0,0:0|0:0,0:0:0:0:
184,240,108761,2,0,L|288:240,1,84.9999952316285,8|0,0:1|0:0,0:0:0:0:
64,176,108975,6,0,L|56:80,1,84.9999952316285,14|0,0:0|0:0,0:0:0:0:
240,88,109189,1,8,0:0:0:0:
56,56,109297,1,8,0:1:0:0:
240,48,109404,2,0,L|352:48,1,84.9999952316285,10|0,0:0|0:0,0:0:0:0:
120,312,109618,2,0,L|32:312,1,84.9999952316285,14|0,0:0|0:0,0:0:0:0:
320,264,109832,6,8,L|304:160,1,84.9999952316285,4|8,0:3|0:0,0:0:0:0:
208,160,110047,2,8,L|104:160,1,84.9999952316285
320,320,110261,1,4,0:3:0:0:
338,282,110314,1,0,0:0:0:0:
329,241,110368,1,0,0:0:0:0:
296,216,110422,1,0,0:0:0:0:
184,288,110475,2,8,L|128:288,1,42.4999976158143
296,360,110582,2,4,L|347:358,1,42.4999976158143,4|4,0:3|0:3,0:3:0:0:
144,336,110689,6,0,P|96:272|168:224,1,169.999990463257,14|8,0:0|0:1,0:0:0:0:
416,184,111011,2,0,L|240:184,1,169.999990463257,2|8,0:0|0:0,0:0:0:0:
32,112,111332,2,0,L|152:112,1,84.9999952316285,8|0,0:1|0:0,0:0:0:0:
352,336,111547,6,0,L|360:240,1,84.9999952316285,10|0,0:0|0:0,0:0:0:0:
264,248,111761,2,0,L|272:144,1,84.9999952316285,8|0,0:1|0:0,0:0:0:0:
368,128,111975,1,8,0:0:0:0:
272,96,112082,1,8,0:0:0:0:
496,304,112189,2,0,L|392:304,1,84.9999952316285,8|0,0:1|0:0,0:0:0:0:
200,304,112404,6,0,L|16:304,1,169.999990463257,10|8,0:0|0:1,0:0:0:0:
200,208,112725,2,0,L|296:208,2,84.9999952316285,8|0|8,0:0|0:0|0:0,0:0:0:0:
392,88,113047,2,8,L|488:88,1,84.9999952316285,8|8,0:1|0:0,0:0:0:0:
232,312,113261,6,0,L|224:192,1,84.9999952316285,10|0,0:0|0:0,0:0:0:0:
328,224,113475,2,0,L|336:136,1,84.9999952316285,8|0,0:1|0:0,0:0:0:0:
248,112,113689,1,8,0:0:0:0:
336,80,113797,1,8,0:0:0:0:
152,240,113904,2,0,L|32:240,1,84.9999952316285,8|0,0:1|0:0,0:0:0:0:
368,352,114118,6,0,L|472:352,1,84.9999952316285,12|0,0:0|0:0,0:0:0:0:
256,296,114332,2,0,L|248:184,1,84.9999952316285,8|0,0:1|0:0,0:0:0:0:
344,168,114547,1,8,0:0:0:0:
248,144,114654,2,0,L|136:144,2,84.9999952316285,8|8|0,0:0|0:1|0:0,0:0:0:0:
80,304,114975,5,8,0:0:0:0:
176,288,115082,2,0,P|112:264|80:160,1,169.999990463257,10|10,0:0|0:0,0:0:0:0:
320,128,115404,2,0,L|416:128,1,84.9999952316285,8|0,0:0|0:0,0:0:0:0:
208,328,115618,2,0,L|112:328,1,84.9999952316285,8|0,0:1|0:0,0:0:0:0:
400,280,115832,6,0,L|408:160,1,84.9999952316285,14|0,0:0|0:0,0:0:0:0:
216,184,116047,1,8,0:0:0:0:
408,152,116154,1,8,0:0:0:0:
216,168,116261,2,0,L|112:168,1,84.9999952316285,10|0,0:0|0:0,0:0:0:0:
320,96,116475,2,0,L|432:96,1,84.9999952316285,4|0,0:3|0:0,0:0:0:0:
136,344,116689,6,8,L|64:344,1,42.4999976158143
144,328,116797,1,8,0:0:0:0:
184,288,116850,1,8,0:0:0:0:
184,232,116904,1,8,0:0:0:0:
144,200,116957,1,8,0:0:0:0:
96,200,117011,1,8,0:0:0:0:
272,184,117118,1,8,0:1:0:0:
456,136,117225,1,8,0:1:0:0:
272,96,117332,1,8,0:1:0:0:
88,72,117439,1,8,0:1:0:0:
400,328,117547,6,0,P|440:232|384:208,1,169.999990463257,6|8,0:0|0:1,0:0:0:0:
200,328,117868,2,0,P|168:232|224:208,1,169.999990463257,8|8,0:0|0:0,0:0:0:0:
464,112,118189,2,0,L|368:112,1,84.9999952316285,8|0,0:1|0:0,0:0:0:0:
144,336,118404,6,0,P|40:288|16:216,1,169.999990463257,10|8,0:0|0:1,0:0:0:0:
112,232,118725,1,0,0:0:0:0:
408,240,118832,2,0,L|424:144,1,84.9999952316285,8|8,0:0|0:0,0:0:0:0:
312,160,119047,2,0,L|304:64,1,84.9999952316285,8|0,0:1|0:0,0:0:0:0:
80,48,119261,6,0,L|288:48,1,169.999990463257,14|8,0:0|0:1,0:0:0:0:
64,232,119582,2,0,P|32:128|96:112,1,169.999990463257,8|8,0:0|0:0,0:0:0:0:
264,328,119904,2,0,L|376:328,1,84.9999952316285,8|0,0:1|0:0,0:0:0:0:
112,224,120118,6,0,L|312:224,1,169.999990463257,10|8,0:0|0:1,0:0:0:0:
368,224,120439,1,0,0:0:0:0:
120,312,120547,2,0,L|216:312,1,84.9999952316285,8|8,0:0|0:0,0:0:0:0:
416,248,120761,2,0,L|312:248,1,84.9999952316285,8|0,0:1|0:0,0:0:0:0:
104,256,120975,6,0,P|24:176|136:128,1,254.999985694886,14|0,0:0|0:0,0:0:0:0:
384,120,121618,1,2,0:0:0:0:
96,288,121832,6,0,L|384:288,1,254.999985694886,12|0,0:0|0:0,0:0:0:0:
96,184,122475,1,10,0:0:0:0:
424,112,122684,5,14,0:0:0:0:
320,112,122791,2,0,L|232:112,1,84.9999952316285,2|8,0:0|0:1,0:0:0:0:
336,200,123005,1,0,0:0:0:0:
240,312,123112,2,0,L|232:216,1,84.9999952316285,8|8,0:0|0:0,0:0:0:0:
472,240,123326,2,0,L|480:152,1,84.9999952316285,8|0,0:1|0:0,0:0:0:0:
256,176,123541,6,0,P|160:128|128:72,1,169.999990463257,10|8,0:0|0:1,0:0:0:0:
256,176,123862,2,0,P|304:128|232:64,1,169.999990463257,8|8,0:0|0:0,0:0:0:0:
152,64,124184,1,8,0:1:0:0:
448,320,124398,5,2,0:0:0:0:
344,320,124505,2,0,L|488:192,1,169.999990463257,2|8,0:0|0:0,0:0:0:0:
376,200,124826,2,0,L|368:112,1,84.9999952316285,8|8,0:0|0:0,0:0:0:0:
168,112,125041,2,0,L|72:112,1,84.9999952316285,8|0,0:1|0:0,0:0:0:0:
304,328,125255,6,0,L|488:328,1,169.999990463257,2|8,0:0|0:1,0:0:0:0:
368,320,125576,2,0,P|240:248|232:216,1,169.999990463257,8|8,0:0|0:0,0:0:0:0:
336,232,125898,1,8,0:1:0:0:
56,144,126112,5,12,0:0:0:0:
256,144,126219,2,0,P|312:80|240:24,1,169.999990463257,2|0,0:0|0:0,0:0:0:0:
160,80,126541,2,0,L|248:80,1,84.9999952316285,8|8,0:0|0:0,0:0:0:0:
352,200,126755,2,0,L|264:200,1,84.9999952316285,8|0,0:1|0:0,0:0:0:0:
32,280,126969,6,0,L|240:280,1,169.999990463257,2|8,0:0|0:1,0:0:0:0:
96,264,127291,2,0,P|48:200|112:136,1,169.999990463257,8|8,0:0|0:0,0:0:0:0:
200,136,127612,2,0,L|296:136,1,84.9999952316285,8|0,0:1|0:0,0:0:0:0:
464,336,127826,5,10,0:0:0:0:
376,296,127934,1,8,0:0:0:0:
472,256,128041,1,8,0:1:0:0:
296,224,128148,1,8,0:0:0:0:
96,216,128255,1,8,0:0:0:0:
184,184,128362,1,8,0:0:0:0:
280,152,128469,1,8,0:1:0:0:
72,120,128576,1,8,0:0:0:0:
280,288,128683,6,0,L|384:288,2,84.9999952316285,8|8|8,0:1|0:0|0:0,0:0:0:0:
480,304,129005,2,0,L|488:200,1,84.9999952316285,8|8,0:1|0:0,0:0:0:0:
392,208,129219,1,8,0:0:0:0:
168,208,129326,2,0,L|64:208,1,84.9999952316285,8|0,0:1|0:0,0:0:0:0:
352,200,129541,5,12,0:0:0:0:
448,136,129648,2,0,L|240:136,1,169.999990463257,2|8,0:0|0:0,0:0:0:0:
368,104,129969,2,0,L|376:16,1,84.9999952316285,8|0,0:0|0:0,0:0:0:0:
176,264,130183,2,0,L|168:168,1,84.9999952316285,8|0,0:1|0:0,0:0:0:0:
368,312,130398,6,0,P|416:272|344:200,1,169.999990463257,10|8,0:0|0:1,0:0:0:0:
240,192,130719,2,0,P|192:112|256:72,1,169.999990463257,8|8,0:0|0:0,0:0:0:0:
464,72,131041,2,0,L|360:72,1,84.9999952316285,8|0,0:1|0:0,0:0:0:0:
160,72,131255,5,2,0:0:0:0:
261,72,131362,2,0,P|317:128|237:160,1,169.999990463257,2|8,0:0|0:0,0:0:0:0:
144,208,131684,2,0,L|136:304,1,84.9999952316285,8|8,0:0|0:0,0:0:0:0:
320,336,131898,2,0,L|328:240,1,84.9999952316285,8|0,0:1|0:0,0:0:0:0:
136,192,132112,6,0,L|344:192,1,169.999990463257,10|8,0:0|0:1,0:0:0:0:
416,128,132434,2,0,L|216:128,1,169.999990463257,2|8,0:0|0:0,0:0:0:0:
64,40,132755,2,0,L|152:40,1,84.9999952316285,8|0,0:1|0:0,0:0:0:0:
416,72,132969,5,12,0:0:0:0:
200,72,133076,2,0,P|152:136|232:192,1,169.999990463257,2|0,0:0|0:0,0:0:0:0:
312,288,133398,2,0,L|320:184,1,84.9999952316285,8|8,0:0|0:0,0:0:0:0:
80,336,133612,2,0,L|72:224,1,84.9999952316285,8|0,0:1|0:0,0:0:0:0:
312,208,133826,6,0,L|128:208,1,169.999990463257,10|8,0:0|0:1,0:0:0:0:
256,360,134148,2,0,P|368:312|400:232,1,169.999990463257,8|8,0:0|0:0,0:0:0:0:
208,248,134469,2,0,L|200:144,1,84.9999952316285,8|0,0:1|0:0,0:0:0:0:
416,152,134683,5,10,0:0:0:0:
336,112,134791,1,8,0:0:0:0:
416,80,134898,1,8,0:1:0:0:
224,72,135005,1,8,0:0:0:0:
56,152,135112,1,8,0:0:0:0:
136,112,135219,1,8,0:0:0:0:
48,80,135326,1,8,0:1:0:0:
224,144,135433,1,8,0:0:0:0:
416,320,135541,6,0,L|424:216,1,84.9999952316285,8|0,0:1|0:0,0:0:0:0:
320,232,135755,1,0,0:0:0:0:
144,184,135862,1,8,0:1:0:0:
232,168,135969,1,0,0:0:0:0:
320,152,136076,1,0,0:0:0:0:
120,72,136183,2,0,L|24:72,1,84.9999952316285,8|0,0:3|0:0,0:0:0:0:
256,296,136398,6,0,L|344:296,2,84.9999952316285,6|0|8,0:0|0:0|0:1,0:0:0:0:
160,232,136719,2,0,L|336:232,1,169.999990463257,2|8,0:0|0:0,0:0:0:0:
240,160,137041,2,0,L|144:160,1,84.9999952316285,8|0,0:1|0:0,0:0:0:0:
256,112,137255,5,8,0:0:0:0:
152,96,137362,2,0,L|136:8,2,84.9999952316285,8|8|8,0:1|0:0|0:1,0:0:0:0:
256,224,137683,1,8,0:0:0:0:
152,232,137791,1,8,0:0:0:0:
352,336,137898,2,0,L|448:336,1,84.9999952316285,8|0,0:1|0:0,0:0:0:0:
256,224,138112,5,10,0:0:0:0:
168,184,138219,1,2,0:0:0:0:
264,144,138326,2,0,L|272:40,1,84.9999952316285,8|0,0:1|0:0,0:0:0:0:
176,48,138541,2,0,L|368:48,1,169.999990463257,8|8,0:0|0:1,0:0:0:0:
168,312,138969,5,8,0:0:0:0:
272,272,139076,2,0,L|264:160,1,84.9999952316285,8|8,0:0|0:1,0:0:0:0:
160,160,139291,2,0,L|352:160,1,169.999990463257,8|0,0:0|0:0,0:0:0:0:
224,112,139612,2,0,L|120:112,1,84.9999952316285,8|0,0:1|0:0,0:0:0:0:
312,296,139826,6,0,P|416:264|456:192,1,169.999990463257,8|8,0:0|0:1,0:0:0:0:
352,184,140148,1,8,0:0:0:0:
456,168,140255,2,0,L|464:80,1,84.9999952316285,10|0,0:0|0:0,0:0:0:0:
368,64,140469,2,0,L|456:64,1,84.9999952316285,8|0,0:1|0:0,0:0:0:0:
240,240,140683,6,0,L|48:240,1,169.999990463257,10|8,0:0|0:1,0:0:0:0:
168,192,141005,2,0,P|216:128|136:80,1,169.999990463257,2|8,0:0|0:0,0:0:0:0:
64,48,141326,2,0,L|176:48,1,84.9999952316285,8|0,0:1|0:0,0:0:0:0:
456,280,141541,6,0,L|448:176,1,84.9999952316285,12|0,0:0|0:0,0:0:0:0:
344,176,141755,2,0,L|352:56,1,84.9999952316285,8|0,0:1|0:0,0:0:0:0:
240,240,141969,2,0,L|232:136,1,84.9999952316285,8|8,0:0|0:0,0:0:0:0:
336,344,142183,2,0,L|344:240,1,84.9999952316285,8|0,0:1|0:0,0:0:0:0:
240,264,142398,6,0,L|352:264,2,84.9999952316285,10|8|8,0:0|0:0|0:1,0:0:0:0:
136,264,142719,2,0,P|56:240|9:155,1,169.999990463257,10|8,0:0|0:0,0:0:0:0:
120,168,143041,2,0,L|128:64,1,84.9999952316285,8|0,0:1|0:0,0:0:0:0:
16,40,143255,6,0,L|112:40,1,84.9999952316285,10|0,0:0|0:0,0:0:0:0:
216,72,143469,2,0,L|120:72,2,84.9999952316285,8|8|2,0:1|0:0|0:0,0:0:0:0:
128,152,143791,1,0,0:1:0:0:
224,152,143898,1,8,0:1:0:0:
320,152,144005,1,8,0:0:0:0:
128,328,144112,6,0,P|40:288|16:200,1,169.999990463257,8|8,0:1|0:1,0:0:0:0:
328,208,144541,1,8,0:1:0:0:
240,176,144648,1,8,0:1:0:0:
328,144,144755,1,8,0:1:0:0:
128,144,144862,1,8,0:1:0:0:
328,280,144969,6,0,L|440:280,1,84.9999952316285,12|0,0:0|0:0,0:0:0:0:
328,224,145183,2,0,L|320:128,1,84.9999952316285,8|0,0:1|0:0,0:0:0:0:
416,112,145398,2,0,L|312:112,1,84.9999952316285,8|0,0:0|0:0,0:0:0:0:
232,112,145612,2,0,L|224:8,1,84.9999952316285,8|0,0:1|0:0,0:0:0:0:
392,320,145826,6,0,P|400:256|304:216,1,169.999990463257,10|8,0:0|0:1,0:0:0:0:
208,208,146148,2,0,P|240:128|328:112,1,169.999990463257,2|8,0:0|0:0,0:0:0:0:
408,112,146469,1,8,0:1:0:0:
96,336,146683,6,0,L|88:240,1,84.9999952316285,2|0,0:0|0:0,0:0:0:0:
192,232,146898,2,0,L|96:232,1,84.9999952316285,8|0,0:1|0:0,0:0:0:0:
208,184,147112,1,8,0:0:0:0:
293,184,147219,1,8,0:0:0:0:
378,184,147326,1,8,0:1:0:0:
200,360,147541,6,0,L|216:248,1,84.9999952316285,8|2,0:0|0:0,0:0:0:0:
312,240,147755,1,8,0:1:0:0:
208,208,147862,2,0,L|392:208,1,169.999990463257,8|8,0:0|0:0,0:0:0:0:
464,208,148183,1,8,0:1:0:0:
152,176,148398,5,14,0:0:0:0:
344,160,148505,2,0,L|352:56,1,84.9999952316285,2|8,0:0|0:1,0:0:0:0:
248,56,148719,2,0,L|152:56,1,84.9999952316285,8|8,0:0|0:0,0:0:0:0:
272,224,148933,2,0,L|376:224,1,84.9999952316285,0|8,0:0|0:1,0:0:0:0:
384,304,149148,1,0,0:0:0:0:
184,312,149255,6,0,L|88:312,2,84.9999952316285,10|0|8,0:0|0:0|0:1,0:0:0:0:
80,288,149576,2,0,P|32:224|104:168,1,169.999990463257,8|8,0:0|0:0,0:0:0:0:
184,144,149898,2,0,L|80:144,1,84.9999952316285,8|0,0:1|0:0,0:0:0:0:
312,224,150112,6,0,L|496:224,2,169.999990463257,10|8|8,0:0|0:1|0:0,0:0:0:0:
208,200,150648,1,8,0:0:0:0:
312,168,150755,2,0,L|424:168,1,84.9999952316285,8|0,0:1|0:0,0:0:0:0:
216,328,150969,6,0,L|208:232,1,84.9999952316285,12|0,0:3|0:0,0:0:0:0:
304,240,151183,1,8,0:0:0:0:
112,216,151291,1,8,0:3:0:0:
208,200,151398,2,0,L|216:80,1,84.9999952316285,4|8,0:3|0:0,0:0:0:0:
40,104,151612,1,8,0:1:0:0:
216,72,151719,1,8,0:1:0:0:
432,280,151826,6,0,L|248:280,1,169.999990463257,12|8,0:0|0:1,0:0:0:0:
352,256,152148,2,0,P|456:216|480:144,1,169.999990463257,0|8,0:0|0:0,0:0:0:0:
352,152,152469,1,8,0:1:0:0:
184,320,152683,6,0,P|144:240|208:192,1,169.999990463257,10|8,0:0|0:1,0:0:0:0:
296,168,153005,2,0,L|104:168,1,169.999990463257,8|8,0:0|0:0,0:0:0:0:
208,120,153326,1,8,0:1:0:0:
120,80,153433,1,8,0:0:0:0:
368,344,153541,6,0,P|472:272|480:216,1,169.999990463257,10|8,0:0|0:1,0:0:0:0:
368,344,153862,2,0,P|336:240|384:216,1,169.999990463257,8|0,0:0|0:0,0:0:0:0:
480,216,154183,1,8,0:1:0:0:
184,136,154398,6,0,L|-8:120,1,169.999990463257,2|8,0:0|0:1,0:0:0:0:
96,232,154719,2,0,L|288:208,1,169.999990463257,8|0,0:0|0:0,0:0:0:0:
360,160,155041,1,8,0:1:0:0:
24,272,155255,6,0,L|224:272,1,169.999990463257,14|8,0:0|0:1,0:0:0:0:
312,272,155576,2,0,P|360:200|288:152,1,169.999990463257,8|8,0:0|0:0,0:0:0:0:
208,144,155898,1,8,0:1:0:0:
376,336,156112,6,0,L|192:328,1,169.999990463257,10|8,0:0|0:1,0:0:0:0:
296,288,156433,2,0,L|464:248,1,169.999990463257,8|8,0:0|0:0,0:0:0:0:
384,160,156755,1,8,0:1:0:0:
464,112,156862,1,8,0:0:0:0:
272,240,156969,6,0,P|160:200|112:136,1,169.999990463257,10|8,0:0|0:1,0:0:0:0:
320,168,157291,2,0,P|328:104|240:56,1,169.999990463257,8|8,0:0|0:0,0:0:0:0:
344,40,157612,1,8,0:1:0:0:
40,312,157826,6,0,P|32:208|96:176,1,169.999990463257,10|0,0:0|0:1,0:0:0:0:
312,176,158148,2,0,L|120:160,1,169.999990463257,2|8,0:0|0:0,0:0:0:0:
400,232,158469,1,10,0:0:0:0:
128,352,158683,6,0,P|40:320|16:248,1,169.999990463257,14|8,0:0|0:0,0:0:0:0:
104,216,159005,1,8,0:0:0:0:
16,168,159112,2,8,L|24:56,1,84.9999952316285
128,88,159326,2,8,L|216:80,1,84.9999952316285,8|8,0:3|0:0,0:0:0:0:
416,328,159541,6,0,P|464:264|376:208,1,169.999990463257,4|8,0:3|0:0,0:0:0:0:
312,200,159862,1,8,0:0:0:0:
416,144,159969,2,8,L|512:144,1,84.9999952316285
400,320,160183,2,8,L|288:312,1,84.9999952316285,8|8,0:3|0:0,0:0:0:0:
112,312,160398,6,8,L|296:272,1,169.999990463257,4|8,0:3|0:0,0:0:0:0:
176,240,160719,2,8,L|-8:200,1,169.999990463257,8|8,0:3|0:0,0:0:0:0:
104,152,161041,1,8,0:0:0:0:
16,120,161148,1,8,0:0:0:0:
248,352,161255,6,0,P|296:296|224:240,1,169.999990463257,4|0,0:3|0:0,0:0:0:0:
120,240,161576,2,0,L|224:96,1,169.999990463257,8|0,0:0|0:0,0:0:0:0:
112,112,161898,2,0,L|104:16,1,84.9999952316285,8|0,0:3|0:0,0:0:0:0:
352,320,162112,6,0,L|472:320,1,84.9999952316285,4|0,0:0|0:0,0:0:0:0:
336,240,162326,2,8,L|240:240,1,84.9999952316285,8|8,0:0|0:0,0:0:0:0:
352,160,162541,2,8,L|456:160,1,84.9999952316285
184,72,162755,2,8,L|80:72,1,84.9999952316285
360,336,162969,6,8,L|352:240,1,84.9999952316285,4|8,0:3|0:0,0:0:0:0:
248,264,163183,2,8,L|240:160,1,84.9999952316285
128,160,163398,2,8,L|8:160,1,84.9999952316285
264,56,163612,2,8,L|360:56,1,84.9999952316285
120,336,163826,6,0,P|72:256|128:224,1,169.999990463257,4|0,0:3|0:0,0:0:0:0:
336,224,164148,2,8,L|424:224,2,84.9999952316285
80,120,164469,2,8,L|176:120,1,84.9999952316285
448,320,164683,6,0,L|240:320,1,169.999990463257,12|0,0:1|0:0,0:0:0:0:
496,168,165005,2,0,L|296:168,1,169.999990463257,8|0,0:1|0:0,0:0:0:0:
104,112,165326,2,0,L|312:112,1,169.999990463257,8|0,0:1|0:0,0:0:0:0:
64,320,165648,2,0,L|56:208,1,84.9999952316285,8|0,0:1|0:0,0:0:0:0:
280,208,165862,2,0,L|184:208,2,84.9999952316285,8|0|8,0:0|0:1|0:0,0:0:0:0:
480,128,166183,2,0,L|384:128,1,84.9999952316285,8|0,0:1|0:0,0:0:0:0:
128,216,166398,6,0,L|320:216,1,169.999990463257,12|0,0:1|0:0,0:0:0:0:
72,88,166719,2,0,L|272:88,1,169.999990463257,8|0,0:1|0:0,0:0:0:0:
32,288,167041,2,0,L|144:288,1,84.9999952316285,8|0,0:1|0:0,0:0:0:0:
368,288,167255,6,8,L|432:288,1,56.6666634877523
256,240,167398,2,8,L|192:240,1,56.6666634877523
256,168,167541,2,8,L|320:168,1,56.6666634877523
128,96,167683,2,8,L|64:96,2,56.6666634877523
336,88,167898,2,8,L|456:88,1,84.9999952316285,12|8,0:1|0:0,0:0:0:0:
128,304,168112,6,0,P|80:256|160:184,1,169.999990463257,12|0,0:1|0:0,0:0:0:0:
360,248,168433,2,0,P|408:176|344:120,1,169.999990463257,8|0,0:1|0:0,0:0:0:0:
128,104,168755,2,0,L|320:104,1,169.999990463257,8|0,0:1|0:0,0:0:0:0:
64,328,169076,2,0,P|16:264|88:216,1,169.999990463257,8|0,0:1|0:0,0:0:0:0:
288,208,169398,2,0,L|176:208,1,84.9999952316285,8|0,0:0|0:0,0:0:0:0:
400,80,169612,2,0,L|496:80,1,84.9999952316285,8|0,0:1|0:0,0:0:0:0:
288,320,169826,6,0,L|96:320,1,169.999990463257,12|0,0:1|0:0,0:0:0:0:
376,232,170148,2,0,P|424:160|360:112,1,169.999990463257,8|0,0:1|0:0,0:0:0:0:
120,232,170469,2,0,P|88:128|136:112,1,169.999990463257,8|8,0:1|0:0,0:0:0:0:
216,96,170791,2,0,L|40:96,1,169.999990463257,2|8,0:0|0:0,0:0:0:0:
240,184,171112,1,8,0:0:0:0:
152,200,171219,1,8,0:0:0:0:
328,312,171326,1,8,0:1:0:0:
80,312,171433,1,8,0:1:0:0:
328,312,171541,6,0,L|336:208,1,84.9999952316285,12|0,0:0|0:0,0:0:0:0:
232,224,171755,2,0,L|224:128,1,84.9999952316285,8|0,0:1|0:0,0:0:0:0:
120,88,171969,2,0,L|232:88,1,84.9999952316285,8|8,0:0|0:0,0:0:0:0:
312,120,172183,2,0,L|200:120,1,84.9999952316285,8|0,0:1|0:0,0:0:0:0:
424,344,172398,6,0,P|464:248|408:224,1,169.999990463257,10|8,0:0|0:1,0:0:0:0:
312,216,172719,2,0,P|264:160|336:96,1,169.999990463257,8|8,0:0|0:0,0:0:0:0:
432,96,173041,1,8,0:1:0:0:
160,336,173255,6,0,P|40:256|40:216,1,169.999990463257,10|8,0:0|0:1,0:0:0:0:
136,232,173576,1,8,0:0:0:0:
224,192,173683,1,0,0:0:0:0:
136,160,173791,1,8,0:0:0:0:
40,112,173898,2,0,L|160:112,1,84.9999952316285,8|0,0:1|0:0,0:0:0:0:
424,240,174112,6,8,L|264:160,2,169.999990463257,10|8|0,0:0|0:1|0:0,0:0:0:0:
88,336,174755,2,0,L|80:224,1,84.9999952316285,8|0,0:1|0:0,0:0:0:0:
336,224,174969,6,0,L|224:224,1,84.9999952316285,14|0,0:0|0:0,0:0:0:0:
352,160,175183,2,0,L|440:160,1,84.9999952316285,8|0,0:1|0:0,0:0:0:0:
248,136,175398,2,0,L|240:48,1,84.9999952316285,10|8,0:0|0:0,0:0:0:0:
344,96,175612,2,0,L|352:0,1,84.9999952316285,8|0,0:1|0:0,0:0:0:0:
176,344,175826,6,0,P|136:264|216:248,1,169.999990463257,10|8,0:0|0:1,0:0:0:0:
304,240,176148,2,0,P|352:192|272:136,1,169.999990463257,8|8,0:0|0:0,0:0:0:0:
184,120,176469,2,0,L|80:120,1,84.9999952316285,8|0,0:1|0:0,0:0:0:0:
344,344,176683,6,0,P|456:304|480:232,1,169.999990463257,10|8,0:0|0:1,0:0:0:0:
264,240,177005,2,0,L|168:240,2,84.9999952316285,8|0|8,0:0|0:0|0:0,0:0:0:0:
472,208,177326,2,0,L|352:208,1,84.9999952316285,8|0,0:1|0:0,0:0:0:0:
96,152,177541,6,0,L|200:152,1,84.9999952316285,8|0,0:1|0:0,0:0:0:0:
424,88,177755,2,0,L|320:88,1,84.9999952316285,8|0,0:1|0:0,0:0:0:0:
96,240,177969,2,0,L|208:240,1,84.9999952316285,8|0,0:1|0:0,0:0:0:0:
408,336,178183,2,0,L|416:216,1,84.9999952316285,8|0,0:1|0:0,0:0:0:0:
184,240,178398,5,12,0:0:0:0:
288,208,178505,1,8,0:0:0:0:
192,176,178612,2,0,L|184:80,1,84.9999952316285,8|0,0:1|0:0,0:0:0:0:
288,80,178826,2,0,L|168:80,1,84.9999952316285,8|8,0:0|0:0,0:0:0:0:
296,192,179041,2,0,L|304:88,1,84.9999952316285,8|0,0:1|0:0,0:0:0:0:
88,328,179255,6,0,P|48:240|112:224,1,169.999990463257,10|8,0:0|0:1,0:0:0:0:
192,216,179576,2,0,P|240:152|160:112,1,169.999990463257,8|8,0:0|0:0,0:0:0:0:
80,104,179898,1,8,0:1:0:0:
360,344,180112,6,0,P|440:304|464:216,1,169.999990463257,10|8,0:0|0:1,0:0:0:0:
376,208,180433,1,8,0:0:0:0:
472,176,180541,2,0,L|480:64,1,84.9999952316285,8|0,0:0|0:0,0:0:0:0:
376,80,180755,2,0,L|480:80,1,84.9999952316285,8|0,0:1|0:0,0:0:0:0:
192,264,180969,6,0,L|8:200,2,169.999990463257,10|8|8,0:0|0:1|0:0,0:0:0:0:
416,264,181612,1,8,0:1:0:0:
136,344,181826,6,0,L|232:344,1,84.9999952316285,12|0,0:0|0:0,0:0:0:0:
312,304,182041,2,0,L|216:304,1,84.9999952316285,8|0,0:1|0:0,0:0:0:0:
336,248,182255,2,0,L|344:136,1,84.9999952316285,8|8,0:0|0:0,0:0:0:0:
136,160,182469,2,0,L|128:48,1,84.9999952316285,8|0,0:1|0:0,0:0:0:0:
344,56,182683,6,0,L|136:56,1,169.999990463257,10|8,0:0|0:1,0:0:0:0:
256,144,183005,2,0,L|440:144,1,169.999990463257,8|8,0:0|0:0,0:0:0:0:
328,200,183326,1,8,0:1:0:0:
48,336,183541,6,0,P|16:248|72:224,1,169.999990463257,10|8,0:0|0:1,0:0:0:0:
280,216,183862,2,0,P|320:152|248:112,1,169.999990463257,8|8,0:0|0:0,0:0:0:0:
152,112,184183,1,8,0:1:0:0:
440,312,184398,6,0,L|344:312,1,84.9999952316285,8|0,0:1|0:0,0:0:0:0:
168,312,184612,2,0,L|72:312,1,84.9999952316285,8|0,0:1|0:0,0:0:0:0:
296,176,184826,1,8,0:3:0:0:
214,170,184933,2,0,L|206:114,1,42.4999976158143
368,56,185041,2,0,L|464:56,1,84.9999952316285,8|0,0:1|0:0,0:0:0:0:
208,128,185255,5,12,0:0:0:0:
368,200,185469,1,8,0:0:0:0:
288,208,185576,1,8,0:0:0:0:
208,216,185683,1,8,0:0:0:0:
320,320,185898,1,8,0:0:0:0:
168,344,186112,5,8,0:0:0:0:
288,280,186326,1,8,0:0:0:0:
208,256,186433,1,8,0:0:0:0:
328,176,186648,1,8,0:0:0:0:
120,160,186862,5,8,0:0:0:0:
192,128,186969,1,8,0:0:0:0:
264,96,187076,1,8,0:0:0:0:
144,56,187291,1,8,0:0:0:0:
264,16,187505,1,8,0:0:0:0:
120,328,187719,5,8,0:0:0:0:
200,328,187826,2,8,P|248:256|168:216,1,169.999990463257
112,216,188148,2,8,P|8:176|16:40,1,254.999985694886
448,280,188683,6,8,P|480:176|432:136,1,169.999990463257,12|8,0:0|0:0,0:0:0:0:
376,112,189005,1,8,0:0:0:0:
448,88,189112,1,8,0:0:0:0:
304,88,189326,1,8,0:0:0:0:
472,288,189541,6,8,L|320:152,1,169.999990463257
424,112,189862,1,8,0:0:0:0:
288,160,190076,1,8,0:0:0:0:
424,256,190291,1,8,0:0:0:0:
240,256,190398,6,8,L|144:256,1,84.9999952316285
272,344,190719,1,8,0:0:0:0:
144,344,190933,1,8,0:0:0:0:
312,256,191148,5,8,0:0:0:0:
224,240,191255,1,8,0:0:0:0:
400,176,191469,1,8,0:0:0:0:
320,160,191576,1,8,0:0:0:0:
120,136,191683,1,8,0:1:0:0:
448,96,191898,1,4,0:3:0:0:
144,336,192112,6,8,L|128:224,1,84.9999952316285,12|8,0:1|0:0,0:0:0:0:
240,256,192326,2,8,L|232:168,1,84.9999952316285
440,168,192541,2,8,L|424:56,1,84.9999952316285,8|8,0:1|0:0,0:0:0:0:
120,152,192755,2,8,L|128:48,1,84.9999952316285
392,304,192969,6,8,L|296:304,1,84.9999952316285,8|8,0:1|0:0,0:0:0:0:
216,248,193183,2,8,L|312:248,1,84.9999952316285
112,112,193398,2,8,L|24:112,1,84.9999952316285,8|8,0:1|0:0,0:0:0:0:
296,320,193612,2,8,L|416:320,1,84.9999952316285
168,248,193826,6,8,L|96:248,1,56.6666634877523,4|8,0:3|0:0,0:0:0:0:
304,176,193969,2,8,L|360:176,1,56.6666634877523
216,128,194112,2,8,L|208:48,1,56.6666634877523
288,80,194255,2,8,L|296:16,1,56.6666634877523
112,192,194398,2,8,L|176:192,1,56.6666634877523
328,200,194541,2,8,L|400:200,1,56.6666634877523
176,320,194683,5,8,0:1:0:0:
80,304,194791,1,8,0:1:0:0:
328,240,194898,1,8,0:1:0:0:
112,216,195005,1,8,0:1:0:0:
208,208,195112,2,0,P|288:152|296:72,1,169.999990463257,2|0,0:0|0:1,0:1:0:0:
208,80,195433,1,8,0:0:0:0:
440,328,195541,6,0,P|488:264|408:208,1,169.999990463257,14|8,0:0|0:1,0:0:0:0:
200,192,195862,1,8,0:0:0:0:
304,176,195969,2,0,L|312:56,1,84.9999952316285,0|8,0:0|0:0,0:0:0:0:
96,80,196183,2,0,L|192:80,1,84.9999952316285,8|0,0:1|0:0,0:0:0:0:
432,208,196398,6,0,L|232:208,1,169.999990463257,10|8,0:0|0:1,0:0:0:0:
360,168,196719,2,0,L|480:168,2,84.9999952316285,0|8|8,0:0|0:0|0:0,0:0:0:0:
128,168,197041,2,0,L|32:168,1,84.9999952316285,8|0,0:1|0:0,0:0:0:0:
288,320,197255,6,0,L|472:320,1,169.999990463257,10|8,0:0|0:1,0:0:0:0:
224,248,197576,2,0,L|216:136,1,84.9999952316285,8|0,0:0|0:0,0:0:0:0:
312,160,197791,1,8,0:0:0:0:
128,112,197898,2,0,L|24:112,1,84.9999952316285,8|0,0:1|0:0,0:0:0:0:
312,328,198112,6,0,P|360:280|288:208,1,169.999990463257,10|8,0:0|0:1,0:0:0:0:
208,208,198433,1,0,0:0:0:0:
112,192,198541,2,0,L|104:104,1,84.9999952316285,8|8,0:0|0:0,0:0:0:0:
320,104,198755,2,0,L|440:104,1,84.9999952316285,8|0,0:1|0:0,0:0:0:0:
176,328,198969,6,0,L|80:328,1,84.9999952316285,12|0,0:0|0:0,0:0:0:0:
368,272,199183,2,0,L|376:152,1,84.9999952316285,8|0,0:1|0:0,0:0:0:0:
176,160,199398,1,8,0:0:0:0:
272,136,199505,1,0,0:1:0:0:
176,96,199612,1,8,0:1:0:0:
272,64,199719,1,0,0:0:0:0:
456,344,199826,5,10,0:0:0:0:
352,328,199933,2,0,L|344:240,1,84.9999952316285,2|8,0:0|0:1,0:0:0:0:
248,232,200148,1,0,0:0:0:0:
424,96,200255,2,0,L|320:96,1,84.9999952316285,8|8,0:0|0:0,0:0:0:0:
144,304,200469,2,0,L|256:304,1,84.9999952316285,8|0,0:1|0:0,0:0:0:0:
424,272,200683,6,0,L|216:272,1,169.999990463257,14|8,0:0|0:0,0:0:0:0:
336,224,201005,1,8,0:1:0:0:
136,192,201112,2,0,L|40:192,1,84.9999952316285,10|0,0:0|0:0,0:0:0:0:
256,72,201326,2,0,L|352:72,1,84.9999952316285,12|0,0:0|0:0,0:0:0:0:
64,352,201541,6,0,L|160:352,1,84.9999952316285,8|8,0:3|0:0,0:0:0:0:
328,224,201755,2,0,L|424:224,1,84.9999952316285,4|0,0:3|0:0,0:0:0:0:
144,176,201969,1,4,0:3:0:0:
114,146,202023,1,0,0:0:0:0:
111,105,202076,1,0,0:0:0:0:
144,72,202130,1,0,0:0:0:0:
269,72,202183,2,8,L|341:72,1,42.4999976158143
144,256,202291,2,4,L|64:256,1,42.4999976158143,4|4,0:3|0:3,0:3:0:0:
304,320,202398,6,0,L|496:320,1,169.999990463257,12|8,0:0|0:1,0:0:0:0:
264,216,202719,2,0,L|168:216,2,84.9999952316285,8|0|8,0:0|0:0|0:0,0:0:0:0:
472,144,203041,2,0,L|360:144,1,84.9999952316285,8|0,0:1|0:0,0:0:0:0:
128,296,203255,6,0,L|336:296,1,169.999990463257,10|8,0:0|0:1,0:0:0:0:
208,248,203576,1,0,0:0:0:0:
304,208,203683,2,0,L|312:112,1,84.9999952316285,8|8,0:0|0:0,0:0:0:0:
96,136,203898,2,0,L|88:24,1,84.9999952316285,8|0,0:1|0:0,0:0:0:0:
304,320,204112,6,0,L|96:320,1,169.999990463257,10|8,0:0|0:1,0:0:0:0:
384,192,204433,2,0,L|488:192,2,84.9999952316285,8|0|8,0:0|0:0|0:0,0:0:0:0:
160,192,204755,2,0,L|152:96,1,84.9999952316285,8|0,0:1|0:0,0:0:0:0:
384,336,204969,6,0,L|280:336,1,84.9999952316285,10|0,0:0|0:0,0:0:0:0:
192,288,205183,2,0,L|296:288,1,84.9999952316285,8|0,0:1|0:0,0:0:0:0:
168,216,205398,2,0,L|48:216,1,84.9999952316285,8|8,0:0|0:0,0:0:0:0:
336,128,205612,2,0,L|456:128,1,84.9999952316285,8|0,0:1|0:0,0:0:0:0:
160,344,205826,6,0,L|152:240,1,84.9999952316285,12|0,0:0|0:0,0:0:0:0:
280,240,206041,2,0,L|464:240,1,169.999990463257,8|8,0:1|0:0,0:0:0:0:
360,184,206362,1,8,0:0:0:0:
456,144,206469,2,0,L|464:56,1,84.9999952316285,8|0,0:1|0:0,0:0:0:0:
200,56,206683,5,10,0:0:0:0:
296,120,206791,2,0,L|96:120,1,169.999990463257,8|8,0:0|0:1,0:0:0:0:
336,224,207112,2,0,L|224:224,1,84.9999952316285,8|8,0:0|0:0,0:0:0:0:
48,320,207326,2,0,L|40:216,1,84.9999952316285,8|0,0:1|0:0,0:0:0:0:
328,328,207541,6,0,L|336:216,1,84.9999952316285,12|0,0:0|0:0,0:0:0:0:
248,216,207755,1,8,0:0:0:0:
336,184,207862,1,8,0:1:0:0:
144,64,207969,2,0,L|229:64,1,84.9999952316285,14|0,0:0|0:0,0:0:0:0:
456,40,208183,2,0,L|371:40,1,84.9999952316285,8|0,0:1|0:0,0:0:0:0:
192,352,208398,6,8,L|200:296,1,42.4999976158143
264,312,208505,2,8,L|256:264,1,42.4999976158143
200,280,208612,2,8,L|192:216,1,42.4999976158143
256,216,208719,1,8,0:0:0:0:
456,192,208826,1,8,0:1:0:0:
256,160,208933,1,8,0:1:0:0:
56,128,209041,1,8,0:1:0:0:
256,72,209148,1,8,0:1:0:0:
56,192,209255,6,0,L|232:192,1,169.999990463257,14|8,0:0|0:1,0:0:0:0:
40,144,209576,2,0,L|32:56,1,84.9999952316285,8|0,0:0|0:0,0:0:0:0:
120,56,209791,1,8,0:0:0:0:
288,312,209898,2,0,L|176:312,1,84.9999952316285,8|0,0:1|0:0,0:0:0:0:
408,248,210112,6,0,P|456:168|376:128,1,169.999990463257,10|8,0:0|0:1,0:0:0:0:
208,120,210541,2,0,L|200:24,1,84.9999952316285,8|8,0:0|0:0,0:0:0:0:
304,112,210755,2,0,L|312:208,1,84.9999952316285,8|0,0:1|0:0,0:0:0:0:
104,336,210969,6,0,P|56:272|136:216,1,169.999990463257,12|8,0:0|0:1,0:0:0:0:
336,200,211291,2,0,L|128:200,1,169.999990463257,8|8,0:0|0:0,0:0:0:0:
384,88,211612,2,0,L|480:88,1,84.9999952316285,8|0,0:1|0:0,0:0:0:0:
176,336,211826,6,0,P|64:296|40:216,1,169.999990463257,10|8,0:0|0:1,0:0:0:0:
352,232,212255,2,0,L|456:232,1,84.9999952316285,8|8,0:0|0:0,0:0:0:0:
152,96,212469,2,0,L|40:96,1,84.9999952316285,8|8,0:1|0:1,0:0:0:0:
368,272,212683,6,0,P|448:192|336:144,1,254.999985694886,14|0,0:0|0:0,0:0:0:0:
88,136,213326,1,2,0:0:0:0:
376,304,213541,6,0,L|88:304,1,254.999985694886,12|0,0:0|0:0,0:0:0:0:
376,200,214183,1,2,0:0:0:0:
48,216,214407,5,4,0:0:0:0:
256,192,214621,12,0,217835,0:0:0:0:
408,320,241835,6,0,P|472:232|352:208,1,212.499988079071,2|0,0:0|0:0,0:0:0:0:
232,264,242478,2,0,P|201:122|340:82,1,318.749982118607,2|0,0:0|0:0,0:0:0:0:
136,336,243335,2,0,P|40:256|72:72,1,318.749982118607,2|0,0:0|0:0,0:0:0:0:
240,56,244407,1,0,0:0:0:0:
64,32,244835,1,0,0:0:0:0:
400,256,245264,5,2,0:0:0:0:
240,328,245692,2,0,L|296:64,1,212.499988079071
128,112,246549,1,0,0:0:0:0:
352,224,246764,2,0,P|448:144|312:56,1,318.749982118607,2|0,0:0|0:0,0:0:0:0:
176,128,247835,1,0,0:0:0:0:
336,208,248264,1,0,0:0:0:0:
16,320,248692,5,2,0:0:0:0:
208,296,249121,2,0,L|152:32,1,212.499988079071
336,72,249978,1,0,0:0:0:0:
136,304,250192,2,0,P|40:216|192:112,1,318.749982118607,2|0,0:0|0:0,0:0:0:0:
472,272,251264,2,0,P|496:192|392:112,1,212.499988079071
80,344,252121,6,0,B|192:304|192:304|232:136|232:136|392:80,3,424.999976158142,2|0|0|0,0:0|0:0|0:0|0:0,0:0:0:0:
456,344,255121,2,0,L|464:224,1,106.249994039536
296,352,255549,6,0,B|168:272|168:136|216:88|352:80|352:80|312:264|168:224|32:120|120:40|160:0,1,862.239911370025,2|2,0:0|0:3,0:0:0:0:
152,304,257672,5,12,0:3:0:0:
432,304,258100,1,8,0:3:0:0:
432,304,258314,1,8,0:3:0:0:
288,200,258529,1,4,0:3:0:0:
432,144,258743,1,4,0:3:0:0:
144,136,258968,6,0,L|432:136,1,212.499988079071,4|0,0:0|0:0,0:0:0:0:
56,296,259825,2,0,P|16:176|104:112,1,212.499988079071,8|0,0:1|0:0,0:0:0:0:
208,128,260468,1,0,0:0:0:0:
400,248,260682,2,0,L|144:248,1,212.499988079071,10|0,0:0|0:0,0:0:0:0:
480,320,261539,2,0,P|504:176|472:80,1,212.499988079071,8|0,0:1|0:0,0:0:0:0:
104,72,262396,6,0,L|408:72,2,212.499988079071,12|0|8,0:0|0:0|0:1,0:0:0:0:
400,272,263682,2,0,L|408:152,1,106.249994039536
224,88,264110,2,0,L|-16:88,2,212.499988079071,10|0|8,0:0|0:0|0:1,0:0:0:0:
456,88,265396,1,8,0:3:0:0:
456,88,265610,1,8,0:3:0:0:
184,304,265825,6,0,P|56:256|8:136,1,212.499988079071,12|0,0:0|0:0,0:0:0:0:
296,352,266682,2,0,P|448:304|472:224,1,212.499988079071,8|0,0:1|0:0,0:0:0:0:
352,256,267325,1,8,0:0:0:0:
160,240,267539,2,0,P|112:112|176:80,1,212.499988079071,2|0,0:0|0:0,0:0:0:0:
432,336,268396,2,0,P|464:208|360:120,1,212.499988079071,8|0,0:1|0:0,0:0:0:0:
32,336,269253,6,8,B|20:103|289:317|272:20,2,424.999976158142,14|8|0,0:0|0:1|0:0,0:0:0:0:
304,296,271396,1,8,0:0:0:0:
32,336,271825,2,0,L|272:336,1,212.499988079071,8|0,0:1|0:0,0:0:0:0:
136,304,272468,1,8,0:0:0:0:
472,264,272685,6,8,L|488:184,2,63.7499988555908
336,192,273113,2,8,L|424:192,1,63.7499988555908
496,144,273327,2,8,L|400:144,1,63.7499988555908
336,96,273542,2,8,L|408:96,1,63.7499988555908
512,56,273756,2,8,L|408:56,1,63.7499988555908
336,256,273970,2,8,L|328:168,1,63.7499988555908
224,176,274185,2,8,L|120:176,1,63.7499988555908
352,320,274399,6,8,L|464:320,1,63.7499988555908,12|8,0:3|0:0,0:0:0:0:
216,320,274613,2,8,L|128:320,1,63.7499988555908
408,200,274827,2,8,L|304:200,1,63.7499988555908
152,192,275042,2,8,L|256:192,1,63.7499988555908
432,136,275256,1,12,0:3:0:0:
336,96,275363,1,8,0:0:0:0:
432,48,275470,1,8,0:0:0:0:
336,24,275577,1,8,0:0:0:0:
96,112,275685,1,8,0:0:0:0:
192,112,275792,1,8,0:0:0:0:
96,208,275899,1,8,0:0:0:0:
192,208,276006,1,8,0:0:0:0:
400,360,276119,6,0,L|408:256,1,84.9999952316285,12|0,0:0|0:0,0:0:0:0:
304,256,276333,2,0,L|296:168,1,84.9999952316285
488,88,276547,2,0,L|376:88,1,84.9999952316285,2|0,0:0|0:0,0:0:0:0:
192,88,276761,1,0,0:0:0:0:
192,88,276869,1,0,0:0:0:0:
304,160,276976,1,8,0:0:0:0:
144,328,277190,6,0,L|136:240,1,84.9999952316285,8|0,0:0|0:0,0:0:0:0:
240,232,277404,2,0,L|248:128,1,84.9999952316285,2|0,0:0|0:0,0:0:0:0:
40,104,277619,2,0,L|136:104,2,84.9999952316285,0|0|8,0:0|0:0|0:0,0:0:0:0:
232,352,278047,6,0,L|240:256,1,84.9999952316285,8|0,0:0|0:0,0:0:0:0:
144,232,278261,2,0,L|264:232,1,84.9999952316285,2|0,0:0|0:0,0:0:0:0:
328,176,278476,2,0,L|224:176,1,84.9999952316285
352,112,278690,2,0,L|437:112,1,84.9999952316285,8|0,0:0|0:0,0:0:0:0:
336,320,278904,2,0,L|328:224,1,84.9999952316285
224,224,279119,2,0,P|152:120|256:80,1,254.999985694886,2|0,0:0|0:0,0:0:0:0:
424,312,279547,6,0,L|232:312,1,169.999990463257,8|0,0:0|0:0,0:0:0:0:
448,240,279976,2,0,P|496:176|424:128,1,169.999990463257,2|0,0:0|0:0,0:0:0:0:
344,120,280297,1,0,0:0:0:0:
256,80,280404,2,0,L|464:80,1,169.999990463257,8|0,0:0|0:0,0:0:0:0:
232,272,280833,2,0,L|40:272,1,169.999990463257,2|0,0:0|0:0,0:0:0:0:
144,216,281154,1,0,0:0:0:0:
64,184,281261,1,8,0:0:0:0:
256,352,281476,6,0,L|352:352,1,84.9999952316285,8|0,0:0|0:0,0:0:0:0:
232,288,281690,2,0,L|224:184,1,84.9999952316285,2|0,0:0|0:0,0:0:0:0:
328,216,281904,2,0,L|336:120,1,84.9999952316285
232,120,282119,2,0,L|320:120,1,84.9999952316285,8|0,0:0|0:0,0:0:0:0:
200,56,282333,2,0,L|88:56,1,84.9999952316285
376,320,282547,2,0,P|448:240|336:168,1,254.999985694886,2|0,0:0|0:0,0:0:0:0:
64,152,282976,6,0,L|272:152,1,169.999990463257,12|0,0:0|0:0,0:0:0:0:
448,112,283404,2,0,L|248:112,1,169.999990463257,2|0,0:0|0:0,0:0:0:0:
368,88,283726,1,0,0:0:0:0:
280,40,283833,2,0,L|464:40,1,169.999990463257,8|0,0:0|0:0,0:0:0:0:
256,312,284261,2,0,P|216:224|280:200,1,169.999990463257,2|0,0:0|0:0,0:0:0:0:
360,192,284583,1,0,0:0:0:0:
448,184,284690,1,8,0:0:0:0:
272,328,284904,6,0,L|160:328,1,84.9999952316285,8|0,0:0|0:0,0:0:0:0:
288,248,285119,2,0,L|384:248,1,84.9999952316285,2|0,0:0|0:0,0:0:0:0:
256,184,285333,2,0,L|248:72,1,84.9999952316285
352,72,285547,2,0,L|248:72,1,84.9999952316285,8|0,0:0|0:0,0:0:0:0:
160,32,285761,2,0,L|272:32,1,84.9999952316285
352,144,285976,2,0,L|88:144,1,254.999985694886,2|0,0:0|0:0,0:0:0:0:
392,336,286404,6,0,L|400:224,1,84.9999952316285,8|0,0:0|0:0,0:0:0:0:
304,224,286619,1,0,0:0:0:0:
400,192,286726,1,0,0:0:0:0:
304,152,286833,2,0,L|96:152,1,169.999990463257,2|0,0:0|0:0,0:0:0:0:
224,112,287154,1,0,0:0:0:0:
122,279,287261,6,0,P|90:183|138:151,1,169.999990463257,8|0,0:0|0:0,0:0:0:0:
232,136,287583,1,0,0:0:0:0:
128,96,287690,2,0,L|336:96,1,169.999990463257,2|0,0:0|0:0,0:0:0:0:
456,96,288111,5,8,0:0:0:0:
128,344,288325,2,8,L|32:344,1,84.9999952316285
248,240,288539,2,8,L|368:240,1,84.9999952316285
112,112,288753,2,8,L|216:112,1,84.9999952316285
424,176,288968,6,8,L|312:176,1,84.9999952316285
440,248,289182,2,8,L|448:136,1,84.9999952316285
192,144,289396,1,8,0:0:0:0:
288,128,289503,1,8,0:0:0:0:
384,112,289611,1,8,0:0:0:0:
480,104,289718,1,8,0:0:0:0:
192,144,289825,6,8,L|8:144,2,169.999990463257,14|8|0,0:0|0:1|0:0,0:0:0:0:
296,144,290361,1,8,0:0:0:0:
32,288,290468,2,0,L|128:288,1,84.9999952316285,8|0,0:1|0:0,0:0:0:0:
320,288,290682,5,10,0:0:0:0:
496,232,290789,1,0,0:0:0:0:
320,184,290896,2,0,L|216:184,1,84.9999952316285,8|0,0:1|0:0,0:0:0:0:
344,72,291111,2,0,L|432:72,1,84.9999952316285
168,328,291325,2,0,L|160:208,1,84.9999952316285,8|0,0:1|0:0,0:0:0:0:
400,232,291539,5,10,0:0:0:0:
312,184,291646,1,8,0:0:0:0:
400,144,291753,1,8,0:1:0:0:
160,136,291861,1,0,0:0:0:0:
336,80,291968,1,8,0:0:0:0:
160,48,292075,1,0,0:0:0:0:
256,88,292182,1,8,0:1:0:0:
160,288,292289,1,0,0:0:0:0:
440,296,292396,6,0,P|488:224|408:168,1,169.999990463257,10|8,0:0|0:1,0:0:0:0:
344,160,292718,1,0,0:0:0:0:
248,136,292825,2,0,L|312:64,1,84.9999952316285
128,352,293039,2,0,L|24:352,1,84.9999952316285,8|0,0:1|0:0,0:0:0:0:
296,328,293253,5,14,0:0:0:0:
128,280,293468,1,8,0:1:0:0:
296,248,293575,2,0,L|304:128,1,84.9999952316285,8|0,0:0|0:0,0:0:0:0:
408,160,293789,1,8,0:0:0:0:
216,144,293896,2,0,L|208:24,1,84.9999952316285,8|0,0:1|0:0,0:0:0:0:
104,56,294111,1,10,0:0:0:0:
320,320,294218,6,0,L|312:208,1,84.9999952316285,8|8,0:0|0:1,0:0:0:0:
224,232,294432,1,8,0:0:0:0:
456,152,294539,2,0,L|344:152,1,84.9999952316285,8|8,0:0|0:0,0:0:0:0:
136,152,294753,2,0,L|24:152,1,84.9999952316285,8|0,0:1|0:0,0:0:0:0:
288,336,294968,6,8,L|296:232,1,84.9999952316285,12|8,0:1|0:0,0:0:0:0:
192,264,295182,2,8,L|184:152,1,84.9999952316285,8|8,0:0|0:0,0:0:0:0:
392,256,295396,1,8,0:1:0:0:
488,224,295503,1,8,0:0:0:0:
392,160,295611,1,8,0:0:0:0:
488,128,295718,1,8,0:0:0:0:
224,256,295825,5,8,0:1:0:0:
392,256,295932,2,8,L|464:200,2,84.9999952316285
224,360,296253,1,8,0:1:0:0:
392,360,296361,2,8,L|272:360,2,84.9999952316285
152,312,296682,6,0,L|40:312,1,84.9999952316285,12|0,0:0|0:0,0:0:0:0:
304,232,296896,2,0,L|312:112,1,84.9999952316285,8|0,0:1|0:0,0:0:0:0:
224,112,297111,2,0,L|336:112,1,84.9999952316285,8|8,0:0|0:0,0:0:0:0:
400,112,297325,1,8,0:1:0:0:
168,72,297432,1,8,0:0:0:0:
392,80,297539,6,0,P|440:120|368:192,1,169.999990463257,10|8,0:0|0:1,0:0:0:0:
296,192,297861,1,0,0:0:0:0:
48,320,297968,2,0,L|40:208,1,84.9999952316285,8|8,0:0|0:0,0:0:0:0:
232,336,298182,2,0,L|144:336,1,84.9999952316285,8|0,0:1|0:0,0:0:0:0:
360,224,298396,6,0,L|480:224,1,84.9999952316285,10|0,0:0|0:0,0:0:0:0:
264,160,298611,1,8,0:1:0:0:
448,112,298718,1,0,0:0:0:0:
264,96,298825,2,0,L|152:96,1,84.9999952316285,8|0,0:0|0:0,0:0:0:0:
360,224,299039,1,8,0:1:0:0:
184,296,299146,1,8,0:0:0:0:
360,328,299253,6,0,L|464:328,1,84.9999952316285,10|0,0:0|0:0,0:0:0:0:
280,256,299468,1,8,0:1:0:0:
96,232,299575,1,0,0:0:0:0:
280,192,299682,1,8,0:0:0:0:
376,168,299789,1,8,0:0:0:0:
280,112,299896,1,8,0:1:0:0:
464,88,300003,1,8,0:1:0:0:
240,296,300111,6,0,L|128:296,1,84.9999952316285,14|0,0:0|0:0,0:0:0:0:
248,224,300325,2,0,L|344:224,1,84.9999952316285,8|0,0:1|0:0,0:0:0:0:
152,152,300539,2,0,L|48:152,2,84.9999952316285,8|8|8,0:0|0:0|0:1,0:0:0:0:
336,152,300861,1,0,0:0:0:0:
152,224,300968,6,0,L|264:224,2,84.9999952316285,10|0|8,0:0|0:0|0:1,0:0:0:0:
336,224,301289,1,0,0:0:0:0:
240,192,301396,2,0,L|232:88,1,84.9999952316285,8|8,0:0|0:0,0:0:0:0:
456,64,301611,2,0,L|464:160,1,84.9999952316285,8|8,0:1|0:1,0:0:0:0:
240,344,301825,6,0,P|216:256|280:232,1,169.999990463257,14|8,0:0|0:1,0:0:0:0:
368,224,302146,1,8,0:3:0:0:
128,232,302253,2,0,L|120:136,1,84.9999952316285,12|0,0:0|0:0,0:0:0:0:
368,216,302468,2,0,L|384:112,1,84.9999952316285,8|0,0:1|0:0,0:0:0:0:
88,112,302682,6,0,L|192:112,1,84.9999952316285,12|0,0:0|0:0,0:0:0:0:
432,112,302896,2,0,L|336:112,1,84.9999952316285,8|0,0:1|0:0,0:0:0:0:
128,232,303111,1,8,0:1:0:0:
352,232,303218,1,8,0:1:0:0:
184,320,303325,1,8,0:1:0:0:
272,320,303432,1,8,0:1:0:0:
48,336,303539,6,0,L|40:216,1,84.9999952316285,8|8,0:0|0:0,0:0:0:0:
320,232,303753,1,12,0:0:0:0:
192,176,303968,1,8,0:1:0:0:
446,156,304075,1,8,0:1:0:0:
358,108,304182,1,8,0:3:0:0:
446,76,304289,1,4,0:3:0:0:
198,260,304396,6,0,L|190:148,1,84.9999952316285,4|8,0:3|0:0,0:0:0:0:
448,184,304611,1,6,0:0:0:0:
296,176,304825,2,4,L|216:176,2,56.6666634877523,4|4|4,0:3|0:3|0:3,0:3:0:0:
144,360,305039,2,0,L|56:360,1,84.9999952316285,12|0,0:1|0:0,0:0:0:0:
288,328,305253,6,0,L|296:216,1,84.9999952316285,8|8,0:0|0:0,0:0:0:0:
104,224,305468,1,12,0:0:0:0:
296,184,305682,1,8,0:1:0:0:
200,136,305789,1,8,0:1:0:0:
296,96,305896,1,8,0:1:0:0:
88,80,306003,1,8,0:1:0:0:
288,352,306111,6,0,L|296:240,1,84.9999952316285,8|8,0:0|0:0,0:0:0:0:
400,256,306325,1,8,0:0:0:0:
88,192,306539,1,4,0:3:0:0:
400,152,306753,1,12,0:3:0:0:
88,136,306968,6,0,L|80:24,1,84.9999952316285,4|8,0:3|0:0,0:0:0:0:
328,56,307182,1,12,0:0:0:0:
184,256,307396,1,8,0:3:0:0:
280,216,307503,1,8,0:3:0:0:
176,184,307611,1,8,0:0:0:0:
80,160,307718,1,4,0:3:0:0:
344,328,307825,6,0,L|456:328,1,84.9999952316285,4|0,0:3|0:0,0:0:0:0:
176,184,308039,1,12,0:0:0:0:
352,136,308253,1,8,0:1:0:0:
176,112,308361,1,8,0:1:0:0:
272,72,308468,1,8,0:1:0:0:
176,48,308575,1,8,0:1:0:0:
416,320,308682,6,8,L|472:320,2,56.6666634877523,12|8|8,0:3|0:0|0:0,0:0:0:0:
344,272,308896,1,8,0:0:0:0:
400,272,308968,1,8,0:0:0:0:
457,272,309039,1,8,0:0:0:0:
264,176,309111,2,8,L|192:176,2,56.6666634877523,12|8|8,0:3|0:0|0:0,0:0:0:0:
344,168,309325,2,8,L|360:96,2,56.6666634877523
208,320,309539,6,8,L|144:320,1,56.6666634877523,12|8,0:3|0:0,0:0:0:0:
320,296,309682,2,8,L|328:216,1,56.6666634877523
256,224,309825,2,8,L|248:160,1,56.6666634877523
432,176,309968,2,0,P|496:120|392:24,1,254.999985694886,8|0,0:1|0:0,0:0:0:0:
144,48,310396,6,0,L|32:48,2,84.9999952316285,12|0|8,0:0|0:0|0:0,0:0:0:0:
320,64,310825,2,0,P|408:112|432:192,1,169.999990463257,8|0,0:1|0:0,0:0:0:0:
232,256,311253,6,0,L|240:160,1,84.9999952316285,8|8,0:0|0:1,0:0:0:0:
328,168,311468,1,8,0:0:0:0:
160,344,311682,2,0,P|72:296|48:216,1,169.999990463257,8|0,0:1|0:0,0:0:0:0:
432,256,312110,6,0,L|440:56,1,169.999990463257,12|0,0:0|0:0,0:0:0:0:
216,288,312539,2,0,P|432:168|432:72,1,339.999980926514,8|8,0:1|0:0,0:0:0:0:
344,64,313075,1,8,0:1:0:0:
440,40,313182,1,8,0:0:0:0:
240,256,313396,2,8,L|216:200,4,42.4999976158143,8|8|8|8|8,0:1|0:0|0:0|0:0|0:0,0:0:0:0:
320,256,313718,1,8,0:1:0:0:
88,336,313825,6,0,P|56:240|104:192,1,169.999990463257,12|0,0:0|0:0,0:0:0:0:
320,320,314253,2,0,L|86:192,1,254.999985694886,8|0,0:1|0:0,0:0:0:0:
176,152,314682,2,0,L|272:152,2,84.9999952316285,8|8|8,0:0|0:1|0:0,0:0:0:0:
336,256,315110,1,8,0:1:0:0:
168,256,315325,2,0,L|160:168,1,84.9999952316285,8|8,0:0|0:1,0:0:0:0:
400,128,315539,5,14,0:0:0:0:
304,112,315646,1,2,0:0:0:0:
408,296,315753,2,0,P|456:232|392:176,1,169.999990463257,8|8,0:0|0:1,0:0:0:0:
216,176,316075,1,2,0:0:0:0:
304,144,316182,1,8,0:0:0:0:
192,120,316289,6,0,L|184:24,1,84.9999952316285,0|4,0:0|0:3,0:0:0:0:
392,336,316503,1,8,0:1:0:0:
304,288,316610,1,8,0:0:0:0:
392,256,316718,1,8,0:0:0:0:
192,216,316825,2,8,L|120:216,1,56.6666634877523
304,176,316968,2,8,L|368:176,1,56.6666634877523,8|8,0:0|0:1,0:0:0:0:
192,120,317146,1,8,0:1:0:0:
368,312,317253,6,0,L|464:312,1,84.9999952316285,14|0,0:0|0:0,0:0:0:0:
272,208,317468,2,0,L|184:208,1,84.9999952316285,8|0,0:1|0:0,0:0:0:0:
24,112,317682,2,0,L|128:112,1,84.9999952316285,8|8,0:0|0:0,0:0:0:0:
336,112,317896,2,0,L|432:112,1,84.9999952316285,8|0,0:1|0:0,0:0:0:0:
232,296,318110,6,0,L|48:296,1,169.999990463257,8|8,0:0|0:1,0:0:0:0:
152,256,318432,1,8,0:0:0:0:
248,216,318539,1,8,0:0:0:0:
152,184,318646,1,8,0:0:0:0:
408,176,318753,2,0,L|416:64,1,84.9999952316285,8|0,0:1|0:0,0:0:0:0:
168,80,318968,6,0,L|288:80,1,84.9999952316285
40,224,319182,2,0,L|248:224,1,169.999990463257,8|0,0:1|0:0,0:0:0:0:
120,184,319503,1,8,0:0:0:0:
336,312,319610,2,0,L|344:200,1,84.9999952316285,8|0,0:1|0:0,0:0:0:0:
120,184,319825,6,0,L|224:184,3,84.9999952316285,8|8|8|0,0:0|0:0|0:1|0:0,0:0:0:0:
432,304,320253,2,0,L|336:304,3,84.9999952316285,8|8|8|8,0:0|0:0|0:1|0:0,0:0:0:0:
120,328,320682,6,0,L|112:240,1,84.9999952316285,12|0,0:0|0:0,0:0:0:0:
232,240,320896,2,0,P|368:208|400:160,1,169.999990463257,8|8,0:1|0:0,0:0:0:0:
288,168,321218,1,8,0:0:0:0:
384,144,321325,2,0,L|392:48,1,84.9999952316285,8|0,0:1|0:0,0:0:0:0:
176,48,321539,5,8,0:0:0:0:
88,120,321646,2,0,L|280:120,1,169.999990463257,8|0,0:0|0:0,0:0:0:0:
168,200,321968,2,0,L|288:200,1,84.9999952316285,8|8,0:0|0:0,0:0:0:0:
432,208,322182,1,8,0:1:0:0:
144,368,322289,6,0,P|96:312|176:248,1,169.999990463257,2|8,0:0|0:0,0:0:0:0:
248,240,322610,2,0,L|256:136,1,84.9999952316285,8|0,0:1|0:0,0:0:0:0:
48,104,322825,2,0,L|160:104,1,84.9999952316285,8|8,0:0|0:0,0:0:0:0:
328,104,323039,2,0,L|424:104,1,84.9999952316285,8|0,0:1|0:0,0:0:0:0:
168,312,323253,6,0,L|160:216,1,84.9999952316285,8|0,0:0|0:0,0:0:0:0:
352,160,323468,2,0,L|264:160,1,84.9999952316285,8|0,0:1|0:0,0:0:0:0:
360,104,323682,2,0,L|448:104,1,84.9999952316285,8|8,0:0|0:0,0:0:0:0:
232,288,323896,2,0,L|120:288,1,84.9999952316285,8|0,0:1|0:0,0:0:0:0:
400,320,324110,6,0,L|408:208,1,84.9999952316285,12|0,0:0|0:0,0:0:0:0:
160,200,324325,2,0,L|368:192,1,169.999990463257,8|8,0:1|0:0,0:0:0:0:
232,144,324646,1,8,0:0:0:0:
456,104,324753,6,0,L|256:80,1,169.999990463257,8|8,0:1|0:0,0:0:0:0:
384,72,325075,1,8,0:0:0:0:
160,256,325182,1,8,0:1:0:0:
248,208,325289,1,0,0:0:0:0:
160,176,325396,1,8,0:0:0:0:
384,216,325503,1,8,0:0:0:0:
208,352,325610,1,8,0:1:0:0:
304,336,325718,1,0,0:0:0:0:
112,272,325825,6,0,L|-8:272,2,84.9999952316285,8|8|8,0:0|0:0|0:1,0:0:0:0:
304,256,326146,1,0,0:0:0:0:
112,224,326253,2,0,P|72:136|144:112,1,169.999990463257,8|8,0:0|0:1,0:0:0:0:
216,112,326575,1,0,0:0:0:0:
424,216,326682,5,8,0:0:0:0:
336,168,326789,1,0,0:0:0:0:
424,136,326896,1,8,0:1:0:0:
192,272,327003,1,0,0:0:0:0:
416,336,327110,1,8,0:0:0:0:
328,312,327218,1,8,0:0:0:0:
240,280,327325,1,4,0:3:0:0:
144,248,327432,1,4,0:3:0:0:
408,240,327539,6,0,L|416:128,1,84.9999952316285,12|0,0:0|0:0,0:0:0:0:
200,136,327753,2,0,L|304:128,1,84.9999952316285,8|0,0:1|0:0,0:0:0:0:
80,192,327968,2,0,L|72:88,1,84.9999952316285,8|8,0:0|0:0,0:0:0:0:
304,224,328182,2,0,L|184:216,1,84.9999952316285,8|0,0:1|0:0,0:0:0:0:
408,336,328396,6,0,L|512:272,1,84.9999952316285,8|8,0:0|0:0,0:0:0:0:
208,312,328610,2,0,L|120:312,2,84.9999952316285,8|0|8,0:1|0:0|0:0,0:0:0:0:
376,272,328932,1,8,0:0:0:0:
288,208,329039,1,8,0:1:0:0:
376,168,329146,1,0,0:0:0:0:
128,136,329253,5,8,0:0:0:0:
232,112,329360,1,8,0:0:0:0:
328,88,329468,1,8,0:1:0:0:
424,72,329575,1,0,0:0:0:0:
240,304,329682,2,0,L|232:192,1,84.9999952316285,8|8,0:0|0:0,0:0:0:0:
416,256,329896,2,0,L|424:160,1,84.9999952316285,8|0,0:1|0:0,0:0:0:0:
240,192,330110,6,8,L|152:192,2,56.6666634877523,4|8|8,0:3|0:0|0:0,0:0:0:0:
296,192,330325,2,8,L|392:192,2,56.6666634877523
168,320,330539,6,0,L|104:320,1,42.4999976158143,8|8,0:1|0:1,0:0:0:0:
296,320,330646,2,0,L|376:320,1,42.4999976158143,8|8,0:1|0:1,0:0:0:0:
168,256,330753,2,0,L|96:256,1,42.4999976158143,8|8,0:1|0:1,0:0:0:0:
296,256,330860,2,0,L|352:256,1,42.4999976158143,8|8,0:1|0:1,0:0:0:0:
168,192,330968,6,0,L|56:192,1,84.9999952316285,12|0,0:0|0:0,0:0:0:0:
184,48,331182,2,0,L|280:48,1,84.9999952316285,8|0,0:1|0:0,0:0:0:0:
88,320,331396,2,0,L|-8:320,1,84.9999952316285,8|8,0:0|0:0,0:0:0:0:
200,248,331610,2,0,L|208:136,1,84.9999952316285,8|0,0:1|0:0,0:0:0:0:
40,128,331825,6,0,L|32:32,1,84.9999952316285,10|0,0:0|0:0,0:0:0:0:
120,40,332039,1,8,0:1:0:0:
304,304,332146,2,0,L|424:304,2,84.9999952316285,8|0|8,0:0|0:0|0:0,0:0:0:0:
504,128,332468,2,0,L|408:128,1,84.9999952316285,8|0,0:1|0:0,0:0:0:0:
192,216,332682,5,2,0:0:0:0:
277,216,332789,1,0,0:0:0:0:
362,216,332896,1,8,0:1:0:0:
152,112,333003,2,0,L|56:112,2,84.9999952316285,0|8|8,0:0|0:0|0:0,0:0:0:0:
360,88,333325,1,8,0:1:0:0:
264,80,333432,1,0,0:0:0:0:
464,336,333539,6,0,L|472:248,1,84.9999952316285,10|8,0:0|0:0,0:0:0:0:
368,256,333753,2,0,L|360:152,1,84.9999952316285,8|0,0:1|0:0,0:0:0:0:
456,144,333968,2,0,L|352:144,1,84.9999952316285,8|0,0:0|0:0,0:0:0:0:
160,136,334182,2,0,L|56:136,1,84.9999952316285,8|0,0:1|0:0,0:0:0:0:
280,336,334396,6,0,L|288:216,1,84.9999952316285,6|0,0:0|0:0,0:0:0:0:
184,256,334610,2,0,L|176:144,1,84.9999952316285,8|0,0:1|0:0,0:0:0:0:
400,240,334825,1,8,0:0:0:0:
483,195,334932,1,8,0:0:0:0:
480,112,335039,1,8,0:1:0:0:
399,86,335146,1,0,0:0:0:0:
176,96,335253,5,10,0:0:0:0:
261,96,335360,1,0,0:0:0:0:
346,96,335468,1,8,0:1:0:0:
96,256,335575,2,0,L|-16:256,2,84.9999952316285,8|0|8,0:0|0:0|0:0,0:0:0:0:
280,352,335896,2,0,L|192:352,1,84.9999952316285,8|0,0:1|0:0,0:0:0:0:
384,296,336110,6,0,L|392:184,1,84.9999952316285,10|0,0:0|0:0,0:0:0:0:
296,200,336325,1,8,0:1:0:0:
496,88,336432,1,0,0:0:0:0:
411,88,336539,1,8,0:0:0:0:
320,88,336646,1,0,0:0:0:0:
104,176,336753,2,0,L|96:80,1,84.9999952316285,8|0,0:1|0:0,0:0:0:0:
328,304,336968,5,14,0:0:0:0:
152,256,337075,1,8,0:0:0:0:
240,224,337182,1,8,0:1:0:0:
48,192,337289,1,8,0:0:0:0:
240,152,337396,1,8,0:3:0:0:
440,128,337503,1,8,0:3:0:0:
344,96,337610,1,4,0:3:0:0:
440,64,337718,1,4,0:3:0:0:
248,320,337825,6,0,L|144:320,1,84.9999952316285,12|0,0:0|0:0,0:0:0:0:
264,240,338039,2,0,L|360:240,1,84.9999952316285,8|0,0:1|0:0,0:0:0:0:
112,216,338253,2,0,L|104:112,1,84.9999952316285,8|0,0:0|0:0,0:0:0:0:
280,144,338468,2,0,L|288:48,1,84.9999952316285,8|0,0:1|0:0,0:0:0:0:
80,304,338682,5,10,0:0:0:0:
0,248,338789,1,0,0:0:0:0:
80,208,338896,1,8,0:1:0:0:
272,208,339003,1,0,0:0:0:0:
184,168,339110,1,8,0:0:0:0:
272,128,339218,1,8,0:0:0:0:
480,64,339325,2,0,L|368:64,1,84.9999952316285,8|0,0:1|0:0,0:0:0:0:
144,192,339539,6,0,L|256:192,2,84.9999952316285,10|0|8,0:0|0:0|0:1,0:0:0:0:
368,272,339860,1,0,0:0:0:0:
144,304,339968,2,0,L|240:304,2,84.9999952316285,8|0|8,0:0|0:0|0:1,0:0:0:0:
368,336,340289,1,0,0:0:0:0:
144,240,340396,5,10,0:0:0:0:
240,216,340503,1,0,0:0:0:0:
432,184,340610,1,8,0:1:0:0:
256,136,340718,1,0,0:0:0:0:
432,96,340825,1,8,0:0:0:0:
336,80,340932,1,8,0:0:0:0:
120,88,341039,2,0,L|0:88,1,84.9999952316285,8|0,0:1|0:0,0:0:0:0:
296,304,341253,6,0,P|344:240|280:192,1,169.999990463257,6|8,0:0|0:1,0:0:0:0:
184,192,341575,1,0,0:0:0:0:
384,136,341682,2,0,L|480:136,1,84.9999952316285,8|0,0:0|0:0,0:0:0:0:
376,56,341896,1,8,0:1:0:0:
472,24,342003,1,0,0:0:0:0:
240,320,342110,6,0,L|232:200,1,84.9999952316285,10|0,0:0|0:0,0:0:0:0:
336,176,342325,2,0,L|224:176,1,84.9999952316285,8|0,0:1|0:0,0:0:0:0:
72,144,342539,2,0,L|176:144,1,84.9999952316285,8|8,0:0|0:0,0:0:0:0:
64,104,342753,2,0,L|56:16,1,84.9999952316285,8|0,0:1|0:0,0:0:0:0:
344,312,342968,6,0,L|464:312,2,84.9999952316285,12|0|8,0:1|0:0|0:0,0:0:0:0:
120,224,343289,2,0,L|24:224,2,84.9999952316285,8|0|8,0:1|0:0|0:0,0:0:0:0:
368,224,343610,2,0,L|464:224,1,84.9999952316285,8|0,0:1|0:0,0:0:0:0:
264,152,343825,5,12,0:1:0:0:
168,112,343932,1,8,0:0:0:0:
264,88,344039,1,8,0:3:0:0:
456,160,344146,1,8,0:0:0:0:
248,200,344253,1,8,0:1:0:0:
48,248,344360,1,8,0:1:0:0:
248,296,344468,1,8,0:1:0:0:
448,344,344575,1,8,0:1:0:0:
160,352,344690,5,4,0:0:0:0:
424,344,348118,6,0,L|440:160,1,169.999990463257,2|0,0:0|0:0,0:0:0:0:
264,232,348975,2,0,L|256:56,1,169.999990463257,2|0,0:0|0:0,0:0:0:0:
80,336,349832,2,0,L|88:136,1,169.999990463257,2|0,0:0|0:0,0:0:0:0:
264,192,350690,2,0,L|56:160,1,169.999990463257,2|0,0:0|0:0,0:0:0:0:
424,312,351547,6,0,P|472:248|416:192,1,169.999990463257,2|0,0:0|0:0,0:0:0:0:
240,200,352404,2,0,L|432:184,1,169.999990463257,2|0,0:0|0:0,0:0:0:0:
88,328,353261,2,0,L|72:120,1,169.999990463257,2|0,0:0|0:0,0:0:0:0:
256,96,354118,1,2,0:0:0:0:
64,64,354547,1,0,0:0:0:0:
400,320,354975,6,0,P|472:240|368:160,1,254.999985694886,2|0,0:0|0:0,0:0:0:0:
296,112,355832,2,0,L|488:104,1,169.999990463257,2|0,0:0|0:0,0:0:0:0:
176,296,356690,6,0,L|-8:272,2,169.999990463257,2|0|0,0:0|0:0|0:0,0:0:0:0:
384,288,357975,1,0,0:0:0:0:
384,288,358190,1,0,0:0:0:0:
200,224,358404,6,0,L|344:96,1,169.999990463257,2|0,0:0|0:0,0:0:0:0:
224,224,359047,2,0,P|112:184|72:48,1,254.999985694886,2|0,0:0|0:0,0:0:0:0:
432,304,360118,6,0,L|248:304,2,169.999990463257,2|0|0,0:0|0:0|0:0,0:0:0:0:
280,336,361404,1,0,0:0:0:0:
32,312,361832,5,2,0:0:0:0:
248,264,362261,2,0,L|232:72,1,169.999990463257,0|2,0:0|0:0,0:0:0:0:
352,80,362904,1,0,0:0:0:0:
232,48,363118,2,0,L|416:40,1,169.999990463257,2|0,0:0|0:0,0:0:0:0:
264,160,363761,5,2,0:0:0:0:
48,160,364190,1,0,0:0:0:0:
48,160,364404,1,2,0:0:0:0:
256,256,364832,1,0,0:0:0:0:
48,232,365261,6,0,L|240:216,1,169.999990463257,2|0,0:0|0:0,0:0:0:0:
80,184,365904,1,0,0:0:0:0:
216,160,366118,2,0,L|32:160,1,169.999990463257,2|0,0:0|0:0,0:0:0:0:
384,272,367029,2,2,L|392:240,2,21.2499988079071
160,256,368690,6,0,L|88:256,3,42.4999976158143,2|0|0|0,0:0|0:0|0:0|0:0,0:0:0:0:
192,312,369118,2,0,L|200:240,1,42.4999976158143
128,232,369332,2,0,L|120:168,1,42.4999976158143
200,176,369547,2,0,L|248:176,1,42.4999976158143
184,96,369761,2,0,L|120:96,1,42.4999976158143
232,144,369975,1,0,0:0:0:0:
312,176,370082,1,0,0:0:0:0:
232,216,370190,1,2,0:0:0:0:
448,232,370404,5,2,0:0:0:0:
232,248,370832,1,2,0:0:0:0:
448,304,371261,1,2,0:0:0:0:
136,320,371797,1,0,0:0:0:0:
304,256,372011,1,2,0:0:0:0:
136,240,372116,6,0,P|96:160|168:128,1,169.999990463257,12|8,0:0|0:1,0:0:0:0:
384,128,372437,2,0,L|480:128,2,84.9999952316285,0|8|8,0:0|0:0|0:0,0:0:0:0:
208,288,372758,2,0,L|304:288,1,84.9999952316285,8|0,0:1|0:0,0:0:0:0:
48,200,372973,6,0,L|248:200,1,169.999990463257,10|8,0:0|0:1,0:0:0:0:
128,168,373294,1,0,0:0:0:0:
320,160,373401,2,0,L|328:56,1,84.9999952316285,8|8,0:0|0:0,0:0:0:0:
152,56,373616,2,8,L|64:56,1,84.9999952316285,8|8,0:1|0:0,0:0:0:0:
336,248,373830,6,0,P|384:208|296:144,1,169.999990463257,10|8,0:0|0:1,0:0:0:0:
152,104,374151,2,0,L|240:104,2,84.9999952316285,0|8|8,0:0|0:0|0:0,0:0:0:0:
384,320,374473,2,0,L|480:320,1,84.9999952316285,8|0,0:1|0:0,0:0:0:0:
200,320,374687,6,0,L|192:216,1,84.9999952316285,10|0,0:0|0:0,0:0:0:0:
296,232,374901,2,0,L|304:144,1,84.9999952316285,8|0,0:1|0:0,0:0:0:0:
88,120,375116,2,0,L|200:120,1,84.9999952316285,8|8,0:0|0:0,0:0:0:0:
424,104,375330,2,0,L|328:104,1,84.9999952316285,8|0,0:1|0:0,0:0:0:0:
144,312,375544,6,0,L|136:208,1,84.9999952316285,14|0,0:0|0:0,0:0:0:0:
352,240,375758,2,0,P|392:144|336:128,1,169.999990463257,8|8,0:1|0:0,0:0:0:0:
264,104,376080,1,0,0:0:0:0:
360,96,376187,2,0,L|368:8,1,84.9999952316285,8|0,0:1|0:0,0:0:0:0:
160,200,376401,5,2,0:0:0:0:
352,272,376508,2,0,L|152:272,1,169.999990463257,8|8,0:0|0:0,0:0:0:0:
360,192,376830,2,0,L|456:192,1,84.9999952316285,8|8,0:0|0:0,0:0:0:0:
232,88,377044,2,0,L|320:88,1,84.9999952316285,8|0,0:1|0:0,0:0:0:0:
136,336,377258,6,0,L|32:336,1,84.9999952316285,14|0,0:0|0:0,0:0:0:0:
248,224,377473,1,8,0:0:0:0:
48,208,377580,1,8,0:1:0:0:
248,144,377687,2,0,L|344:144,1,84.9999952316285,12|0,0:0|0:0,0:0:0:0:
128,80,377901,2,0,L|32:80,1,84.9999952316285,12|0,0:1|0:0,0:0:0:0:
304,344,378116,6,0,L|312:248,1,84.9999952316285,8|0,0:3|0:0,0:0:0:0:
208,272,378330,2,0,L|200:176,1,84.9999952316285,8|8,0:0|0:0,0:0:0:0:
408,192,378544,1,4,0:3:0:0:
440,165,378598,1,0,0:0:0:0:
432,128,378651,1,0,0:0:0:0:
392,104,378705,1,0,0:0:0:0:
248,72,378758,2,8,L|304:72,1,42.4999976158143
408,40,378866,2,4,L|472:40,1,42.4999976158143,4|4,0:3|0:3,0:3:0:0:
248,288,378973,6,0,L|56:288,1,169.999990463257,14|8,0:0|0:1,0:0:0:0:
280,208,379294,2,0,L|288:112,1,84.9999952316285,8|0,0:0|0:0,0:0:0:0:
184,120,379508,1,8,0:0:0:0:
392,288,379616,2,0,L|496:288,1,84.9999952316285,8|0,0:1|0:0,0:0:0:0:
192,328,379830,6,0,L|400:328,1,169.999990463257,10|8,0:0|0:1,0:0:0:0:
272,296,380151,1,0,0:0:0:0:
72,264,380258,2,0,L|64:176,1,84.9999952316285
272,176,380473,2,0,L|376:176,1,84.9999952316285,8|0,0:1|0:0,0:0:0:0:
152,128,380687,6,0,P|104:88|176:16,1,169.999990463257,10|8,0:0|0:1,0:0:0:0:
360,80,381008,2,0,L|472:80,2,84.9999952316285,8|0|8,0:0|0:0|0:0,0:0:0:0:
128,232,381330,2,0,L|32:232,1,84.9999952316285,8|0,0:1|0:0,0:0:0:0:
304,328,381544,6,0,L|408:328,1,84.9999952316285,10|0,0:0|0:0,0:0:0:0:
280,240,381758,2,0,L|168:240,1,84.9999952316285,8|0,0:1|0:0,0:0:0:0:
408,200,381973,2,0,L|416:96,1,84.9999952316285,8|8,0:0|0:0,0:0:0:0:
168,176,382187,2,0,L|160:72,1,84.9999952316285,8|0,0:1|0:0,0:0:0:0:
400,312,382401,6,0,L|208:312,1,169.999990463257,14|8,0:0|0:1,0:0:0:0:
320,256,382723,2,0,L|216:256,2,84.9999952316285,8|8|8,0:0|0:0|0:0,0:0:0:0:
408,208,383044,2,0,L|320:208,1,84.9999952316285,8|0,0:1|0:0,0:0:0:0:
144,200,383258,5,10,0:0:0:0:
240,192,383366,2,0,L|248:96,1,84.9999952316285,2|8,0:0|0:1,0:0:0:0:
160,96,383580,1,8,0:0:0:0:
384,320,383687,2,0,L|488:320,1,84.9999952316285,10|0,0:0|0:0,0:0:0:0:
240,344,383901,2,0,L|152:344,1,84.9999952316285,8|0,0:1|0:0,0:0:0:0:
384,256,384116,6,0,L|392:160,1,84.9999952316285,14|0,0:0|0:0,0:0:0:0:
288,160,384330,1,8,0:0:0:0:
472,120,384437,1,8,0:1:0:0:
240,112,384544,2,0,L|120:112,1,84.9999952316285,10|0,0:0|0:0,0:0:0:0:
384,312,384758,2,0,L|288:312,1,84.9999952316285,8|0,0:3|0:0,0:0:0:0:
56,296,384973,6,8,L|64:224,1,42.4999976158143
120,248,385080,2,8,L|128:176,1,42.4999976158143
64,200,385187,2,8,L|56:136,1,42.4999976158143
128,144,385294,1,8,0:0:0:0:
296,104,385401,1,8,0:1:0:0:
480,64,385508,1,8,0:1:0:0:
296,192,385616,1,8,0:1:0:0:
120,240,385723,1,8,0:1:0:0:
328,352,385830,6,0,L|504:352,1,169.999990463257,14|8,0:0|0:1,0:0:0:0:
304,264,386151,2,0,L|312:152,1,84.9999952316285,0|8,0:0|0:0,0:0:0:0:
400,176,386366,1,8,0:0:0:0:
192,96,386473,2,0,L|288:96,1,84.9999952316285,8|0,0:1|0:0,0:0:0:0:
496,312,386687,6,0,L|312:312,1,169.999990463257,10|8,0:0|0:1,0:0:0:0:
416,288,387008,1,0,0:0:0:0:
216,240,387116,2,0,L|208:152,1,84.9999952316285,8|8,0:0|0:0,0:0:0:0:
104,168,387330,2,0,L|112:72,1,84.9999952316285,8|0,0:1|0:0,0:0:0:0:
368,224,387544,6,0,P|416:168|352:112,1,169.999990463257,14|8,0:0|0:1,0:0:0:0:
136,112,387866,2,0,L|32:112,2,84.9999952316285,8|0|8,0:0|0:0|0:0,0:0:0:0:
360,72,388187,2,0,L|256:72,1,84.9999952316285,8|0,0:1|0:0,0:0:0:0:
48,288,388401,2,0,L|232:288,1,169.999990463257,10|8,0:0|0:1,0:0:0:0:
128,256,388723,1,0,0:0:0:0:
368,232,388830,2,0,L|472:232,1,84.9999952316285,8|8,0:0|0:0,0:0:0:0:
208,144,389044,2,0,L|112:144,1,84.9999952316285,8|8,0:1|0:1,0:0:0:0:
416,272,389258,6,0,P|496:192|384:144,1,254.999985694886,14|0,0:0|0:0,0:0:0:0:
136,136,389901,1,2,0:0:0:0:
424,304,390116,6,0,L|136:304,1,254.999985694886,12|0,0:0|0:0,0:0:0:0:
424,200,390758,1,2,0:0:0:0:
96,208,390973,6,0,L|0:208,1,84.9999952316285,14|0,0:0|0:0,0:0:0:0:
200,224,391187,2,0,L|208:112,1,84.9999952316285,8|0,0:1|0:0,0:0:0:0:
112,304,391401,2,0,L|224:304,1,84.9999952316285,8|8,0:0|0:0,0:0:0:0:
392,328,391616,2,0,L|296:328,1,84.9999952316285,8|0,0:1|0:0,0:0:0:0:
112,248,391830,6,0,L|104:152,1,84.9999952316285,8|0,0:0|0:0,0:0:0:0:
288,96,392044,2,0,L|400:96,1,84.9999952316285,8|0,0:1|0:0,0:0:0:0:
280,168,392258,2,0,L|184:168,1,84.9999952316285,8|8,0:0|0:0,0:0:0:0:
416,272,392473,2,0,L|320:272,1,84.9999952316285,8|0,0:1|0:0,0:0:0:0:
136,272,392687,6,0,L|128:160,1,84.9999952316285,8|0,0:0|0:0,0:0:0:0:
344,136,392901,2,0,L|232:136,1,84.9999952316285,8|0,0:1|0:0,0:0:0:0:
360,288,393116,2,0,L|368:184,1,84.9999952316285,8|8,0:0|0:0,0:0:0:0:
168,344,393330,2,0,L|280:344,1,84.9999952316285,8|0,0:1|0:0,0:0:0:0:
456,312,393544,6,0,L|368:312,1,84.9999952316285,8|0,0:0|0:0,0:0:0:0:
192,184,393758,2,0,L|296:184,1,84.9999952316285,8|0,0:1|0:0,0:0:0:0:
168,136,393973,2,0,L|160:48,1,84.9999952316285,8|8,0:0|0:0,0:0:0:0:
344,48,394187,2,0,L|440:48,1,84.9999952316285,8|0,0:1|0:0,0:0:0:0:
152,328,394401,6,0,L|64:328,1,84.9999952316285,12|0,0:0|0:0,0:0:0:0:
312,312,394616,2,0,L|320:208,1,84.9999952316285,8|0,0:1|0:0,0:0:0:0:
224,184,394830,2,0,L|320:184,1,84.9999952316285,8|8,0:0|0:0,0:0:0:0:
104,144,395044,2,0,L|96:32,1,84.9999952316285,8|0,0:1|0:0,0:0:0:0:
304,328,395258,6,0,L|208:328,1,84.9999952316285,8|0,0:0|0:0,0:0:0:0:
440,152,395473,2,0,L|448:256,1,84.9999952316285,8|0,0:1|0:0,0:0:0:0:
352,272,395687,2,0,L|344:176,1,84.9999952316285,8|8,0:0|0:0,0:0:0:0:
128,176,395901,2,0,L|43:176,1,84.9999952316285,8|0,0:1|0:0,0:0:0:0:
240,328,396115,6,0,L|248:224,1,84.9999952316285,8|0,0:0|0:0,0:0:0:0:
40,224,396330,2,0,L|152:224,1,84.9999952316285,8|0,0:1|0:0,0:0:0:0:
232,120,396544,2,0,L|136:120,1,84.9999952316285,8|8,0:0|0:0,0:0:0:0:
336,320,396758,2,0,L|448:320,1,84.9999952316285,8|0,0:1|0:0,0:0:0:0:
208,232,396973,6,0,L|320:232,3,84.9999952316285,0|0|8|0,0:0|0:0|0:1|0:0,0:0:0:0:
384,160,397401,2,0,L|280:160,1,84.9999952316285,8|8,0:0|0:0,0:0:0:0:
88,128,397615,2,0,L|80:40,1,84.9999952316285,8|0,0:1|0:0,0:0:0:0:
384,328,397830,6,0,L|504:328,1,84.9999952316285,12|0,3:1|0:0,0:0:0:0:
256,264,398044,2,0,L|256:168,1,84.9999952316285,8|0,0:1|0:0,0:0:0:0:
56,200,398258,2,0,L|40:104,1,84.9999952316285,8|0,0:1|0:0,0:0:0:0:
128,80,398473,2,0,L|40:80,1,84.9999952316285,8|0,0:1|0:0,0:0:0:0:
264,328,398687,6,0,L|360:328,1,84.9999952316285,8|0,3:1|0:0,0:0:0:0:
56,288,398901,2,0,L|48:184,1,84.9999952316285,8|0,0:1|0:0,0:0:0:0:
240,208,399115,2,0,L|248:104,1,84.9999952316285,8|0,0:1|0:0,0:0:0:0:
448,72,399330,2,0,L|456:168,1,84.9999952316285,8|0,0:1|0:0,0:0:0:0:
152,352,399544,6,0,L|48:352,1,84.9999952316285,8|0,3:1|0:0,0:0:0:0:
264,272,399758,2,0,L|272:168,1,84.9999952316285,8|0,0:1|0:0,0:0:0:0:
384,208,399973,2,0,L|392:104,1,84.9999952316285,8|0,0:1|0:0,0:0:0:0:
168,120,400187,2,0,L|64:120,1,84.9999952316285,8|0,0:1|0:0,0:0:0:0:
304,256,400401,6,0,L|184:256,1,84.9999952316285,8|0,3:1|0:0,0:0:0:0:
320,344,400615,2,0,L|328:224,1,84.9999952316285,8|0,0:1|0:0,0:0:0:0:
96,336,400830,2,0,L|192:336,1,84.9999952316285,8|0,0:1|0:0,0:0:0:0:
376,288,401044,2,0,L|384:168,1,84.9999952316285,8|0,0:1|0:0,0:0:0:0:
144,184,401258,6,0,L|48:184,1,84.9999952316285,12|0,3:1|0:0,0:0:0:0:
248,296,401473,2,0,L|256:200,1,84.9999952316285,8|0,0:1|0:0,0:0:0:0:
440,216,401687,2,0,L|448:112,1,84.9999952316285,8|0,0:1|0:0,0:0:0:0:
360,96,401901,2,0,L|448:96,1,84.9999952316285,8|0,0:1|0:0,0:0:0:0:
216,328,402115,6,0,L|104:328,1,84.9999952316285,8|0,3:1|0:0,0:0:0:0:
296,264,402330,1,8,0:1:0:0:
207,238,402437,2,0,L|184:119,2,84.9999952316285,0|8|0,0:0|0:1|0:0,0:0:0:0:
440,336,402758,2,0,L|355:336,1,84.9999952316285,8|0,0:1|0:0,0:0:0:0:
88,328,402973,6,0,L|80:232,1,84.9999952316285,8|0,3:1|0:0,0:0:0:0:
288,272,403187,2,0,L|280:176,1,84.9999952316285,8|0,0:1|0:0,0:0:0:0:
448,104,403401,2,0,L|360:104,1,84.9999952316285,8|0,0:1|0:0,0:0:0:0:
160,104,403615,2,0,L|64:104,1,84.9999952316285,8|0,0:1|0:0,0:0:0:0:
320,344,403830,6,0,P|368:288|296:232,1,169.999990463257,12|0,0:3|0:0,0:0:0:0:
88,208,404151,2,0,L|280:208,1,169.999990463257,10|8,0:0|0:0,0:0:0:0:
360,208,404473,1,8,0:2:0:0:
40,336,404687,6,8,P|-8:216|160:96,1,339.999980926514,12|8,0:0|0:0,0:0:0:0:
440,336,405544,6,0,L|96:312,1,339.999980926514,4|8,0:0|0:3,0:0:0:0:
480,248,406401,6,0,P|488:144|280:40,1,339.999980926514,4|4,0:0|0:3,0:0:0:0:
8,256,407258,6,0,L|347:232,1,339.999980926514,4|8,0:0|0:0,0:0:0:0:
112,336,408115,6,8,L|48:336,2,56.6666634877523,12|8|8,0:3|0:0|0:0,0:0:0:0:
256,344,408330,2,8,L|336:344,2,56.6666634877523
408,240,408544,2,8,L|488:240,2,56.6666634877523
256,200,408758,2,8,L|184:200,2,56.6666634877523
104,112,408973,2,8,L|16:112,2,56.6666634877523
376,112,409187,2,8,L|456:112,2,56.6666634877523
152,256,409401,6,0,P|24:256|151:256,1,254.999985694886,8|0,0:1|0:0,0:0:0:0:
432,272,409830,5,4,0:0:0:0:
256,192,409937,12,2,416794,0:0:0:0:
