osu file format v14

[General]
AudioFilename: audio.mp3
AudioLeadIn: 0
PreviewTime: -1
Countdown: 0
SampleSet: Normal
StackLeniency: 0.7
Mode: 0
LetterboxInBreaks: 0
WidescreenStoryboard: 0

[Editor]
DistanceSpacing: 0.8
BeatDivisor: 5
GridSize: 32
TimelineZoom: 1.2

[Metadata]
Title:Deng Fu Ru Cha Zih Lieh
TitleUnicode:鄧福如叉子咧
Artist:Deng Fu Ru Cha Zih Lieh
ArtistUnicode:鄧福如叉子咧
Creator:sean20070716
Version:Normal
Source:
Tags:
BeatmapID:3613431
BeatmapSetID:1765271

[Difficulty]
HPDrainRate:5
CircleSize:5
OverallDifficulty:5
ApproachRate:5
SliderMultiplier:1
SliderTickRate:1

[Events]
//Background and Video events
Video,0,"deng-fu-ru-cha-zi-lie.mp4"
//Break Periods
//Storyboard Layer 0 (Background)
//Storyboard Layer 1 (Fail)
//Storyboard Layer 2 (Pass)
//Storyboard Layer 3 (Foreground)
//Storyboard Layer 4 (Overlay)
//Storyboard Sound Samples

[TimingPoints]
1099.27913215129,223.880597014925,4,1,0,100,1,0

[Colours]
Combo1 : 117,255,117
Combo2 : 220,216,201
Combo3 : 105,80,41
Combo4 : 202,0,5

[HitObjects]
171,165,1103,5,4,0:0:0:0:
200,165,1323,1,0,0:0:0:0:
228,167,1547,1,0,0:0:0:0:
356,348,1994,2,0,L|355:190,1,100
350,95,2442,1,0,0:0:0:0:
256,192,2890,12,0,4233,0:0:0:0:
419,120,4681,5,4,0:0:0:0:
402,121,4901,1,0,0:0:0:0:
388,121,5125,1,0,0:0:0:0:
231,280,5572,2,0,L|230:122,1,100
133,202,6024,2,0,L|132:44,1,100
68,150,6472,2,0,L|69:276,6,100
53,61,8263,6,0,P|114:160|118:160,1,100
158,138,8711,2,0,P|258:119|264:140,1,100
312,101,9158,2,0,B|392:188|356:267|298:300|226:335|101:352|12:348|-109:312|118:274|195:259|274:231|403:169|499:138|549:109|623:79,1,1000
256,192,11845,12,0,14979,0:0:0:0:
495,59,15427,5,0,0:0:0:0:
461,93,15651,1,0,0:0:0:0:
415,159,15875,2,0,L|319:207,1,100
295,278,16323,5,0,0:0:0:0:
251,167,16547,1,0,0:0:0:0:
226,243,16771,2,0,L|141:166,1,100
166,97,17218,6,0,L|263:65,1,100
340,78,17666,2,0,L|441:139,1,100
370,188,18114,1,0,0:0:0:0:
288,188,18338,1,0,0:0:0:0:
208,189,18561,1,0,0:0:0:0:
70,107,19009,6,0,P|176:61|247:104,1,200
197,165,19681,1,0,0:0:0:0:
118,148,19905,2,0,P|25:202|64:273,1,200
134,276,20576,1,0,0:0:0:0:
184,213,20800,5,0,0:0:0:0:
246,162,21024,1,0,0:0:0:0:
303,217,21248,1,0,0:0:0:0:
367,170,21472,1,0,0:0:0:0:
126,176,22144,5,0,0:0:0:0:
254,81,22591,2,0,B|333:89|333:89|355:174,1,160
254,181,23263,1,0,0:0:0:0:
321,223,23487,2,0,B|261:283|261:283|170:278,1,160
123,222,24158,1,0,0:0:0:0:
65,165,24382,1,0,0:0:0:0:
14,103,24606,1,0,0:0:0:0:
57,176,26173,5,0,0:0:0:0:
105,111,26397,1,0,0:0:0:0:
152,175,26621,1,0,0:0:0:0:
205,115,26845,1,0,0:0:0:0:
252,179,27069,2,0,B|290:145|290:145|335:190|335:190|376:145|376:145|419:189|419:189|466:146|468:142|511:185|511:185|553:157|553:157|594:180|594:180|537:251|536:255|159:259,1,900
0,89,29755,5,0,0:0:0:0:
80,90,29979,1,0,0:0:0:0:
159,92,30203,2,0,L|161:207,1,100
165,273,30651,5,0,0:0:0:0:
244,277,30875,1,0,0:0:0:0:
324,278,31099,2,0,L|324:162,1,100
324,97,31547,5,0,0:0:0:0:
249,124,31994,1,0,0:0:0:0:
174,153,32442,1,0,0:0:0:0:
401,76,33114,5,0,0:0:0:0:
461,128,33338,1,0,0:0:0:0:
201,314,34009,1,0,0:0:0:0:
138,263,34233,1,0,0:0:0:0:
4,234,34905,2,0,L|78:143,5,100
132,91,36920,5,0,0:0:0:0:
158,108,37009,1,0,0:0:0:0:
285,116,37367,1,0,0:0:0:0:
310,135,37457,1,0,0:0:0:0:
119,128,38711,5,0,0:0:0:0:
278,128,39158,1,0,0:0:0:0:
438,126,39606,1,0,0:0:0:0:
124,191,40502,2,0,L|217:261,1,100
277,219,40950,2,0,L|376:167,1,100
304,120,41397,2,0,L|204:69,2,100
161,46,42293,6,0,L|71:91,1,100
117,156,42741,2,0,L|21:212,1,100
49,284,43188,2,0,L|-36:340,1,100
196,271,44084,2,0,L|277:331,1,100
338,182,44755,1,0,0:0:0:0:
314,164,44979,1,0,0:0:0:0:
232,162,45427,1,0,0:0:0:0:
105,259,45875,5,0,0:0:0:0:
222,150,46322,1,0,0:0:0:0:
333,265,46770,1,0,0:0:0:0:
44,125,47666,2,0,L|150:125,1,100
304,137,48338,1,0,0:0:0:0:
384,135,48561,2,0,L|467:70,2,100
161,46,49457,6,0,L|158:155,1,100
162,226,49905,2,0,L|74:164,1,100
107,93,50352,2,0,L|216:118,1,100
196,271,51248,2,0,L|277:331,1,100
331,272,51696,1,4,0:0:0:0:
396,225,51920,1,0,0:0:0:0:
424,145,52144,1,0,0:0:0:0:
392,71,52367,1,0,0:0:0:0:
315,47,52591,1,0,0:0:0:0:
235,57,52815,1,0,0:0:0:0:
159,92,53039,6,0,L|161:207,1,100
512,246,53935,2,0,L|537:141,1,100
324,97,54830,1,0,0:0:0:0:
200,163,55278,1,0,0:0:0:0:
0,224,55771,1,0,0:0:0:0:
49,32,56621,6,0,L|369:297,1,400
364,41,58412,2,0,L|26:278,1,400
17,82,60203,6,0,B|7:370|7:370|13:196|13:196|164:204|164:204|162:81|162:81|153:348,1,1000
241,57,62890,2,0,B|107:117|70:184|69:275|119:353|248:368|371:353|425:293|385:224|360:89|248:53,1,800
372,108,65576,2,0,B|445:330|445:330|494:179|494:179|567:315|567:315|612:56,1,800
256,192,67591,12,0,70278,0:0:0:0:
60,205,70502,5,0,0:0:0:0:
266,77,70950,1,0,0:0:0:0:
158,148,71397,1,0,0:0:0:0:
223,243,71845,2,0,P|268:179|291:253,1,180
256,317,72741,2,0,B|264:274|264:274|304:291|304:291|317:231|317:231|373:246|373:246|376:188|376:188|434:196|434:196|433:135|431:131|497:145|497:145|495:82|491:78|554:93|554:93|557:32,1,600
256,192,74532,12,0,77218,0:0:0:0:
248,97,77666,5,0,0:0:0:0:
255,171,77890,1,0,0:0:0:0:
430,98,78114,1,0,0:0:0:0:
428,178,78338,1,0,0:0:0:0:
497,251,79009,2,0,L|408:304,1,100
338,310,79457,2,0,L|234:319,1,100
163,320,79905,2,0,B|60:298|-6:259|-53:240|-64:168|-68:37,1,400
152,76,81696,5,0,0:0:0:0:
32,79,82143,1,0,0:0:0:0:
36,194,82591,1,0,0:0:0:0:
175,205,83487,2,0,L|175:311,1,100
241,201,83935,2,0,L|355:201,1,100
338,131,84382,2,0,L|340:29,2,100
161,46,85278,6,0,L|71:91,1,100
117,156,85726,2,0,L|202:220,1,100
142,265,86173,2,0,L|56:327,1,100
228,328,87069,2,0,L|332:326,1,100
403,282,87740,1,0,0:0:0:0:
433,196,87964,1,0,0:0:0:0:
337,70,88412,1,0,0:0:0:0:
217,78,88860,5,0,0:0:0:0:
81,265,89307,1,0,0:0:0:0:
333,265,89755,1,0,0:0:0:0:
44,125,90651,2,0,L|150:125,1,100
304,137,91323,1,0,0:0:0:0:
384,135,91546,2,0,L|467:70,2,100
308,74,92442,6,0,L|224:158,1,100
225,36,92890,2,0,L|222:152,1,100
133,67,93337,2,0,L|205:146,1,100
230,196,94233,2,0,L|231:300,1,100
394,297,94681,1,4,0:0:0:0:
323,200,94905,1,0,0:0:0:0:
236,100,95129,1,0,0:0:0:0:
150,197,95352,1,0,0:0:0:0:
61,293,95576,1,0,0:0:0:0:
230,295,95800,1,0,0:0:0:0:
159,92,96024,6,0,L|161:207,1,100
353,203,96920,2,0,L|378:98,1,100
324,97,97815,1,0,0:0:0:0:
162,178,98263,1,0,0:0:0:0:
0,262,98756,1,0,0:0:0:0:
49,32,99606,6,0,L|369:297,1,400
364,41,101397,2,0,L|26:278,1,400
