osu file format v14

[General]
AudioFilename: gabe - gabe power.mp3
AudioLeadIn: 0
PreviewTime: 8702
Countdown: 0
SampleSet: Soft
StackLeniency: 0.6
Mode: 0
LetterboxInBreaks: 0
WidescreenStoryboard: 1

[Editor]
Bookmarks: 30896
DistanceSpacing: 0.5
BeatDivisor: 4
GridSize: 4
TimelineZoom: 1.4

[Metadata]
Title:gabe power
TitleUnicode:gabe power
Artist:Dendei
ArtistUnicode:Dendei
Creator:HighTec
Version:Bara's Hyper
Source:
Tags:gero bara- cheesecake mazziv shizuku- hikaru rose hikarur arphimigon snownino_ gabe the dog brain power noma ノマ
BeatmapID:961907
BeatmapSetID:420765

[Difficulty]
HPDrainRate:4.7
CircleSize:4.5
OverallDifficulty:7
ApproachRate:8.7
SliderMultiplier:1.6
SliderTickRate:2

[Events]
//Background and Video events
0,0,"maxresdefault (1).jpg",0,0
Video,0,"O-oooooooooo+AAAAE-A-A-I-A-U-+JO-oooooooooooo+AAE-O-A-A-U-U-A-+E-eee-ee-eee+AAAAE-A-E-I-E-A-.avi"
//Break Periods
//Storyboard Layer 0 (Background)
//Storyboard Layer 1 (Fail)
//Storyboard Layer 2 (Pass)
//Storyboard Layer 3 (Foreground)
//Storyboard Sound Samples

[TimingPoints]
298,350.877192982456,4,2,0,100,1,0
2403,-133.333333333333,4,2,0,50,0,0
5912,348.837209302326,4,2,0,60,1,0
8702,346.820809248555,4,2,0,90,1,0
8702,-83.3333333333333,4,2,0,90,0,0
10436,-100,4,2,0,90,0,0
11476,-83.3333333333333,4,2,0,90,0,0
13037,-100,4,2,0,90,0,0
14251,-83.3333333333333,4,2,0,90,0,0
15638,-100,4,2,0,90,0,0
19800,-83.3333333333333,4,2,0,100,0,1
21534,-100,4,2,0,100,0,1
22574,-83.3333333333333,4,2,0,100,0,1
30898,-100,4,2,0,100,0,0
31245,-100,4,2,0,95,0,0
31592,-100,4,2,0,90,0,0
31938,-100,4,2,0,85,0,0
32285,-100,4,2,0,80,0,0
32632,-100,4,2,0,75,0,0
32979,-100,4,2,0,70,0,0
33326,-100,4,2,0,65,0,0
33673,-100,4,2,0,60,0,0
34019,-100,4,2,0,55,0,0
34366,-100,4,2,0,50,0,0
34713,-100,4,2,0,40,0,0
35060,-100,4,2,0,30,0,0
35407,-100,4,2,0,20,0,0
35754,-100,4,2,0,10,0,0
36100,-100,4,2,0,5,0,0

[Colours]
Combo1 : 216,39,150
Combo2 : 74,111,128
Combo3 : 160,112,139
Combo4 : 51,186,215

[HitObjects]
256,192,5912,12,0,8005,0:0:0:0:
168,136,8702,6,2,B|161:173|161:173|176:286,1,143.999995605469,14|0,0:1|0:1,0:1:0:0:
246,285,9048,2,0,P|225:327|187:348,2,47.9999985351563,8|0|0,0:0|0:0|0:0,0:0:0:0:
300,195,9395,1,0,0:0:0:0:
307,172,9481,1,0,0:0:0:0:
321,152,9568,1,0,0:0:0:0:
340,138,9655,1,0,0:0:0:0:
363,131,9742,2,0,P|415:133|453:140,3,47.9999985351563,8|0|0|0,0:0|0:0|0:0|0:0,0:0:0:0:
469,219,10089,5,4,0:0:0:0:
445,219,10175,1,0,0:0:0:0:
421,218,10262,1,0,0:0:0:0:
397,214,10349,1,0,0:0:0:0:
374,210,10436,2,0,B|337:205|337:205|285:210,1,80,8|0,0:0|0:0,0:0:0:0:
146,298,10782,2,0,B|183:303|183:303|235:298,1,80
351,281,11129,1,8,0:0:0:0:
463,221,11303,1,0,0:0:0:0:
406,86,11476,6,2,P|341:58|277:132,1,143.999995605469,14|0,0:1|0:1,0:1:0:0:
349,128,11823,2,0,P|387:154|431:151,2,47.9999985351563,8|0|0,0:0|0:0|0:0,0:0:0:0:
391,295,12170,1,0,0:0:0:0:
377,274,12256,1,0,0:0:0:0:
358,260,12343,1,0,0:0:0:0:
335,252,12430,1,0,0:0:0:0:
311,253,12517,2,0,P|275:254|241:247,3,47.9999985351563,8|0|0|0,0:0|0:0|0:0|0:0,0:0:0:0:
210,218,12863,5,0,0:0:0:0:
180,198,12949,1,0,0:0:0:0:
145,191,13037,1,0,0:0:0:0:
50,262,13210,2,0,L|139:257,1,80,8|0,0:0|0:0,0:0:0:0:
181,120,13558,2,0,L|140:199,1,80,0|8,0:0|0:0,0:0:0:0:
238,304,13904,2,0,L|189:229,1,80,8|0,0:0|0:0,0:0:0:0:
205,369,14251,6,2,B|248:388|293:355|293:355|311:367|311:367|349:357,1,143.999995605469,14|0,0:1|0:1,0:1:0:0:
330,291,14597,2,0,P|354:291|376:300,2,47.9999985351563,8|0|0,0:0|0:0|0:0,0:0:0:0:
217,242,14944,1,0,0:0:0:0:
193,242,15030,1,0,0:0:0:0:
170,234,15117,1,0,0:0:0:0:
153,218,15204,1,0,0:0:0:0:
142,196,15291,2,0,L|142:103,3,47.9999985351563,8|0|0|0,0:0|0:0|0:0|0:0,0:0:0:0:
196,47,15638,5,4,0:0:0:0:
200,77,15724,1,0,0:0:0:0:
204,107,15811,1,0,0:0:0:0:
208,137,15898,1,0,0:0:0:0:
212,165,15985,2,0,P|251:169|279:196,1,80,8|0,0:0|0:0,0:0:0:0:
223,315,16332,2,0,P|206:271|226:229,1,80
347,231,16678,2,0,P|317:267|271:270,1,80,8|0,0:0|0:0,0:0:0:0:
139,298,17025,6,2,B|58:296|58:296|40:274|48:257,1,120,14|0,0:1|0:1,0:1:0:0:
78,196,17372,2,0,P|84:177|85:158,2,40,8|0|0,0:0|0:0|0:0,0:0:0:0:
174,40,17719,1,0,0:0:0:0:
168,59,17805,1,0,0:0:0:0:
166,78,17892,1,0,0:0:0:0:
168,98,17979,1,0,0:0:0:0:
175,117,18066,2,0,P|181:146|179:163,3,40,8|0|0|0,0:0|0:0|0:0|0:0,0:0:0:0:
176,194,18412,5,0,0:0:0:0:
205,189,18498,1,0,0:0:0:0:
235,193,18585,1,0,0:0:0:0:
262,206,18672,1,0,0:0:0:0:
284,226,18759,2,0,P|331:246|390:236,1,80,8|0,0:0|0:0,0:0:0:0:
344,126,19106,2,0,L|341:169,2,40,0|0|8,0:0|0:0|0:0,0:0:0:0:
196,228,19453,2,0,L|193:267,2,40,8|0|8,0:0|0:0|0:0,0:0:0:0:
80,123,19800,6,2,B|173:139|173:139|221:130,1,143.999995605469,14|0,0:1|0:1,0:1:0:0:
277,83,20147,1,10,0:0:0:0:
290,102,20233,1,0,0:0:0:0:
295,126,20320,1,0,0:0:0:0:
291,149,20407,1,0,0:0:0:0:
279,170,20493,2,0,P|267:198|263:228,3,47.9999985351563,2|0|0|0,0:0|0:0|0:0|0:0,0:0:0:0:
321,256,20840,2,0,P|333:284|337:314,3,47.9999985351563,10|0|2|0,0:0|0:0|0:0|0:0,0:0:0:0:
281,346,21187,5,2,0:0:0:0:
309,367,21273,1,2,0:0:0:0:
344,371,21360,1,2,0:0:0:0:
377,357,21447,1,2,0:0:0:0:
399,329,21534,2,0,B|414:293|414:293|415:242,1,80,10|0,0:0|0:0,0:0:0:0:
324,154,21881,2,0,P|314:192|324:230,1,80,2|10,0:0|0:0,0:0:0:0:
414,131,22228,2,0,B|414:91|414:91|399:54,1,80,10|2,0:0|0:0,0:0:0:0:
392,204,22574,6,2,P|445:203|491:127,1,143.999995605469,14|0,0:1|0:1,0:1:0:0:
469,60,22921,1,10,0:0:0:0:
448,71,23007,1,0,0:0:0:0:
430,87,23094,1,0,0:0:0:0:
419,108,23181,1,0,0:0:0:0:
414,131,23268,2,0,L|355:124,3,47.9999985351563,2|0|0|0,0:0|0:0|0:0|0:0,0:0:0:0:
318,172,23616,2,0,L|258:179,3,47.9999985351563,10|0|2|0,0:0|0:0|0:0|0:0,0:0:0:0:
215,222,23962,5,6,0:0:0:0:
215,222,24048,1,2,0:0:0:0:
215,222,24135,2,0,L|160:226,1,47.9999985351563,2|0,0:0|0:0,0:0:0:0:
102,307,24308,2,0,L|208:301,1,95.9999970703126,10|0,0:0|0:0,0:0:0:0:
259,136,24655,2,0,L|209:230,1,95.9999970703126,2|8,0:0|0:0,0:0:0:0:
327,357,25002,2,0,L|268:267,1,95.9999970703126,10|0,0:0|0:0,0:0:0:0:
197,105,25349,6,2,P|226:74|320:104,1,143.999995605469,14|2,0:1|0:1,0:1:0:0:
349,163,25696,1,10,0:0:0:0:
374,187,25782,1,0,0:0:0:0:
409,195,25869,1,0,0:0:0:0:
442,184,25956,1,0,0:0:0:0:
465,156,26043,2,0,L|474:105,3,47.9999985351563,2|0|0|0,0:0|0:0|0:0|0:0,0:0:0:0:
410,74,26389,2,0,L|401:22,3,47.9999985351563,10|0|2|0,0:0|0:0|0:0|0:0,0:0:0:0:
325,37,26736,5,2,0:0:0:0:
325,37,26823,1,2,0:0:0:0:
325,37,26910,1,2,0:0:0:0:
325,37,26996,1,2,0:0:0:0:
325,37,27083,2,0,P|320:82|283:115,1,95.9999970703126,10|0,0:0|0:0,0:0:0:0:
168,57,27430,2,0,P|209:38|256:53,1,95.9999970703126,2|10,0:0|0:0,0:0:0:0:
261,181,27776,2,0,P|225:155|215:106,1,95.9999970703126,10|0,0:0|0:0,0:0:0:0:
332,196,28123,6,2,P|306:240|213:236,1,143.999995605469,14|2,0:1|0:1,0:1:0:0:
161,201,28470,1,10,0:0:0:0:
127,188,28556,1,0,0:0:0:0:
92,193,28643,1,0,0:0:0:0:
64,214,28730,1,0,0:0:0:0:
49,247,28817,2,0,P|44:274|44:300,3,47.9999985351563,2|0|0|0,0:0|0:0|0:0|0:0,0:0:0:0:
113,315,29164,2,0,P|118:341|118:367,3,47.9999985351563,10|0|2|0,0:0|0:0|0:0|0:0,0:0:0:0:
187,296,29511,5,2,0:0:0:0:
222,289,29597,1,2,0:0:0:0:
258,291,29684,1,2,0:0:0:0:
293,294,29771,1,2,0:0:0:0:
329,290,29858,2,0,P|379:295|434:282,1,95.9999970703126,10|2,0:0|0:0,0:0:0:0:
472,169,30204,1,2,0:0:0:0:
467,161,30291,1,2,0:0:0:0:
463,153,30378,2,8,L|465:54,1,95.9999970703126,10|10,0:0|0:0,0:0:0:0:
461,49,30638,1,2,0:0:0:0:
457,40,30725,1,2,0:0:0:0:
267,30,30898,5,4,0:0:0:0:
256,192,30985,12,0,36100,0:0:0:0:
