osu file format v14

[General]
AudioFilename: gabe - gabe power.mp3
AudioLeadIn: 0
PreviewTime: 8702
Countdown: 0
SampleSet: Soft
StackLeniency: 0.3
Mode: 0
LetterboxInBreaks: 0
WidescreenStoryboard: 1

[Editor]
Bookmarks: 30896
DistanceSpacing: 1.6
BeatDivisor: 4
GridSize: 8
TimelineZoom: 1.9

[Metadata]
Title:gabe power
TitleUnicode:gabe power
Artist:Dendei
ArtistUnicode:Dendei
Creator:HighTec
Version:Brain Dog?
Source:
Tags:gero bara- cheesecake mazziv shizuku- hikaru rose hikarur arphimigon snownino_ gabe the dog brain power noma ノマ
BeatmapID:910147
BeatmapSetID:420765

[Difficulty]
HPDrainRate:5
CircleSize:4
OverallDifficulty:8.7
ApproachRate:9.3
SliderMultiplier:2
SliderTickRate:2

[Events]
//Background and Video events
0,0,"maxresdefault (1).jpg",0,0
Video,0,"O-oooooooooo+AAAAE-A-A-I-A-U-+JO-oooooooooooo+AAE-O-A-A-U-U-A-+E-eee-ee-eee+AAAAE-A-E-I-E-A-.avi"
//Break Periods
//Storyboard Layer 0 (Background)
//Storyboard Layer 1 (Fail)
//Storyboard Layer 2 (Pass)
//Storyboard Layer 3 (Foreground)
//Storyboard Sound Samples

[TimingPoints]
298,350.877192982456,4,2,0,20,1,0
999,-100,4,2,0,30,0,0
2052,-100,4,2,0,50,0,0
3105,-100,4,2,0,80,0,0
4508,-100,4,2,0,90,0,0
5912,348.837209302326,4,2,0,100,1,0
8702,346.820809248555,4,2,2,100,1,0
19800,-100,4,2,2,100,0,1
30898,-100,4,2,3,100,0,0
31245,-100,4,2,3,95,0,0
31592,-100,4,2,3,90,0,0
31938,-100,4,2,3,85,0,0
32285,-100,4,2,3,80,0,0
32632,-100,4,2,3,75,0,0
32979,-100,4,2,3,70,0,0
33326,-100,4,2,3,65,0,0
33673,-100,4,2,3,60,0,0
34019,-100,4,2,3,55,0,0
34366,-100,4,2,3,50,0,0
34713,-100,4,2,3,40,0,0
35060,-100,4,2,3,30,0,0
35407,-100,4,2,3,20,0,0
35754,-100,4,2,3,10,0,0
36100,-100,4,2,3,5,0,0

[Colours]
Combo1 : 216,39,150
Combo2 : 74,111,128
Combo3 : 160,112,139
Combo4 : 51,186,215

[HitObjects]
144,352,298,6,0,P|188:330|221:292,1,100
148,135,648,2,8,P|132:181|135:231,1,100,8|0,0:1|0:1,0:1:0:0:
291,84,999,2,0,P|269:40|232:8,1,100
136,232,1350,2,8,P|216:247|254:235,1,100,8|0,0:1|0:1,0:1:0:0:
400,248,1701,6,0,L|440:120,1,100
387,278,2052,1,8,0:1:0:0:
480,88,2227,1,0,0:0:0:0:
256,240,2403,2,0,L|257:106,1,100
256,272,2754,1,8,0:1:0:0:
261,52,2929,1,0,0:0:0:0:
112,248,3105,6,0,L|72:120,1,100
125,278,3456,1,8,0:1:0:0:
32,88,3631,1,0,0:0:0:0:
360,88,3806,2,0,P|344:152|320:184,1,100
200,272,4157,2,8,P|216:208|240:176,1,100,8|0,0:1|0:1,0:1:0:0:
384,56,4508,6,0,P|368:120|344:152,1,100,2|0,0:0|0:0,0:0:0:0:
176,304,4859,2,8,P|192:240|216:208,1,100,8|0,0:1|0:1,0:1:0:0:
392,376,5210,2,0,P|328:360|296:336,1,100,2|0,0:0|0:0,0:0:0:0:
160,88,5561,2,8,P|224:104|256:128,1,100,8|0,0:1|0:1,0:1:0:0:
384,280,5912,5,2,0:0:0:0:
177,174,6086,1,2,0:0:0:0:
228,331,6260,1,2,0:0:0:0:
333,123,6435,1,2,0:0:0:0:
208,344,6609,2,0,L|179:355,2,25,0|0|0,3:0|3:0|3:0,3:0:0:0:
240,350,6784,2,0,L|309:321,1,50
398,273,6958,1,0,3:0:0:0:
401,233,7045,1,0,3:0:0:0:
390,196,7132,1,0,3:0:0:0:
364,166,7220,1,0,3:0:0:0:
332,144,7307,6,0,P|248:138|190:163,1,100
332,218,7568,2,0,P|325:301|351:360,1,100
408,218,7830,2,0,P|491:224|549:199,1,100
408,142,8092,2,0,P|414:58|389:0,1,100
233,141,8353,1,0,0:0:0:0:
329,316,8528,1,0,0:0:0:0:
410,43,8702,5,10,0:0:0:0:
344,336,9048,5,0,3:0:0:0:
371,307,9135,1,0,0:0:0:0:
381,268,9222,1,0,0:0:0:0:
374,230,9308,1,0,0:0:0:0:
350,198,9395,1,8,0:0:0:0:
314,182,9482,1,0,0:0:0:0:
274,183,9569,1,0,0:0:0:0:
239,202,9655,1,0,0:0:0:0:
200,216,9742,5,0,3:0:0:0:
156,209,9829,1,0,0:0:0:0:
127,176,9915,1,0,0:0:0:0:
129,132,10002,1,0,0:0:0:0:
160,96,10089,2,0,L|248:67,1,50,10|0,0:0|0:0,0:0:0:0:
424,144,10262,2,0,L|335:172,1,50
200,304,10436,5,0,3:0:0:0:
456,280,10609,1,0,0:0:0:0:
156,209,10782,1,8,0:0:0:0:
352,64,10956,1,0,0:0:0:0:
320,344,11129,1,0,3:0:0:0:
232,96,11303,1,0,0:0:0:0:
480,362,11476,5,10,0:0:0:0:
352,64,11823,5,0,3:0:0:0:
365,106,11910,1,0,0:0:0:0:
360,151,11996,1,0,0:0:0:0:
337,189,12083,1,0,0:0:0:0:
302,216,12170,1,8,0:0:0:0:
258,226,12256,1,0,0:0:0:0:
214,218,12343,1,0,0:0:0:0:
177,193,12430,1,0,0:0:0:0:
136,168,12517,5,0,3:0:0:0:
88,179,12603,1,0,0:0:0:0:
64,221,12690,1,0,0:0:0:0:
78,268,12777,1,0,0:0:0:0:
120,296,12863,2,0,L|182:301,1,50,10|0,0:0|0:0,0:0:0:0:
360,312,13037,1,0,0:0:0:0:
360,96,13210,5,0,3:0:0:0:
128,232,13384,1,0,0:0:0:0:
360,96,13557,1,8,0:0:0:0:
288,344,13730,1,0,0:0:0:0:
160,96,13904,1,0,3:0:0:0:
336,248,14077,1,0,0:0:0:0:
38,256,14251,5,10,0:0:0:0:
288,48,14597,5,0,3:0:0:0:
336,36,14684,1,0,0:0:0:0:
385,43,14771,1,0,0:0:0:0:
428,68,14858,1,0,0:0:0:0:
458,107,14944,1,8,0:0:0:0:
471,155,15031,1,0,0:0:0:0:
464,200,15118,1,0,0:0:0:0:
441,248,15204,1,0,0:0:0:0:
403,279,15291,5,0,3:0:0:0:
416,226,15378,1,0,0:0:0:0:
406,173,15465,1,0,0:0:0:0:
375,128,15551,1,0,0:0:0:0:
328,96,15638,2,0,L|272:80,1,50,10|0,0:0|0:0,0:0:0:0:
80,144,15811,2,0,L|136:160,1,50
227,31,15985,5,0,3:0:0:0:
144,328,16158,1,0,0:0:0:0:
280,160,16332,1,8,0:0:0:0:
232,336,16505,1,0,0:0:0:0:
192,56,16678,1,0,3:0:0:0:
48,224,16852,1,0,0:0:0:0:
376,160,17025,5,10,0:0:0:0:
168,312,17372,5,0,3:0:0:0:
222,311,17459,1,0,0:0:0:0:
268,283,17545,1,0,0:0:0:0:
294,235,17632,1,0,0:0:0:0:
293,181,17719,1,8,0:0:0:0:
264,135,17806,1,0,0:0:0:0:
215,110,17892,1,0,0:0:0:0:
161,113,17979,1,0,0:0:0:0:
120,144,18066,5,0,0:0:0:0:
162,178,18152,1,0,0:0:0:0:
211,202,18239,1,0,0:0:0:0:
265,213,18326,1,0,0:0:0:0:
320,210,18412,2,0,L|397:176,1,50,10|0,0:0|0:0,0:0:0:0:
204,294,18586,2,0,L|127:260,1,50
437,157,18759,5,0,3:0:0:0:
80,157,18933,1,0,0:0:0:0:
208,48,19106,2,0,L|258:48,1,50,8|0,0:0|0:0,0:0:0:0:
400,248,19280,1,0,0:0:0:0:
136,248,19453,2,0,L|192:248,1,50,0|0,3:0|0:0,0:0:0:0:
352,96,19626,1,0,0:0:0:0:
256,349,19800,5,10,0:0:0:0:
456,144,20147,5,0,3:0:0:0:
469,201,20233,1,0,0:0:0:0:
449,257,20320,1,0,0:0:0:0:
402,294,20407,1,0,0:0:0:0:
344,300,20493,1,8,0:0:0:0:
290,274,20580,1,0,0:0:0:0:
259,224,20667,1,0,0:0:0:0:
260,165,20754,1,0,0:0:0:0:
296,112,20840,5,0,0:0:0:0:
328,165,20927,1,0,0:0:0:0:
327,224,21014,1,0,0:0:0:0:
290,274,21100,1,0,0:0:0:0:
231,289,21187,2,0,L|155:252,1,50,10|0,0:0|0:0,0:0:0:0:
288,32,21360,2,0,L|364:69,1,50
416,224,21534,5,0,3:0:0:0:
231,289,21707,1,0,0:0:0:0:
275,72,21881,1,8,0:0:0:0:
352,328,22054,1,0,0:0:0:0:
96,192,22228,1,0,3:0:0:0:
304,168,22401,1,0,0:0:0:0:
111,347,22574,5,10,0:0:0:0:
376,72,22921,5,0,3:0:0:0:
411,125,23008,1,0,0:0:0:0:
414,189,23095,1,0,0:0:0:0:
384,245,23181,1,0,0:0:0:0:
328,278,23268,1,8,0:0:0:0:
264,276,23355,1,0,0:0:0:0:
210,242,23441,1,0,0:0:0:0:
181,185,23528,1,0,0:0:0:0:
168,120,23615,5,0,3:0:0:0:
230,151,23701,1,0,0:0:0:0:
299,160,23788,1,0,0:0:0:0:
367,146,23875,1,0,0:0:0:0:
432,120,23962,2,0,L|496:96,1,50,10|0,0:0|0:0,0:0:0:0:
256,40,24135,1,0,0:0:0:0:
360,304,24308,5,0,3:0:0:0:
104,192,24482,1,0,0:0:0:0:
432,72,24655,1,8,0:0:0:0:
208,336,24829,1,0,0:0:0:0:
128,24,25002,1,0,3:0:0:0:
352,192,25175,1,0,0:0:0:0:
20,142,25349,5,10,0:0:0:0:
392,56,25696,5,0,3:0:0:0:
450,93,25782,1,0,0:0:0:0:
482,154,25869,1,0,0:0:0:0:
481,223,25956,1,0,0:0:0:0:
447,283,26043,1,8,0:0:0:0:
387,318,26129,1,0,0:0:0:0:
318,320,26216,1,0,0:0:0:0:
257,288,26303,1,0,0:0:0:0:
198,246,26389,5,0,3:0:0:0:
268,264,26475,1,0,0:0:0:0:
334,232,26562,1,0,0:0:0:0:
363,164,26649,1,0,0:0:0:0:
339,95,26736,2,0,L|317:30,1,50,10|0,0:0|0:0,0:0:0:0:
64,80,26910,2,0,L|86:145,1,50
292,154,27083,5,0,3:0:0:0:
144,304,27256,1,0,0:0:0:0:
160,56,27430,1,8,0:0:0:0:
328,296,27603,1,0,0:0:0:0:
24,208,27777,1,0,3:0:0:0:
265,120,27950,1,0,0:0:0:0:
179,362,28123,5,10,0:0:0:0:
64,48,28470,5,0,3:0:0:0:
31,114,28557,1,0,0:0:0:0:
34,188,28644,1,0,0:0:0:0:
74,251,28730,1,0,0:0:0:0:
139,286,28817,1,8,0:0:0:0:
214,285,28904,1,0,0:0:0:0:
278,247,28991,1,0,0:0:0:0:
315,183,29077,1,0,0:0:0:0:
352,120,29164,5,0,3:0:0:0:
384,191,29251,1,0,0:0:0:0:
360,265,29337,1,0,0:0:0:0:
292,304,29424,1,0,0:0:0:0:
214,285,29511,2,0,L|184:208,1,50,10|0,0:0|0:0,0:0:0:0:
240,48,29684,2,0,L|270:125,1,50
144,304,29858,5,0,3:0:0:0:
312,40,30031,1,0,0:0:0:0:
464,304,30204,2,0,L|392:304,1,50,8|0,0:0|0:0,0:0:0:0:
48,160,30378,1,0,0:0:0:0:
448,160,30551,2,0,L|392:192,1,50,0|0,3:0|0:0,0:0:0:0:
144,320,30725,1,0,0:0:0:0:
376,44,30898,5,12,0:0:0:0:
256,192,30985,12,0,36100,0:0:0:0:
