osu file format v14

[General]
AudioFilename: bark.mp3
AudioLeadIn: 0
PreviewTime: 7264
Countdown: 0
SampleSet: Normal
StackLeniency: 0.7
Mode: 1
LetterboxInBreaks: 0
WidescreenStoryboard: 1

[Editor]
DistanceSpacing: 1.6
BeatDivisor: 4
GridSize: 32
TimelineZoom: 1.7

[Metadata]
Title:gabe power
TitleUnicode:gabe power
Artist:Dendei
ArtistUnicode:Dendei
Creator:Capu
Version:Oni
Source:
Tags:meme ノマ white the dog brain noma novelty joke parody instrumental
BeatmapID:2484846
BeatmapSetID:1192466

[Difficulty]
HPDrainRate:6
CircleSize:2
OverallDifficulty:6
ApproachRate:10
SliderMultiplier:1.4
SliderTickRate:1

[Events]
//Background and Video events
0,0,"newdog.jpg",0,55
//Break Periods
//Storyboard Layer 0 (Background)
//Storyboard Layer 1 (Fail)
//Storyboard Layer 2 (Pass)
//Storyboard Layer 3 (Foreground)
//Storyboard Layer 4 (Overlay)
//Storyboard Sound Samples

[TimingPoints]
342,350.877192982456,4,1,0,20,1,0
342,-100,4,1,0,20,0,0
692,-100,4,1,0,25,0,0
1043,-100,4,1,0,30,0,0
1219,-100,4,1,0,35,0,0
1394,-100,4,1,0,40,0,0
1745,-100,4,1,0,45,0,0
2096,-100,4,1,0,50,0,0
2359,-100,4,1,0,55,0,0
2447,-100,4,1,0,60,0,0
2622,-100,4,1,0,65,0,0
2798,-100,4,1,0,70,0,0
5956,348.837209302326,4,1,0,70,1,0
8746,346.820809248555,4,1,0,85,1,1
8746,-100,4,1,0,85,0,1
30942,-100,4,1,0,80,0,0
31289,-100,4,1,0,75,0,0
31636,-100,4,1,0,70,0,0
31982,-100,4,1,0,65,0,0
32329,-100,4,1,0,60,0,0
32676,-100,4,1,0,55,0,0
33023,-100,4,1,0,50,0,0
33370,-100,4,1,0,45,0,0
33717,-100,4,1,0,40,0,0
34063,-100,4,1,0,35,0,0
34410,-100,4,1,0,30,0,0
34757,-100,4,1,0,25,0,0
35104,-100,4,1,0,20,0,0
35451,-100,4,1,0,15,0,0
35798,-100,4,1,0,10,0,0
36144,-100,4,1,0,5,0,0

[HitObjects]
256,192,342,5,0,0:0:0:0:
256,192,692,1,8,0:0:0:0:
256,192,1043,1,0,0:0:0:0:
256,192,1219,1,0,0:0:0:0:
256,192,1394,1,8,0:0:0:0:
256,192,1745,1,0,0:0:0:0:
256,192,2096,1,8,0:0:0:0:
256,192,2359,1,0,0:0:0:0:
256,192,2447,1,8,0:0:0:0:
256,192,2622,1,0,0:0:0:0:
256,192,2798,1,8,0:0:0:0:
256,192,3149,1,0,0:0:0:0:
256,192,3499,1,8,0:0:0:0:
256,192,3850,1,0,0:0:0:0:
256,192,4026,1,0,0:0:0:0:
256,192,4201,1,8,0:0:0:0:
256,192,4552,1,0,0:0:0:0:
256,192,4903,1,8,0:0:0:0:
256,192,5078,1,8,0:0:0:0:
256,192,5254,1,0,0:0:0:0:
256,192,5429,1,0,0:0:0:0:
256,192,5605,1,8,0:0:0:0:
256,192,5956,1,0,0:0:0:0:
256,192,6130,1,0,0:0:0:0:
256,192,6304,1,8,0:0:0:0:
256,192,6479,1,0,0:0:0:0:
256,192,6566,1,0,0:0:0:0:
256,192,6653,1,8,0:0:0:0:
256,192,6740,1,8,0:0:0:0:
256,192,6828,1,0,0:0:0:0:
256,192,6915,1,0,0:0:0:0:
256,192,7002,1,8,0:0:0:0:
256,192,7176,1,0,0:0:0:0:
256,192,7264,1,0,0:0:0:0:
256,192,7351,1,8,0:0:0:0:
256,192,7612,1,8,0:0:0:0:
256,192,7874,1,8,0:0:0:0:
256,192,8136,1,0,0:0:0:0:
256,192,8397,1,8,0:0:0:0:
256,192,8572,1,0,0:0:0:0:
256,192,8746,1,12,0:0:0:0:
256,192,9092,1,8,0:0:0:0:
256,192,9179,1,8,0:0:0:0:
256,192,9266,1,0,0:0:0:0:
256,192,9352,1,0,0:0:0:0:
256,192,9439,1,8,0:0:0:0:
256,192,9613,1,8,0:0:0:0:
256,192,9786,5,0,0:0:0:0:
256,192,9873,1,8,0:0:0:0:
256,192,9959,1,0,0:0:0:0:
256,192,10133,1,8,0:0:0:0:
256,192,10219,1,8,0:0:0:0:
256,192,10306,1,8,0:0:0:0:
256,192,10480,1,0,0:0:0:0:
256,192,10653,1,8,0:0:0:0:
256,192,10826,1,0,0:0:0:0:
256,192,11000,1,12,0:0:0:0:
256,192,11173,1,12,0:0:0:0:
256,192,11347,1,4,0:0:0:0:
256,192,11520,1,12,0:0:0:0:
256,192,11867,1,8,0:0:0:0:
256,192,11954,1,8,0:0:0:0:
256,192,12040,1,0,0:0:0:0:
256,192,12127,1,0,0:0:0:0:
256,192,12214,1,8,0:0:0:0:
256,192,12387,1,0,0:0:0:0:
256,192,12474,1,0,0:0:0:0:
256,192,12561,5,8,0:0:0:0:
256,192,12734,1,8,0:0:0:0:
256,192,12907,1,0,0:0:0:0:
256,192,12994,1,0,0:0:0:0:
256,192,13081,1,8,0:0:0:0:
256,192,13254,1,0,0:0:0:0:
256,192,13428,1,8,0:0:0:0:
256,192,13601,1,8,0:0:0:0:
256,192,13774,1,8,0:0:0:0:
256,192,13948,1,0,0:0:0:0:
256,192,14121,1,0,0:0:0:0:
256,192,14295,1,12,0:0:0:0:
256,192,14641,1,8,0:0:0:0:
256,192,14728,1,0,0:0:0:0:
256,192,14815,1,8,0:0:0:0:
256,192,14988,1,8,0:0:0:0:
256,192,15162,1,0,0:0:0:0:
256,192,15248,1,0,0:0:0:0:
256,192,15335,1,8,0:0:0:0:
256,192,15422,1,8,0:0:0:0:
256,192,15509,1,0,0:0:0:0:
256,192,15682,1,8,0:0:0:0:
256,192,15855,1,0,0:0:0:0:
256,192,15942,1,0,0:0:0:0:
256,192,16029,1,8,0:0:0:0:
256,192,16202,1,8,0:0:0:0:
256,192,16376,1,0,0:0:0:0:
256,192,16549,1,12,0:0:0:0:
256,192,16722,1,12,0:0:0:0:
256,192,16896,1,4,0:0:0:0:
256,192,17069,1,12,0:0:0:0:
256,192,17416,1,8,0:0:0:0:
256,192,17503,1,0,0:0:0:0:
256,192,17589,1,8,0:0:0:0:
256,192,17763,1,8,0:0:0:0:
256,192,17936,1,0,0:0:0:0:
256,192,18023,1,0,0:0:0:0:
256,192,18110,1,8,0:0:0:0:
256,192,18196,1,0,0:0:0:0:
256,192,18283,1,8,0:0:0:0:
256,192,18456,1,8,0:0:0:0:
256,192,18630,1,0,0:0:0:0:
256,192,18717,1,0,0:0:0:0:
256,192,18803,1,8,0:0:0:0:
256,192,18977,1,8,0:0:0:0:
256,192,19150,1,0,0:0:0:0:
256,192,19237,1,0,0:0:0:0:
256,192,19324,1,8,0:0:0:0:
256,192,19497,1,8,0:0:0:0:
256,192,19584,1,8,0:0:0:0:
256,192,19670,1,0,0:0:0:0:
256,192,19844,1,12,0:0:0:0:
256,192,20191,1,8,0:0:0:0:
256,192,20277,1,0,0:0:0:0:
256,192,20364,1,8,0:0:0:0:
256,192,20451,1,8,0:0:0:0:
256,192,20537,1,0,0:0:0:0:
256,192,20711,1,8,0:0:0:0:
256,192,20884,1,8,0:0:0:0:
256,192,21058,1,0,0:0:0:0:
256,192,21231,1,8,0:0:0:0:
256,192,21318,1,0,0:0:0:0:
256,192,21404,1,0,0:0:0:0:
256,192,21491,1,8,0:0:0:0:
256,192,21578,1,0,0:0:0:0:
256,192,21751,1,8,0:0:0:0:
256,192,21925,1,0,0:0:0:0:
256,192,22098,1,12,0:0:0:0:
256,192,22272,1,12,0:0:0:0:
256,192,22445,1,4,0:0:0:0:
256,192,22618,1,12,0:0:0:0:
256,192,22965,1,8,0:0:0:0:
256,192,23052,1,8,0:0:0:0:
256,192,23139,1,0,0:0:0:0:
256,192,23225,1,0,0:0:0:0:
256,192,23312,1,8,0:0:0:0:
256,192,23485,1,0,0:0:0:0:
256,192,23659,1,8,0:0:0:0:
256,192,23746,1,0,0:0:0:0:
256,192,23832,1,0,0:0:0:0:
256,192,23919,1,0,0:0:0:0:
256,192,24006,1,8,0:0:0:0:
256,192,24179,1,0,0:0:0:0:
256,192,24352,1,8,0:0:0:0:
256,192,24526,1,0,0:0:0:0:
256,192,24699,1,8,0:0:0:0:
256,192,24873,1,8,0:0:0:0:
256,192,25046,1,0,0:0:0:0:
256,192,25219,1,0,0:0:0:0:
256,192,25393,1,12,0:0:0:0:
256,192,25740,1,8,0:0:0:0:
256,192,25826,1,0,0:0:0:0:
256,192,25913,1,8,0:0:0:0:
256,192,26087,1,8,0:0:0:0:
256,192,26260,1,0,0:0:0:0:
256,192,26433,1,8,0:0:0:0:
256,192,26520,1,8,0:0:0:0:
256,192,26607,1,0,0:0:0:0:
256,192,26780,1,8,0:0:0:0:
256,192,26867,1,0,0:0:0:0:
256,192,26954,1,8,0:0:0:0:
256,192,27040,1,8,0:0:0:0:
256,192,27127,1,0,0:0:0:0:
256,192,27300,1,8,0:0:0:0:
256,192,27474,1,0,0:0:0:0:
256,192,27647,1,12,0:0:0:0:
256,192,27821,1,12,0:0:0:0:
256,192,27994,1,4,0:0:0:0:
256,192,28167,1,12,0:0:0:0:
256,192,28514,1,8,0:0:0:0:
256,192,28601,1,0,0:0:0:0:
256,192,28688,1,8,0:0:0:0:
256,192,28861,1,0,0:0:0:0:
256,192,29035,1,8,0:0:0:0:
256,192,29121,1,8,0:0:0:0:
256,192,29208,1,0,0:0:0:0:
256,192,29295,1,8,0:0:0:0:
256,192,29381,1,0,0:0:0:0:
256,192,29555,1,8,0:0:0:0:
256,192,29641,1,0,0:0:0:0:
256,192,29728,1,0,0:0:0:0:
256,192,29902,1,8,0:0:0:0:
256,192,30075,1,8,0:0:0:0:
256,192,30248,1,0,0:0:0:0:
256,192,30335,1,0,0:0:0:0:
256,192,30422,1,8,0:0:0:0:
256,192,30595,1,8,0:0:0:0:
256,192,30682,1,8,0:0:0:0:
256,192,30769,1,0,0:0:0:0:
256,192,30942,12,0,36144,0:0:0:0:
