osu file format v14

[General]
AudioFilename: bark.mp3
AudioLeadIn: 0
PreviewTime: 7264
Countdown: 0
SampleSet: Normal
StackLeniency: 0.7
Mode: 1
LetterboxInBreaks: 0
WidescreenStoryboard: 1

[Editor]
DistanceSpacing: 1.6
BeatDivisor: 4
GridSize: 32
TimelineZoom: 1.7

[Metadata]
Title:gabe power
TitleUnicode:gabe power
Artist:Dendei
ArtistUnicode:Dendei
Creator:Capu
Version:Kantan
Source:
Tags:meme ノマ white the dog brain noma novelty joke parody instrumental
BeatmapID:2484844
BeatmapSetID:1192466

[Difficulty]
HPDrainRate:8
CircleSize:2
OverallDifficulty:3
ApproachRate:10
SliderMultiplier:1.4
SliderTickRate:1

[Events]
//Background and Video events
0,0,"newdog.jpg",0,55
//Break Periods
//Storyboard Layer 0 (Background)
//Storyboard Layer 1 (Fail)
//Storyboard Layer 2 (Pass)
//Storyboard Layer 3 (Foreground)
//Storyboard Layer 4 (Overlay)
//Storyboard Sound Samples

[TimingPoints]
342,350.877192982456,4,1,0,20,1,0
342,-100,4,1,0,20,0,0
692,-100,4,1,0,25,0,0
1043,-100,4,1,0,30,0,0
1219,-100,4,1,0,35,0,0
1394,-100,4,1,0,40,0,0
1745,-100,4,1,0,45,0,0
2096,-100,4,1,0,50,0,0
2359,-100,4,1,0,55,0,0
2447,-100,4,1,0,60,0,0
2622,-100,4,1,0,65,0,0
2798,-100,4,1,0,70,0,0
5956,348.837209302326,4,1,0,70,1,0
8746,346.820809248555,4,1,0,85,1,1
8746,-100,4,1,0,85,0,1
30942,-100,4,1,0,80,0,0
31289,-100,4,1,0,75,0,0
31636,-100,4,1,0,70,0,0
31982,-100,4,1,0,65,0,0
32329,-100,4,1,0,60,0,0
32676,-100,4,1,0,55,0,0
33023,-100,4,1,0,50,0,0
33370,-100,4,1,0,45,0,0
33717,-100,4,1,0,40,0,0
34063,-100,4,1,0,35,0,0
34410,-100,4,1,0,30,0,0
34757,-100,4,1,0,25,0,0
35104,-100,4,1,0,20,0,0
35451,-100,4,1,0,15,0,0
35798,-100,4,1,0,10,0,0
36144,-100,4,1,0,5,0,0

[HitObjects]
256,192,342,5,0,0:0:0:0:
256,192,692,1,8,0:0:0:0:
256,192,1043,1,0,0:0:0:0:
256,192,1394,1,8,0:0:0:0:
256,192,2096,1,8,0:0:0:0:
256,192,2798,1,8,0:0:0:0:
256,192,3149,1,0,0:0:0:0:
256,192,3499,1,8,0:0:0:0:
256,192,3850,1,0,0:0:0:0:
256,192,4201,1,8,0:0:0:0:
256,192,4903,1,8,0:0:0:0:
256,192,5956,1,0,0:0:0:0:
256,192,6304,1,8,0:0:0:0:
256,192,6653,1,8,0:0:0:0:
256,192,7351,1,8,0:0:0:0:
256,192,8746,1,12,0:0:0:0:
256,192,9439,1,0,0:0:0:0:
256,192,10133,1,8,0:0:0:0:
256,192,10480,1,0,0:0:0:0:
256,192,10826,1,8,0:0:0:0:
256,192,11520,1,12,0:0:0:0:
256,192,12214,1,0,0:0:0:0:
256,192,12907,1,8,0:0:0:0:
256,192,13254,1,8,0:0:0:0:
256,192,13601,1,8,0:0:0:0:
256,192,13948,1,8,0:0:0:0:
256,192,14295,1,4,0:0:0:0:
256,192,15682,1,0,0:0:0:0:
256,192,16029,1,8,0:0:0:0:
256,192,16376,1,0,0:0:0:0:
256,192,17069,1,12,0:0:0:0:
256,192,17763,1,8,0:0:0:0:
256,192,18456,1,0,0:0:0:0:
256,192,18803,1,8,0:0:0:0:
256,192,19150,1,0,0:0:0:0:
256,192,19497,1,8,0:0:0:0:
256,192,19844,1,4,0:0:0:0:
256,192,21231,1,8,0:0:0:0:
256,192,21578,1,8,0:0:0:0:
256,192,21925,1,0,0:0:0:0:
256,192,22618,1,12,0:0:0:0:
256,192,23312,1,0,0:0:0:0:
256,192,24006,1,0,0:0:0:0:
256,192,24352,1,8,0:0:0:0:
256,192,24699,1,8,0:0:0:0:
256,192,25046,1,0,0:0:0:0:
256,192,25393,1,12,0:0:0:0:
256,192,26087,1,8,0:0:0:0:
256,192,26780,1,0,0:0:0:0:
256,192,27127,1,8,0:0:0:0:
256,192,27474,1,8,0:0:0:0:
256,192,28167,1,4,0:0:0:0:
256,192,29555,1,8,0:0:0:0:
256,192,29902,1,8,0:0:0:0:
256,192,30248,1,0,0:0:0:0:
256,192,30595,1,8,0:0:0:0:
256,192,30942,12,0,36144,0:0:0:0:
