osu file format v14

[General]
AudioFilename: audio.mp3
AudioLeadIn: 0
PreviewTime: -1
Countdown: 0
SampleSet: Normal
StackLeniency: 0.7
Mode: 1
LetterboxInBreaks: 0
WidescreenStoryboard: 1

[Editor]
DistanceSpacing: 0.9
BeatDivisor: 4
GridSize: 4
TimelineZoom: 3.100005

[Metadata]
Title:Sai Sai Kouchou
TitleUnicode:Sai Sai Kouchou
Artist:Dempagumi.inc
ArtistUnicode:Dempagumi.inc
Creator:mangomizer
Version:Kantan
Source:
Tags:Saiki Kusuo no Ψ-nan (TV) Anime
BeatmapID:0
BeatmapSetID:605695

[Difficulty]
HPDrainRate:5
CircleSize:2
OverallDifficulty:8
ApproachRate:5
SliderMultiplier:1.4
SliderTickRate:1

[Events]
//Background and Video events
//Break Periods
//Storyboard Layer 0 (Background)
//Storyboard Layer 1 (Fail)
//Storyboard Layer 2 (Pass)
//Storyboard Layer 3 (Foreground)
//Storyboard Sound Samples

[TimingPoints]
2515,227.272727272727,4,1,0,100,1,0
2515,-131.578947368421,4,1,0,70,0,0
2590,-129.87012987013,4,1,0,70,0,0
2666,-128.205128205128,4,1,0,70,0,0
2742,-126.582278481013,4,1,0,70,0,0
2818,-125,4,1,0,70,0,0
2893,-123.456790123457,4,1,0,70,0,0
2969,-121.951219512195,4,1,0,70,0,0
3045,-120.481927710843,4,1,0,70,0,0
3121,-119.047619047619,4,1,0,70,0,0
3196,-117.647058823529,4,1,0,70,0,0
3272,-116.279069767442,4,1,0,70,0,0
3348,-114.942528735632,4,1,0,70,0,0
3424,-113.636363636364,4,1,0,70,0,0
3499,-112.359550561798,4,1,0,70,0,0
3575,-111.111111111111,4,1,0,70,0,0
3651,-109.89010989011,4,1,0,70,0,0
3727,-108.695652173913,4,1,0,70,0,0
3802,-107.52688172043,4,1,0,70,0,0
3878,-106.382978723404,4,1,0,70,0,0
3954,-105.263157894737,4,1,0,70,0,0
4030,-104.166666666667,4,1,0,70,0,0
4105,-103.092783505155,4,1,0,70,0,0
4181,-102.040816326531,4,1,0,70,0,0
4257,-101.010101010101,4,1,0,70,0,0
4333,-100,4,1,0,70,0,0
5583,-83.3333333333333,4,1,0,70,0,0
5924,-71.4285714285714,4,1,0,70,0,0
6151,-100,4,1,0,70,0,0
7401,-76.9230769230769,4,1,0,70,0,0
7742,-62.5,4,1,0,70,0,0
7969,-100,4,1,0,70,0,0
10014,-95.2380952380952,4,1,0,70,0,0
10242,-90.9090909090909,4,1,0,70,0,0
10469,-86.9565217391304,4,1,0,70,0,0
10696,-83.3333333333333,4,1,0,70,0,0
10924,-80,4,1,0,70,0,0
11037,-78.431372549,4,1,0,70,0,0
11151,-76.9230769230769,4,1,0,70,0,0
11378,-74.0740740740741,4,1,0,70,0,0
11605,-71.4285714285714,4,1,0,70,0,0
12060,-100,4,1,0,70,0,0
17287,-95.2380952380952,4,1,0,70,0,0
17515,-90.9090909090909,4,1,0,70,0,0
17742,-86.9565217391304,4,1,0,70,0,0
17969,-83.3333333333333,4,1,0,70,0,0
18197,-80,4,1,0,70,0,0
18424,-76.9230769230769,4,1,0,70,0,0
18651,-74.0740740740741,4,1,0,70,0,0
18878,-71.4285714285714,4,1,0,70,0,0
20924,-100,4,1,0,70,0,0
34408,-98.0392156862745,4,1,0,70,0,0
34484,-96.1538461538461,4,1,0,70,0,0
34560,-94.3396226415094,4,1,0,70,0,0
34636,-92.5925925925926,4,1,0,70,0,0
34711,-90.9090909090909,4,1,0,70,0,0
34787,-89.2857142857143,4,1,0,70,0,0
34863,-87.719298245614,4,1,0,70,0,0
34939,-86.2068965517241,4,1,0,70,0,0
35014,-84.7457627118644,4,1,0,70,0,0
35090,-83.3333333333333,4,1,0,70,0,0
35166,-81.9672131147541,4,1,0,70,0,0
35242,-80.6451612903226,4,1,0,70,0,0
35924,-92.5925925925926,4,1,0,70,0,0
36605,-108.695652173913,4,1,0,70,0,0
37060,-119.047619047619,4,1,0,70,0,0
37855,-116.279069767442,4,1,0,70,0,0
37969,-113.636363636364,4,1,0,70,0,0
38026,-111.111111111111,4,1,0,70,0,0
38083,-108.695652173913,4,1,0,70,0,0
38139,-106.382978723404,4,1,0,70,0,0
38196,-104.166666666667,4,1,0,70,0,0
38253,-102.040816326531,4,1,0,70,0,0
38310,-100,4,1,0,70,0,0
38367,-97.0873786407767,4,1,0,70,0,0
38424,-94.3396226415094,4,1,0,70,0,0
38499,-91.743119266055,4,1,0,70,0,0
38575,-89.2857142857143,4,1,0,70,0,0
38651,-86.9565217391304,4,1,0,70,0,0
38727,-84.7457627118644,4,1,0,70,0,0
38802,-82.6446280991736,4,1,0,70,0,0
38878,-80.6451612903226,4,1,0,70,0,0
39560,-92.5925925925926,4,1,0,70,0,0
40242,-108.695652173913,4,1,0,70,0,0
40924,-100,4,1,0,70,0,0
42514,-125,4,1,0,70,0,0
43992,-111.111111111111,4,1,0,70,0,0
45810,-100,4,1,0,70,0,0
49787,200,4,1,0,70,1,0
51387,-100,4,1,0,70,0,1
57787,-100,4,1,0,70,0,0
64187,-100,4,1,0,70,0,1
70587,-100,4,1,0,70,0,0
76787,-133.333333333333,4,1,0,70,0,0
79987,-100,4,1,0,70,0,0

[HitObjects]
256,192,2515,5,8,0:0:0:0:
256,192,2590,1,0,0:0:0:0:
256,192,2666,1,0,0:0:0:0:
256,192,2742,1,8,0:0:0:0:
256,192,2818,1,0,0:0:0:0:
256,192,2893,1,0,0:0:0:0:
256,192,2969,1,8,0:0:0:0:
256,192,3045,1,0,0:0:0:0:
256,192,3121,1,8,0:0:0:0:
256,192,3196,1,0,0:0:0:0:
256,192,3272,1,0,0:0:0:0:
256,192,3348,1,8,0:0:0:0:
256,192,3424,1,8,0:0:0:0:
256,192,3499,1,0,0:0:0:0:
256,192,3575,1,0,0:0:0:0:
256,192,3651,1,8,0:0:0:0:
256,192,3727,1,0,0:0:0:0:
256,192,3802,1,0,0:0:0:0:
256,192,3878,1,8,0:0:0:0:
256,192,3954,1,0,0:0:0:0:
256,192,4030,1,0,0:0:0:0:
256,192,4105,1,8,0:0:0:0:
256,192,4181,1,8,0:0:0:0:
256,192,4257,1,0,0:0:0:0:
256,192,4333,1,12,0:0:0:0:
256,192,4560,1,8,0:0:0:0:
256,192,4787,1,8,0:0:0:0:
256,192,5015,1,0,0:0:0:0:
256,192,5242,1,12,0:0:0:0:
256,192,5583,1,12,0:0:0:0:
256,192,5924,1,12,0:0:0:0:
256,192,6378,1,0,0:0:0:0:
256,192,6605,1,8,0:0:0:0:
256,192,6833,1,8,0:0:0:0:
256,192,7060,1,4,0:0:0:0:
256,192,7401,1,12,0:0:0:0:
256,192,7742,1,12,0:0:0:0:
256,192,8083,1,8,0:0:0:0:
256,192,8196,1,8,0:0:0:0:
256,192,8310,1,0,0:0:0:0:
256,192,8424,1,8,0:0:0:0:
256,192,8480,1,8,0:0:0:0:
256,192,8537,1,0,0:0:0:0:
256,192,8651,1,8,0:0:0:0:
256,192,8765,1,0,0:0:0:0:
256,192,8878,1,0,0:0:0:0:
264,196,8935,1,0,0:0:0:0:
264,196,8992,1,0,0:0:0:0:
264,196,9049,1,0,0:0:0:0:
264,196,9105,1,8,0:0:0:0:
256,192,9162,1,8,0:0:0:0:
264,196,9219,1,0,0:0:0:0:
260,200,9333,1,8,0:0:0:0:
260,200,9446,1,0,0:0:0:0:
256,192,9560,1,8,0:0:0:0:
256,192,9617,1,8,0:0:0:0:
256,192,9674,1,0,0:0:0:0:
256,192,9787,1,12,0:0:0:0:
256,192,10015,1,0,0:0:0:0:
256,192,10242,1,12,0:0:0:0:
256,192,10469,1,0,0:0:0:0:
256,192,10696,1,12,0:0:0:0:
256,192,10924,1,0,0:0:0:0:
256,192,11037,1,0,0:0:0:0:
256,192,11151,1,12,0:0:0:0:
256,192,11378,1,8,0:0:0:0:
256,192,11605,1,12,0:0:0:0:
256,192,12060,1,8,0:0:0:0:
256,192,12174,1,0,0:0:0:0:
256,192,12287,1,8,0:0:0:0:
256,192,12401,1,8,0:0:0:0:
256,192,12515,1,0,0:0:0:0:
256,192,12742,1,8,0:0:0:0:
256,192,12969,1,8,0:0:0:0:
256,192,13083,1,0,0:0:0:0:
256,192,13196,1,8,0:0:0:0:
256,192,13310,1,8,0:0:0:0:
256,192,13424,1,0,0:0:0:0:
256,192,13480,1,0,0:0:0:0:
256,200,13537,1,0,0:0:0:0:
256,192,13651,1,8,0:0:0:0:
256,200,13765,1,0,0:0:0:0:
256,192,13878,1,8,0:0:0:0:
256,192,13935,1,0,0:0:0:0:
256,200,13992,1,0,0:0:0:0:
256,192,14105,1,8,0:0:0:0:
256,192,14219,1,0,0:0:0:0:
256,192,14333,1,0,0:0:0:0:
256,192,14390,1,0,0:0:0:0:
256,192,14446,1,0,0:0:0:0:
256,200,14503,1,0,0:0:0:0:
256,200,14560,1,8,0:0:0:0:
260,200,14617,1,0,0:0:0:0:
256,200,14674,1,8,0:0:0:0:
256,200,14787,1,0,0:0:0:0:
256,200,14901,1,8,0:0:0:0:
256,192,14958,1,0,0:0:0:0:
256,192,15015,1,0,0:0:0:0:
256,200,15128,1,8,0:0:0:0:
256,192,15242,1,0,0:0:0:0:
256,192,15355,1,8,0:0:0:0:
256,192,15412,1,8,0:0:0:0:
256,200,15469,1,8,0:0:0:0:
260,200,15583,1,0,0:0:0:0:
256,200,15696,1,8,0:0:0:0:
256,200,15810,1,0,0:0:0:0:
256,192,15924,1,0,0:0:0:0:
256,200,16037,1,8,0:0:0:0:
252,192,16151,1,0,0:0:0:0:
252,196,16302,1,8,0:0:0:0:
252,200,16378,1,8,0:0:0:0:
260,200,16530,1,0,0:0:0:0:
248,196,16605,1,8,0:0:0:0:
252,192,16757,1,0,0:0:0:0:
252,192,16833,1,0,0:0:0:0:
256,192,17060,1,12,0:0:0:0:
256,192,17287,1,0,0:0:0:0:
256,192,17515,1,12,0:0:0:0:
256,192,17742,1,0,0:0:0:0:
256,192,17969,1,12,0:0:0:0:
256,192,18196,1,0,0:0:0:0:
256,192,18424,1,12,0:0:0:0:
248,192,18651,1,8,0:0:0:0:
256,192,18878,1,12,0:0:0:0:
256,192,19105,1,8,0:0:0:0:
248,192,19333,1,8,0:0:0:0:
248,188,19560,1,8,0:0:0:0:
252,200,19674,1,8,0:0:0:0:
252,200,19787,1,8,0:0:0:0:
252,200,19901,1,8,0:0:0:0:
252,192,20015,1,8,0:0:0:0:
252,192,20071,1,8,0:0:0:0:
252,192,20128,1,8,0:0:0:0:
252,192,20185,1,8,0:0:0:0:
256,192,20242,1,0,0:0:0:0:
256,196,20299,1,0,0:0:0:0:
256,196,20355,1,0,0:0:0:0:
252,200,20412,1,0,0:0:0:0:
252,200,20469,1,8,0:0:0:0:
252,200,20526,1,0,0:0:0:0:
252,200,20583,1,8,0:0:0:0:
252,200,20640,1,8,0:0:0:0:
264,196,20696,1,0,0:0:0:0:
264,196,20924,1,8,0:0:0:0:
252,208,21151,1,8,0:0:0:0:
252,208,21208,1,8,0:0:0:0:
252,208,21265,1,8,0:0:0:0:
252,208,21378,1,0,0:0:0:0:
252,208,21492,1,8,0:0:0:0:
256,188,21605,1,0,0:0:0:0:
256,188,21833,1,8,0:0:0:0:
268,212,22060,1,8,0:0:0:0:
256,192,22174,1,8,0:0:0:0:
256,192,22287,1,8,0:0:0:0:
256,188,22401,1,0,0:0:0:0:
256,188,22515,1,8,0:0:0:0:
248,192,22571,1,0,0:0:0:0:
248,192,22628,1,8,0:0:0:0:
248,192,22742,1,8,0:0:0:0:
256,192,22855,1,0,0:0:0:0:
256,188,22969,1,8,0:0:0:0:
256,188,23026,1,0,0:0:0:0:
256,188,23083,1,0,0:0:0:0:
248,192,23196,1,8,0:0:0:0:
248,192,23310,1,8,0:0:0:0:
248,192,23424,1,0,0:0:0:0:
256,188,23651,1,8,0:0:0:0:
256,188,23878,1,8,0:0:0:0:
260,192,23992,1,0,0:0:0:0:
260,192,24105,1,8,0:0:0:0:
260,192,24219,1,8,0:0:0:0:
264,192,24333,1,0,0:0:0:0:
256,188,24390,1,8,0:0:0:0:
256,188,24446,1,0,0:0:0:0:
264,192,24560,1,8,0:0:0:0:
264,192,24674,1,0,0:0:0:0:
264,192,24787,1,8,0:0:0:0:
264,192,24844,1,0,0:0:0:0:
264,192,24901,1,0,0:0:0:0:
264,192,25015,1,8,0:0:0:0:
264,192,25128,1,8,0:0:0:0:
272,200,25242,1,0,0:0:0:0:
268,200,25299,1,8,0:0:0:0:
268,200,25355,1,8,0:0:0:0:
272,200,25412,1,0,0:0:0:0:
272,200,25469,1,8,0:0:0:0:
272,200,25583,1,0,0:0:0:0:
264,192,25696,1,8,0:0:0:0:
264,192,25924,1,0,0:0:0:0:
256,188,26151,1,0,0:0:0:0:
256,188,26227,1,0,0:0:0:0:
256,188,26302,1,8,0:0:0:0:
256,188,26378,1,4,0:0:0:0:
256,188,26605,1,8,0:0:0:0:
256,188,26681,1,8,0:0:0:0:
256,188,26757,1,8,0:0:0:0:
256,188,26833,1,4,0:0:0:0:
256,188,27060,1,0,0:0:0:0:
256,188,27174,1,0,0:0:0:0:
256,188,27287,1,8,0:0:0:0:
248,192,27401,1,0,0:0:0:0:
256,188,27515,1,8,0:0:0:0:
256,188,27571,1,0,0:0:0:0:
256,188,27628,1,8,0:0:0:0:
256,188,27685,1,8,0:0:0:0:
256,188,27742,1,0,0:0:0:0:
256,188,27799,1,0,0:0:0:0:
256,188,27855,1,8,0:0:0:0:
248,188,27912,1,0,0:0:0:0:
256,188,27969,1,8,0:0:0:0:
256,192,28196,1,0,0:0:0:0:
256,192,28424,1,0,0:0:0:0:
256,192,28651,1,8,0:0:0:0:
256,192,28878,1,0,0:0:0:0:
256,192,28992,1,0,0:0:0:0:
256,192,29105,1,0,0:0:0:0:
268,188,29333,1,0,0:0:0:0:
268,188,29560,1,8,0:0:0:0:
264,188,29787,1,8,0:0:0:0:
256,192,29958,1,0,0:0:0:0:
256,192,30015,1,8,0:0:0:0:
252,188,30242,1,0,0:0:0:0:
252,200,30469,1,8,0:0:0:0:
256,192,30696,1,0,0:0:0:0:
256,192,30867,1,8,0:0:0:0:
256,192,30924,1,0,0:0:0:0:
260,188,31094,1,0,0:0:0:0:
256,192,31151,1,0,0:0:0:0:
256,192,31378,1,8,0:0:0:0:
256,192,31719,1,8,0:0:0:0:
252,192,31833,1,8,0:0:0:0:
256,192,31946,1,0,0:0:0:0:
256,192,32060,1,8,0:0:0:0:
268,192,32117,1,0,0:0:0:0:
268,192,32174,1,0,0:0:0:0:
256,192,32287,1,8,0:0:0:0:
256,192,32401,1,0,0:0:0:0:
256,192,32515,1,8,0:0:0:0:
252,192,32571,1,8,0:0:0:0:
252,192,32628,1,0,0:0:0:0:
256,192,32685,1,0,0:0:0:0:
256,192,32742,1,8,0:0:0:0:
256,192,32855,1,0,0:0:0:0:
252,192,32969,1,8,0:0:0:0:
256,192,33083,1,8,0:0:0:0:
256,192,33196,1,0,0:0:0:0:
252,172,33310,1,0,0:0:0:0:
256,192,33424,1,12,0:0:0:0:
256,192,33537,1,8,0:0:0:0:
256,192,33651,1,0,0:0:0:0:
256,192,33765,1,0,0:0:0:0:
256,192,33878,1,12,0:0:0:0:
256,192,33992,1,0,0:0:0:0:
256,192,34105,1,8,0:0:0:0:
256,192,34219,1,0,0:0:0:0:
256,192,34333,1,8,0:0:0:0:
256,192,34408,1,0,0:0:0:0:
256,192,34484,1,0,0:0:0:0:
256,192,34560,1,8,0:0:0:0:
256,192,34636,1,8,0:0:0:0:
256,192,34711,1,0,0:0:0:0:
256,192,34787,1,8,0:0:0:0:
256,192,34863,1,8,0:0:0:0:
256,192,34939,1,0,0:0:0:0:
256,192,35015,1,8,0:0:0:0:
256,192,35090,1,0,0:0:0:0:
256,192,35166,1,0,0:0:0:0:
256,192,35242,1,12,0:0:0:0:
256,192,35469,1,12,0:0:0:0:
256,192,35924,1,12,0:0:0:0:
256,192,36151,1,4,0:0:0:0:
256,192,36605,1,4,0:0:0:0:
256,192,36833,1,4,0:0:0:0:
256,192,37174,1,8,0:0:0:0:
256,192,37249,1,0,0:0:0:0:
256,192,37401,1,8,0:0:0:0:
256,192,37477,1,0,0:0:0:0:
256,192,37552,1,0,0:0:0:0:
256,192,37628,1,8,0:0:0:0:
240,180,37704,1,0,0:0:0:0:
256,192,37855,5,8,0:0:0:0:
256,192,37969,1,0,0:0:0:0:
256,192,38026,1,0,0:0:0:0:
256,192,38083,1,0,0:0:0:0:
256,192,38140,1,8,0:0:0:0:
256,192,38196,1,0,0:0:0:0:
256,192,38253,1,0,0:0:0:0:
256,192,38310,1,8,0:0:0:0:
256,192,38367,1,8,0:0:0:0:
256,192,38424,1,0,0:0:0:0:
256,192,38499,1,0,0:0:0:0:
256,192,38575,1,0,0:0:0:0:
256,192,38651,1,8,0:0:0:0:
256,192,38727,1,0,0:0:0:0:
256,192,38802,1,0,0:0:0:0:
256,192,38878,1,12,0:0:0:0:
256,192,39105,1,12,0:0:0:0:
256,192,39560,1,12,0:0:0:0:
256,192,39787,1,4,0:0:0:0:
256,192,40242,1,4,0:0:0:0:
256,192,40469,1,4,0:0:0:0:
256,180,40924,1,8,0:0:0:0:
256,184,41037,1,0,0:0:0:0:
264,196,41151,1,8,0:0:0:0:
264,192,41265,1,0,0:0:0:0:
256,192,41378,1,0,0:0:0:0:
256,192,41454,1,0,0:0:0:0:
256,192,41530,1,0,0:0:0:0:
256,192,41605,1,8,0:0:0:0:
264,168,41719,1,8,0:0:0:0:
256,192,41833,1,0,0:0:0:0:
264,196,41946,1,8,0:0:0:0:
264,192,42003,1,0,0:0:0:0:
264,192,42060,1,8,0:0:0:0:
256,192,42174,1,0,0:0:0:0:
256,192,42287,1,0,0:0:0:0:
264,184,42515,1,0,0:0:0:0:
256,192,42571,1,0,0:0:0:0:
256,192,42628,1,0,0:0:0:0:
256,192,42742,1,0,0:0:0:0:
256,192,42855,1,0,0:0:0:0:
248,200,42969,1,8,0:0:0:0:
248,200,43083,1,0,0:0:0:0:
260,204,43196,1,0,0:0:0:0:
260,200,43310,1,0,0:0:0:0:
260,204,43424,1,8,0:0:0:0:
252,204,43480,1,0,0:0:0:0:
260,204,43537,1,8,0:0:0:0:
252,204,43594,1,0,0:0:0:0:
260,204,43651,1,0,0:0:0:0:
256,204,43708,1,0,0:0:0:0:
260,204,43765,1,8,0:0:0:0:
260,204,43992,1,0,0:0:0:0:
244,196,44049,1,0,0:0:0:0:
260,200,44105,1,8,0:0:0:0:
252,188,44219,1,0,0:0:0:0:
256,192,44333,1,8,0:0:0:0:
244,196,44389,1,8,0:0:0:0:
264,192,44446,1,0,0:0:0:0:
256,192,44560,1,0,0:0:0:0:
256,192,44674,1,0,0:0:0:0:
256,192,44787,1,8,0:0:0:0:
264,192,44901,1,0,0:0:0:0:
256,192,45015,1,8,0:0:0:0:
256,192,45128,1,8,0:0:0:0:
256,192,45242,1,0,0:0:0:0:
264,188,45355,1,8,0:0:0:0:
264,188,45412,1,0,0:0:0:0:
264,188,45469,1,8,0:0:0:0:
256,192,45583,1,0,0:0:0:0:
268,212,45810,1,8,0:0:0:0:
268,216,45924,1,8,0:0:0:0:
268,216,46037,1,0,0:0:0:0:
244,196,46151,1,12,0:0:0:0:
244,196,46378,1,0,0:0:0:0:
244,196,46605,1,12,0:0:0:0:
244,196,46833,1,8,0:0:0:0:
252,200,47060,1,12,0:0:0:0:
244,196,47287,1,0,0:0:0:0:
252,200,47515,1,12,0:0:0:0:
244,208,47742,1,8,0:0:0:0:
252,200,47969,1,12,0:0:0:0:
256,192,48196,1,0,0:0:0:0:
256,192,48272,1,0,0:0:0:0:
256,192,48348,1,0,0:0:0:0:
256,192,48424,1,8,0:0:0:0:
256,192,48575,1,0,0:0:0:0:
256,192,48802,1,8,0:0:0:0:
256,192,48992,1,0,0:0:0:0:
256,192,49105,1,8,0:0:0:0:
256,192,49257,1,0,0:0:0:0:
256,192,49446,1,8,0:0:0:0:
256,192,49560,1,8,0:0:0:0:
256,192,49787,1,12,0:0:0:0:
256,192,50587,1,8,0:0:0:0:
256,192,50687,1,8,0:0:0:0:
256,192,50787,1,0,0:0:0:0:
256,192,50887,1,0,0:0:0:0:
256,192,50987,1,8,0:0:0:0:
256,192,51187,1,0,0:0:0:0:
256,192,51287,1,0,0:0:0:0:
256,192,51387,1,8,0:0:0:0:
256,192,51487,1,0,0:0:0:0:
252,188,51587,1,0,0:0:0:0:
248,192,51637,1,0,0:0:0:0:
252,188,51687,1,8,0:0:0:0:
248,192,51737,1,8,0:0:0:0:
252,188,51787,1,0,0:0:0:0:
260,192,51887,1,0,0:0:0:0:
256,192,51987,1,8,0:0:0:0:
256,192,52087,1,0,0:0:0:0:
256,192,52187,1,8,0:0:0:0:
252,188,52237,1,8,0:0:0:0:
252,188,52287,1,0,0:0:0:0:
252,188,52387,1,8,0:0:0:0:
252,188,52487,1,0,0:0:0:0:
252,192,52587,1,8,0:0:0:0:
248,192,52637,1,0,0:0:0:0:
248,188,52687,1,0,0:0:0:0:
248,188,52787,1,8,0:0:0:0:
248,188,52887,1,0,0:0:0:0:
252,192,52987,1,8,0:0:0:0:
252,192,53037,1,8,0:0:0:0:
252,192,53087,1,0,0:0:0:0:
244,192,53137,1,0,0:0:0:0:
252,192,53187,1,0,0:0:0:0:
252,192,53287,1,0,0:0:0:0:
248,200,53387,1,8,0:0:0:0:
252,192,53437,1,8,0:0:0:0:
248,200,53487,1,8,0:0:0:0:
248,200,53587,1,0,0:0:0:0:
248,200,53687,1,8,0:0:0:0:
236,196,53787,1,0,0:0:0:0:
248,200,53887,1,0,0:0:0:0:
248,200,53937,1,12,0:0:0:0:
248,200,54087,1,0,0:0:0:0:
248,200,54137,1,12,0:0:0:0:
256,200,54387,1,0,0:0:0:0:
256,200,54487,1,0,0:0:0:0:
256,200,54587,1,8,0:0:0:0:
244,196,54687,1,0,0:0:0:0:
240,200,54787,1,0,0:0:0:0:
244,200,54837,1,0,0:0:0:0:
248,200,54887,1,8,0:0:0:0:
240,200,54937,1,0,0:0:0:0:
240,200,54987,1,8,0:0:0:0:
260,192,55087,1,0,0:0:0:0:
256,192,55187,1,0,0:0:0:0:
256,192,55287,1,8,0:0:0:0:
256,192,55387,1,8,0:0:0:0:
252,188,55437,1,8,0:0:0:0:
252,188,55487,1,0,0:0:0:0:
248,192,55587,1,8,0:0:0:0:
248,192,55687,1,0,0:0:0:0:
260,196,55787,1,8,0:0:0:0:
260,192,55837,1,0,0:0:0:0:
260,192,55887,1,0,0:0:0:0:
256,192,55987,1,8,0:0:0:0:
252,192,56087,1,0,0:0:0:0:
252,192,56187,1,8,0:0:0:0:
252,188,56237,1,0,0:0:0:0:
252,192,56287,1,8,0:0:0:0:
248,192,56337,1,8,0:0:0:0:
248,192,56387,1,0,0:0:0:0:
248,192,56487,1,0,0:0:0:0:
252,196,56587,1,8,0:0:0:0:
260,192,56637,1,0,0:0:0:0:
232,192,56687,1,8,0:0:0:0:
256,192,56787,1,0,0:0:0:0:
252,192,56887,1,0,0:0:0:0:
244,200,56987,1,0,0:0:0:0:
252,200,57037,1,0,0:0:0:0:
248,200,57087,1,0,0:0:0:0:
248,192,57137,1,0,0:0:0:0:
244,200,57187,1,8,0:0:0:0:
248,200,57287,1,0,0:0:0:0:
244,200,57387,1,8,0:0:0:0:
248,200,57437,1,8,0:0:0:0:
248,200,57487,1,0,0:0:0:0:
248,200,57537,1,0,0:0:0:0:
260,192,57587,1,8,0:0:0:0:
256,200,57687,1,0,0:0:0:0:
256,192,57787,1,8,0:0:0:0:
256,192,57987,1,0,0:0:0:0:
256,192,58187,1,4,0:0:0:0:
252,192,58387,1,8,0:0:0:0:
256,192,58487,1,0,0:0:0:0:
256,192,58587,1,0,0:0:0:0:
260,184,58887,1,0,0:0:0:0:
260,184,58987,1,8,0:0:0:0:
276,196,59187,1,8,0:0:0:0:
260,192,59387,1,4,0:0:0:0:
260,192,59687,1,4,0:0:0:0:
260,192,59987,1,12,0:0:0:0:
268,188,60387,1,8,0:0:0:0:
256,184,60587,1,0,0:0:0:0:
256,184,60787,1,0,0:0:0:0:
264,192,61187,1,0,0:0:0:0:
264,192,61387,1,4,0:0:0:0:
264,192,61587,1,0,0:0:0:0:
264,192,61687,1,0,0:0:0:0:
264,192,61787,1,8,0:0:0:0:
272,192,61987,1,8,0:0:0:0:
272,192,62187,1,12,0:0:0:0:
272,196,62387,1,0,0:0:0:0:
256,192,62587,1,12,0:0:0:0:
260,192,62887,1,12,0:0:0:0:
260,192,63187,1,4,0:0:0:0:
264,192,63387,1,12,0:0:0:0:
256,192,63987,1,0,0:0:0:0:
256,192,64087,1,0,0:0:0:0:
256,192,64187,1,8,0:0:0:0:
256,192,64287,1,0,0:0:0:0:
252,188,64387,1,0,0:0:0:0:
248,192,64437,1,0,0:0:0:0:
252,188,64487,1,8,0:0:0:0:
248,192,64537,1,8,0:0:0:0:
252,188,64587,1,0,0:0:0:0:
260,192,64687,1,0,0:0:0:0:
256,192,64787,1,8,0:0:0:0:
256,192,64887,1,0,0:0:0:0:
256,192,64987,1,8,0:0:0:0:
252,188,65037,1,8,0:0:0:0:
252,188,65087,1,0,0:0:0:0:
252,188,65187,1,8,0:0:0:0:
252,188,65287,1,0,0:0:0:0:
252,192,65387,1,8,0:0:0:0:
248,192,65437,1,0,0:0:0:0:
248,188,65487,1,0,0:0:0:0:
248,188,65587,1,8,0:0:0:0:
248,188,65687,1,0,0:0:0:0:
252,192,65787,1,8,0:0:0:0:
252,192,65837,1,8,0:0:0:0:
252,192,65887,1,0,0:0:0:0:
244,192,65937,1,0,0:0:0:0:
252,192,65987,1,0,0:0:0:0:
252,192,66087,1,0,0:0:0:0:
248,200,66187,1,8,0:0:0:0:
248,200,66287,1,8,0:0:0:0:
248,200,66387,1,0,0:0:0:0:
248,200,66487,1,8,0:0:0:0:
236,196,66587,1,0,0:0:0:0:
236,196,66687,1,8,0:0:0:0:
240,200,66737,1,4,0:0:0:0:
248,200,66887,1,8,0:0:0:0:
248,200,66937,1,4,0:0:0:0:
256,200,67187,1,0,0:0:0:0:
256,200,67287,1,0,0:0:0:0:
256,200,67387,1,8,0:0:0:0:
244,196,67487,1,0,0:0:0:0:
240,200,67587,1,0,0:0:0:0:
244,200,67637,1,0,0:0:0:0:
248,200,67687,1,8,0:0:0:0:
240,200,67737,1,0,0:0:0:0:
240,200,67787,1,8,0:0:0:0:
260,192,67887,1,0,0:0:0:0:
256,192,67987,1,0,0:0:0:0:
256,192,68087,1,8,0:0:0:0:
256,192,68187,1,8,0:0:0:0:
252,188,68237,1,8,0:0:0:0:
252,188,68287,1,0,0:0:0:0:
248,192,68387,1,8,0:0:0:0:
248,192,68487,1,0,0:0:0:0:
260,196,68587,1,8,0:0:0:0:
260,192,68637,1,0,0:0:0:0:
260,192,68687,1,0,0:0:0:0:
256,192,68787,1,8,0:0:0:0:
252,192,68887,1,0,0:0:0:0:
252,192,68987,1,8,0:0:0:0:
252,188,69037,1,0,0:0:0:0:
252,192,69087,1,0,0:0:0:0:
248,192,69137,1,8,0:0:0:0:
248,192,69187,1,0,0:0:0:0:
248,192,69287,1,0,0:0:0:0:
252,196,69387,1,8,0:0:0:0:
252,196,69437,1,0,0:0:0:0:
220,332,69487,1,8,0:0:0:0:
256,192,69587,1,0,0:0:0:0:
232,188,69687,1,0,0:0:0:0:
252,192,69787,1,8,0:0:0:0:
252,188,69837,1,8,0:0:0:0:
252,192,69887,1,0,0:0:0:0:
256,192,69937,1,0,0:0:0:0:
256,192,69987,1,8,0:0:0:0:
248,192,70037,1,0,0:0:0:0:
248,200,70087,1,0,0:0:0:0:
248,200,70137,1,0,0:0:0:0:
252,188,70187,1,8,0:0:0:0:
252,188,70237,1,8,0:0:0:0:
256,192,70287,1,0,0:0:0:0:
256,192,70337,1,8,0:0:0:0:
256,192,70387,1,8,0:0:0:0:
248,200,70487,1,0,0:0:0:0:
256,188,70587,1,8,0:0:0:0:
256,188,70787,1,0,0:0:0:0:
256,188,70987,1,4,0:0:0:0:
256,196,71187,1,8,0:0:0:0:
256,196,71287,1,0,0:0:0:0:
256,188,71387,1,0,0:0:0:0:
256,188,71687,1,8,0:0:0:0:
248,188,71787,1,0,0:0:0:0:
256,188,71987,1,8,0:0:0:0:
272,176,72187,1,4,0:0:0:0:
272,176,72487,1,4,0:0:0:0:
272,176,72787,1,12,0:0:0:0:
244,200,73187,1,8,0:0:0:0:
244,200,73387,1,8,0:0:0:0:
260,192,73587,1,0,0:0:0:0:
256,192,73987,1,4,0:0:0:0:
256,192,74187,1,4,0:0:0:0:
272,192,74387,1,0,0:0:0:0:
272,192,74487,1,0,0:0:0:0:
272,192,74587,1,8,0:0:0:0:
272,192,74787,1,8,0:0:0:0:
272,192,74987,1,12,0:0:0:0:
272,192,75187,1,0,0:0:0:0:
256,192,75387,1,12,0:0:0:0:
256,192,75687,1,12,0:0:0:0:
256,192,75987,1,4,0:0:0:0:
256,192,76187,1,12,0:0:0:0:
256,192,76787,1,0,0:0:0:0:
256,192,76887,1,0,0:0:0:0:
256,192,76987,1,0,0:0:0:0:
256,192,77287,1,0,0:0:0:0:
256,192,77587,1,0,0:0:0:0:
256,192,77787,1,8,0:0:0:0:
256,192,78187,1,0,0:0:0:0:
256,192,78587,1,8,0:0:0:0:
256,192,78887,1,0,0:0:0:0:
256,192,79187,1,8,0:0:0:0:
256,192,79387,1,8,0:0:0:0:
256,192,79720,1,0,0:0:0:0:
256,192,79987,1,8,0:0:0:0:
256,192,80087,1,8,0:0:0:0:
256,192,80187,1,4,0:0:0:0:
256,192,81987,1,12,0:0:0:0:
256,192,82387,1,12,0:0:0:0:
256,192,82787,1,8,0:0:0:0:
256,192,82987,1,8,0:0:0:0:
256,192,83187,1,8,0:0:0:0:
248,192,83387,1,0,0:0:0:0:
248,196,83437,1,0,0:0:0:0:
256,192,83487,1,0,0:0:0:0:
256,192,83537,1,0,0:0:0:0:
256,184,83587,1,8,0:0:0:0:
244,192,83687,1,0,0:0:0:0:
256,192,83787,1,0,0:0:0:0:
256,192,83887,1,0,0:0:0:0:
244,192,83987,1,8,0:0:0:0:
248,192,84087,1,0,0:0:0:0:
248,192,84187,1,8,0:0:0:0:
248,196,84237,1,0,0:0:0:0:
244,192,84287,1,0,0:0:0:0:
248,192,84387,1,8,0:0:0:0:
244,192,84487,1,0,0:0:0:0:
248,184,84587,1,0,0:0:0:0:
248,188,84687,1,8,0:0:0:0:
244,192,84787,1,8,0:0:0:0:
236,188,84887,1,0,0:0:0:0:
248,192,84987,1,8,0:0:0:0:
248,184,85037,1,8,0:0:0:0:
244,192,85087,1,0,0:0:0:0:
244,192,85187,1,8,0:0:0:0:
244,192,85287,1,0,0:0:0:0:
248,192,85387,1,8,0:0:0:0:
248,188,85487,1,0,0:0:0:0:
244,192,85587,1,0,0:0:0:0:
248,196,85687,1,8,0:0:0:0:
256,176,85787,1,0,0:0:0:0:
260,184,85887,1,0,0:0:0:0:
256,176,85987,1,8,0:0:0:0:
248,184,86037,1,0,0:0:0:0:
256,180,86087,1,8,0:0:0:0:
252,184,86187,1,8,0:0:0:0:
280,192,86287,1,0,0:0:0:0:
280,192,86387,1,8,0:0:0:0:
264,196,86487,1,8,0:0:0:0:
256,192,86587,1,0,0:0:0:0:
256,192,86637,1,0,0:0:0:0:
256,192,86687,1,0,0:0:0:0:
256,192,86737,1,0,0:0:0:0:
256,192,86787,1,8,0:0:0:0:
256,192,86887,1,0,0:0:0:0:
248,192,86987,1,8,0:0:0:0:
248,192,87037,1,0,0:0:0:0:
244,192,87087,1,0,0:0:0:0:
248,192,87137,1,0,0:0:0:0:
256,192,87187,1,8,0:0:0:0:
256,192,87287,1,0,0:0:0:0:
256,192,87387,1,8,0:0:0:0:
256,200,87437,1,0,0:0:0:0:
256,192,87487,1,0,0:0:0:0:
256,192,87537,1,8,0:0:0:0:
256,192,87587,1,8,0:0:0:0:
256,192,87687,1,0,0:0:0:0:
256,192,87787,1,8,0:0:0:0:
256,192,87837,1,8,0:0:0:0:
256,192,87887,1,8,0:0:0:0:
256,192,87937,1,0,0:0:0:0:
256,192,87987,1,8,0:0:0:0:
256,192,88087,1,0,0:0:0:0:
256,192,88187,1,12,0:0:0:0:
256,192,88587,1,12,0:0:0:0:
256,192,88987,1,12,0:0:0:0:
