osu file format v14

[General]
AudioFilename: audio.mp3
AudioLeadIn: 0
PreviewTime: 115854
Countdown: 0
SampleSet: Normal
StackLeniency: 0.7
Mode: 1
LetterboxInBreaks: 0
WidescreenStoryboard: 1

[Editor]
DistanceSpacing: 1.5
BeatDivisor: 3
GridSize: 4
TimelineZoom: 2.4

[Metadata]
Title:Psi desu I LIKE YOU
TitleUnicode:Ψ desu I LIKE YOU
Artist:Dempagumi.inc
ArtistUnicode:Dempagumi.inc
Creator:Karee Pan
Version:Oni
Source:
Tags:Denpa, Dempagumi, Dear Stage, Akihabara, Akibapop, Idol, Mirin Furukawa, Risa Aizawa, Nemu Yumemi, Eimi Naruse, Ayane Fujisaki
BeatmapID:1151866
BeatmapSetID:543447

[Difficulty]
HPDrainRate:5
CircleSize:2
OverallDifficulty:5.5
ApproachRate:7
SliderMultiplier:1.3999999666214
SliderTickRate:1

[Events]
//Background and Video events
0,0,"bg.jpg",0,0
//Break Periods
//Storyboard Layer 0 (Background)
//Storyboard Layer 1 (Fail)
//Storyboard Layer 2 (Pass)
//Storyboard Layer 3 (Foreground)
//Storyboard Layer 4 (Overlay)
//Storyboard Sound Samples

[TimingPoints]
1309,272.727272727273,4,1,0,80,1,0
10309,-105.263157894737,4,1,0,80,0,0
10581,-111.111111111111,4,1,0,80,0,0
26854,-66.6666666666667,4,1,0,90,0,0
27490,-111.111111111111,4,1,0,70,0,0
36218,-100,4,1,0,80,0,0
44672,-105.263157894737,4,1,0,70,0,0
44945,-111.111111111111,4,1,0,70,0,0
52036,-117.647058823529,4,1,0,80,0,0
52581,-125,4,1,0,80,0,0
54763,-100,4,1,0,85,0,1
67854,-111.111111111111,4,1,0,80,0,0
75490,-100,4,1,0,80,0,0
85581,-105.263157894737,4,1,0,70,0,0
85854,-111.111111111111,4,1,0,70,0,0
86127,-117.647058823529,4,1,0,70,0,0
93399,-66.6666666666667,4,1,0,90,0,0
93581,-100,4,1,0,70,0,0
94036,-111.111111111111,4,1,0,70,0,0
102763,-100,4,1,0,70,0,0
111490,-100,4,1,0,80,0,0
112036,-111.111111111111,4,1,0,80,0,0
112581,-125,4,1,0,80,0,0
115854,-100,4,1,0,85,0,1
128945,-111.111111111111,4,1,0,80,0,0
136581,-100,4,1,0,80,0,0
146672,-125,4,1,0,70,0,0
164945,-100,4,1,0,85,0,0
174763,-100,4,1,0,85,0,1
187854,-111.111111111111,4,1,0,80,0,0
195490,-100,4,1,0,80,0,0
218399,-100,4,1,0,70,0,0

[HitObjects]
152,149,1309,5,0,0:0:0:0:
191,156,1490,1,0,0:0:0:0:
248,192,1582,1,8,0:0:0:0:
248,192,1855,1,0,0:0:0:0:
248,192,2037,1,0,0:0:0:0:
248,192,2127,1,8,0:0:0:0:
212,144,2309,1,8,0:0:0:0:
248,192,2400,1,0,0:0:0:0:
248,192,2582,1,8,0:0:0:0:
248,192,2673,1,0,0:0:0:0:
248,192,2855,1,8,0:0:0:0:
248,192,3127,1,8,0:0:0:0:
248,192,3218,1,0,0:0:0:0:
248,192,3399,1,8,0:0:0:0:
248,192,3491,1,0,0:0:0:0:
248,192,3764,1,8,0:0:0:0:
266,158,3945,1,8,0:0:0:0:
248,192,4037,1,0,0:0:0:0:
248,192,4218,1,0,0:0:0:0:
248,192,4309,1,8,0:0:0:0:
212,144,4491,1,8,0:0:0:0:
248,192,4582,1,0,0:0:0:0:
248,192,4764,1,8,0:0:0:0:
248,192,4855,1,0,0:0:0:0:
248,192,5037,1,8,0:0:0:0:
248,192,5309,1,8,0:0:0:0:
232,176,5400,1,0,0:0:0:0:
248,192,5673,1,0,0:0:0:0:
208,170,5854,1,0,0:0:0:0:
248,192,5946,1,8,0:0:0:0:
248,192,6218,1,0,0:0:0:0:
248,192,6400,1,0,0:0:0:0:
248,192,6491,1,8,0:0:0:0:
248,192,6673,1,8,0:0:0:0:
248,192,6764,1,0,0:0:0:0:
248,192,6946,1,8,0:0:0:0:
248,192,7037,1,0,0:0:0:0:
248,192,7218,1,8,0:0:0:0:
248,192,7491,1,8,0:0:0:0:
248,192,7582,1,0,0:0:0:0:
248,192,7764,1,8,0:0:0:0:
248,192,7855,1,0,0:0:0:0:
248,192,8127,1,8,0:0:0:0:
248,192,8309,1,0,0:0:0:0:
248,192,8400,1,0,0:0:0:0:
248,192,8582,1,8,0:0:0:0:
248,192,8672,1,8,0:0:0:0:
248,192,8855,1,8,0:0:0:0:
248,192,8946,1,0,0:0:0:0:
248,192,9218,1,8,0:0:0:0:
252,192,9399,1,0,0:0:0:0:
252,192,9490,1,0,0:0:0:0:
148,144,9672,1,0,0:0:0:0:
231,166,9763,1,8,0:0:0:0:
261,200,9945,1,8,0:0:0:0:
232,184,10036,1,0,0:0:0:0:
236,172,10309,1,0,0:0:0:0:
236,172,10581,1,0,0:0:0:0:
236,172,10763,1,8,0:0:0:0:
265,188,10854,1,8,0:0:0:0:
224,176,11036,1,8,0:0:0:0:
236,172,11127,1,0,0:0:0:0:
236,172,11399,1,8,0:0:0:0:
236,172,11672,1,0,0:0:0:0:
236,172,11854,1,0,0:0:0:0:
236,172,11945,1,8,0:0:0:0:
236,172,12218,1,0,0:0:0:0:
184,156,12490,1,0,0:0:0:0:
184,156,12672,1,8,0:0:0:0:
235,179,12763,1,0,0:0:0:0:
256,184,12945,1,0,0:0:0:0:
184,156,13036,1,8,0:0:0:0:
184,156,13218,1,8,0:0:0:0:
236,154,13309,1,0,0:0:0:0:
185,187,13581,1,8,0:0:0:0:
288,197,13854,1,0,0:0:0:0:
328,156,14036,1,8,0:0:0:0:
328,156,14127,1,0,0:0:0:0:
272,194,14309,1,8,0:0:0:0:
184,156,14399,1,0,0:0:0:0:
184,156,14672,1,8,0:0:0:0:
184,156,14945,1,0,0:0:0:0:
184,156,15127,1,8,0:0:0:0:
255,184,15218,1,8,0:0:0:0:
285,176,15399,1,8,0:0:0:0:
184,156,15490,1,0,0:0:0:0:
184,156,15763,1,8,0:0:0:0:
184,156,15945,1,0,0:0:0:0:
184,156,16218,1,0,0:0:0:0:
184,156,16309,1,8,0:0:0:0:
269,204,16490,1,0,0:0:0:0:
184,156,16581,1,0,0:0:0:0:
184,156,16854,1,8,0:0:0:0:
184,156,17127,1,0,0:0:0:0:
176,152,17399,1,8,0:0:0:0:
243,178,17581,5,8,0:0:0:0:
243,178,17672,1,0,0:0:0:0:
229,192,17854,1,0,0:0:0:0:
229,192,17945,1,0,0:0:0:0:
243,178,18127,1,8,0:0:0:0:
216,148,18218,1,0,0:0:0:0:
244,168,18399,1,0,0:0:0:0:
216,148,18490,1,8,0:0:0:0:
243,178,18763,1,0,0:0:0:0:
231,180,18945,1,0,0:0:0:0:
231,180,19036,1,8,0:0:0:0:
231,180,19309,1,0,0:0:0:0:
231,180,19490,1,0,0:0:0:0:
231,180,19581,1,8,0:0:0:0:
231,180,19854,1,0,0:0:0:0:
238,166,20036,1,0,0:0:0:0:
238,166,20127,1,8,0:0:0:0:
235,177,20309,1,8,0:0:0:0:
235,177,20581,1,8,0:0:0:0:
248,168,20672,1,0,0:0:0:0:
245,177,20945,1,0,0:0:0:0:
244,178,21127,1,0,0:0:0:0:
244,178,21218,1,8,0:0:0:0:
244,178,21490,1,0,0:0:0:0:
245,177,21672,1,0,0:0:0:0:
245,177,21763,1,8,0:0:0:0:
244,178,22036,1,8,0:0:0:0:
224,156,22218,1,0,0:0:0:0:
244,178,22309,1,8,0:0:0:0:
256,172,22490,1,0,0:0:0:0:
224,196,22763,1,0,0:0:0:0:
260,196,22854,1,8,0:0:0:0:
238,179,23127,1,0,0:0:0:0:
238,179,23399,1,8,0:0:0:0:
248,184,23581,1,8,0:0:0:0:
238,179,23672,1,0,0:0:0:0:
238,179,23854,1,0,0:0:0:0:
238,179,23945,1,8,0:0:0:0:
228,180,24127,1,0,0:0:0:0:
231,176,24218,1,0,0:0:0:0:
240,164,24399,1,0,0:0:0:0:
222,162,24490,1,8,0:0:0:0:
231,176,24672,1,8,0:0:0:0:
231,176,24945,1,8,0:0:0:0:
231,176,25036,1,0,0:0:0:0:
239,160,25309,1,0,0:0:0:0:
231,154,25490,1,0,0:0:0:0:
242,156,25581,1,8,0:0:0:0:
152,124,25763,1,0,0:0:0:0:
248,160,26036,1,8,0:0:0:0:
242,156,26309,1,0,0:0:0:0:
242,156,26399,1,8,0:0:0:0:
242,156,26945,1,12,0:0:0:0:
233,197,27490,1,0,0:0:0:0:
233,197,27945,1,0,0:0:0:0:
233,197,28036,1,8,0:0:0:0:
233,197,28218,1,0,0:0:0:0:
233,197,28309,1,0,0:0:0:0:
233,197,28581,1,0,0:0:0:0:
233,197,28854,1,8,0:0:0:0:
233,197,29127,1,8,0:0:0:0:
155,197,29399,1,0,0:0:0:0:
233,197,29672,1,0,0:0:0:0:
233,197,30127,1,8,0:0:0:0:
233,197,30218,1,0,0:0:0:0:
233,197,30399,1,0,0:0:0:0:
233,197,30490,1,0,0:0:0:0:
233,197,30763,1,0,0:0:0:0:
233,197,31036,1,8,0:0:0:0:
233,197,31309,1,8,0:0:0:0:
233,197,31581,1,0,0:0:0:0:
233,197,31854,1,0,0:0:0:0:
233,197,32309,1,0,0:0:0:0:
233,197,32399,1,8,0:0:0:0:
233,197,32581,1,0,0:0:0:0:
233,197,32672,1,0,0:0:0:0:
233,197,32945,1,0,0:0:0:0:
233,197,33218,1,8,0:0:0:0:
233,197,33490,1,8,0:0:0:0:
311,187,33763,1,0,0:0:0:0:
233,197,34036,1,0,0:0:0:0:
233,197,34490,1,0,0:0:0:0:
233,197,34581,1,8,0:0:0:0:
233,197,34763,1,0,0:0:0:0:
233,197,34854,1,0,0:0:0:0:
233,197,35127,1,12,0:0:0:0:
233,197,35672,1,12,0:0:0:0:
233,197,36218,1,4,0:0:0:0:
233,197,36490,1,8,0:0:0:0:
233,197,36672,1,0,0:0:0:0:
233,197,36945,1,0,0:0:0:0:
233,197,37036,1,8,0:0:0:0:
233,197,37309,1,0,0:0:0:0:
233,197,37581,1,8,0:0:0:0:
233,197,37763,1,0,0:0:0:0:
233,197,38036,1,0,0:0:0:0:
233,197,38127,1,8,0:0:0:0:
233,197,38399,1,0,0:0:0:0:
233,197,38672,1,8,0:0:0:0:
233,197,38854,1,0,0:0:0:0:
233,197,39127,1,0,0:0:0:0:
233,197,39218,1,8,0:0:0:0:
233,197,39490,1,0,0:0:0:0:
233,197,39672,1,8,0:0:0:0:
233,197,39763,1,0,0:0:0:0:
233,197,40036,1,8,0:0:0:0:
233,197,40218,1,0,0:0:0:0:
233,197,40309,1,8,0:0:0:0:
233,197,40581,1,4,0:0:0:0:
233,197,40854,1,8,0:0:0:0:
233,197,41127,1,8,0:0:0:0:
233,197,41399,1,8,0:0:0:0:
233,197,41672,1,8,0:0:0:0:
233,197,41854,1,0,0:0:0:0:
233,197,41945,1,8,0:0:0:0:
233,197,42127,1,0,0:0:0:0:
233,197,42218,1,8,0:0:0:0:
233,197,42490,1,8,0:0:0:0:
263,184,42763,1,8,0:0:0:0:
184,208,42945,1,0,0:0:0:0:
224,208,43036,1,0,0:0:0:0:
233,197,43218,1,8,0:0:0:0:
233,197,43309,1,0,0:0:0:0:
241,182,43490,1,0,0:0:0:0:
241,182,43581,1,8,0:0:0:0:
241,182,43854,1,8,0:0:0:0:
241,182,44309,1,8,0:0:0:0:
241,182,44399,1,0,0:0:0:0:
241,182,44672,1,8,0:0:0:0:
244,168,44945,1,4,0:0:0:0:
22,156,45218,1,0,0:0:0:0:
197,181,45399,1,0,0:0:0:0:
197,181,45490,1,8,0:0:0:0:
184,168,45763,1,0,0:0:0:0:
197,181,45945,1,8,0:0:0:0:
197,181,46036,1,0,0:0:0:0:
197,181,46218,1,8,0:0:0:0:
197,181,46309,1,0,0:0:0:0:
193,168,46490,1,0,0:0:0:0:
172,164,46581,1,8,0:0:0:0:
197,181,46854,1,0,0:0:0:0:
197,181,47036,1,8,0:0:0:0:
197,181,47127,1,0,0:0:0:0:
308,176,47399,1,0,0:0:0:0:
197,181,47581,1,0,0:0:0:0:
197,181,47672,1,8,0:0:0:0:
197,181,47945,1,0,0:0:0:0:
197,181,48127,1,8,0:0:0:0:
197,181,48218,1,0,0:0:0:0:
197,181,48399,1,0,0:0:0:0:
211,161,48672,1,0,0:0:0:0:
310,180,48763,1,8,0:0:0:0:
293,181,48945,1,0,0:0:0:0:
197,181,49036,1,8,0:0:0:0:
197,181,49309,1,0,0:0:0:0:
246,192,49581,1,0,0:0:0:0:
197,181,49763,1,0,0:0:0:0:
197,181,49854,1,8,0:0:0:0:
192,160,50127,1,0,0:0:0:0:
197,181,50309,1,8,0:0:0:0:
197,181,50399,1,0,0:0:0:0:
197,181,50581,1,8,0:0:0:0:
197,181,50672,1,0,0:0:0:0:
231,168,50763,1,0,0:0:0:0:
197,181,50854,1,0,0:0:0:0:
197,181,50945,1,8,0:0:0:0:
197,181,51218,1,8,0:0:0:0:
216,202,51490,1,4,0:0:0:0:
216,202,52036,1,12,0:0:0:0:
216,202,52581,1,4,0:0:0:0:
216,202,52854,1,12,0:0:0:0:
216,202,53127,1,4,0:0:0:0:
216,202,53399,1,8,0:0:0:0:
216,202,53490,1,8,0:0:0:0:
216,202,53581,1,8,0:0:0:0:
216,202,53672,1,0,0:0:0:0:
216,202,53854,1,8,0:0:0:0:
216,202,53945,1,0,0:0:0:0:
216,202,54218,1,12,0:0:0:0:
252,204,54763,1,4,0:0:0:0:
252,204,54945,1,0,0:0:0:0:
252,204,55036,1,8,0:0:0:0:
240,200,55309,1,0,0:0:0:0:
240,200,55490,1,8,0:0:0:0:
240,200,55581,1,0,0:0:0:0:
240,200,55854,1,12,0:0:0:0:
240,200,56127,1,12,0:0:0:0:
240,200,56399,1,4,0:0:0:0:
232,196,56672,1,8,0:0:0:0:
240,200,56945,1,0,0:0:0:0:
240,200,57127,1,0,0:0:0:0:
240,200,57218,1,8,0:0:0:0:
188,188,57399,1,8,0:0:0:0:
240,200,57490,1,0,0:0:0:0:
240,200,57763,1,8,0:0:0:0:
272,200,58036,1,4,0:0:0:0:
240,200,58309,1,12,0:0:0:0:
236,192,58581,1,4,0:0:0:0:
244,184,58854,1,8,0:0:0:0:
240,200,59036,1,8,0:0:0:0:
244,184,59127,1,0,0:0:0:0:
240,200,59399,1,0,0:0:0:0:
244,196,59581,1,0,0:0:0:0:
240,200,59672,1,8,0:0:0:0:
240,200,59945,1,0,0:0:0:0:
240,200,60218,1,12,0:0:0:0:
240,200,60490,1,4,0:0:0:0:
240,200,60763,1,12,0:0:0:0:
253,196,61036,1,0,0:0:0:0:
240,200,61309,1,8,0:0:0:0:
240,200,61490,1,8,0:0:0:0:
240,200,61581,1,0,0:0:0:0:
240,200,61763,1,0,0:0:0:0:
240,200,61854,1,8,0:0:0:0:
240,200,62127,1,8,0:0:0:0:
240,200,62399,1,0,0:0:0:0:
240,200,62581,1,8,0:0:0:0:
240,200,62672,1,0,0:0:0:0:
240,200,62854,1,0,0:0:0:0:
240,200,62945,1,8,0:0:0:0:
240,200,63218,1,8,0:0:0:0:
240,200,63490,1,4,0:0:0:0:
240,200,63672,1,0,0:0:0:0:
240,200,63763,1,8,0:0:0:0:
240,200,63945,1,8,0:0:0:0:
240,200,64036,1,0,0:0:0:0:
240,200,64218,1,0,0:0:0:0:
240,200,64309,1,8,0:0:0:0:
240,200,64581,1,12,0:0:0:0:
240,200,64854,1,12,0:0:0:0:
240,200,65127,1,4,0:0:0:0:
240,208,65399,1,8,0:0:0:0:
268,216,65672,1,0,0:0:0:0:
280,176,65854,1,0,0:0:0:0:
240,200,65945,1,8,0:0:0:0:
240,200,66127,1,8,0:0:0:0:
240,200,66218,1,0,0:0:0:0:
240,200,66399,1,0,0:0:0:0:
240,200,66490,1,8,0:0:0:0:
240,200,66763,1,4,0:0:0:0:
240,200,67036,1,4,0:0:0:0:
240,200,67309,1,12,0:0:0:0:
240,200,67854,1,4,0:0:0:0:
224,192,68127,5,0,0:0:0:0:
212,188,68309,1,0,0:0:0:0:
248,196,68399,1,8,3:3:0:0:
248,196,68672,1,8,3:3:0:0:
248,196,68945,1,0,3:3:0:0:
248,196,69127,1,8,3:3:0:0:
248,196,69218,1,0,3:3:0:0:
248,196,69399,1,8,3:3:0:0:
248,196,69490,1,0,3:3:0:0:
248,196,69763,1,8,3:3:0:0:
248,196,70036,1,0,3:3:0:0:
248,196,70309,1,0,3:3:0:0:
212,188,70490,1,0,0:0:0:0:
248,196,70581,1,8,3:3:0:0:
232,208,70854,1,0,3:3:0:0:
232,208,71127,1,8,3:3:0:0:
232,208,71309,1,8,3:3:0:0:
232,208,71399,1,8,3:3:0:0:
232,208,71581,1,8,3:3:0:0:
232,208,71672,1,0,3:3:0:0:
232,208,71945,1,8,3:3:0:0:
208,184,72218,1,4,0:0:0:0:
232,208,72490,1,0,3:3:0:0:
212,188,72672,1,0,0:0:0:0:
232,208,72763,1,8,3:3:0:0:
232,208,73036,1,8,3:3:0:0:
250,172,73309,1,0,0:0:0:0:
233,178,73490,1,8,0:0:0:0:
227,177,73581,1,0,0:0:0:0:
227,177,73763,1,8,0:0:0:0:
227,177,73854,1,0,0:0:0:0:
227,177,74036,1,0,0:0:0:0:
227,177,74127,1,8,0:0:0:0:
227,177,74218,1,8,0:0:0:0:
227,177,74309,1,8,0:0:0:0:
227,177,74399,1,0,0:0:0:0:
227,177,74581,1,0,0:0:0:0:
202,176,74672,1,8,0:0:0:0:
203,175,74854,1,0,0:0:0:0:
202,176,74945,1,0,0:0:0:0:
202,176,75127,1,0,0:0:0:0:
202,176,75218,1,8,0:0:0:0:
48,216,75490,2,0,P|84:148|364:288,1,489.99998831749
152,149,76581,1,0,0:0:0:0:
248,192,76763,1,0,0:0:0:0:
248,192,76854,1,8,0:0:0:0:
248,192,77127,1,0,0:0:0:0:
248,192,77309,1,0,0:0:0:0:
248,192,77399,1,8,0:0:0:0:
212,144,77581,1,8,0:0:0:0:
248,192,77672,1,0,0:0:0:0:
248,192,77854,1,8,0:0:0:0:
248,192,77945,1,0,0:0:0:0:
248,192,78127,1,8,0:0:0:0:
248,192,78399,1,8,0:0:0:0:
248,192,78490,1,0,0:0:0:0:
244,192,78672,1,8,0:0:0:0:
248,192,78763,1,0,0:0:0:0:
248,192,79036,1,8,0:0:0:0:
248,192,79218,1,8,0:0:0:0:
248,192,79309,1,0,0:0:0:0:
248,192,79490,1,0,0:0:0:0:
248,192,79581,1,8,0:0:0:0:
212,144,79763,1,8,0:0:0:0:
248,192,79854,1,0,0:0:0:0:
248,192,80036,1,8,0:0:0:0:
248,192,80127,1,0,0:0:0:0:
248,192,80309,1,8,0:0:0:0:
248,192,80581,1,8,0:0:0:0:
232,176,80672,1,0,0:0:0:0:
248,192,80854,1,0,0:0:0:0:
248,192,80945,1,0,0:0:0:0:
248,192,81127,1,0,0:0:0:0:
248,192,81218,1,8,0:0:0:0:
248,192,81490,1,0,0:0:0:0:
248,192,81672,1,0,0:0:0:0:
248,192,81763,1,8,0:0:0:0:
248,192,81945,1,8,0:0:0:0:
248,192,82036,1,0,0:0:0:0:
248,192,82218,1,8,0:0:0:0:
248,192,82309,1,0,0:0:0:0:
248,192,82490,1,8,0:0:0:0:
248,192,82763,1,8,0:0:0:0:
248,192,82854,1,0,0:0:0:0:
248,192,83036,1,8,0:0:0:0:
248,192,83127,1,0,0:0:0:0:
248,192,83399,1,8,0:0:0:0:
248,192,83581,1,0,0:0:0:0:
248,192,83672,1,0,0:0:0:0:
248,192,83854,1,8,0:0:0:0:
248,192,83945,1,8,0:0:0:0:
248,192,84127,1,8,0:0:0:0:
248,192,84218,1,0,0:0:0:0:
248,192,84490,1,8,0:0:0:0:
248,192,84672,1,0,0:0:0:0:
248,192,84763,1,0,0:0:0:0:
248,192,84945,1,8,0:0:0:0:
248,192,85036,1,8,0:0:0:0:
248,192,85218,1,8,0:0:0:0:
248,196,85309,1,0,3:3:0:0:
248,196,85581,1,8,3:3:0:0:
248,196,85854,1,8,3:3:0:0:
240,192,86309,1,0,3:0:0:0:
248,196,86672,1,0,3:3:0:0:
248,196,86945,1,8,3:3:0:0:
248,196,87218,1,0,3:3:0:0:
248,196,87490,1,8,3:3:0:0:
248,196,87763,1,0,3:3:0:0:
248,196,88036,1,0,3:3:0:0:
224,200,88490,1,8,3:3:0:0:
248,196,88854,1,8,3:3:0:0:
248,196,89127,1,0,3:3:0:0:
248,196,89399,1,0,3:3:0:0:
248,196,89672,1,8,3:3:0:0:
248,196,89945,1,8,3:3:0:0:
248,196,90218,1,0,3:3:0:0:
248,196,90672,1,0,3:3:0:0:
240,192,91036,1,0,3:0:0:0:
248,196,91309,1,8,3:3:0:0:
248,196,91581,1,8,3:3:0:0:
248,196,91854,1,0,3:3:0:0:
248,196,92127,1,8,3:3:0:0:
248,196,92399,1,8,3:3:0:0:
248,196,92945,5,0,3:3:0:0:
248,196,93490,1,12,3:3:0:0:
233,197,94036,5,0,0:0:0:0:
233,197,94491,1,0,0:0:0:0:
233,197,94582,1,8,0:0:0:0:
233,197,94764,1,0,0:0:0:0:
233,197,94855,1,0,0:0:0:0:
233,197,95127,1,0,0:0:0:0:
233,197,95400,1,8,0:0:0:0:
233,197,95673,1,8,0:0:0:0:
216,192,95945,1,0,0:0:0:0:
233,197,96218,1,0,0:0:0:0:
233,197,96673,1,8,0:0:0:0:
233,197,96764,1,0,0:0:0:0:
233,197,96945,1,0,0:0:0:0:
233,197,97036,1,0,0:0:0:0:
233,197,97309,1,0,0:0:0:0:
233,197,97582,1,8,0:0:0:0:
233,197,97855,1,8,0:0:0:0:
92,172,98127,1,0,0:0:0:0:
233,197,98400,1,0,0:0:0:0:
233,197,98855,1,0,0:0:0:0:
233,197,98945,1,8,0:0:0:0:
256,195,99127,1,0,0:0:0:0:
233,197,99218,1,0,0:0:0:0:
233,197,99491,1,0,0:0:0:0:
233,197,99764,1,8,0:0:0:0:
233,197,100036,1,8,0:0:0:0:
168,160,100309,1,0,0:0:0:0:
233,197,100582,1,0,0:0:0:0:
233,197,101036,1,0,0:0:0:0:
233,197,101127,1,8,0:0:0:0:
233,197,101400,1,0,0:0:0:0:
233,197,101673,1,12,0:0:0:0:
224,176,101945,1,0,0:0:0:0:
233,197,102218,1,12,0:0:0:0:
233,197,102764,1,4,0:0:0:0:
233,197,103036,1,8,0:0:0:0:
248,188,103309,1,0,0:0:0:0:
233,197,103491,1,0,0:0:0:0:
233,197,103582,1,8,0:0:0:0:
233,197,103855,1,0,0:0:0:0:
233,197,104127,1,8,0:0:0:0:
233,197,104309,1,8,0:0:0:0:
236,188,104399,1,0,0:0:0:0:
256,196,104581,1,0,0:0:0:0:
233,197,104673,1,8,0:0:0:0:
233,197,104945,1,0,0:0:0:0:
233,197,105218,1,8,0:0:0:0:
185,152,105399,1,8,0:0:0:0:
264,172,105490,1,0,0:0:0:0:
256,196,105672,1,0,0:0:0:0:
233,197,105764,1,8,0:0:0:0:
233,197,106036,1,0,0:0:0:0:
233,197,106309,1,8,0:0:0:0:
233,197,106491,1,8,0:0:0:0:
201,188,106581,1,0,0:0:0:0:
233,197,106764,1,0,0:0:0:0:
233,197,106855,1,8,0:0:0:0:
233,197,107127,1,4,0:0:0:0:
233,197,107400,1,8,0:0:0:0:
233,197,107673,1,8,0:0:0:0:
233,197,107945,1,8,0:0:0:0:
233,197,108218,1,8,0:0:0:0:
233,197,108400,1,0,0:0:0:0:
233,197,108491,1,8,0:0:0:0:
233,197,108673,1,0,0:0:0:0:
233,197,108764,1,8,0:0:0:0:
233,197,109036,1,8,0:0:0:0:
233,197,109309,1,8,0:0:0:0:
233,197,109491,1,0,0:0:0:0:
228,188,109581,1,0,0:0:0:0:
233,197,109764,1,8,0:0:0:0:
233,197,109855,1,0,0:0:0:0:
241,182,110036,1,0,0:0:0:0:
241,182,110127,1,8,0:0:0:0:
241,182,110400,1,8,0:0:0:0:
230,186,110854,1,8,0:0:0:0:
230,186,110945,1,0,0:0:0:0:
230,186,111218,1,8,0:0:0:0:
230,186,111490,1,4,0:0:0:0:
230,186,112036,1,12,0:0:0:0:
230,186,112581,1,4,0:0:0:0:
230,186,112854,1,12,0:0:0:0:
230,186,113127,1,4,0:0:0:0:
228,193,113581,1,8,0:0:0:0:
257,235,114490,1,8,0:0:0:0:
257,235,114581,1,8,0:0:0:0:
257,235,114672,1,8,0:0:0:0:
257,235,114763,1,0,0:0:0:0:
257,235,114945,1,8,0:0:0:0:
257,235,115036,1,0,0:0:0:0:
257,235,115309,1,12,0:0:0:0:
252,204,115854,1,4,0:0:0:0:
262,182,116036,1,0,0:0:0:0:
252,204,116127,1,8,0:0:0:0:
240,200,116399,1,0,0:0:0:0:
240,200,116581,1,8,0:0:0:0:
240,200,116672,1,0,0:0:0:0:
240,200,116945,1,12,0:0:0:0:
240,200,117218,1,12,0:0:0:0:
240,200,117490,1,4,0:0:0:0:
232,196,117763,1,8,0:0:0:0:
240,200,118036,1,0,0:0:0:0:
240,200,118309,1,8,0:0:0:0:
272,200,118490,1,8,0:0:0:0:
272,200,118581,1,0,0:0:0:0:
240,200,118854,1,8,0:0:0:0:
240,200,119127,1,4,0:0:0:0:
240,200,119399,1,12,0:0:0:0:
240,200,119672,1,4,0:0:0:0:
252,184,119945,1,8,0:0:0:0:
240,200,120218,1,8,0:0:0:0:
176,184,120399,1,8,0:0:0:0:
196,184,120490,1,0,0:0:0:0:
236,188,120672,1,0,0:0:0:0:
240,200,120763,1,8,0:0:0:0:
240,200,121036,1,0,0:0:0:0:
240,200,121309,1,12,0:0:0:0:
240,200,121581,1,4,0:0:0:0:
240,200,121854,1,12,0:0:0:0:
247,190,122127,1,0,0:0:0:0:
238,183,122399,1,8,0:0:0:0:
240,200,122581,1,8,0:0:0:0:
240,200,122672,1,0,0:0:0:0:
256,180,122854,1,0,0:0:0:0:
240,200,122945,1,8,0:0:0:0:
240,200,123218,1,0,0:0:0:0:
240,200,123490,1,8,0:0:0:0:
236,176,123763,1,0,0:0:0:0:
240,200,123945,1,0,0:0:0:0:
240,200,124036,1,8,0:0:0:0:
240,200,124309,1,8,0:0:0:0:
240,200,124581,1,4,0:0:0:0:
240,200,124854,1,8,0:0:0:0:
240,200,125127,1,0,0:0:0:0:
240,200,125309,1,0,0:0:0:0:
240,200,125399,1,8,0:0:0:0:
240,200,125672,1,12,0:0:0:0:
240,200,125945,1,12,0:0:0:0:
240,200,126218,1,4,0:0:0:0:
240,208,126490,1,8,0:0:0:0:
240,200,126763,1,0,0:0:0:0:
240,200,126945,1,8,0:0:0:0:
240,200,127036,1,0,0:0:0:0:
240,200,127218,1,8,0:0:0:0:
240,200,127309,1,0,0:0:0:0:
240,200,127581,1,8,0:0:0:0:
240,200,127854,1,4,0:0:0:0:
240,200,128127,1,4,0:0:0:0:
240,200,128399,1,12,0:0:0:0:
248,196,128945,1,4,3:3:0:0:
248,196,129218,1,0,3:3:0:0:
216,208,129399,1,0,0:0:0:0:
248,196,129490,1,8,3:3:0:0:
248,196,129763,1,8,3:3:0:0:
248,196,130036,1,0,3:3:0:0:
248,196,130218,1,8,3:3:0:0:
248,196,130309,1,0,3:3:0:0:
248,196,130490,1,8,3:3:0:0:
248,196,130581,1,0,3:3:0:0:
248,196,130854,1,8,3:3:0:0:
248,196,131127,1,0,3:3:0:0:
248,196,131399,1,0,3:3:0:0:
216,208,131581,1,0,0:0:0:0:
248,196,131672,1,8,3:3:0:0:
232,208,131945,1,0,3:3:0:0:
232,208,132218,1,8,3:3:0:0:
232,208,132399,1,8,3:3:0:0:
232,208,132490,1,8,3:3:0:0:
232,208,132672,1,8,3:3:0:0:
232,208,132763,1,0,3:3:0:0:
232,208,133036,1,8,3:3:0:0:
232,208,133309,1,4,3:3:0:0:
232,208,133581,1,0,3:3:0:0:
216,208,133763,1,0,0:0:0:0:
232,208,133854,1,8,3:3:0:0:
232,208,134127,1,8,3:3:0:0:
232,208,134399,1,0,3:3:0:0:
232,208,134581,1,8,3:3:0:0:
232,208,134672,1,0,3:3:0:0:
232,208,134854,1,8,3:3:0:0:
232,208,134945,1,0,3:3:0:0:
224,208,135127,1,0,3:0:0:0:
232,208,135218,1,8,3:3:0:0:
232,208,135309,1,8,3:3:0:0:
232,208,135399,1,8,3:3:0:0:
232,208,135490,1,0,3:3:0:0:
232,208,135672,1,0,3:3:0:0:
232,208,135763,1,8,3:3:0:0:
232,208,135945,1,0,3:3:0:0:
232,208,136036,1,0,3:3:0:0:
232,208,136218,1,0,3:3:0:0:
232,208,136309,1,8,3:3:0:0:
60,228,136581,2,0,P|132:144|416:300,1,489.99998831749
248,184,137672,1,12,0:0:0:0:
232,176,137854,1,8,0:0:0:0:
140,152,137945,1,0,0:0:0:0:
232,176,138036,1,0,0:0:0:0:
232,176,138127,1,0,0:0:0:0:
235,160,138218,1,8,0:0:0:0:
239,172,138490,1,0,0:0:0:0:
239,172,138763,1,8,0:0:0:0:
232,176,138945,1,8,0:0:0:0:
232,176,139036,1,0,0:0:0:0:
232,176,139127,1,0,0:0:0:0:
239,172,139218,1,0,0:0:0:0:
239,172,139309,1,8,0:0:0:0:
239,172,139581,1,0,0:0:0:0:
232,176,139763,1,0,0:0:0:0:
239,172,139854,1,8,0:0:0:0:
239,172,139945,1,8,0:0:0:0:
239,172,140036,1,8,0:0:0:0:
239,172,140127,1,0,0:0:0:0:
239,172,140309,1,8,0:0:0:0:
239,172,140399,1,0,0:0:0:0:
239,172,140491,1,0,0:0:0:0:
239,172,140582,1,0,0:0:0:0:
239,172,140672,1,8,0:0:0:0:
192,176,140854,1,8,0:0:0:0:
239,172,140945,1,0,0:0:0:0:
239,172,141218,1,0,0:0:0:0:
239,172,141490,1,12,0:0:0:0:
239,172,142036,1,12,0:0:0:0:
248,180,142309,1,0,0:0:0:0:
239,172,142581,1,8,0:0:0:0:
192,172,142763,1,0,0:0:0:0:
239,172,142854,1,8,0:0:0:0:
239,172,143036,1,8,0:0:0:0:
239,172,143127,1,0,0:0:0:0:
239,172,143399,1,0,0:0:0:0:
239,172,143581,1,0,0:0:0:0:
239,172,143672,1,8,0:0:0:0:
239,172,143945,1,0,0:0:0:0:
239,172,144218,1,12,0:0:0:0:
216,168,144490,1,0,0:0:0:0:
239,172,144763,1,8,0:0:0:0:
239,172,144945,1,8,0:0:0:0:
239,172,145036,1,0,0:0:0:0:
239,172,145127,1,0,0:0:0:0:
239,172,145218,1,0,0:0:0:0:
239,172,145309,1,8,0:0:0:0:
239,172,145854,1,0,0:0:0:0:
240,156,146672,1,0,0:0:0:0:
240,156,146945,1,0,0:0:0:0:
240,156,147218,1,8,0:0:0:0:
240,156,147763,1,0,0:0:0:0:
240,156,148036,1,0,0:0:0:0:
240,156,148309,1,0,0:0:0:0:
232,152,148581,1,8,0:0:0:0:
232,152,148854,1,8,0:0:0:0:
232,152,149127,1,0,0:0:0:0:
232,152,149399,1,0,0:0:0:0:
232,152,149672,1,0,0:0:0:0:
232,152,149945,1,8,0:0:0:0:
232,152,150218,1,8,0:0:0:0:
232,168,150763,1,0,0:0:0:0:
232,152,151036,1,8,0:0:0:0:
232,152,151309,1,0,0:0:0:0:
232,152,151581,1,0,0:0:0:0:
232,152,151854,1,8,0:0:0:0:
232,152,152127,1,0,0:0:0:0:
232,152,152399,1,0,0:0:0:0:
232,152,152672,1,8,0:0:0:0:
232,152,152945,1,8,0:0:0:0:
232,152,153490,1,8,0:0:0:0:
248,160,154036,1,0,0:0:0:0:
284,192,154309,1,8,0:0:0:0:
284,192,154581,1,8,0:0:0:0:
284,192,155399,1,0,0:0:0:0:
284,192,155672,1,0,0:0:0:0:
284,192,155945,1,8,0:0:0:0:
284,192,156490,1,0,0:0:0:0:
284,192,156763,1,0,0:0:0:0:
284,192,157036,1,0,0:0:0:0:
284,192,157309,1,8,0:0:0:0:
284,192,157581,1,8,0:0:0:0:
284,192,157854,1,0,0:0:0:0:
284,192,158127,1,0,0:0:0:0:
284,192,158399,1,0,0:0:0:0:
284,192,158672,1,8,0:0:0:0:
284,192,158945,1,8,0:0:0:0:
236,164,159490,1,0,0:0:0:0:
284,192,159763,1,8,0:0:0:0:
284,192,160036,1,8,0:0:0:0:
284,192,160309,1,0,0:0:0:0:
284,192,160581,1,0,0:0:0:0:
284,192,160854,1,8,0:0:0:0:
284,192,161127,1,0,0:0:0:0:
284,192,161399,1,8,0:0:0:0:
284,192,161672,1,8,0:0:0:0:
284,192,162127,1,0,0:0:0:0:
284,192,162218,1,8,0:0:0:0:
284,192,162672,1,0,0:0:0:0:
284,192,162763,1,8,0:0:0:0:
264,164,163309,1,8,0:0:0:0:
264,164,163854,5,4,0:0:0:0:
232,200,164945,5,4,0:0:0:0:
232,200,165218,1,4,0:0:0:0:
232,200,165490,1,12,0:0:0:0:
232,200,165763,1,12,0:0:0:0:
232,200,166036,1,8,0:0:0:0:
188,192,166218,1,0,0:0:0:0:
204,196,166309,1,8,0:0:0:0:
204,196,166581,1,4,0:0:0:0:
188,176,166763,1,8,0:0:0:0:
188,192,166854,1,0,0:0:0:0:
172,76,167127,2,0,P|256:60|356:144,1,209.99999499321
196,192,167672,1,4,0:0:0:0:
164,180,168218,1,4,0:0:0:0:
188,168,168490,1,8,0:0:0:0:
164,180,168763,1,4,0:0:0:0:
136,176,169036,1,8,0:0:0:0:
136,176,169309,1,4,0:0:0:0:
188,168,169581,1,8,0:0:0:0:
212,152,169763,1,4,0:0:0:0:
160,156,170127,1,4,0:0:0:0:
104,152,170399,1,12,0:0:0:0:
136,164,170672,1,0,0:0:0:0:
112,156,170854,1,12,0:0:0:0:
112,156,171218,1,12,0:0:0:0:
148,148,171490,1,4,0:0:0:0:
136,164,171763,1,0,0:0:0:0:
148,148,171945,1,12,0:0:0:0:
148,148,172309,1,12,0:0:0:0:
148,148,172581,1,4,0:0:0:0:
100,212,173672,2,0,P|264:116|464:296,1,489.99998831749
240,152,174763,1,12,0:0:0:0:
216,184,174945,1,0,0:0:0:0:
216,184,175036,1,8,0:0:0:0:
216,184,175218,1,0,0:0:0:0:
216,184,175309,1,8,0:0:0:0:
229,156,175581,1,0,0:0:0:0:
216,184,175854,1,12,0:0:0:0:
216,184,176127,1,12,0:0:0:0:
220,180,176399,1,4,0:0:0:0:
192,160,176672,1,8,0:0:0:0:
240,200,176945,1,0,0:0:0:0:
240,200,177218,1,8,0:0:0:0:
240,200,177399,1,8,0:0:0:0:
240,200,177490,1,0,0:0:0:0:
240,200,177763,1,8,0:0:0:0:
240,200,178036,1,4,0:0:0:0:
240,200,178309,1,12,0:0:0:0:
240,200,178581,1,4,0:0:0:0:
260,196,178854,1,8,0:0:0:0:
196,184,179127,1,8,0:0:0:0:
256,196,179309,5,8,0:0:0:0:
240,200,179399,1,0,0:0:0:0:
236,188,179581,1,0,0:0:0:0:
240,200,179672,1,8,0:0:0:0:
240,200,179945,1,0,0:0:0:0:
240,200,180218,1,12,0:0:0:0:
240,200,180490,1,4,0:0:0:0:
240,200,180763,1,12,0:0:0:0:
209,184,181036,5,0,0:0:0:0:
240,200,181309,1,8,0:0:0:0:
240,200,181490,1,8,0:0:0:0:
240,200,181581,1,0,0:0:0:0:
240,200,181763,1,0,0:0:0:0:
240,200,181854,1,8,0:0:0:0:
240,200,182127,1,0,0:0:0:0:
240,200,182399,1,8,0:0:0:0:
236,176,182672,1,0,0:0:0:0:
240,200,182854,1,0,0:0:0:0:
240,200,182945,1,8,0:0:0:0:
240,200,183218,1,8,0:0:0:0:
240,200,183490,1,4,0:0:0:0:
240,200,183763,1,8,0:0:0:0:
240,200,184036,1,0,0:0:0:0:
240,200,184218,1,0,0:0:0:0:
240,200,184309,1,8,0:0:0:0:
240,200,184581,1,12,0:0:0:0:
240,200,184854,1,12,0:0:0:0:
240,200,185127,1,4,0:0:0:0:
240,208,185399,1,8,0:0:0:0:
240,200,185672,1,0,0:0:0:0:
240,200,185854,1,8,0:0:0:0:
240,200,185945,1,0,0:0:0:0:
240,200,186127,1,8,0:0:0:0:
240,200,186218,1,0,0:0:0:0:
240,200,186490,1,8,0:0:0:0:
240,200,186763,1,4,0:0:0:0:
240,200,187036,1,4,0:0:0:0:
240,200,187309,1,12,0:0:0:0:
248,196,187854,1,4,3:3:0:0:
248,196,188127,1,0,3:3:0:0:
240,200,188309,1,0,0:0:0:0:
248,196,188399,1,8,3:3:0:0:
248,196,188672,1,8,3:3:0:0:
248,196,188945,1,0,3:3:0:0:
248,196,189127,1,8,3:3:0:0:
248,196,189218,1,0,3:3:0:0:
248,196,189399,1,8,3:3:0:0:
248,196,189490,1,0,3:3:0:0:
248,196,189763,1,8,3:3:0:0:
248,196,190036,1,0,3:3:0:0:
248,196,190309,1,0,3:3:0:0:
248,196,190490,1,0,0:0:0:0:
248,196,190581,1,8,3:3:0:0:
231,177,190854,1,0,0:0:0:0:
232,208,191127,1,8,3:3:0:0:
232,208,191309,1,8,3:3:0:0:
232,208,191399,1,8,3:3:0:0:
232,208,191581,1,8,3:3:0:0:
232,208,191672,1,0,3:3:0:0:
232,208,191945,1,8,3:3:0:0:
232,208,192218,1,4,3:3:0:0:
232,208,192490,1,0,3:3:0:0:
240,208,192672,1,0,0:0:0:0:
232,208,192763,1,8,3:3:0:0:
232,208,193036,1,8,3:3:0:0:
232,208,193309,1,8,3:3:0:0:
232,208,193490,1,8,3:3:0:0:
232,208,193581,1,0,3:3:0:0:
232,208,193763,1,8,3:3:0:0:
232,208,193854,1,0,3:3:0:0:
224,208,194036,1,0,3:0:0:0:
232,208,194127,1,8,3:3:0:0:
232,208,194218,1,8,3:3:0:0:
232,208,194309,1,8,3:3:0:0:
232,208,194399,1,0,3:3:0:0:
232,208,194581,1,0,3:3:0:0:
232,208,194672,1,8,3:3:0:0:
232,208,194854,1,0,3:3:0:0:
232,208,194945,1,0,3:3:0:0:
232,208,195127,1,0,3:3:0:0:
232,208,195218,1,8,3:3:0:0:
64,224,195490,2,0,P|132:148|464:260,1,489.99998831749
244,216,196581,1,0,0:0:0:0:
264,212,196854,1,8,0:0:0:0:
244,216,197036,1,0,0:0:0:0:
264,212,197127,1,0,0:0:0:0:
264,212,197399,1,8,0:0:0:0:
264,212,197672,1,0,0:0:0:0:
264,212,197945,1,8,0:0:0:0:
256,200,198127,1,0,0:0:0:0:
256,200,198218,1,8,0:0:0:0:
232,192,198490,1,8,0:0:0:0:
264,212,198763,1,0,0:0:0:0:
263,199,198945,1,0,0:0:0:0:
240,168,199036,1,8,0:0:0:0:
264,196,199218,1,0,0:0:0:0:
296,164,199309,1,8,0:0:0:0:
272,208,199581,1,8,0:0:0:0:
272,208,199763,1,8,0:0:0:0:
272,208,199854,1,0,0:0:0:0:
251,177,200127,1,0,0:0:0:0:
260,168,200309,1,0,0:0:0:0:
272,208,200399,1,8,0:0:0:0:
264,184,200490,1,8,0:0:0:0:
264,184,200581,1,8,0:0:0:0:
288,192,200672,1,0,0:0:0:0:
288,192,200854,1,8,0:0:0:0:
256,196,200945,1,0,0:0:0:0:
248,184,201218,1,8,0:0:0:0:
235,245,201399,1,0,0:0:0:0:
264,192,201490,1,0,0:0:0:0:
240,172,201763,1,8,0:0:0:0:
216,156,201945,1,0,0:0:0:0:
272,176,202036,1,0,0:0:0:0:
256,208,202218,1,0,0:0:0:0:
240,172,202309,1,8,0:0:0:0:
227,159,202581,1,0,0:0:0:0:
261,185,202854,1,8,0:0:0:0:
212,192,203127,1,0,0:0:0:0:
240,172,203309,1,8,0:0:0:0:
240,172,203399,1,0,0:0:0:0:
240,172,203581,1,8,0:0:0:0:
252,180,204218,1,0,0:0:0:0:
240,172,204399,1,8,0:0:0:0:
240,172,204490,1,0,0:0:0:0:
240,172,204672,1,8,0:0:0:0:
226,157,205036,1,0,0:0:0:0:
226,159,205309,1,8,0:0:0:0:
236,140,205490,1,0,0:0:0:0:
236,140,205581,1,8,0:0:0:0:
226,159,205854,1,8,0:0:0:0:
226,159,206036,1,8,0:0:0:0:
226,159,206127,1,0,0:0:0:0:
226,159,206399,1,0,0:0:0:0:
236,178,206581,1,0,0:0:0:0:
226,159,206672,1,8,0:0:0:0:
236,178,206945,1,8,0:0:0:0:
226,159,207218,1,0,0:0:0:0:
272,184,207399,1,8,0:0:0:0:
226,159,207490,1,0,0:0:0:0:
236,178,207672,1,0,0:0:0:0:
226,159,207763,1,8,0:0:0:0:
226,159,208036,1,8,0:0:0:0:
236,178,208218,1,8,0:0:0:0:
226,159,208309,1,0,0:0:0:0:
226,159,208581,1,0,0:0:0:0:
186,171,208763,1,0,0:0:0:0:
226,159,208854,1,8,0:0:0:0:
226,170,209127,1,8,0:0:0:0:
252,172,209309,1,0,0:0:0:0:
226,159,209399,1,8,0:0:0:0:
251,124,209672,1,4,0:0:0:0:
243,160,209945,1,8,0:0:0:0:
255,140,210127,1,0,0:0:0:0:
243,160,210218,1,8,0:0:0:0:
280,168,210490,1,0,0:0:0:0:
240,176,210763,1,0,0:0:0:0:
243,160,210945,1,0,0:0:0:0:
243,160,211036,1,8,0:0:0:0:
260,172,211218,1,8,0:0:0:0:
248,152,211309,1,0,0:0:0:0:
204,124,211581,1,0,0:0:0:0:
243,160,211854,1,0,0:0:0:0:
243,160,212127,1,8,0:0:0:0:
232,152,212309,1,0,0:0:0:0:
243,160,212399,1,8,0:0:0:0:
243,160,212672,1,0,0:0:0:0:
280,168,212945,1,0,0:0:0:0:
243,160,213127,1,0,0:0:0:0:
243,160,213218,1,8,0:0:0:0:
280,168,213399,1,0,0:0:0:0:
232,152,213490,1,8,0:0:0:0:
243,160,213763,1,8,0:0:0:0:
263,152,214036,1,4,0:0:0:0:
239,120,214309,1,8,0:0:0:0:
263,152,214490,1,0,0:0:0:0:
243,136,214581,1,8,0:0:0:0:
231,152,214854,1,0,0:0:0:0:
280,168,215127,1,0,0:0:0:0:
243,136,215309,1,0,0:0:0:0:
243,136,215399,1,8,0:0:0:0:
264,140,215581,1,8,0:0:0:0:
220,140,215672,1,0,0:0:0:0:
215,104,215945,1,0,0:0:0:0:
215,104,216218,1,12,0:0:0:0:
243,136,216399,1,0,0:0:0:0:
216,120,216490,1,0,0:0:0:0:
215,104,216763,1,12,0:0:0:0:
195,132,216945,1,0,0:0:0:0:
215,104,217036,1,0,0:0:0:0:
4,256,217309,2,0,B|-28:52|444:288|456:92,1,513.333321094513
232,152,218399,1,8,0:0:0:0:
240,184,218672,1,0,0:0:0:0:
240,184,218945,1,8,0:0:0:0:
240,184,219127,5,8,0:0:0:0:
232,184,219218,1,0,0:0:0:0:
240,184,219399,1,0,0:0:0:0:
240,184,219490,1,8,0:0:0:0:
232,184,219672,1,8,0:0:0:0:
240,184,219763,1,0,0:0:0:0:
232,184,219945,1,8,0:0:0:0:
232,184,220218,1,8,0:0:0:0:
244,200,220581,1,0,0:0:0:0:
248,196,220854,1,8,0:0:0:0:
248,196,221036,1,0,0:0:0:0:
244,200,221309,1,8,0:0:0:0:
240,180,221581,1,0,0:0:0:0:
240,180,221672,1,0,0:0:0:0:
240,180,221945,1,8,0:0:0:0:
240,180,222127,1,0,0:0:0:0:
240,180,222399,1,12,0:0:0:0:
