osu file format v14

[General]
AudioFilename: audio.mp3
AudioLeadIn: 0
PreviewTime: 115854
Countdown: 0
SampleSet: Normal
StackLeniency: 0.7
Mode: 1
LetterboxInBreaks: 0
WidescreenStoryboard: 0

[Editor]
Bookmarks: 10036,54785
DistanceSpacing: 1.5
BeatDivisor: 3
GridSize: 4
TimelineZoom: 1.9

[Metadata]
Title:Psi desu I LIKE YOU
TitleUnicode:Ψ desu I LIKE YOU
Artist:Dempagumi.inc
ArtistUnicode:Dempagumi.inc
Creator:Karee Pan
Version:Muzukashii
Source:
Tags:Denpa, Dempagumi, Dear Stage, Akihabara, Akibapop, Idol, Mirin Furukawa, Risa Aizawa, Nemu Yumemi, Eimi Naruse, Ayane Fujisaki
BeatmapID:1151869
BeatmapSetID:543447

[Difficulty]
HPDrainRate:5
CircleSize:3.5
OverallDifficulty:6
ApproachRate:7
SliderMultiplier:1.4
SliderTickRate:1

[Events]
//Background and Video events
0,0,"bg.jpg",0,0
//Break Periods
//Storyboard Layer 0 (Background)
//Storyboard Layer 1 (Fail)
//Storyboard Layer 2 (Pass)
//Storyboard Layer 3 (Foreground)
//Storyboard Layer 4 (Overlay)
//Storyboard Sound Samples

[TimingPoints]
1309,272.727272727273,4,1,0,80,1,0
10309,-105.263157894737,4,1,0,80,0,0
10581,-111.111111111111,4,1,0,80,0,0
26854,-76.9230769230769,4,1,0,90,0,0
27490,-111.111111111111,4,1,0,70,0,0
36218,-100,4,1,0,80,0,0
44672,-105.263157894737,4,1,0,70,0,0
44945,-111.111111111111,4,1,0,70,0,0
52036,-117.647058823529,4,1,0,80,0,0
52581,-125,4,1,0,80,0,0
54763,-100,4,1,0,85,0,1
67854,-111.111111111111,4,1,0,80,0,0
75490,-100,4,1,0,80,0,0
85581,-105.263157894737,4,1,0,70,0,0
85854,-111.111111111111,4,1,0,70,0,0
86127,-117.647058823529,4,1,0,70,0,0
93399,-76.9230769230769,4,1,0,90,0,0
93581,-100,4,1,0,70,0,0
94036,-111.111111111111,4,1,0,70,0,0
102763,-100,4,1,0,70,0,0
111490,-100,4,1,0,80,0,0
112036,-111.111111111111,4,1,0,80,0,0
112581,-125,4,1,0,80,0,0
115854,-100,4,1,0,85,0,1
128945,-111.111111111111,4,1,0,80,0,0
136581,-100,4,1,0,80,0,0
146672,-125,4,1,0,70,0,0
164945,-100,4,1,0,85,0,0
174763,-100,4,1,0,85,0,1
187854,-111.111111111111,4,1,0,80,0,0
195490,-100,4,1,0,80,0,0
218399,-100,4,1,0,70,0,0

[HitObjects]
240,200,1309,5,0,0:0:0:0:
216,184,1581,1,8,0:0:0:0:
216,184,1854,1,0,0:0:0:0:
221,191,2127,1,8,0:0:0:0:
216,184,2399,1,0,0:0:0:0:
120,200,2581,1,0,0:0:0:0:
216,184,2672,1,0,0:0:0:0:
216,184,2854,1,8,0:0:0:0:
216,184,3127,1,8,0:0:0:0:
216,184,3490,1,0,0:0:0:0:
216,184,3763,1,8,0:0:0:0:
216,184,4036,1,0,0:0:0:0:
222,191,4309,1,8,0:0:0:0:
216,184,4581,1,0,0:0:0:0:
216,184,4763,1,0,0:0:0:0:
216,184,4854,1,0,0:0:0:0:
216,184,5036,1,8,0:0:0:0:
220,180,5309,1,8,0:0:0:0:
216,148,5672,1,0,0:0:0:0:
216,148,5945,1,8,0:0:0:0:
216,148,6218,1,0,0:0:0:0:
222,191,6490,1,8,0:0:0:0:
216,148,6763,1,0,0:0:0:0:
256,136,6945,1,0,0:0:0:0:
216,144,7036,1,0,0:0:0:0:
200,152,7218,1,8,0:0:0:0:
164,144,7490,1,8,0:0:0:0:
164,144,7854,1,0,0:0:0:0:
208,136,8127,1,8,0:0:0:0:
208,136,8309,1,0,0:0:0:0:
208,136,8581,1,8,0:0:0:0:
224,152,9218,1,8,0:0:0:0:
224,152,9399,1,0,0:0:0:0:
224,152,9672,1,8,0:0:0:0:
208,164,10036,1,0,0:0:0:0:
208,164,10309,1,0,0:0:0:0:
208,164,10581,1,0,0:0:0:0:
224,160,10763,1,8,0:0:0:0:
216,172,11036,1,8,0:0:0:0:
216,176,11127,1,0,0:0:0:0:
208,164,11399,1,0,0:0:0:0:
208,164,11672,1,8,0:0:0:0:
208,164,11945,1,8,0:0:0:0:
208,164,12218,1,0,0:0:0:0:
208,164,12490,1,0,0:0:0:0:
208,164,12763,1,0,0:0:0:0:
222,191,13218,1,8,0:0:0:0:
216,172,13309,1,8,0:0:0:0:
208,164,13581,1,8,0:0:0:0:
208,164,13854,1,0,0:0:0:0:
222,191,14127,1,8,0:0:0:0:
208,164,14399,1,0,0:0:0:0:
208,164,14672,1,8,0:0:0:0:
208,164,14945,1,0,0:0:0:0:
222,191,15127,1,8,0:0:0:0:
216,172,15218,1,8,0:0:0:0:
216,168,15490,1,0,0:0:0:0:
208,164,15763,1,8,0:0:0:0:
208,164,15945,1,0,0:0:0:0:
224,156,16218,1,0,0:0:0:0:
208,164,16309,1,8,0:0:0:0:
208,164,16581,1,0,0:0:0:0:
208,164,16854,1,8,0:0:0:0:
208,164,17127,1,0,0:0:0:0:
168,152,17581,1,8,0:0:0:0:
208,164,17672,1,0,0:0:0:0:
208,164,18218,1,8,0:0:0:0:
208,164,18490,1,8,0:0:0:0:
208,164,18763,1,0,0:0:0:0:
208,164,19036,1,0,0:0:0:0:
208,164,19309,1,0,0:0:0:0:
232,180,19854,1,0,0:0:0:0:
224,168,20036,1,0,0:0:0:0:
208,164,20127,1,0,0:0:0:0:
208,164,20309,1,8,0:0:0:0:
208,164,20581,1,8,0:0:0:0:
208,156,20672,1,0,0:0:0:0:
208,164,20945,1,0,0:0:0:0:
208,156,21218,1,0,0:0:0:0:
208,156,21490,1,0,0:0:0:0:
200,152,22036,1,0,0:0:0:0:
208,156,22218,1,0,0:0:0:0:
208,156,22309,1,0,0:0:0:0:
208,156,22490,1,8,0:0:0:0:
216,160,22763,1,8,0:0:0:0:
208,156,22854,1,0,0:0:0:0:
224,152,23127,1,0,0:0:0:0:
224,152,23399,1,0,0:0:0:0:
224,152,23581,1,8,0:0:0:0:
224,152,23672,1,0,0:0:0:0:
245,196,23945,1,8,0:0:0:0:
224,152,24218,1,0,0:0:0:0:
232,148,24399,1,0,0:0:0:0:
236,152,24490,1,0,0:0:0:0:
232,148,24672,1,8,0:0:0:0:
232,148,24945,1,8,0:0:0:0:
152,144,25036,1,0,0:0:0:0:
232,148,25309,1,0,0:0:0:0:
232,148,25581,1,8,0:0:0:0:
236,144,25854,1,0,0:0:0:0:
240,144,26309,1,0,0:0:0:0:
240,144,26399,1,8,0:0:0:0:
248,132,26945,1,12,0:0:0:0:
260,128,27490,1,0,0:0:0:0:
244,152,27945,1,0,0:0:0:0:
240,128,28036,1,8,0:0:0:0:
240,128,28309,1,0,0:0:0:0:
252,128,28854,1,8,0:0:0:0:
252,128,29127,1,8,0:0:0:0:
260,143,29399,1,0,0:0:0:0:
252,128,29672,1,0,0:0:0:0:
236,144,30127,1,8,0:0:0:0:
252,128,30218,1,0,0:0:0:0:
252,128,30490,1,0,0:0:0:0:
252,128,31036,1,8,0:0:0:0:
252,128,31309,1,8,0:0:0:0:
258,147,31581,1,0,0:0:0:0:
252,128,31854,1,0,0:0:0:0:
228,140,32309,1,0,0:0:0:0:
252,128,32399,1,8,0:0:0:0:
252,128,32672,1,0,0:0:0:0:
252,128,33218,1,8,0:0:0:0:
252,128,33490,1,8,0:0:0:0:
252,172,33763,1,0,0:0:0:0:
252,128,34036,1,0,0:0:0:0:
252,128,34490,1,8,0:0:0:0:
76,136,34581,1,0,0:0:0:0:
252,128,34854,1,0,0:0:0:0:
252,128,35127,1,12,0:0:0:0:
252,128,35672,1,12,0:0:0:0:
252,128,36218,1,4,0:0:0:0:
252,128,36490,1,8,0:0:0:0:
252,128,36945,1,0,0:0:0:0:
252,128,37036,1,8,0:0:0:0:
252,128,37309,1,0,0:0:0:0:
252,128,37581,1,8,0:0:0:0:
240,116,38036,1,0,0:0:0:0:
248,128,38127,1,8,0:0:0:0:
248,128,38399,1,0,0:0:0:0:
248,128,38672,1,8,0:0:0:0:
248,128,39127,1,0,0:0:0:0:
248,128,39218,1,8,0:0:0:0:
240,116,39490,1,0,0:0:0:0:
248,128,39763,1,8,0:0:0:0:
224,128,40218,1,0,0:0:0:0:
224,128,40309,1,8,0:0:0:0:
248,128,40581,1,4,0:0:0:0:
224,128,40854,1,8,0:0:0:0:
224,128,41127,1,8,0:0:0:0:
172,124,41399,1,8,0:0:0:0:
247,146,41672,1,8,0:0:0:0:
224,128,41945,1,8,0:0:0:0:
224,128,42218,1,8,0:0:0:0:
224,128,42490,1,8,0:0:0:0:
224,156,42763,1,0,0:0:0:0:
224,128,43218,1,8,0:0:0:0:
224,128,43309,1,0,0:0:0:0:
224,116,43581,1,0,0:0:0:0:
224,116,43854,1,8,0:0:0:0:
224,116,44309,1,8,0:0:0:0:
224,116,44399,1,0,0:0:0:0:
224,116,44672,1,8,0:0:0:0:
333,158,44945,1,4,0:0:0:0:
236,138,45218,1,0,0:0:0:0:
208,100,45490,1,8,0:0:0:0:
124,148,45763,1,0,0:0:0:0:
208,100,46036,1,0,0:0:0:0:
208,100,46218,1,0,0:0:0:0:
208,100,46309,1,0,0:0:0:0:
208,100,46581,1,8,0:0:0:0:
120,104,47127,1,0,0:0:0:0:
236,138,47399,1,0,0:0:0:0:
120,104,47672,1,8,0:0:0:0:
212,184,47945,1,0,0:0:0:0:
236,138,48127,1,0,0:0:0:0:
120,104,48218,1,0,0:0:0:0:
120,104,48490,1,0,0:0:0:0:
120,104,48763,1,8,0:0:0:0:
120,104,49309,1,0,0:0:0:0:
238,183,49581,1,0,0:0:0:0:
120,104,49854,1,8,0:0:0:0:
244,200,50127,1,0,0:0:0:0:
238,183,50309,1,0,0:0:0:0:
216,190,50399,1,0,0:0:0:0:
120,104,50672,1,8,0:0:0:0:
120,104,50763,1,8,0:0:0:0:
152,120,50854,1,8,0:0:0:0:
152,120,50945,1,8,0:0:0:0:
212,184,51218,1,8,0:0:0:0:
212,184,51490,1,4,0:0:0:0:
212,184,52036,1,12,0:0:0:0:
212,184,52581,1,4,0:0:0:0:
212,184,52854,1,12,0:0:0:0:
212,184,53127,1,4,0:0:0:0:
212,184,53672,1,0,0:0:0:0:
176,184,53854,1,8,0:0:0:0:
176,184,53945,1,0,0:0:0:0:
176,184,54218,1,12,0:0:0:0:
240,208,54763,1,4,0:0:0:0:
240,208,55036,1,8,0:0:0:0:
240,208,55309,1,0,0:0:0:0:
240,208,55490,1,0,0:0:0:0:
240,208,55581,1,8,0:0:0:0:
228,204,55854,1,12,0:0:0:0:
228,204,56127,1,12,0:0:0:0:
228,200,56399,1,4,0:0:0:0:
228,204,56945,1,0,0:0:0:0:
228,200,57218,1,8,0:0:0:0:
228,204,57399,1,8,0:0:0:0:
228,200,57490,1,0,0:0:0:0:
228,204,57763,1,8,0:0:0:0:
228,200,58036,1,4,0:0:0:0:
228,204,58309,1,12,0:0:0:0:
228,204,58581,1,4,0:0:0:0:
228,204,59127,1,8,0:0:0:0:
216,195,59309,1,8,0:0:0:0:
228,204,59399,1,0,0:0:0:0:
228,200,59672,1,8,0:0:0:0:
228,200,59945,1,0,0:0:0:0:
228,200,60218,1,12,0:0:0:0:
228,200,60490,1,4,0:0:0:0:
228,200,60763,1,12,0:0:0:0:
228,200,61309,1,8,0:0:0:0:
228,200,61854,1,0,0:0:0:0:
228,200,62399,1,0,0:0:0:0:
228,200,62672,1,0,0:0:0:0:
228,200,62854,1,0,0:0:0:0:
228,200,62945,1,8,0:0:0:0:
232,192,63218,1,8,0:0:0:0:
256,136,63490,1,4,0:0:0:0:
248,136,63763,1,8,0:0:0:0:
248,136,64036,1,0,0:0:0:0:
244,148,64218,1,0,0:0:0:0:
248,136,64309,1,8,0:0:0:0:
248,136,64581,1,12,0:0:0:0:
248,136,64854,1,12,0:0:0:0:
248,136,65127,1,4,0:0:0:0:
248,136,65672,1,0,0:0:0:0:
256,172,65945,1,8,0:0:0:0:
244,148,66218,1,0,0:0:0:0:
256,172,66399,1,0,0:0:0:0:
256,172,66490,1,8,0:0:0:0:
256,172,66763,1,4,0:0:0:0:
256,172,67036,1,4,0:0:0:0:
256,172,67309,1,12,0:0:0:0:
256,172,67854,1,4,0:0:0:0:
264,168,68309,1,0,0:0:0:0:
256,172,68399,1,8,0:0:0:0:
268,168,68672,1,8,0:0:0:0:
264,168,68945,1,0,0:0:0:0:
264,168,69218,1,0,0:0:0:0:
268,168,69490,1,8,0:0:0:0:
264,168,70036,1,0,0:0:0:0:
176,144,70490,1,0,0:0:0:0:
136,152,70581,1,8,0:0:0:0:
264,168,70854,1,0,0:0:0:0:
264,168,71127,1,8,0:0:0:0:
264,168,71399,1,8,0:0:0:0:
219,151,71581,1,8,0:0:0:0:
264,168,71672,1,0,0:0:0:0:
264,168,72218,1,4,0:0:0:0:
252,160,72672,5,0,0:0:0:0:
264,168,72763,1,8,0:0:0:0:
252,160,73036,1,8,0:0:0:0:
264,168,73309,1,0,0:0:0:0:
264,168,73581,1,0,0:0:0:0:
264,168,73763,1,8,0:0:0:0:
264,168,73854,1,0,0:0:0:0:
264,168,74127,1,8,0:0:0:0:
264,168,74399,1,0,0:0:0:0:
264,168,74945,1,8,0:0:0:0:
64,208,75490,2,0,P|152:132|456:152,1,420
264,168,76581,1,0,0:0:0:0:
264,168,76854,1,8,0:0:0:0:
264,168,77127,1,0,0:0:0:0:
268,192,77399,5,8,0:0:0:0:
264,168,77672,1,0,0:0:0:0:
264,168,77854,1,0,0:0:0:0:
264,168,77945,1,0,0:0:0:0:
264,168,78127,1,8,0:0:0:0:
264,168,78399,1,8,0:0:0:0:
264,168,78763,1,0,0:0:0:0:
264,168,79036,1,8,0:0:0:0:
264,168,79309,1,0,0:0:0:0:
268,192,79581,1,8,0:0:0:0:
264,168,79854,1,0,0:0:0:0:
264,168,80036,1,0,0:0:0:0:
264,168,80127,1,0,0:0:0:0:
264,168,80309,1,8,0:0:0:0:
264,168,80581,1,8,0:0:0:0:
268,192,80945,1,0,0:0:0:0:
268,192,81218,1,8,0:0:0:0:
268,188,81490,1,0,0:0:0:0:
268,192,81763,1,8,0:0:0:0:
268,192,82036,1,0,0:0:0:0:
236,184,82218,1,0,0:0:0:0:
236,184,82309,1,0,0:0:0:0:
236,184,82490,1,8,0:0:0:0:
236,184,82763,1,8,0:0:0:0:
212,168,83127,1,0,0:0:0:0:
212,168,83399,1,8,0:0:0:0:
212,168,83581,1,0,0:0:0:0:
212,168,83854,1,8,0:0:0:0:
160,152,84490,1,8,0:0:0:0:
172,140,84672,1,0,0:0:0:0:
172,140,84945,1,8,0:0:0:0:
248,196,85309,1,0,3:3:0:0:
248,196,85581,1,8,3:3:0:0:
248,196,85854,1,8,3:3:0:0:
240,192,86309,1,0,3:0:0:0:
248,196,86672,1,0,3:3:0:0:
248,196,86945,1,8,3:3:0:0:
248,196,87218,1,0,3:3:0:0:
248,196,87490,1,8,3:3:0:0:
248,196,87763,1,0,3:3:0:0:
248,196,88036,1,0,3:3:0:0:
224,200,88490,1,8,3:3:0:0:
248,196,88854,1,8,3:3:0:0:
248,196,89127,1,0,3:3:0:0:
248,196,89399,1,0,3:3:0:0:
248,196,89672,1,8,3:3:0:0:
248,196,89945,1,8,3:3:0:0:
248,196,90218,1,0,3:3:0:0:
248,196,90672,1,0,3:3:0:0:
240,192,91036,1,0,3:0:0:0:
248,196,91309,1,8,3:3:0:0:
248,196,91581,1,8,3:3:0:0:
248,196,91854,1,0,3:3:0:0:
248,196,92127,1,8,3:3:0:0:
248,196,92399,1,8,3:3:0:0:
248,196,92945,5,0,3:3:0:0:
248,196,93490,1,12,3:3:0:0:
148,168,94036,5,0,0:0:0:0:
184,188,94490,1,0,0:0:0:0:
136,160,94581,1,8,0:0:0:0:
144,160,94854,1,0,0:0:0:0:
144,160,95127,1,0,0:0:0:0:
144,160,95399,1,8,0:0:0:0:
144,160,95672,1,8,0:0:0:0:
196,152,96218,1,0,0:0:0:0:
192,172,96672,1,8,0:0:0:0:
203,107,96763,1,0,0:0:0:0:
196,152,97036,1,0,0:0:0:0:
196,152,97309,1,0,0:0:0:0:
196,152,97581,1,8,0:0:0:0:
196,152,97854,1,8,0:0:0:0:
204,156,98127,1,0,0:0:0:0:
196,152,98399,1,0,0:0:0:0:
197,156,98854,1,0,0:0:0:0:
160,156,98945,1,8,0:0:0:0:
196,152,99218,1,0,0:0:0:0:
196,152,99490,1,0,0:0:0:0:
196,152,99763,1,8,0:0:0:0:
196,152,100036,1,8,0:0:0:0:
160,152,100581,1,0,0:0:0:0:
160,152,101036,1,8,0:0:0:0:
212,136,101127,1,0,0:0:0:0:
168,208,101399,1,0,0:0:0:0:
168,208,101672,1,12,0:0:0:0:
192,152,101945,1,0,0:0:0:0:
168,208,102218,1,12,0:0:0:0:
168,208,102763,1,4,0:0:0:0:
168,208,103036,1,8,0:0:0:0:
168,208,103490,1,0,0:0:0:0:
168,208,103581,1,8,0:0:0:0:
168,208,103854,1,0,0:0:0:0:
168,208,104127,1,8,0:0:0:0:
128,192,104581,1,0,0:0:0:0:
128,192,104672,1,8,0:0:0:0:
128,192,104945,1,0,0:0:0:0:
128,192,105218,1,8,0:0:0:0:
128,192,105672,1,0,0:0:0:0:
128,192,105763,1,8,0:0:0:0:
142,190,106036,1,0,0:0:0:0:
142,190,106309,1,8,0:0:0:0:
142,189,106581,1,0,0:0:0:0:
142,190,106854,1,8,0:0:0:0:
248,128,107127,1,4,0:0:0:0:
224,128,107400,1,8,0:0:0:0:
224,128,107673,1,8,0:0:0:0:
172,124,107945,1,8,0:0:0:0:
224,128,108218,1,0,0:0:0:0:
224,128,108491,1,8,0:0:0:0:
224,156,108764,1,8,0:0:0:0:
224,128,109036,1,8,0:0:0:0:
224,128,109309,1,0,0:0:0:0:
224,128,109764,1,8,0:0:0:0:
224,128,109855,1,0,0:0:0:0:
224,116,110127,1,0,0:0:0:0:
224,116,110400,1,8,0:0:0:0:
224,116,110855,5,8,0:0:0:0:
224,116,110945,1,0,0:0:0:0:
224,116,111218,1,8,0:0:0:0:
102,128,111490,1,4,0:0:0:0:
204,169,112036,1,12,0:0:0:0:
198,167,112581,1,4,0:0:0:0:
198,166,112854,1,12,0:0:0:0:
198,167,113127,1,4,0:0:0:0:
181,182,114763,1,0,0:0:0:0:
181,182,114945,1,8,0:0:0:0:
181,182,115036,1,0,0:0:0:0:
181,182,115309,1,12,0:0:0:0:
257,238,115854,1,4,0:0:0:0:
226,220,116127,1,8,0:0:0:0:
226,220,116399,1,0,0:0:0:0:
248,237,116581,1,0,0:0:0:0:
248,237,116672,1,8,0:0:0:0:
248,237,116945,1,12,0:0:0:0:
248,237,117218,1,12,0:0:0:0:
248,237,117490,1,4,0:0:0:0:
248,237,118036,1,0,0:0:0:0:
248,237,118309,1,8,0:0:0:0:
248,237,118490,1,8,0:0:0:0:
248,237,118581,1,0,0:0:0:0:
248,237,118854,1,8,0:0:0:0:
248,237,119127,1,4,0:0:0:0:
248,237,119399,1,12,0:0:0:0:
248,237,119672,1,4,0:0:0:0:
248,237,120218,1,8,0:0:0:0:
248,237,120399,1,8,0:0:0:0:
248,237,120490,1,0,0:0:0:0:
248,237,120763,1,8,0:0:0:0:
256,217,121036,1,0,0:0:0:0:
256,217,121309,1,12,0:0:0:0:
252,198,121581,1,4,0:0:0:0:
256,217,121854,1,12,0:0:0:0:
252,198,122399,1,8,0:0:0:0:
252,198,122945,1,0,0:0:0:0:
252,198,123490,1,8,0:0:0:0:
252,198,123763,1,0,0:0:0:0:
252,198,123945,1,0,0:0:0:0:
252,198,124036,1,8,0:0:0:0:
252,198,124309,1,8,0:0:0:0:
252,198,124581,1,4,0:0:0:0:
252,198,124854,1,8,0:0:0:0:
252,198,125127,1,0,0:0:0:0:
252,198,125309,1,0,0:0:0:0:
252,198,125399,1,8,0:0:0:0:
252,198,125672,1,12,0:0:0:0:
261,196,125945,1,12,0:0:0:0:
261,196,126218,1,4,0:0:0:0:
261,196,126763,1,0,0:0:0:0:
261,196,127036,1,0,0:0:0:0:
261,196,127218,1,8,0:0:0:0:
261,196,127309,1,0,0:0:0:0:
246,191,127581,1,8,0:0:0:0:
246,191,127854,1,4,0:0:0:0:
246,191,128127,1,4,0:0:0:0:
246,191,128399,1,12,0:0:0:0:
256,172,128945,1,4,0:0:0:0:
264,168,129400,1,0,0:0:0:0:
256,172,129490,1,8,0:0:0:0:
268,168,129763,1,8,0:0:0:0:
264,168,130036,1,0,0:0:0:0:
264,168,130309,1,0,0:0:0:0:
268,168,130581,1,8,0:0:0:0:
264,168,131127,1,0,0:0:0:0:
176,144,131581,1,0,0:0:0:0:
136,152,131672,1,8,0:0:0:0:
264,168,131945,1,0,0:0:0:0:
264,168,132218,1,8,0:0:0:0:
264,168,132490,1,8,0:0:0:0:
219,151,132672,1,8,0:0:0:0:
264,168,132763,1,0,0:0:0:0:
264,168,133309,1,4,0:0:0:0:
252,160,133763,5,0,0:0:0:0:
264,168,133854,1,8,0:0:0:0:
252,160,134127,1,8,0:0:0:0:
264,168,134400,1,0,0:0:0:0:
264,168,134672,1,0,0:0:0:0:
276,188,134854,1,8,0:0:0:0:
264,168,134945,1,0,0:0:0:0:
264,168,135218,1,8,0:0:0:0:
264,168,135490,1,0,0:0:0:0:
264,168,136036,1,8,0:0:0:0:
68,220,136581,2,0,P|144:156|460:160,1,420
255,195,137672,5,12,0:0:0:0:
244,192,137945,1,8,0:0:0:0:
244,192,138127,1,0,0:0:0:0:
244,192,138218,1,0,0:0:0:0:
211,162,138490,1,8,0:0:0:0:
244,192,138763,1,0,0:0:0:0:
244,192,139036,1,8,0:0:0:0:
244,192,139218,1,0,0:0:0:0:
244,192,139309,1,0,0:0:0:0:
224,176,139581,1,8,0:0:0:0:
244,192,139854,1,8,0:0:0:0:
244,192,140127,1,8,0:0:0:0:
194,177,140309,1,0,0:0:0:0:
244,192,140399,1,8,0:0:0:0:
244,192,140672,1,8,0:0:0:0:
244,192,140854,1,8,0:0:0:0:
244,192,140945,1,0,0:0:0:0:
244,192,141218,1,0,0:0:0:0:
244,192,141490,1,12,0:0:0:0:
244,192,142036,1,12,0:0:0:0:
244,192,142581,1,8,0:0:0:0:
260,204,142763,1,0,0:0:0:0:
260,204,142854,1,8,0:0:0:0:
260,200,143127,1,8,0:0:0:0:
260,200,143399,1,8,0:0:0:0:
256,192,143581,1,0,0:0:0:0:
256,192,143672,1,8,0:0:0:0:
256,192,143945,1,0,0:0:0:0:
256,192,144218,1,12,0:0:0:0:
256,192,144763,1,8,0:0:0:0:
256,192,144854,1,8,0:0:0:0:
256,192,144945,1,8,0:0:0:0:
256,192,145036,1,8,0:0:0:0:
256,192,145309,1,8,0:0:0:0:
256,192,145854,1,0,0:0:0:0:
240,156,146672,1,0,0:0:0:0:
240,156,146945,1,0,0:0:0:0:
240,156,147218,1,8,0:0:0:0:
240,156,147763,1,0,0:0:0:0:
240,156,148036,1,0,0:0:0:0:
240,156,148309,1,0,0:0:0:0:
232,152,148581,1,8,0:0:0:0:
232,152,149127,1,0,0:0:0:0:
232,152,149672,1,0,0:0:0:0:
232,152,149945,1,8,0:0:0:0:
232,152,150218,1,8,0:0:0:0:
232,152,150763,1,0,0:0:0:0:
232,152,151036,1,8,0:0:0:0:
232,152,151309,1,0,0:0:0:0:
232,152,151581,1,0,0:0:0:0:
232,152,152127,1,0,0:0:0:0:
232,152,152399,1,0,0:0:0:0:
232,152,152672,1,8,0:0:0:0:
232,152,152945,1,8,0:0:0:0:
232,152,153490,1,8,0:0:0:0:
248,160,154036,1,0,0:0:0:0:
284,192,154309,1,8,0:0:0:0:
284,192,154581,1,8,0:0:0:0:
284,192,155399,1,0,0:0:0:0:
284,192,155672,1,0,0:0:0:0:
284,192,155945,1,8,0:0:0:0:
284,192,156490,1,0,0:0:0:0:
284,192,156763,1,0,0:0:0:0:
284,192,157036,1,0,0:0:0:0:
284,192,157309,1,8,0:0:0:0:
284,192,157854,1,0,0:0:0:0:
284,192,158399,1,0,0:0:0:0:
284,192,158672,1,8,0:0:0:0:
284,192,158945,1,8,0:0:0:0:
292,184,159490,1,0,0:0:0:0:
284,192,159763,1,8,0:0:0:0:
284,192,160036,1,8,0:0:0:0:
284,192,160309,1,0,0:0:0:0:
284,192,160854,1,8,0:0:0:0:
284,192,161127,1,0,0:0:0:0:
284,192,161399,1,8,0:0:0:0:
284,192,161672,1,8,0:0:0:0:
284,192,162127,1,0,0:0:0:0:
284,192,162218,1,8,0:0:0:0:
284,192,162672,1,0,0:0:0:0:
284,192,162763,1,8,0:0:0:0:
264,164,163309,1,8,0:0:0:0:
264,164,163854,5,4,0:0:0:0:
236,176,164945,1,4,0:0:0:0:
236,176,165218,1,4,0:0:0:0:
236,176,165490,1,12,0:0:0:0:
236,176,165763,1,12,0:0:0:0:
236,176,166581,1,12,0:0:0:0:
92,232,167127,2,0,P|148:152|272:112,1,210
236,172,167672,1,4,0:0:0:0:
236,172,168218,1,4,0:0:0:0:
232,168,168763,1,12,0:0:0:0:
232,168,169309,1,4,0:0:0:0:
232,168,169763,1,4,0:0:0:0:
232,168,170127,1,4,0:0:0:0:
232,168,170399,1,12,0:0:0:0:
232,168,170854,1,12,0:0:0:0:
232,168,171218,1,12,0:0:0:0:
232,168,171490,1,4,0:0:0:0:
232,168,171945,1,12,0:0:0:0:
232,168,172309,1,12,0:0:0:0:
232,168,172581,1,4,0:0:0:0:
104,192,173672,2,0,P|176:124|488:272,1,490
257,238,174763,1,12,0:0:0:0:
226,220,175036,1,8,0:0:0:0:
238,177,175218,1,0,0:0:0:0:
226,220,175308,1,8,0:0:0:0:
248,237,175581,1,0,0:0:0:0:
248,237,175854,1,12,0:0:0:0:
248,237,176127,1,12,0:0:0:0:
248,237,176399,1,4,0:0:0:0:
248,237,176945,1,0,0:0:0:0:
248,237,177218,1,8,0:0:0:0:
248,237,177399,1,8,0:0:0:0:
248,237,177490,1,0,0:0:0:0:
248,237,177763,1,8,0:0:0:0:
248,237,178036,1,4,0:0:0:0:
248,237,178308,1,12,0:0:0:0:
248,237,178581,1,4,0:0:0:0:
248,237,179127,1,8,0:0:0:0:
248,237,179308,1,8,0:0:0:0:
248,237,179399,1,0,0:0:0:0:
248,237,179672,1,8,0:0:0:0:
256,217,179945,1,0,0:0:0:0:
256,217,180218,1,12,0:0:0:0:
252,198,180490,1,4,0:0:0:0:
256,217,180763,1,12,0:0:0:0:
252,198,181308,1,8,0:0:0:0:
252,198,181854,1,0,0:0:0:0:
252,198,182399,1,8,0:0:0:0:
252,198,182672,1,0,0:0:0:0:
252,198,182854,1,0,0:0:0:0:
252,198,182945,1,8,0:0:0:0:
252,198,183218,1,8,0:0:0:0:
252,198,183490,1,4,0:0:0:0:
252,198,183763,1,8,0:0:0:0:
252,198,184036,1,0,0:0:0:0:
252,198,184218,1,0,0:0:0:0:
252,198,184308,1,8,0:0:0:0:
252,198,184581,1,12,0:0:0:0:
261,196,184854,1,12,0:0:0:0:
261,196,185127,1,4,0:0:0:0:
261,196,185672,1,0,0:0:0:0:
261,196,185945,1,0,0:0:0:0:
261,196,186127,1,8,0:0:0:0:
261,196,186218,1,0,0:0:0:0:
246,191,186490,1,8,0:0:0:0:
246,191,186763,1,4,0:0:0:0:
246,191,187036,1,4,0:0:0:0:
246,191,187308,1,12,0:0:0:0:
256,172,187854,1,4,0:0:0:0:
264,168,188309,1,0,0:0:0:0:
256,172,188399,1,8,0:0:0:0:
268,168,188672,1,8,0:0:0:0:
264,168,188945,1,0,0:0:0:0:
264,168,189218,1,0,0:0:0:0:
268,168,189490,1,8,0:0:0:0:
264,168,190036,1,0,0:0:0:0:
176,144,190490,1,0,0:0:0:0:
136,152,190581,1,8,0:0:0:0:
264,168,190854,1,0,0:0:0:0:
264,168,191127,1,8,0:0:0:0:
264,168,191399,1,8,0:0:0:0:
219,151,191581,1,8,0:0:0:0:
264,168,191672,1,0,0:0:0:0:
264,168,192218,1,4,0:0:0:0:
252,160,192672,5,0,0:0:0:0:
264,168,192763,1,8,0:0:0:0:
252,160,193036,1,8,0:0:0:0:
264,168,193309,1,0,0:0:0:0:
264,168,193581,1,0,0:0:0:0:
264,168,193763,1,8,0:0:0:0:
256,172,193854,1,0,0:0:0:0:
264,168,194127,1,8,0:0:0:0:
264,168,194399,1,0,0:0:0:0:
264,168,194945,1,8,0:0:0:0:
184,200,195490,2,0,P|236:128|468:264,1,420
228,187,196581,1,0,0:0:0:0:
228,187,196854,1,8,0:0:0:0:
235,177,197127,1,0,0:0:0:0:
228,187,197672,1,0,0:0:0:0:
228,187,197945,1,8,0:0:0:0:
216,172,198127,1,0,0:0:0:0:
228,187,198218,1,8,0:0:0:0:
228,187,198763,1,0,0:0:0:0:
228,187,198945,1,8,0:0:0:0:
228,187,199036,1,0,0:0:0:0:
228,187,199309,1,8,0:0:0:0:
231,181,199581,1,0,0:0:0:0:
231,181,199854,1,0,0:0:0:0:
231,181,200127,1,8,0:0:0:0:
231,181,200309,1,0,0:0:0:0:
220,168,200400,1,8,0:0:0:0:
236,182,200945,1,0,0:0:0:0:
236,182,201218,1,8,0:0:0:0:
230,209,201399,1,0,0:0:0:0:
236,182,201490,1,8,0:0:0:0:
193,162,201763,1,8,0:0:0:0:
243,199,202036,1,0,0:0:0:0:
243,199,202309,1,8,0:0:0:0:
243,199,202490,1,0,0:0:0:0:
243,199,202581,1,8,0:0:0:0:
243,199,203127,1,8,0:0:0:0:
235,177,203309,1,0,0:0:0:0:
243,199,203399,1,0,0:0:0:0:
243,199,203581,1,8,0:0:0:0:
243,199,204218,1,8,0:0:0:0:
235,177,204399,1,0,0:0:0:0:
243,199,204490,1,0,0:0:0:0:
243,199,204672,1,8,0:0:0:0:
235,177,205309,1,8,0:0:0:0:
235,177,205490,1,0,0:0:0:0:
235,177,205581,1,0,0:0:0:0:
235,177,205854,1,8,0:0:0:0:
235,177,206127,1,0,0:0:0:0:
235,177,206399,1,8,0:0:0:0:
235,177,206581,1,8,0:0:0:0:
235,177,206672,1,8,0:0:0:0:
235,177,206945,1,8,0:0:0:0:
235,177,207218,1,0,0:0:0:0:
235,177,207490,1,8,0:0:0:0:
235,177,207672,1,0,0:0:0:0:
235,177,207763,1,0,0:0:0:0:
208,167,208036,1,0,0:0:0:0:
208,167,208309,1,8,0:0:0:0:
208,167,208581,1,8,0:0:0:0:
208,167,208763,1,0,0:0:0:0:
208,167,208854,1,0,0:0:0:0:
208,167,209127,1,8,0:0:0:0:
208,167,209399,1,0,0:0:0:0:
248,176,209672,1,4,0:0:0:0:
140,168,209945,1,8,0:0:0:0:
208,167,210127,1,0,0:0:0:0:
244,168,210218,1,8,0:0:0:0:
178,159,210490,1,0,0:0:0:0:
178,159,210763,1,8,0:0:0:0:
178,159,211036,1,8,0:0:0:0:
248,192,211218,1,8,0:0:0:0:
208,105,211309,1,0,0:0:0:0:
178,159,212127,1,8,0:0:0:0:
200,160,212309,1,8,0:0:0:0:
204,152,212399,1,0,0:0:0:0:
178,159,212672,1,0,0:0:0:0:
178,159,212945,1,8,0:0:0:0:
178,159,213218,1,0,0:0:0:0:
220,176,213399,1,0,0:0:0:0:
191,213,213490,1,8,0:0:0:0:
236,192,214036,1,4,0:0:0:0:
178,159,214309,1,8,0:0:0:0:
178,159,214490,1,8,0:0:0:0:
212,182,214581,1,0,0:0:0:0:
178,159,214854,1,0,0:0:0:0:
178,159,215127,1,8,0:0:0:0:
178,159,215399,1,8,0:0:0:0:
205,169,215581,1,0,0:0:0:0:
212,168,215672,1,8,0:0:0:0:
178,159,215945,1,0,0:0:0:0:
178,159,216218,1,4,0:0:0:0:
178,159,216763,1,4,0:0:0:0:
146,166,217309,1,12,0:0:0:0:
159,166,217854,1,12,0:0:0:0:
164,188,218399,1,12,0:0:0:0:
192,204,218672,1,0,0:0:0:0:
192,204,218945,1,8,0:0:0:0:
192,204,219218,1,0,0:0:0:0:
192,204,219490,1,8,0:0:0:0:
232,208,219672,1,0,0:0:0:0:
232,208,219763,1,0,0:0:0:0:
232,208,219945,1,8,0:0:0:0:
232,208,220218,1,8,0:0:0:0:
232,208,220581,1,0,0:0:0:0:
232,208,220854,1,8,0:0:0:0:
232,208,221036,1,0,0:0:0:0:
232,208,221309,1,8,0:0:0:0:
240,204,221672,1,0,0:0:0:0:
232,208,221945,1,8,0:0:0:0:
232,208,222127,1,0,0:0:0:0:
232,208,222399,1,12,0:0:0:0:
