osu file format v14

[General]
AudioFilename: audio.mp3
AudioLeadIn: 0
PreviewTime: 115854
Countdown: 0
SampleSet: Normal
StackLeniency: 0.7
Mode: 1
LetterboxInBreaks: 0
WidescreenStoryboard: 0

[Editor]
Bookmarks: 10036,54785
DistanceSpacing: 1.5
BeatDivisor: 1
GridSize: 4
TimelineZoom: 2.5

[Metadata]
Title:Psi desu I LIKE YOU
TitleUnicode:Ψ desu I LIKE YOU
Artist:Dempagumi.inc
ArtistUnicode:Dempagumi.inc
Creator:Karee Pan
Version:Kantan
Source:
Tags:Denpa, Dempagumi, Dear Stage, Akihabara, Akibapop, Idol, Mirin Furukawa, Risa Aizawa, Nemu Yumemi, Eimi Naruse, Ayane Fujisaki
BeatmapID:1151868
BeatmapSetID:543447

[Difficulty]
HPDrainRate:6
CircleSize:5
OverallDifficulty:3
ApproachRate:5
SliderMultiplier:1.4
SliderTickRate:1

[Events]
//Background and Video events
0,0,"bg.jpg",0,0
//Break Periods
//Storyboard Layer 0 (Background)
//Storyboard Layer 1 (Fail)
//Storyboard Layer 2 (Pass)
//Storyboard Layer 3 (Foreground)
//Storyboard Layer 4 (Overlay)
//Storyboard Sound Samples

[TimingPoints]
1309,272.727272727273,4,1,0,80,1,0
26854,-100,4,1,0,90,0,0
27036,-100,4,1,0,70,0,0
36218,-100,4,1,0,80,0,0
44672,-100,4,1,0,70,0,0
51218,-100,4,1,0,80,0,0
54763,-100,4,1,0,85,0,1
67854,-100,4,1,0,80,0,0
85036,-100,4,1,0,70,0,0
93399,-100,4,1,0,90,0,0
93581,-100,4,1,0,70,0,0
111490,-100,4,1,0,80,0,0
115854,-100,4,1,0,85,0,1
128945,-100,4,1,0,80,0,0
146672,-100,4,1,0,70,0,0
164945,-100,4,1,0,85,0,0
174763,-100,4,1,0,85,0,1
187854,-100,4,1,0,80,0,0
218399,-100,4,1,0,70,0,0

[HitObjects]
248,192,1309,5,0,0:0:0:0:
248,192,1854,1,8,0:0:0:0:
248,192,2399,1,0,0:0:0:0:
252,200,3218,1,8,0:0:0:0:
248,192,3490,1,0,0:0:0:0:
248,192,4036,1,8,0:0:0:0:
248,192,4581,1,0,0:0:0:0:
240,196,5399,1,8,0:0:0:0:
248,192,5672,1,0,0:0:0:0:
248,192,6218,1,8,0:0:0:0:
248,192,6763,1,0,0:0:0:0:
240,196,7581,1,8,0:0:0:0:
248,192,7854,1,0,0:0:0:0:
240,196,8399,1,0,0:0:0:0:
248,192,8945,1,8,0:0:0:0:
248,192,10036,1,0,0:0:0:0:
248,192,10581,1,0,0:0:0:0:
240,176,11127,1,8,0:0:0:0:
252,188,11945,1,8,0:0:0:0:
248,192,12218,1,0,0:0:0:0:
248,192,12763,1,0,0:0:0:0:
264,192,13309,1,8,0:0:0:0:
248,192,14127,1,8,0:0:0:0:
248,192,14399,1,0,0:0:0:0:
248,192,14945,1,0,0:0:0:0:
240,184,15490,1,8,0:0:0:0:
248,192,16309,1,8,0:0:0:0:
248,192,16581,1,0,0:0:0:0:
248,192,17127,1,8,0:0:0:0:
248,192,17672,1,0,0:0:0:0:
248,192,18763,1,0,0:0:0:0:
248,180,19309,1,8,0:0:0:0:
240,188,19854,1,0,0:0:0:0:
248,192,20672,1,8,0:0:0:0:
248,192,20945,1,0,0:0:0:0:
240,188,21490,1,8,0:0:0:0:
240,188,22036,1,0,0:0:0:0:
240,188,22854,1,8,0:0:0:0:
240,188,23127,1,0,0:0:0:0:
240,188,23672,1,8,0:0:0:0:
240,188,24218,1,0,0:0:0:0:
240,188,24763,1,0,0:0:0:0:
240,188,25309,1,8,0:0:0:0:
252,180,25854,1,8,0:0:0:0:
240,184,26399,1,0,0:0:0:0:
240,184,26945,1,12,0:0:0:0:
240,184,27490,1,0,0:0:0:0:
240,184,28036,1,0,0:0:0:0:
240,184,28854,1,8,0:0:0:0:
240,184,29127,1,8,0:0:0:0:
240,184,29672,1,0,0:0:0:0:
240,184,30218,1,0,0:0:0:0:
240,184,31036,1,8,0:0:0:0:
240,184,31309,1,8,0:0:0:0:
240,184,31854,1,0,0:0:0:0:
240,184,32399,1,0,0:0:0:0:
240,184,33218,1,8,0:0:0:0:
240,184,33490,1,8,0:0:0:0:
240,184,34036,1,0,0:0:0:0:
240,184,34581,1,0,0:0:0:0:
240,184,35127,1,12,0:0:0:0:
240,184,35672,1,12,0:0:0:0:
240,184,36218,1,4,0:0:0:0:
240,184,36763,1,8,0:0:0:0:
240,184,37309,1,0,0:0:0:0:
240,184,38399,1,0,0:0:0:0:
240,184,38945,1,8,0:0:0:0:
240,184,39490,1,0,0:0:0:0:
240,184,40036,1,8,0:0:0:0:
240,184,40581,1,4,0:0:0:0:
240,184,41399,1,8,0:0:0:0:
240,184,41672,1,0,0:0:0:0:
228,176,42490,1,8,0:0:0:0:
240,184,42763,1,0,0:0:0:0:
240,184,43854,1,8,0:0:0:0:
252,180,44399,1,0,0:0:0:0:
240,184,44945,1,0,0:0:0:0:
240,184,45490,1,8,0:0:0:0:
240,184,46036,1,8,0:0:0:0:
240,184,46854,1,0,0:0:0:0:
240,184,47127,1,0,0:0:0:0:
240,184,47672,1,8,0:0:0:0:
240,184,48218,1,8,0:0:0:0:
240,184,49036,1,0,0:0:0:0:
240,184,49309,1,0,0:0:0:0:
240,184,49854,1,8,0:0:0:0:
240,184,50399,1,8,0:0:0:0:
240,184,51218,1,8,0:0:0:0:
240,184,51490,1,4,0:0:0:0:
240,184,52036,1,12,0:0:0:0:
240,184,52581,1,4,0:0:0:0:
248,184,53672,1,0,0:0:0:0:
240,184,54218,1,12,0:0:0:0:
240,184,54763,1,4,0:0:0:0:
104,156,55309,1,0,0:0:0:0:
240,184,55854,1,12,0:0:0:0:
240,184,56127,1,12,0:0:0:0:
240,184,56399,1,4,0:0:0:0:
240,184,56945,1,0,0:0:0:0:
240,184,57490,1,8,0:0:0:0:
240,184,58036,1,4,0:0:0:0:
240,184,58309,1,12,0:0:0:0:
248,188,58581,1,4,0:0:0:0:
240,184,59127,1,0,0:0:0:0:
244,184,59672,1,8,0:0:0:0:
224,212,60218,1,12,0:0:0:0:
165,193,60490,1,4,0:0:0:0:
204,176,60763,1,12,0:0:0:0:
240,184,61309,1,8,0:0:0:0:
240,184,62399,1,0,0:0:0:0:
228,176,62945,1,8,0:0:0:0:
240,184,63490,1,4,0:0:0:0:
240,184,64036,1,0,0:0:0:0:
240,184,64581,1,12,0:0:0:0:
240,184,64854,1,12,0:0:0:0:
240,184,65127,1,4,0:0:0:0:
240,184,65672,1,0,0:0:0:0:
240,184,66218,1,8,0:0:0:0:
240,184,66763,1,4,0:0:0:0:
240,184,67036,1,4,0:0:0:0:
240,184,67309,1,12,0:0:0:0:
240,184,67854,1,4,0:0:0:0:
240,184,68399,1,8,0:0:0:0:
240,184,68945,1,0,0:0:0:0:
240,184,70036,1,0,0:0:0:0:
240,184,70581,1,0,0:0:0:0:
240,184,71127,1,8,0:0:0:0:
240,184,72218,1,4,0:0:0:0:
240,184,72763,1,8,0:0:0:0:
240,184,73309,1,0,0:0:0:0:
240,184,74399,1,0,0:0:0:0:
248,192,74945,1,0,0:0:0:0:
240,184,75490,1,8,0:0:0:0:
232,192,76036,1,8,0:0:0:0:
256,192,76581,12,0,78490,0:0:0:0:
260,200,78763,5,0,0:0:0:0:
244,196,79309,1,8,0:0:0:0:
252,212,79854,1,0,0:0:0:0:
84,176,80672,1,8,0:0:0:0:
252,212,80945,1,0,0:0:0:0:
252,208,81490,1,8,0:0:0:0:
252,212,82036,1,0,0:0:0:0:
248,188,82854,1,8,0:0:0:0:
252,212,83127,1,0,0:0:0:0:
252,212,83672,1,0,0:0:0:0:
252,212,84218,5,8,0:0:0:0:
248,184,85309,5,0,0:0:0:0:
248,184,86399,1,0,0:0:0:0:
248,184,86945,1,0,0:0:0:0:
248,184,87490,1,8,0:0:0:0:
248,184,88581,1,8,0:0:0:0:
248,184,89127,1,0,0:0:0:0:
248,184,89672,1,0,0:0:0:0:
248,184,90763,1,0,0:0:0:0:
248,184,91309,1,8,0:0:0:0:
248,184,91854,1,0,0:0:0:0:
248,184,92399,1,8,0:0:0:0:
248,184,92945,1,0,0:0:0:0:
248,184,93490,1,12,0:0:0:0:
240,184,94036,1,0,0:0:0:0:
224,192,94581,1,0,0:0:0:0:
240,184,95400,1,8,0:0:0:0:
240,184,95673,1,8,0:0:0:0:
240,184,96218,1,0,0:0:0:0:
224,192,96763,1,0,0:0:0:0:
240,184,97582,1,8,0:0:0:0:
240,184,97855,1,8,0:0:0:0:
240,184,98400,1,0,0:0:0:0:
224,192,98945,1,0,0:0:0:0:
240,184,99764,1,8,0:0:0:0:
240,184,100036,1,8,0:0:0:0:
240,184,100582,1,0,0:0:0:0:
224,192,101127,1,0,0:0:0:0:
240,184,101673,1,12,0:0:0:0:
240,184,102218,1,12,0:0:0:0:
240,184,102764,1,4,0:0:0:0:
240,184,103581,1,8,0:0:0:0:
240,184,103855,1,0,0:0:0:0:
240,184,104672,1,8,0:0:0:0:
240,184,104945,1,0,0:0:0:0:
240,184,105491,1,8,0:0:0:0:
240,184,106036,1,0,0:0:0:0:
240,184,106582,1,8,0:0:0:0:
240,184,107127,1,0,0:0:0:0:
240,184,107945,1,8,0:0:0:0:
240,184,108218,1,0,0:0:0:0:
228,176,109036,1,8,0:0:0:0:
240,184,109309,1,0,0:0:0:0:
252,180,110400,1,0,0:0:0:0:
240,184,110945,1,8,0:0:0:0:
244,180,111490,1,4,0:0:0:0:
244,180,112036,1,12,0:0:0:0:
244,180,112581,1,4,0:0:0:0:
232,192,114763,1,0,0:0:0:0:
252,192,115309,1,12,0:0:0:0:
240,184,115854,1,4,0:0:0:0:
244,192,116399,1,0,0:0:0:0:
240,184,116945,1,12,0:0:0:0:
252,180,117218,1,12,0:0:0:0:
240,184,117490,1,4,0:0:0:0:
240,184,118036,1,0,0:0:0:0:
244,192,118581,1,8,0:0:0:0:
248,180,119127,1,4,0:0:0:0:
240,184,119399,1,12,0:0:0:0:
240,184,119672,1,4,0:0:0:0:
240,184,120218,1,0,0:0:0:0:
240,184,120763,1,8,0:0:0:0:
240,184,121309,1,12,0:0:0:0:
240,134,121581,1,4,0:0:0:0:
240,184,121854,1,12,0:0:0:0:
240,184,122400,1,8,0:0:0:0:
240,184,123490,1,0,0:0:0:0:
228,176,124036,1,8,0:0:0:0:
240,184,124581,1,4,0:0:0:0:
216,176,125127,1,0,0:0:0:0:
240,184,125672,1,12,0:0:0:0:
248,188,125945,1,12,0:0:0:0:
240,184,126218,1,4,0:0:0:0:
240,184,126763,1,0,0:0:0:0:
268,188,127309,1,8,0:0:0:0:
268,188,127854,1,4,0:0:0:0:
240,184,128127,1,4,0:0:0:0:
268,188,128400,1,12,0:0:0:0:
240,184,128945,1,4,0:0:0:0:
240,184,129490,1,8,0:0:0:0:
240,184,130036,1,0,0:0:0:0:
240,184,131127,1,0,0:0:0:0:
240,184,131672,1,0,0:0:0:0:
240,184,132218,1,8,0:0:0:0:
240,184,133309,1,4,0:0:0:0:
240,184,133854,1,8,0:0:0:0:
240,184,134400,1,0,0:0:0:0:
240,184,135490,1,0,0:0:0:0:
248,192,136036,1,0,0:0:0:0:
240,184,136581,1,8,0:0:0:0:
232,192,137127,1,8,0:0:0:0:
232,200,137672,1,12,0:0:0:0:
240,184,138218,1,0,0:0:0:0:
240,192,138763,1,8,0:0:0:0:
232,200,139309,1,0,0:0:0:0:
232,200,139854,1,0,0:0:0:0:
232,200,140399,1,8,0:0:0:0:
236,192,140945,1,0,0:0:0:0:
232,200,141218,1,8,0:0:0:0:
232,200,141490,1,0,0:0:0:0:
232,200,142036,1,0,0:0:0:0:
248,184,142581,1,8,0:0:0:0:
248,184,143127,1,0,0:0:0:0:
248,184,143672,1,8,0:0:0:0:
248,184,144218,1,8,0:0:0:0:
240,188,145309,1,0,0:0:0:0:
264,184,146399,1,0,0:0:0:0:
236,176,147490,1,0,0:0:0:0:
256,180,148581,1,8,0:0:0:0:
260,188,149127,1,8,0:0:0:0:
240,176,149672,1,0,0:0:0:0:
280,176,150218,5,8,0:0:0:0:
280,176,150763,1,0,0:0:0:0:
280,176,151854,1,0,0:0:0:0:
268,180,152945,1,8,0:0:0:0:
280,176,153490,1,8,0:0:0:0:
280,176,154036,1,0,0:0:0:0:
280,176,154581,1,8,0:0:0:0:
280,176,155127,1,0,0:0:0:0:
280,176,156218,1,0,0:0:0:0:
280,176,157309,1,8,0:0:0:0:
280,176,157854,1,8,0:0:0:0:
280,176,158399,1,0,0:0:0:0:
280,176,158945,1,8,0:0:0:0:
280,176,159490,1,0,0:0:0:0:
280,176,160581,1,0,0:0:0:0:
280,176,161127,1,0,0:0:0:0:
280,176,161672,1,8,0:0:0:0:
284,168,162763,1,0,0:0:0:0:
208,160,163309,1,8,0:0:0:0:
284,168,163854,1,4,0:0:0:0:
284,168,164945,1,4,0:0:0:0:
284,168,165490,1,4,0:0:0:0:
280,164,166581,1,12,0:0:0:0:
284,168,167672,1,4,0:0:0:0:
284,168,168218,1,4,0:0:0:0:
268,168,168763,1,12,0:0:0:0:
284,168,169309,1,4,0:0:0:0:
268,168,170127,1,0,0:0:0:0:
284,168,170399,1,12,0:0:0:0:
268,168,171218,1,8,0:0:0:0:
284,168,171490,1,4,0:0:0:0:
268,168,172309,1,8,0:0:0:0:
284,168,172581,1,4,0:0:0:0:
244,160,173672,5,12,0:0:0:0:
240,184,174763,5,12,0:0:0:0:
240,184,175309,1,8,0:0:0:0:
240,184,175854,1,12,0:0:0:0:
248,192,176127,1,12,0:0:0:0:
240,184,176399,1,4,0:0:0:0:
240,184,176945,1,0,0:0:0:0:
248,184,177490,1,8,0:0:0:0:
236,172,178036,1,4,0:0:0:0:
240,184,178309,1,12,0:0:0:0:
240,184,178581,1,4,0:0:0:0:
240,184,179127,1,0,0:0:0:0:
248,184,179672,1,8,0:0:0:0:
276,182,180218,1,12,0:0:0:0:
212,190,180490,1,4,0:0:0:0:
240,184,180763,1,12,0:0:0:0:
240,184,181309,1,8,0:0:0:0:
240,184,182399,1,0,0:0:0:0:
228,176,182945,1,8,0:0:0:0:
240,184,183490,1,4,0:0:0:0:
228,176,184036,1,0,0:0:0:0:
240,184,184581,1,12,0:0:0:0:
232,176,184854,1,12,0:0:0:0:
240,184,185127,1,4,0:0:0:0:
240,184,185672,1,0,0:0:0:0:
240,184,186218,1,8,0:0:0:0:
240,184,186763,1,4,0:0:0:0:
240,184,187036,1,4,0:0:0:0:
236,180,187309,1,12,0:0:0:0:
240,184,187854,1,4,0:0:0:0:
240,184,188399,1,8,0:0:0:0:
240,184,188945,1,0,0:0:0:0:
240,184,190036,1,0,0:0:0:0:
240,184,190581,1,0,0:0:0:0:
240,184,191127,1,8,0:0:0:0:
240,184,192218,1,4,0:0:0:0:
240,184,192763,1,8,0:0:0:0:
240,184,193309,1,0,0:0:0:0:
240,184,194399,1,0,0:0:0:0:
248,192,194945,1,0,0:0:0:0:
240,184,195490,1,8,0:0:0:0:
264,192,196036,1,8,0:0:0:0:
256,192,196581,12,0,198218,0:0:0:0:
264,192,198763,5,0,0:0:0:0:
264,192,199309,1,8,0:0:0:0:
264,192,199854,1,0,0:0:0:0:
264,192,200127,1,0,0:0:0:0:
264,192,200399,1,8,0:0:0:0:
264,192,200945,1,0,0:0:0:0:
264,192,201490,1,8,0:0:0:0:
264,192,202036,1,0,0:0:0:0:
268,196,202309,1,0,0:0:0:0:
260,200,202581,1,8,0:0:0:0:
264,192,203127,1,0,0:0:0:0:
264,192,204218,1,0,0:0:0:0:
264,192,205309,1,8,0:0:0:0:
264,192,205854,1,8,0:0:0:0:
264,192,206399,1,0,0:0:0:0:
264,192,206945,1,0,0:0:0:0:
264,192,207490,1,8,0:0:0:0:
264,192,207763,1,0,0:0:0:0:
264,192,208036,1,8,0:0:0:0:
264,192,208581,1,0,0:0:0:0:
264,192,209127,1,8,0:0:0:0:
264,192,209672,1,4,0:0:0:0:
260,192,210218,1,8,0:0:0:0:
264,192,210763,1,0,0:0:0:0:
256,216,211854,1,0,0:0:0:0:
260,188,212399,1,8,0:0:0:0:
260,188,212945,1,8,0:0:0:0:
260,188,214036,1,4,0:0:0:0:
260,188,214581,1,8,0:0:0:0:
260,188,215127,1,8,0:0:0:0:
252,188,215672,1,0,0:0:0:0:
260,188,216218,1,0,0:0:0:0:
260,188,216763,1,0,0:0:0:0:
232,180,217309,1,8,0:0:0:0:
256,184,217854,1,8,0:0:0:0:
260,188,218399,1,12,0:0:0:0:
260,188,218945,1,0,0:0:0:0:
260,188,219490,1,0,0:0:0:0:
260,188,220309,1,0,0:0:0:0:
260,188,220581,1,8,0:0:0:0:
260,188,221127,1,8,0:0:0:0:
260,188,221672,1,0,0:0:0:0:
260,188,222399,1,12,0:0:0:0:
