osu file format v14

[General]
AudioFilename: audio.mp3
AudioLeadIn: 0
PreviewTime: 115854
Countdown: 0
SampleSet: Normal
StackLeniency: 0.7
Mode: 1
LetterboxInBreaks: 0
WidescreenStoryboard: 0

[Editor]
DistanceSpacing: 1.5
BeatDivisor: 3
GridSize: 4
TimelineZoom: 1.5

[Metadata]
Title:Psi desu I LIKE YOU
TitleUnicode:Ψ desu I LIKE YOU
Artist:Dempagumi.inc
ArtistUnicode:Dempagumi.inc
Creator:Karee Pan
Version:Futsuu
Source:
Tags:Denpa, Dempagumi, Dear Stage, Akihabara, Akibapop, Idol, Mirin Furukawa, Risa Aizawa, Nemu Yumemi, Eimi Naruse, Ayane Fujisaki
BeatmapID:1151867
BeatmapSetID:543447

[Difficulty]
HPDrainRate:6
CircleSize:3.5
OverallDifficulty:4
ApproachRate:7
SliderMultiplier:1.4
SliderTickRate:1

[Events]
//Background and Video events
0,0,"bg.jpg",0,0
//Break Periods
//Storyboard Layer 0 (Background)
//Storyboard Layer 1 (Fail)
//Storyboard Layer 2 (Pass)
//Storyboard Layer 3 (Foreground)
//Storyboard Layer 4 (Overlay)
//Storyboard Sound Samples

[TimingPoints]
1309,272.727272727273,4,1,0,80,1,0
26854,-100,4,1,0,90,0,0
27036,-100,4,1,0,70,0,0
36218,-100,4,1,0,80,0,0
44672,-100,4,1,0,70,0,0
51218,-100,4,1,0,80,0,0
54763,-100,4,1,0,85,0,1
67854,-100,4,1,0,80,0,0
85036,-100,4,1,0,70,0,0
93399,-100,4,1,0,90,0,0
93581,-100,4,1,0,70,0,0
111490,-100,4,1,0,80,0,0
115854,-100,4,1,0,85,0,1
128945,-100,4,1,0,80,0,0
146672,-100,4,1,0,70,0,0
164945,-100,4,1,0,85,0,0
174763,-100,4,1,0,85,0,1
187854,-100,4,1,0,80,0,0
218399,-100,4,1,0,70,0,0

[HitObjects]
252,196,1309,5,0,0:0:0:0:
252,196,1581,1,8,0:0:0:0:
252,196,1854,1,0,0:0:0:0:
248,168,2399,1,0,0:0:0:0:
212,196,2854,1,8,0:0:0:0:
252,196,3218,1,8,0:0:0:0:
252,196,3490,1,0,0:0:0:0:
252,196,3763,1,8,0:0:0:0:
252,196,4036,1,0,0:0:0:0:
208,176,4581,1,0,0:0:0:0:
228,188,5036,1,8,0:0:0:0:
248,180,5399,1,8,0:0:0:0:
244,200,5672,1,0,0:0:0:0:
244,200,5945,1,8,0:0:0:0:
244,200,6218,1,0,0:0:0:0:
244,200,6763,1,0,0:0:0:0:
220,204,7218,1,8,0:0:0:0:
244,200,7581,1,8,0:0:0:0:
244,200,7854,1,0,0:0:0:0:
244,200,8399,1,8,0:0:0:0:
244,200,8945,1,8,0:0:0:0:
240,200,10036,1,0,0:0:0:0:
240,200,10309,1,0,0:0:0:0:
240,200,10581,1,0,0:0:0:0:
240,200,11127,1,0,0:0:0:0:
248,204,11399,1,8,0:0:0:0:
240,204,11945,1,8,0:0:0:0:
248,200,12218,1,0,0:0:0:0:
248,200,12490,1,0,0:0:0:0:
248,200,12763,1,0,0:0:0:0:
248,200,13309,1,8,0:0:0:0:
248,200,13581,1,8,0:0:0:0:
264,212,14127,1,8,0:0:0:0:
248,200,14399,1,0,0:0:0:0:
248,200,14672,1,8,0:0:0:0:
248,200,14945,1,0,0:0:0:0:
248,200,15490,1,0,0:0:0:0:
248,200,15763,1,8,0:0:0:0:
248,200,16309,1,8,0:0:0:0:
248,200,16581,1,0,0:0:0:0:
248,200,16854,1,8,0:0:0:0:
248,200,17127,1,8,0:0:0:0:
248,200,17672,1,0,0:0:0:0:
260,200,18763,1,0,0:0:0:0:
260,200,19036,1,8,0:0:0:0:
260,200,19309,1,0,0:0:0:0:
260,200,19854,1,0,0:0:0:0:
251,192,20127,1,0,0:0:0:0:
260,200,20399,1,8,0:0:0:0:
260,200,20945,1,0,0:0:0:0:
240,198,21218,1,0,0:0:0:0:
260,200,21490,1,0,0:0:0:0:
240,198,22036,1,8,0:0:0:0:
244,196,22309,1,8,0:0:0:0:
260,200,22581,1,0,0:0:0:0:
260,200,23127,1,8,0:0:0:0:
260,200,23399,1,0,0:0:0:0:
260,200,23672,1,8,0:0:0:0:
260,200,24218,1,0,0:0:0:0:
253,196,24490,1,0,0:0:0:0:
260,200,24763,1,8,0:0:0:0:
260,200,25309,1,0,0:0:0:0:
260,200,25581,1,8,0:0:0:0:
260,200,25854,1,8,0:0:0:0:
260,200,26399,1,0,0:0:0:0:
260,200,26945,1,12,0:0:0:0:
260,200,27490,1,0,0:0:0:0:
256,204,28036,1,8,0:0:0:0:
244,200,28309,1,0,0:0:0:0:
260,200,28854,1,8,0:0:0:0:
260,200,29127,1,8,0:0:0:0:
260,200,29672,1,0,0:0:0:0:
264,200,30218,1,8,0:0:0:0:
244,164,30490,1,0,0:0:0:0:
260,200,31036,1,8,0:0:0:0:
260,200,31309,1,8,0:0:0:0:
264,208,31854,1,0,0:0:0:0:
152,168,32399,1,8,0:0:0:0:
268,200,32672,1,0,0:0:0:0:
268,200,33218,1,8,0:0:0:0:
268,200,33490,1,8,0:0:0:0:
268,200,34036,1,0,0:0:0:0:
184,184,34581,1,8,0:0:0:0:
232,184,34854,1,0,0:0:0:0:
268,200,35127,1,12,0:0:0:0:
256,188,35672,1,12,0:0:0:0:
256,188,36218,1,4,0:0:0:0:
256,188,36490,1,8,0:0:0:0:
256,188,37036,1,8,0:0:0:0:
256,188,37309,1,0,0:0:0:0:
256,188,37581,1,8,0:0:0:0:
256,188,37854,1,8,0:0:0:0:
256,188,38399,1,0,0:0:0:0:
256,188,38672,1,8,0:0:0:0:
256,188,39218,1,8,0:0:0:0:
256,188,39490,1,0,0:0:0:0:
256,188,39763,1,8,0:0:0:0:
256,188,40036,1,8,0:0:0:0:
256,188,40581,1,4,0:0:0:0:
236,196,41127,1,0,0:0:0:0:
256,188,41399,1,8,0:0:0:0:
256,188,41672,1,0,0:0:0:0:
232,196,42218,1,0,0:0:0:0:
256,188,42490,1,8,0:0:0:0:
256,188,42763,1,0,0:0:0:0:
240,192,43309,1,8,0:0:0:0:
240,192,43581,1,0,0:0:0:0:
240,192,43854,1,8,0:0:0:0:
240,192,44399,1,8,0:0:0:0:
240,192,44945,1,0,0:0:0:0:
240,192,45490,1,8,0:0:0:0:
240,192,45763,1,0,0:0:0:0:
240,192,46309,1,0,0:0:0:0:
240,192,46581,1,8,0:0:0:0:
232,180,46854,1,8,0:0:0:0:
240,192,47127,1,0,0:0:0:0:
240,192,47672,1,8,0:0:0:0:
216,200,47945,1,0,0:0:0:0:
232,196,48490,1,0,0:0:0:0:
232,196,48763,1,8,0:0:0:0:
232,196,49036,1,8,0:0:0:0:
240,192,49309,1,0,0:0:0:0:
240,192,49854,1,0,0:0:0:0:
232,196,50127,1,8,0:0:0:0:
240,192,50672,1,0,0:0:0:0:
240,192,50945,1,8,0:0:0:0:
240,160,51218,1,8,0:0:0:0:
240,192,51490,1,4,0:0:0:0:
240,192,52036,1,12,0:0:0:0:
240,192,52581,1,4,0:0:0:0:
236,180,52854,1,12,0:0:0:0:
236,180,53127,1,4,0:0:0:0:
240,192,53672,1,8,0:0:0:0:
248,188,53945,1,0,0:0:0:0:
248,184,54218,1,12,0:0:0:0:
248,188,54763,1,4,0:0:0:0:
184,156,55036,1,8,0:0:0:0:
248,188,55309,1,0,0:0:0:0:
210,179,55581,1,0,0:0:0:0:
248,184,55854,1,12,0:0:0:0:
248,184,56127,1,12,0:0:0:0:
248,184,56399,1,4,0:0:0:0:
248,184,56945,1,0,0:0:0:0:
249,199,57218,1,0,0:0:0:0:
248,184,57490,1,8,0:0:0:0:
260,183,57763,1,8,0:0:0:0:
248,184,58036,1,4,0:0:0:0:
248,184,58309,1,12,0:0:0:0:
248,184,58581,1,4,0:0:0:0:
248,184,59127,1,0,0:0:0:0:
244,206,59399,1,0,0:0:0:0:
248,184,59672,1,8,0:0:0:0:
210,179,59945,1,0,0:0:0:0:
248,184,60218,1,12,0:0:0:0:
244,172,60490,1,4,0:0:0:0:
232,169,60763,1,12,0:0:0:0:
248,184,61309,1,8,0:0:0:0:
248,184,61854,1,0,0:0:0:0:
216,180,62399,1,0,0:0:0:0:
248,180,63490,1,4,0:0:0:0:
188,156,63763,1,8,0:0:0:0:
248,180,64036,1,0,0:0:0:0:
210,179,64309,1,0,0:0:0:0:
248,180,64581,1,12,0:0:0:0:
248,180,64854,1,12,0:0:0:0:
248,180,65127,1,4,0:0:0:0:
248,180,65672,1,0,0:0:0:0:
275,192,65945,1,0,0:0:0:0:
232,164,66218,1,0,0:0:0:0:
248,180,66490,1,8,0:0:0:0:
256,156,66763,1,4,0:0:0:0:
248,180,67036,1,4,0:0:0:0:
248,180,67309,1,12,0:0:0:0:
212,184,67854,1,4,0:0:0:0:
212,184,68399,1,0,0:0:0:0:
212,184,68672,1,8,0:0:0:0:
216,176,69218,1,8,0:0:0:0:
212,184,69490,1,0,0:0:0:0:
212,184,70036,1,0,0:0:0:0:
212,184,70581,1,0,0:0:0:0:
216,176,70854,1,8,0:0:0:0:
212,184,71399,1,8,0:0:0:0:
200,164,71672,1,8,0:0:0:0:
212,184,72218,1,4,0:0:0:0:
212,184,72763,1,0,0:0:0:0:
204,176,73036,1,8,0:0:0:0:
212,184,73581,1,8,0:0:0:0:
212,184,73854,1,0,0:0:0:0:
224,160,74127,1,8,0:0:0:0:
212,184,74399,1,0,0:0:0:0:
212,184,74945,1,0,0:0:0:0:
176,144,75490,2,0,L|232:144,9,46.6666666666667
252,196,76581,5,0,0:0:0:0:
252,196,76853,1,8,0:0:0:0:
252,196,77126,1,0,0:0:0:0:
248,168,77672,1,0,0:0:0:0:
264,184,78127,1,8,0:0:0:0:
252,196,78490,1,8,0:0:0:0:
252,196,78762,1,0,0:0:0:0:
252,196,79035,1,8,0:0:0:0:
252,196,79308,1,0,0:0:0:0:
208,176,79853,1,0,0:0:0:0:
232,176,80309,1,8,0:0:0:0:
248,180,80671,1,8,0:0:0:0:
244,200,80944,1,0,0:0:0:0:
244,200,81217,1,8,0:0:0:0:
244,200,81490,1,0,0:0:0:0:
244,200,82035,1,0,0:0:0:0:
264,200,82490,1,8,0:0:0:0:
244,200,82853,1,8,0:0:0:0:
244,200,83126,1,0,0:0:0:0:
244,200,83671,1,8,0:0:0:0:
244,200,84217,5,8,0:0:0:0:
244,184,85309,5,0,0:0:0:0:
244,184,86399,1,0,0:0:0:0:
244,184,86945,1,8,0:0:0:0:
244,184,87490,1,0,0:0:0:0:
244,184,88581,1,8,0:0:0:0:
244,184,89127,1,8,0:0:0:0:
244,184,89672,1,0,0:0:0:0:
244,184,90763,1,0,0:0:0:0:
244,184,91309,1,8,0:0:0:0:
244,184,91854,1,8,0:0:0:0:
244,184,92399,1,0,0:0:0:0:
244,184,92945,1,8,0:0:0:0:
244,184,93490,1,12,0:0:0:0:
260,200,94036,1,0,0:0:0:0:
232,184,94581,1,8,0:0:0:0:
244,200,94855,1,0,0:0:0:0:
260,200,95400,1,8,0:0:0:0:
260,200,95673,1,8,0:0:0:0:
260,200,96218,1,0,0:0:0:0:
232,184,96763,1,8,0:0:0:0:
244,164,97036,1,0,0:0:0:0:
260,200,97582,1,8,0:0:0:0:
260,200,97855,1,8,0:0:0:0:
264,208,98400,1,0,0:0:0:0:
232,184,98945,1,8,0:0:0:0:
268,200,99218,1,0,0:0:0:0:
268,200,99764,1,8,0:0:0:0:
268,200,100036,1,8,0:0:0:0:
268,200,100582,1,0,0:0:0:0:
232,184,101127,1,8,0:0:0:0:
268,200,101399,1,0,0:0:0:0:
232,184,101672,1,12,0:0:0:0:
256,188,102218,1,12,0:0:0:0:
256,188,102764,1,4,0:0:0:0:
256,188,103036,1,8,0:0:0:0:
256,188,103582,1,8,0:0:0:0:
256,188,103855,1,0,0:0:0:0:
256,188,104127,1,8,0:0:0:0:
256,188,104399,1,8,0:0:0:0:
256,188,104945,1,0,0:0:0:0:
256,188,105218,1,8,0:0:0:0:
256,188,105764,1,8,0:0:0:0:
256,188,106036,1,0,0:0:0:0:
256,188,106309,1,8,0:0:0:0:
256,188,106581,1,8,0:0:0:0:
256,188,107127,1,0,0:0:0:0:
256,188,107945,1,8,0:0:0:0:
256,188,108218,1,0,0:0:0:0:
256,188,109036,1,8,0:0:0:0:
256,188,109309,1,0,0:0:0:0:
240,192,109855,1,8,0:0:0:0:
240,192,110127,1,0,0:0:0:0:
240,192,110400,1,8,0:0:0:0:
240,192,110945,1,0,0:0:0:0:
232,188,111218,1,8,0:0:0:0:
240,192,111491,1,4,0:0:0:0:
240,192,112036,1,12,0:0:0:0:
232,180,112581,1,4,0:0:0:0:
240,192,112854,1,12,0:0:0:0:
232,180,113127,1,4,0:0:0:0:
216,184,114763,1,8,0:0:0:0:
232,196,115036,1,0,0:0:0:0:
232,196,115309,1,12,0:0:0:0:
224,176,115854,1,4,0:0:0:0:
224,176,116127,1,8,0:0:0:0:
224,176,116399,1,0,0:0:0:0:
227,210,116672,1,0,0:0:0:0:
224,176,116945,1,12,0:0:0:0:
224,176,117218,1,12,0:0:0:0:
224,176,117490,1,4,0:0:0:0:
224,176,118036,1,0,0:0:0:0:
240,172,118309,1,0,0:0:0:0:
298,183,118581,1,8,0:0:0:0:
224,176,118854,1,8,0:0:0:0:
224,176,119127,1,4,0:0:0:0:
224,176,119399,1,12,0:0:0:0:
224,176,119672,1,4,0:0:0:0:
224,188,120218,1,0,0:0:0:0:
219,166,120490,1,0,0:0:0:0:
224,188,120763,1,8,0:0:0:0:
240,180,121036,1,0,0:0:0:0:
228,180,121309,1,12,0:0:0:0:
224,188,121581,1,4,0:0:0:0:
224,188,121854,1,12,0:0:0:0:
224,188,122399,1,8,0:0:0:0:
232,184,122945,1,0,0:0:0:0:
224,184,123490,1,0,0:0:0:0:
224,184,124581,1,4,0:0:0:0:
236,176,124854,1,8,0:0:0:0:
224,184,125127,1,0,0:0:0:0:
222,174,125399,1,0,0:0:0:0:
224,184,125672,1,12,0:0:0:0:
240,176,125945,1,12,0:0:0:0:
240,176,126218,1,4,0:0:0:0:
240,176,126763,1,0,0:0:0:0:
220,175,127036,1,0,0:0:0:0:
240,176,127309,1,0,0:0:0:0:
232,188,127581,1,8,0:0:0:0:
240,176,127854,1,4,0:0:0:0:
240,176,128127,1,4,0:0:0:0:
240,176,128399,1,12,0:0:0:0:
212,184,128945,1,4,0:0:0:0:
212,184,129490,1,0,0:0:0:0:
212,184,129763,1,8,0:0:0:0:
216,176,130309,1,8,0:0:0:0:
212,184,130581,1,0,0:0:0:0:
212,184,131127,1,0,0:0:0:0:
212,184,131672,1,0,0:0:0:0:
216,176,131945,1,8,0:0:0:0:
212,184,132490,1,8,0:0:0:0:
200,164,132763,1,8,0:0:0:0:
212,184,133309,1,4,0:0:0:0:
212,184,133854,1,0,0:0:0:0:
204,176,134127,1,8,0:0:0:0:
212,184,134672,1,8,0:0:0:0:
212,184,134945,1,0,0:0:0:0:
224,160,135218,1,8,0:0:0:0:
212,184,135490,1,0,0:0:0:0:
212,184,136036,1,0,0:0:0:0:
204,136,136581,2,0,B|264:140|232:136,9,46.6666666666667
244,188,137672,5,12,0:0:0:0:
244,188,138218,1,8,0:0:0:0:
244,188,138490,1,0,0:0:0:0:
244,188,138763,1,8,0:0:0:0:
244,188,139309,1,8,0:0:0:0:
224,184,139581,1,0,0:0:0:0:
244,188,139854,1,8,0:0:0:0:
244,188,140399,1,8,0:0:0:0:
244,188,140945,1,0,0:0:0:0:
244,188,141218,1,0,0:0:0:0:
244,188,141490,1,12,0:0:0:0:
228,192,142036,1,12,0:0:0:0:
228,192,142581,1,8,0:0:0:0:
228,192,142854,1,8,0:0:0:0:
228,192,143127,1,0,0:0:0:0:
240,192,143399,1,0,0:0:0:0:
228,192,143672,1,8,0:0:0:0:
228,192,144218,1,0,0:0:0:0:
228,192,145309,1,8,0:0:0:0:
244,224,146672,1,0,0:0:0:0:
244,224,146945,1,0,0:0:0:0:
244,224,147218,1,8,0:0:0:0:
244,224,147763,1,0,0:0:0:0:
244,224,148036,1,0,0:0:0:0:
252,142,148309,1,0,0:0:0:0:
244,224,148581,1,8,0:0:0:0:
224,232,149127,1,0,0:0:0:0:
244,224,149672,1,0,0:0:0:0:
224,204,150763,1,0,0:0:0:0:
224,240,151036,1,8,0:0:0:0:
224,240,151309,1,0,0:0:0:0:
224,240,151581,1,0,0:0:0:0:
224,240,152127,1,0,0:0:0:0:
224,240,152399,1,0,0:0:0:0:
224,240,152672,1,8,0:0:0:0:
256,328,152945,1,8,0:0:0:0:
224,240,153490,1,8,0:0:0:0:
224,240,154036,1,0,0:0:0:0:
224,240,154309,1,8,0:0:0:0:
224,240,154581,1,8,0:0:0:0:
240,216,155399,1,0,0:0:0:0:
240,216,155672,1,0,0:0:0:0:
240,216,155945,1,8,0:0:0:0:
240,216,156490,1,0,0:0:0:0:
240,216,156763,1,0,0:0:0:0:
240,216,157036,1,0,0:0:0:0:
240,216,157309,1,8,0:0:0:0:
208,220,157854,1,0,0:0:0:0:
240,216,158399,1,0,0:0:0:0:
224,204,159490,1,0,0:0:0:0:
292,224,159763,1,8,0:0:0:0:
284,220,160036,1,8,0:0:0:0:
280,220,160309,1,0,0:0:0:0:
284,220,160854,1,0,0:0:0:0:
280,220,161127,1,0,0:0:0:0:
284,220,161399,1,8,0:0:0:0:
284,220,161672,1,0,0:0:0:0:
284,220,162218,1,0,0:0:0:0:
284,220,162763,1,0,0:0:0:0:
260,216,163309,1,8,0:0:0:0:
280,216,163854,1,4,0:0:0:0:
280,216,164945,1,4,0:0:0:0:
260,180,165218,1,4,0:0:0:0:
264,208,165490,1,12,0:0:0:0:
260,180,165763,1,12,0:0:0:0:
264,208,166581,1,12,0:0:0:0:
264,208,167672,1,4,0:0:0:0:
264,208,168218,1,4,0:0:0:0:
256,176,168763,1,12,0:0:0:0:
264,208,169309,1,4,0:0:0:0:
240,208,169763,1,4,0:0:0:0:
248,192,170127,1,4,0:0:0:0:
256,176,170399,1,12,0:0:0:0:
240,208,170854,1,12,0:0:0:0:
248,192,171218,1,12,0:0:0:0:
256,176,171490,1,4,0:0:0:0:
240,208,171945,1,12,0:0:0:0:
248,192,172309,1,12,0:0:0:0:
252,176,172581,1,4,0:0:0:0:
164,120,173672,2,0,L|220:112,9,46.6666666666667
224,176,174763,1,12,0:0:0:0:
224,176,175036,1,0,0:0:0:0:
224,176,175308,1,8,0:0:0:0:
278,185,175581,1,8,0:0:0:0:
224,176,175854,1,12,0:0:0:0:
224,176,176127,1,12,0:0:0:0:
224,176,176399,1,4,0:0:0:0:
224,176,176945,1,0,0:0:0:0:
288,186,177218,1,0,0:0:0:0:
224,176,177490,1,8,0:0:0:0:
244,176,177763,1,8,0:0:0:0:
224,176,178036,1,4,0:0:0:0:
224,176,178308,1,12,0:0:0:0:
224,176,178581,1,4,0:0:0:0:
224,188,179127,1,0,0:0:0:0:
259,172,179399,1,0,0:0:0:0:
224,188,179672,1,8,0:0:0:0:
184,180,179945,1,0,0:0:0:0:
228,180,180218,1,12,0:0:0:0:
224,188,180490,1,4,0:0:0:0:
224,188,180763,1,12,0:0:0:0:
224,188,181308,1,8,0:0:0:0:
232,184,181854,1,0,0:0:0:0:
224,184,182399,1,0,0:0:0:0:
224,184,183490,1,4,0:0:0:0:
236,176,183763,1,8,0:0:0:0:
224,184,184036,1,0,0:0:0:0:
190,165,184309,1,0,0:0:0:0:
224,184,184581,1,12,0:0:0:0:
240,176,184854,1,12,0:0:0:0:
240,176,185127,1,4,0:0:0:0:
240,176,185672,1,0,0:0:0:0:
212,184,185945,1,0,0:0:0:0:
240,176,186218,1,0,0:0:0:0:
240,176,186490,1,8,0:0:0:0:
240,176,186763,1,4,0:0:0:0:
240,176,187036,1,4,0:0:0:0:
240,176,187308,1,12,0:0:0:0:
212,184,187854,1,4,0:0:0:0:
212,184,188399,1,0,0:0:0:0:
212,184,188672,1,8,0:0:0:0:
216,176,189218,1,8,0:0:0:0:
212,184,189490,1,0,0:0:0:0:
212,184,190036,1,0,0:0:0:0:
212,184,190581,1,0,0:0:0:0:
216,176,190854,1,8,0:0:0:0:
212,184,191399,1,8,0:0:0:0:
200,164,191672,1,8,0:0:0:0:
212,184,192218,1,4,0:0:0:0:
212,184,192763,1,0,0:0:0:0:
204,176,193036,1,8,0:0:0:0:
212,184,193581,1,8,0:0:0:0:
212,184,193854,1,0,0:0:0:0:
224,160,194127,1,8,0:0:0:0:
212,184,194399,1,0,0:0:0:0:
212,184,194945,1,0,0:0:0:0:
168,168,195490,2,0,L|216:140,9,46.6666666666667
280,240,196581,5,0,0:0:0:0:
272,220,197127,1,8,0:0:0:0:
272,220,197672,1,0,0:0:0:0:
272,220,197945,1,0,0:0:0:0:
272,220,198218,1,8,0:0:0:0:
272,220,198763,1,0,0:0:0:0:
272,220,199036,1,8,0:0:0:0:
272,220,199309,1,8,0:0:0:0:
272,220,199581,1,0,0:0:0:0:
256,220,199854,1,8,0:0:0:0:
272,208,200399,1,8,0:0:0:0:
272,220,200945,1,0,0:0:0:0:
272,220,201490,1,0,0:0:0:0:
252,220,201763,1,0,0:0:0:0:
272,208,202036,1,8,0:0:0:0:
272,200,202309,1,0,0:0:0:0:
272,208,202581,1,8,0:0:0:0:
272,208,203127,1,0,0:0:0:0:
272,208,203581,1,8,0:0:0:0:
260,200,204218,1,0,0:0:0:0:
260,200,204672,1,8,0:0:0:0:
260,208,205309,1,0,0:0:0:0:
264,216,205581,1,8,0:0:0:0:
260,208,205854,1,0,0:0:0:0:
260,208,206399,1,8,0:0:0:0:
264,216,206672,1,0,0:0:0:0:
264,216,206945,1,8,0:0:0:0:
264,216,207490,1,0,0:0:0:0:
264,216,207763,1,0,0:0:0:0:
264,216,208036,1,8,0:0:0:0:
264,216,208581,1,8,0:0:0:0:
264,216,208854,1,0,0:0:0:0:
264,216,209127,1,0,0:0:0:0:
264,216,209672,1,4,0:0:0:0:
264,216,210218,1,8,0:0:0:0:
264,216,210763,1,8,0:0:0:0:
260,196,211581,1,8,0:0:0:0:
264,216,211854,1,0,0:0:0:0:
264,216,212399,1,8,0:0:0:0:
264,216,212945,1,8,0:0:0:0:
248,176,213763,1,8,0:0:0:0:
264,216,214036,1,4,0:0:0:0:
264,216,214581,1,8,0:0:0:0:
264,216,215127,1,8,0:0:0:0:
264,216,216218,1,4,0:0:0:0:
264,216,216763,1,4,0:0:0:0:
264,216,217309,1,12,0:0:0:0:
264,216,217854,1,12,0:0:0:0:
264,216,218399,1,12,0:0:0:0:
264,216,218945,1,0,0:0:0:0:
264,216,219490,1,0,0:0:0:0:
264,216,219945,1,8,0:0:0:0:
248,212,220218,1,8,0:0:0:0:
264,216,220581,1,0,0:0:0:0:
264,216,221036,1,8,0:0:0:0:
220,208,221672,1,0,0:0:0:0:
220,208,222127,1,0,0:0:0:0:
220,208,222399,1,12,0:0:0:0:
