osu file format v14

[General]
AudioFilename: audio.mp3
AudioLeadIn: 0
PreviewTime: 61445
Countdown: 0
SampleSet: None
StackLeniency: 0.3
Mode: 0
LetterboxInBreaks: 0
WidescreenStoryboard: 1

[Editor]
Bookmarks: 46745,60920
DistanceSpacing: 0.1
BeatDivisor: 4
GridSize: 32
TimelineZoom: 1.8

[Metadata]
Title:Girametasu Dempa Stars
TitleUnicode:ギラメタスでんぱスターズ
Artist:Dempagumi.inc
ArtistUnicode:でんぱ組.inc
Creator:Lami
Version:Universe
Source:
Tags:
BeatmapID:1968579
BeatmapSetID:940501

[Difficulty]
HPDrainRate:6
CircleSize:3.8
OverallDifficulty:9.2
ApproachRate:9.6
SliderMultiplier:1.9
SliderTickRate:1

[Events]
//Background and Video events
0,0,"Anmi.full.1809967.jpg",0,0
//Break Periods
//Storyboard Layer 0 (Background)
//Storyboard Layer 1 (Fail)
//Storyboard Layer 2 (Pass)
//Storyboard Layer 3 (Foreground)
//Storyboard Sound Samples

[TimingPoints]
3920,300,4,2,0,70,1,0
3920,-142.857142857143,4,2,0,70,0,0
4220,-131.578947368421,4,2,0,70,0,0
4520,-121.951219512195,4,2,0,70,0,0
4820,-112.359550561798,4,2,0,70,0,0
5120,-103.092783505155,4,2,0,70,0,0
5420,-95.2380952380952,4,2,0,70,0,0
5720,-87.719298245614,4,2,0,70,0,0
6020,-80.6451612903226,4,2,0,70,0,0
7520,-100,4,2,0,70,0,0
12320,-74.0740740740741,4,2,0,70,0,0
12620,-80,4,2,0,70,0,0
12920,-86.9565217391304,4,2,0,70,0,0
13520,-100,4,2,0,70,0,0
17120,-74.0740740740741,4,2,0,70,0,0
17420,-80,4,2,0,70,0,0
17720,-86.9565217391304,4,2,0,70,0,0
18020,-95.2380952380952,4,2,0,70,0,0
18320,-105.263157894737,4,2,0,70,0,0
26720,-76.9230769230769,4,2,0,70,0,0
27920,-100,4,2,0,70,0,0
36620,-111.111111111111,4,2,0,70,0,0
37520,-117.647058823529,4,2,0,70,0,0
44720,-142.857142857143,4,2,0,70,0,0
45020,-128.205128205128,4,2,0,70,0,0
45320,-113.636363636364,4,2,0,70,0,0
45620,-102.040816326531,4,2,0,70,0,0
45920,-90.9090909090909,4,2,0,70,0,0
46220,-81.3008130081301,4,2,0,70,0,0
46520,-72.463768115942,4,2,0,70,0,0
46820,-81.3008130081301,4,2,0,70,0,0
47120,-111.111111111111,4,2,0,70,0,0
51920,-100,4,2,0,70,0,0
56720,-111.111111111111,4,2,0,70,0,0
60620,-100,4,2,0,70,0,0
61520,-90.9090909090909,4,2,0,70,0,1
82070,-76.9230769230769,4,2,0,70,0,1
83270,-71.4285714285714,4,2,0,70,0,1
84170,-66.6666666666667,4,2,0,70,0,1
84620,-74.0740740740741,4,2,0,70,0,1
85220,-83.3333333333333,4,2,0,70,0,1
85520,-90.9090909090909,4,2,0,70,0,1
92720,-95.2380952380952,4,2,0,70,0,0

[HitObjects]
228,328,3920,6,0,P|270:302|318:307,1,99.7499969558717
349,384,4220,6,0,B|378:381|397:340|397:340|412:354|457:358,1,108.299998677979
512,229,4520,6,0,B|473:231|452:274|452:274|441:263|417:258,1,116.85000178299
354,199,4820,6,0,P|375:147|431:174,1,126.82500009676
304,87,5120,6,0,B|270:71|270:71|180:84,1,126.82500009676
88,202,5420,6,0,P|112:143|46:125,1,149.624995433808
40,284,5720,6,0,B|96:291|96:291|142:274|142:274|199:284,1,162.449998016968
257,212,6020,6,0,B|233:201|207:158|207:158|244:125|310:122|310:122|316:58|348:22|348:22|393:46|416:106|416:106|479:91|523:113|523:113|511:161|465:201|465:201|497:259|492:307|492:307|441:310|388:277|388:277|344:324|297:335|297:335|278:290|294:227,1,1060.19995793884
370,193,7520,5,0,0:0:0:0:
375,206,7595,1,0,0:0:0:0:
378,221,7670,1,0,0:0:0:0:
378,236,7745,1,0,0:0:0:0:
376,251,7820,1,0,0:0:0:0:
371,265,7895,1,0,0:0:0:0:
364,278,7970,2,0,L|300:286,1,47.5
197,305,8120,1,0,0:0:0:0:
233,126,8270,5,0,0:0:0:0:
236,148,8420,1,0,0:0:0:0:
239,170,8570,1,0,0:0:0:0:
242,192,8720,5,0,0:0:0:0:
141,82,8870,1,0,0:0:0:0:
167,268,9020,1,0,0:0:0:0:
333,149,9170,1,0,0:0:0:0:
207,364,9320,2,0,P|161:355|108:351,1,95
63,141,9620,5,0,0:0:0:0:
242,192,9770,1,0,0:0:0:0:
31,316,9920,1,0,0:0:0:0:
210,175,10070,1,0,0:0:0:0:
157,363,10220,1,0,0:0:0:0:
101,232,10370,1,0,0:0:0:0:
311,384,10520,2,0,P|327:342|323:291,1,95
222,83,10820,2,0,P|206:125|210:176,1,95
418,268,11120,5,0,0:0:0:0:
299,145,11270,1,0,0:0:0:0:
238,330,11420,1,0,0:0:0:0:
299,145,11570,1,0,0:0:0:0:
418,268,11720,2,0,L|547:250,1,95
317,53,12020,1,0,0:0:0:0:
317,53,12170,1,0,0:0:0:0:
190,283,12320,6,0,P|107:296|39:208,1,192.375000733852
124,31,12620,2,0,B|116:81|116:81|141:153|141:153|133:204,1,178.125
294,317,12920,2,0,L|285:262,1,54.6250010418892
299,145,13070,1,0,0:0:0:0:
330,124,13145,1,0,0:0:0:0:
366,114,13220,1,0,0:0:0:0:
403,116,13295,1,0,0:0:0:0:
438,130,13370,1,0,0:0:0:0:
466,154,13445,1,0,0:0:0:0:
486,186,13520,5,0,0:0:0:0:
384,354,13670,1,0,0:0:0:0:
318,172,13820,1,0,0:0:0:0:
477,333,13970,1,0,0:0:0:0:
299,145,14120,2,0,P|251:134|188:134,1,95
34,341,14420,5,0,0:0:0:0:
232,289,14570,1,0,0:0:0:0:
94,141,14720,1,0,0:0:0:0:
138,335,14870,1,0,0:0:0:0:
285,201,15020,1,0,0:0:0:0:
220,384,15170,1,0,0:0:0:0:
190,188,15320,2,0,P|193:143|205:94,1,95
406,18,15620,2,0,P|417:64|420:111,1,95
312,308,15920,5,0,0:0:0:0:
199,154,16070,1,0,0:0:0:0:
88,371,16220,1,0,0:0:0:0:
228,248,16370,1,0,0:0:0:0:
360,384,16520,2,0,L|462:370,1,95,0|0,0:0|0:0,0:0:0:0:
487,370,16745,1,0,0:0:0:0:
487,370,16820,1,0,0:0:0:0:
433,213,16970,1,0,0:0:0:0:
215,340,17120,6,0,P|142:283|153:192,1,192.375000733852
316,196,17420,2,0,B|354:229|354:229|227:247,1,178.125
119,108,17720,2,0,B|167:89|216:125|216:125|221:86|242:70,1,163.875003125668
470,137,18020,2,0,B|437:116|437:116|376:125,1,99.7499969558717
153,192,18320,5,0,0:0:0:0:
242,70,18470,1,0,0:0:0:0:
291,261,18620,1,0,0:0:0:0:
124,177,18770,1,0,0:0:0:0:
320,242,18920,1,0,0:0:0:0:
179,340,19070,1,0,0:0:0:0:
249,176,19220,2,0,P|263:121|261:80,1,90.2499975900651
92,209,19520,5,0,0:0:0:0:
256,273,19670,1,0,0:0:0:0:
148,334,19820,1,0,0:0:0:0:
181,203,19970,1,0,0:0:0:0:
307,357,20120,2,0,L|397:344,1,90.2499975900651
450,166,20420,2,0,P|410:144|366:139,1,90.2499975900651
186,315,20720,5,0,0:0:0:0:
383,242,20870,1,0,0:0:0:0:
253,155,21020,1,0,0:0:0:0:
299,322,21170,1,0,0:0:0:0:
193,227,21320,1,0,0:0:0:0:
118,384,21470,1,0,0:0:0:0:
108,181,21620,1,0,0:0:0:0:
201,325,21770,1,0,0:0:0:0:
253,155,21920,6,0,L|265:64,1,90.2499975900651
53,113,22220,1,0,0:0:0:0:
114,265,22370,1,0,0:0:0:0:
253,155,22520,2,0,P|337:150|401:231,1,180.49999518013
229,380,22970,1,0,0:0:0:0:
113,264,23120,6,0,P|119:222|130:175,1,90.2499975900651
302,243,23420,2,0,P|312:286|318:331,1,90.2499975900651
253,155,23720,1,0,0:0:0:0:
397,216,23870,1,0,0:0:0:0:
224,140,24020,1,0,0:0:0:0:
318,331,24170,1,0,0:0:0:0:
416,187,24320,5,0,0:0:0:0:
245,247,24470,1,0,0:0:0:0:
371,104,24620,1,0,0:0:0:0:
447,286,24770,1,0,0:0:0:0:
253,155,24920,2,0,P|202:165|166:200,1,90.2499975900651
301,384,25220,2,0,P|352:374|388:339,1,90.2499975900651
412,142,25520,5,0,0:0:0:0:
245,247,25670,1,0,0:0:0:0:
381,351,25820,1,0,0:0:0:0:
253,155,25970,1,0,0:0:0:0:
152,294,26120,1,0,0:0:0:0:
245,247,26270,1,0,0:0:0:0:
152,294,26420,1,0,0:0:0:0:
245,247,26570,1,0,0:0:0:0:
76,376,26720,6,0,B|41:333|41:333|58:202,1,185.249991519928
177,69,27020,2,0,P|255:86|217:156,1,185.249991519928
152,294,27320,1,0,0:0:0:0:
349,150,27470,1,0,0:0:0:0:
349,150,27545,1,0,0:0:0:0:
349,150,27620,1,0,0:0:0:0:
404,379,27770,1,0,0:0:0:0:
404,379,27845,1,0,0:0:0:0:
404,379,27920,6,0,L|297:367,1,95
172,197,28220,2,0,L|279:185,1,95
445,165,28520,1,0,0:0:0:0:
287,278,28670,1,0,0:0:0:0:
493,345,28820,1,0,0:0:0:0:
429,195,28970,1,0,0:0:0:0:
314,368,29120,5,0,0:0:0:0:
309,384,29270,1,0,0:0:0:0:
256,170,29420,1,0,0:0:0:0:
261,186,29570,1,0,0:0:0:0:
197,312,29720,1,0,0:0:0:0:
356,205,29870,1,0,0:0:0:0:
180,110,30020,1,0,0:0:0:0:
287,278,30170,2,0,P|329:299|379:305,1,95
422,85,30470,5,0,0:0:0:0:
261,186,30620,1,0,0:0:0:0:
471,295,30770,1,0,0:0:0:0:
360,170,30920,1,0,0:0:0:0:
287,278,31070,1,0,0:0:0:0:
457,171,31220,1,0,0:0:0:0:
292,91,31370,1,0,0:0:0:0:
376,305,31520,6,0,L|470:294,1,95
261,186,31820,2,0,L|158:174,1,95
109,351,32120,2,0,P|199:365|265:301,1,190,0|0,0:0|0:0,0:0:0:0:
204,77,32570,1,0,0:0:0:0:
168,266,32720,5,0,0:0:0:0:
260,185,32870,1,0,0:0:0:0:
372,287,33020,2,0,P|368:334|346:377,1,95
265,302,33320,1,0,0:0:0:0:
355,195,33470,2,0,L|462:183,1,95
477,341,33770,1,0,0:0:0:0:
260,185,33920,5,0,0:0:0:0:
373,288,34070,1,0,0:0:0:0:
177,239,34220,1,0,0:0:0:0:
337,109,34370,1,0,0:0:0:0:
265,302,34520,1,0,0:0:0:0:
173,148,34670,1,0,0:0:0:0:
402,268,34820,1,0,0:0:0:0:
192,384,34970,1,0,0:0:0:0:
243,68,35120,5,0,0:0:0:0:
350,373,35270,1,0,0:0:0:0:
378,363,35570,1,0,0:0:0:0:
406,353,35870,1,0,0:0:0:0:
476,114,36020,1,0,0:0:0:0:
265,302,36170,1,0,0:0:0:0:
265,302,36620,6,0,L|137:290,1,128.249996086121
106,287,36920,1,0,0:0:0:0:
196,203,37070,1,0,0:0:0:0:
343,364,37220,2,0,P|360:327|359:283,1,85.4999973907472
373,31,37520,5,0,0:0:0:0:
308,116,37670,2,0,L|296:196,1,80.750001540184
418,128,37970,1,0,0:0:0:0:
373,31,38120,2,0,P|339:13|294:9,1,80.750001540184
126,221,38420,2,0,L|211:208,1,80.750001540184
308,116,38720,2,0,L|222:103,1,80.750001540184
29,176,39020,5,0,0:0:0:0:
116,115,39170,1,0,0:0:0:0:
126,221,39320,2,0,P|120:260|101:296,1,80.750001540184
244,364,39620,2,0,P|225:328|219:288,1,80.750001540184
458,167,39920,5,0,0:0:0:0:
366,221,40070,2,0,L|282:208,1,80.750001540184
127,59,40370,1,0,0:0:0:0:
218,113,40520,2,0,L|300:100,1,80.750001540184
456,340,40820,2,0,P|475:303|480:264,1,80.750001540184
394,104,41120,2,0,P|374:140|370:180,1,80.750001540184
244,364,41420,5,0,0:0:0:0:
363,278,41570,1,0,0:0:0:0:
205,197,41720,1,0,0:0:0:0:
326,294,41870,1,0,0:0:0:0:
341,107,42020,1,0,0:0:0:0:
290,210,42170,1,0,0:0:0:0:
137,56,42320,5,0,0:0:0:0:
391,195,42470,1,0,0:0:0:0:
115,280,42620,1,0,0:0:0:0:
259,28,42770,1,0,0:0:0:0:
411,302,42920,1,0,0:0:0:0:
411,302,43370,1,0,0:0:0:0:
143,144,43520,5,0,0:0:0:0:
387,209,43670,1,0,0:0:0:0:
93,288,43820,1,0,0:0:0:0:
363,116,43970,1,0,0:0:0:0:
40,34,44120,1,0,0:0:0:0:
40,34,44720,6,0,L|55:146,1,99.7499969558717
96,216,45020,6,0,P|150:182|138:138,1,111.150003731232
151,49,45320,6,0,B|233:34|233:34|274:59,1,125.400003826904,0|0,0:0|0:0,0:0:0:0:
382,165,45620,6,0,B|291:148|291:148|248:175,1,139.649998721466,0|0,0:0|0:0,0:0:0:0:
98,301,45920,6,0,B|147:294|175:250|175:250|200:278|239:282,1,156.750004783631
399,277,46220,6,0,P|328:281|357:365,1,175.275002674484
495,313,46520,6,0,B|506:250|506:250|486:193|486:193|500:122,1,196.650000300064
366,49,46820,6,0,L|381:167,1,116.85000178299
315,331,47120,5,0,0:0:0:0:
201,205,47270,2,0,P|165:192|113:192,1,85.4999973907472
304,230,47570,1,0,0:0:0:0:
146,286,47720,2,0,P|111:302|74:339,1,85.4999973907472
304,230,48020,2,0,L|291:138,1,85.4999973907472
177,23,48320,2,0,L|164:109,1,85.4999973907472
239,311,48620,5,0,0:0:0:0:
122,190,48770,1,0,0:0:0:0:
154,324,48920,2,0,L|249:309,1,85.4999973907472
376,158,49220,2,0,L|280:143,1,85.4999973907472
125,71,49520,5,0,0:0:0:0:
33,218,49670,2,0,P|24:264|20:303,1,85.4999973907472
197,141,49970,1,0,0:0:0:0:
289,288,50120,2,0,P|297:334|301:373,1,85.4999973907472
293,183,50420,2,0,L|388:168,1,85.4999973907472
196,248,50720,2,0,L|100:233,1,85.4999973907472
221,102,51020,6,0,L|347:84,1,128.249996086121
376,80,51320,1,0,0:0:0:0:
293,183,51470,1,0,0:0:0:0:
237,10,51620,1,0,0:0:0:0:
301,212,51770,1,0,0:0:0:0:
462,70,51920,5,0,0:0:0:0:
199,192,52070,1,0,0:0:0:0:
466,292,52220,1,0,0:0:0:0:
229,101,52370,1,0,0:0:0:0:
171,378,52520,1,0,0:0:0:0:
171,378,52970,1,0,0:0:0:0:
136,117,53120,5,0,0:0:0:0:
387,328,53270,1,0,0:0:0:0:
314,83,53420,1,0,0:0:0:0:
87,297,53570,1,0,0:0:0:0:
212,16,53720,1,0,0:0:0:0:
212,16,54170,1,0,0:0:0:0:
278,318,54320,5,0,0:0:0:0:
52,159,54470,1,0,0:0:0:0:
346,234,54620,1,0,0:0:0:0:
80,384,54770,1,0,0:0:0:0:
273,104,54920,1,0,0:0:0:0:
273,104,55220,1,0,0:0:0:0:
346,234,55370,1,0,0:0:0:0:
98,274,55520,5,0,0:0:0:0:
366,132,55670,1,0,0:0:0:0:
78,57,55820,1,0,0:0:0:0:
278,318,55970,1,0,0:0:0:0:
186,17,56120,2,0,L|171:110,1,95
98,274,56420,2,0,L|82:175,1,95
273,104,56720,5,0,0:0:0:0:
346,234,56870,2,0,P|413:248|486:185,1,170.999994781494
379,47,57320,2,0,L|366:132,1,85.4999973907472
256,249,57620,1,0,0:0:0:0:
173,111,57770,2,0,P|131:101|88:97,1,85.4999973907472
171,262,58070,2,0,P|214:258|256:249,1,85.4999973907472
366,132,58370,1,0,0:0:0:0:
470,333,58520,2,0,B|430:362|430:362|310:344,1,170.999994781494
171,262,58970,1,0,0:0:0:0:
277,159,59120,5,0,0:0:0:0:
206,369,59270,1,0,0:0:0:0:
177,142,59420,5,0,0:0:0:0:
310,344,59570,1,0,0:0:0:0:
339,81,59720,5,0,0:0:0:0:
108,331,59870,1,0,0:0:0:0:
239,64,60020,5,0,0:0:0:0:
407,373,60170,1,0,0:0:0:0:
439,64,60320,5,0,0:0:0:0:
206,369,60470,1,0,0:0:0:0:
138,13,60620,6,0,L|152:106,1,95
311,351,60920,2,0,L|332:210,1,142.5
347,117,61220,1,0,0:0:0:0:
347,117,61520,6,0,P|235:111|178:36,2,209.000006378174
512,68,62270,1,0,0:0:0:0:
372,267,62420,2,0,L|268:249,1,104.500003189087
88,155,62720,6,0,B|54:205|54:205|77:351,1,209.000006378174
268,373,63170,1,0,0:0:0:0:
301,162,63320,2,0,P|245:161|195:188,1,104.500003189087
386,289,63620,2,0,P|434:310|486:308,1,104.500003189087
353,66,63920,6,0,B|286:53|286:53|226:75|226:75|151:60,1,209.000006378174
268,249,64370,1,0,0:0:0:0:
461,141,64520,2,0,P|485:96|486:42,1,104.500003189087
202,181,64820,2,0,P|178:226|177:280,1,104.500003189087
418,338,65120,5,0,0:0:0:0:
301,162,65270,1,0,0:0:0:0:
132,361,65420,2,0,L|25:343,1,104.500003189087
68,141,65720,1,0,0:0:0:0:
274,250,65870,1,0,0:0:0:0:
132,361,66020,1,0,0:0:0:0:
154,95,66170,6,0,L|180:251,1,156.750004783631
185,277,66470,1,0,0:0:0:0:
301,162,66620,1,0,0:0:0:0:
418,338,66770,1,0,0:0:0:0:
289,196,66920,1,0,0:0:0:0:
226,374,67070,1,0,0:0:0:0:
401,188,67220,2,0,P|397:133|374:89,1,104.500003189087
192,177,67520,5,0,0:0:0:0:
354,274,67670,1,0,0:0:0:0:
132,361,67820,1,0,0:0:0:0:
383,261,67970,1,0,0:0:0:0:
173,71,68120,1,0,0:0:0:0:
247,271,68270,1,0,0:0:0:0:
396,58,68420,1,0,0:0:0:0:
192,177,68570,6,0,L|85:194,1,104.500003189087
173,71,68870,1,0,0:0:0:0:
247,271,69020,1,0,0:0:0:0:
350,131,69170,1,0,0:0:0:0:
192,177,69320,1,0,0:0:0:0:
405,225,69470,1,0,0:0:0:0:
173,344,69620,1,0,0:0:0:0:
261,105,69770,1,0,0:0:0:0:
476,293,69920,6,0,P|497:249|497:191,1,104.500003189087
282,6,70220,2,0,P|261:50|261:108,1,104.500003189087
405,225,70520,1,0,0:0:0:0:
173,70,70670,1,0,0:0:0:0:
173,70,70745,1,0,0:0:0:0:
173,70,70820,1,0,0:0:0:0:
138,343,70970,1,0,0:0:0:0:
138,343,71045,1,0,0:0:0:0:
138,343,71120,6,0,B|126:266|126:266|86:217|86:217|76:149,2,209.000006378174
192,177,71870,1,0,0:0:0:0:
329,331,72020,2,0,P|382:328|431:307,1,104.500003189087
465,55,72320,6,0,P|363:47|293:120,1,209.000006378174,0|0,0:0|0:0,0:0:0:0:
329,331,72770,1,0,0:0:0:0:
192,177,72920,2,0,L|175:74,1,104.500003189087
404,152,73220,2,0,L|385:264,1,104.500003189087
120,384,73520,6,0,P|46:314|53:213,1,209.000006378174
174,73,73970,1,0,0:0:0:0:
254,290,74120,2,0,P|202:278|150:272,1,104.500003189087
398,143,74420,2,0,P|449:136|500:125,1,104.500003189087
370,273,74720,5,0,0:0:0:0:
282,89,74870,1,0,0:0:0:0:
151,272,75020,2,0,P|162:325|168:375,1,104.500003189087
53,306,75320,1,0,0:0:0:0:
244,194,75470,1,0,0:0:0:0:
21,124,75620,1,0,0:0:0:0:
267,344,75770,6,0,L|423:317,1,156.750004783631
449,313,76070,1,0,0:0:0:0:
244,194,76220,1,0,0:0:0:0:
422,101,76370,1,0,0:0:0:0:
319,251,76520,1,0,0:0:0:0:
480,308,76670,1,0,0:0:0:0:
323,130,76820,2,0,P|276:100|227:93,1,104.500003189087
53,286,77120,5,0,0:0:0:0:
131,122,77270,1,0,0:0:0:0:
241,310,77420,1,0,0:0:0:0:
115,96,77570,1,0,0:0:0:0:
141,343,77720,1,0,0:0:0:0:
261,214,77945,1,0,0:0:0:0:
41,170,78020,1,0,0:0:0:0:
309,384,78170,6,0,P|336:339|338:289,1,104.500003189087
234,93,78470,1,0,0:0:0:0:
234,93,78545,1,0,0:0:0:0:
234,93,78620,1,0,0:0:0:0:
241,310,78770,1,0,0:0:0:0:
418,228,78920,1,0,0:0:0:0:
253,181,79070,1,0,0:0:0:0:
467,316,79220,1,0,0:0:0:0:
309,384,79370,1,0,0:0:0:0:
346,153,79520,6,0,L|465:133,1,104.500003189087
241,310,79820,2,0,L|121:290,1,104.500003189087
262,38,80120,1,0,0:0:0:0:
338,291,80270,1,0,0:0:0:0:
80,230,80420,1,0,0:0:0:0:
346,153,80570,1,0,0:0:0:0:
346,153,80645,1,0,0:0:0:0:
346,153,80720,5,0,0:0:0:0:
241,310,80870,1,0,0:0:0:0:
173,89,81020,1,0,0:0:0:0:
373,171,81170,1,0,0:0:0:0:
202,219,81320,1,0,0:0:0:0:
409,88,81470,1,0,0:0:0:0:
456,324,81620,1,0,0:0:0:0:
281,165,81770,2,0,P|286:115|301:62,1,104.500003189087
338,291,82070,5,0,0:0:0:0:
440,75,82220,1,0,0:0:0:0:
281,165,82370,1,0,0:0:0:0:
497,240,82520,1,0,0:0:0:0:
243,380,82670,1,0,0:0:0:0:
373,171,82820,1,0,0:0:0:0:
500,380,82970,2,0,P|451:369|377:362,1,123.499994346619
126,130,83270,6,0,L|193:141,1,66.4999979705811
413,174,83420,1,0,0:0:0:0:
145,323,83570,1,0,0:0:0:0:
431,146,83720,1,0,0:0:0:0:
74,235,83870,1,0,0:0:0:0:
378,362,84020,1,0,0:0:0:0:
212,40,84170,6,0,P|78:12|0:121,1,285.000010871888,0|0,0:0|0:0,0:0:0:0:
270,345,84620,2,0,L|290:218,1,128.250000489235
126,130,84920,1,0,0:0:0:0:
156,300,85070,1,0,0:0:0:0:
267,119,85220,2,0,P|321:124|368:160,1,113.999996520996
472,350,85520,6,0,B|402:337|402:337|343:359|343:359|270:344,1,209.000006378174
126,130,85970,1,0,0:0:0:0:
187,235,86120,2,0,L|300:216,1,104.500003189087
440,87,86420,2,0,L|336:69,1,104.500003189087
72,264,86720,5,0,0:0:0:0:
265,120,86870,1,0,0:0:0:0:
265,120,86945,1,0,0:0:0:0:
265,120,87020,2,0,P|290:165|289:219,1,104.500003189087
275,316,87245,1,0,0:0:0:0:
275,316,87320,2,0,P|326:308|369:279,1,104.500003189087,0|0,0:0|0:0,0:0:0:0:
381,191,87545,1,0,0:0:0:0:
381,191,87620,2,0,P|425:164|476:162,1,104.500003189087,0|0,0:0|0:0,0:0:0:0:
509,341,87920,1,0,0:0:0:0:
262,121,88070,6,0,L|253:173,1,52.2500015945435
224,348,88220,1,0,0:0:0:0:
132,111,88370,1,0,0:0:0:0:
369,278,88520,1,0,0:0:0:0:
73,368,88670,1,0,0:0:0:0:
262,121,88820,1,0,0:0:0:0:
408,384,88970,1,0,0:0:0:0:
408,384,89270,5,0,0:0:0:0:
351,101,89420,1,0,0:0:0:0:
125,279,89570,1,0,0:0:0:0:
433,203,89720,1,0,0:0:0:0:
132,111,89870,1,0,0:0:0:0:
295,345,90020,1,0,0:0:0:0:
442,46,90170,1,0,0:0:0:0:
442,46,90470,5,0,0:0:0:0:
187,195,90620,1,0,0:0:0:0:
441,349,90770,1,0,0:0:0:0:
253,112,90920,1,0,0:0:0:0:
132,371,91070,1,0,0:0:0:0:
151,66,91220,1,0,0:0:0:0:
418,241,91370,1,0,0:0:0:0:
418,241,91670,6,0,L|365:232,1,52.2500015945435
97,186,91820,1,0,0:0:0:0:
343,27,91970,1,0,0:0:0:0:
292,329,92120,1,0,0:0:0:0:
151,66,92270,1,0,0:0:0:0:
151,66,92345,1,0,0:0:0:0:
151,66,92420,1,0,0:0:0:0:
369,232,92570,1,0,0:0:0:0:
369,232,92645,1,0,0:0:0:0:
369,232,92720,6,0,P|314:226|272:198,1,99.7499969558717
151,66,93020,2,0,P|206:60|248:32,1,99.7499969558717
385,133,93320,2,0,L|368:233,1,99.7499969558717
187,274,93620,2,0,L|203:374,1,99.7499969558717
268,169,93920,1,0,0:0:0:0:
141,108,94070,2,0,P|93:123|54:155,1,99.7499969558717
187,274,94370,2,0,B|248:264|248:264|317:287|317:287|382:278,1,199.499993911743
481,91,94820,1,0,0:0:0:0:
268,169,94970,6,0,P|193:106|199:9,1,199.499993911743
455,197,95420,1,0,0:0:0:0:
394,46,95570,1,0,0:0:0:0:
268,169,95720,2,0,L|251:270,1,99.7499969558717
432,384,96020,2,0,L|415:285,1,99.7499969558717
174,114,96320,5,0,0:0:0:0:
363,184,96470,1,0,0:0:0:0:
148,266,96620,1,0,0:0:0:0:
289,73,96770,1,0,0:0:0:0:
415,285,96920,1,0,0:0:0:0:
373,24,97070,1,0,0:0:0:0:
252,262,97220,1,0,0:0:0:0:
207,26,97370,6,0,B|158:-6|158:-6|16:15,1,199.499993911743
175,171,97820,2,0,L|274:155,1,99.7499969558717
253,367,98120,2,0,P|232:322|228:272,1,99.7499969558717
369,82,98420,2,0,P|389:126|393:176,1,99.7499969558717
227,272,98720,1,0,0:0:0:0:
149,147,98870,2,0,L|50:130,1,99.7499969558717
170,368,99170,2,0,P|266:378|334:308,1,199.499993911743
369,82,99620,1,0,0:0:0:0:
229,272,99770,6,0,B|219:210|219:210|242:141|242:141|233:77,1,199.499993911743
450,215,100220,2,0,P|400:211|351:193,1,99.7499969558717
136,98,100520,2,0,P|182:80|232:77,1,99.7499969558717
121,259,100820,2,0,P|71:255|22:237,1,99.7499969558717
232,77,101120,5,0,0:0:0:0:
330,336,101270,1,0,0:0:0:0:
330,336,101345,1,0,0:0:0:0:
330,336,101420,1,0,0:0:0:0:
387,45,101570,1,0,0:0:0:0:
387,45,101645,1,0,0:0:0:0:
387,45,101720,1,0,0:0:0:0:
107,141,101870,1,0,0:0:0:0:
107,141,101945,1,0,0:0:0:0:
107,141,102020,1,0,0:0:0:0:
460,179,102170,6,0,B|395:169|395:169|325:193|325:193|258:183,1,199.499993911743
133,318,102620,2,0,L|238:300,1,99.7499969558717
296,80,102920,1,0,0:0:0:0:
433,265,103070,1,0,0:0:0:0:
296,80,103220,1,0,0:0:0:0:
232,302,103370,1,0,0:0:0:0:
296,80,103520,1,0,0:0:0:0:
328,262,103670,2,0,L|344:361,1,99.7499969558717
102,245,103970,2,0,P|169:175|265:185,1,199.499993911743
433,265,104420,1,0,0:0:0:0:
394,57,104570,6,0,B|344:24|344:24|202:46,1,199.499993911743
246,274,105020,2,0,P|294:269|340:247,1,99.7499969558717
460,179,105320,1,0,0:0:0:0:
344,360,105470,1,0,0:0:0:0:
267,172,105620,2,0,L|136:149,1,99.7499969558717
49,316,105920,5,0,0:0:0:0:
246,274,106070,1,0,0:0:0:0:
101,83,106220,1,0,0:0:0:0:
141,344,106370,2,0,L|157:245,1,99.7499969558717
337,58,106670,2,0,L|353:156,1,99.7499969558717
141,344,106970,6,0,P|66:281|74:184,1,199.499993911743
337,58,107420,1,0,0:0:0:0:
337,58,107720,1,0,0:0:0:0:
156,250,107870,1,0,0:0:0:0:
421,316,108020,1,0,0:0:0:0:
244,92,108170,6,0,B|168:82|168:82|112:105|112:105|49:96,1,199.499993911743
234,356,108620,1,0,0:0:0:0:
234,356,108920,1,0,0:0:0:0:
428,83,109070,1,0,0:0:0:0:
156,250,109220,1,0,0:0:0:0:
477,384,109370,1,0,0:0:0:0:
477,384,109670,5,0,0:0:0:0:
415,188,109820,1,0,0:0:0:0:
317,370,109970,1,0,0:0:0:0:
243,123,110120,1,0,0:0:0:0:
353,273,110270,1,0,0:0:0:0:
315,53,110420,1,0,0:0:0:0:
189,206,110570,1,0,0:0:0:0:
150,39,110720,5,0,0:0:0:0:
356,164,110870,1,0,0:0:0:0:
356,164,110945,1,0,0:0:0:0:
356,164,111020,2,0,L|296:194,1,49.8749984779358,0|0,0:0|0:0,0:0:0:0:
119,286,111170,1,0,0:0:0:0:
243,123,111320,1,0,0:0:0:0:
362,358,111470,1,0,0:0:0:0:
189,207,111620,1,0,0:0:0:0:
475,81,111770,5,0,0:0:0:0:
256,192,111845,12,0,113120,0:0:0:0:
