osu file format v14

[General]
AudioFilename: audio.mp3
AudioLeadIn: 0
PreviewTime: 60352
Countdown: 0
SampleSet: Soft
StackLeniency: 0.7
Mode: 0
LetterboxInBreaks: 0
WidescreenStoryboard: 0

[Editor]
Bookmarks: 91329
DistanceSpacing: 1.1
BeatDivisor: 4
GridSize: 32
TimelineZoom: 1.4

[Metadata]
Title:Denden Passion
TitleUnicode:でんでんぱっしょん
Artist:Dempagumi.inc
ArtistUnicode:でんぱ組.inc
Creator:makisokk
Version:Normal
Source:
Tags:Asuka_- Flashtop MasterHerobrine 相沢梨紗 夢眠ねむ 成瀬瑛美 吉川末鈴 最上もが 藤咲彩音 もふくちゃん 玉屋2060% Aizawa Risa Yumemi Nemu Naruse Eimi Furukawa Mirin Mogami Moga Fujisaki Ayane Hatake Aki Mofuku Chan Tamaya Short Version
BeatmapID:1306427
BeatmapSetID:619818

[Difficulty]
HPDrainRate:3.5
CircleSize:3
OverallDifficulty:2.5
ApproachRate:5
SliderMultiplier:1
SliderTickRate:1

[Events]
//Background and Video events
0,0,"BG.jpg",0,0
//Break Periods
//Storyboard Layer 0 (Background)
//Storyboard Layer 1 (Fail)
//Storyboard Layer 2 (Pass)
//Storyboard Layer 3 (Foreground)
//Storyboard Sound Samples

[TimingPoints]
11333,322.58064516129,4,2,1,30,1,0
35849,-100,4,2,1,40,0,0
46171,-100,4,2,1,40,0,0
53752,-100,4,2,1,60,0,0
60365,-100,4,2,1,70,0,1
83591,-100,4,2,1,50,0,0

[Colours]
Combo1 : 187,207,244
Combo2 : 217,136,142
Combo3 : 200,237,220
Combo4 : 236,195,139

[HitObjects]
114,130,12623,6,0,B|165:137|165:137|220:128,1,100,6|10,1:2|0:2,0:0:0:0:
311,80,13268,2,0,P|327:128|312:182,1,100,2|10,1:2|0:2,0:0:0:0:
276,213,13752,2,0,B|273:259|273:259|297:310,1,100,2|2,0:2|0:2,0:0:0:0:
340,341,14236,1,10,0:2:0:0:
438,291,14558,2,0,P|449:225|434:183,1,100,2|8,1:2|0:2,0:0:0:0:
385,98,15203,6,0,B|333:114|333:114|279:109,1,100,2|10,1:2|0:2,0:0:0:0:
209,31,15849,2,0,P|178:77|177:120,1,100,2|10,1:2|0:2,0:0:0:0:
194,172,16333,2,0,B|142:182|142:182|92:166,1,100,2|2,0:0|0:0,0:0:0:0:
44,151,16816,1,10,0:2:0:0:
44,261,17139,1,2,1:0:0:0:
130,329,17462,1,10,0:2:0:0:
238,309,17784,6,0,B|289:304|289:304|340:310,1,100,6|10,1:2|0:2,0:0:0:0:
429,367,18429,2,0,P|445:336|433:263,1,100,2|10,1:0|0:2,0:0:0:0:
415,222,18913,2,0,B|405:170|405:170|431:113,1,100,2|2,0:0|0:0,0:0:0:0:
454,80,19397,1,10,0:2:0:0:
352,37,19720,1,2,1:2:0:0:
245,61,20042,1,10,0:2:0:0:
137,35,20365,6,0,B|128:85|128:85|134:144,1,100,2|0,1:2|0:0,0:0:0:0:
23,126,21010,2,0,B|27:174|27:174|18:224,1,100,8|8,0:2|0:2,0:0:0:0:
127,214,21655,2,0,B|118:264|118:264|124:323,1,100,10|8,0:2|0:2,0:0:0:0:
222,266,22300,6,0,P|273:257|328:264,1,100,2|8,0:2|0:3,0:0:0:0:
256,192,22945,12,0,24881,0:0:0:0:
53,283,25526,6,0,P|101:291|163:277,1,100,0|0,1:0|1:0,0:0:0:0:
255,248,26171,1,0,1:0:0:0:
360,279,26494,1,8,0:2:0:0:
457,228,26816,2,0,L|461:124,1,100,0|0,1:0|1:0,0:0:0:0:
384,48,27462,2,0,P|334:61|267:46,1,100,0|8,1:0|0:2,0:0:0:0:
178,35,28107,6,0,P|178:89|214:136,1,100,0|0,1:0|1:0,0:0:0:0:
307,158,28752,1,0,0:0:0:0:
350,258,29074,1,0,0:0:0:0:
280,343,29397,2,0,L|161:355,1,100,2|0,1:1|1:0,0:0:0:0:
99,278,30042,2,0,L|0:271,1,100,2|8,1:1|0:2,0:0:0:0:
5,161,30687,6,0,B|-6:110|-6:110|15:54,1,100,0|0,1:0|1:0,0:0:0:0:
119,41,31332,1,0,0:0:0:0:
220,60,31655,1,10,0:2:0:0:
322,20,31978,6,0,B|333:71|333:71|312:127,1,100,0|0,1:0|1:0,0:0:0:0:
280,219,32623,1,0,3:0:0:0:
303,326,32945,1,10,0:2:0:0:
412,311,33268,6,0,P|441:272|435:215,1,100,0|8,1:0|0:2,0:0:0:0:
399,119,33913,1,8,3:2:0:0:
291,144,34236,1,4,3:3:0:0:
316,250,34558,1,8,3:2:0:0:
99,286,35849,6,0,L|90:183,1,100,4|8,1:2|0:2,0:0:0:0:
158,99,36494,2,0,P|189:86|228:88,2,50,0|2|10,1:0|0:1|0:2,0:0:0:0:
213,194,37139,6,0,L|211:303,1,100,0|8,1:0|0:2,0:0:0:0:
305,351,37784,2,0,P|331:359|374:360,2,50,0|2|10,1:2|0:1|0:2,0:0:0:0:
369,261,38429,6,0,P|349:205|366:143,1,100,0|10,1:2|0:2,0:0:0:0:
460,197,39074,2,0,P|480:141|463:79,1,100,0|10,1:0|0:2,0:0:0:0:
372,62,39720,2,0,B|326:72|326:72|269:56,1,100,0|8,1:0|0:2,0:0:0:0:
171,95,40365,2,0,P|144:147|150:204,1,100,0|8,1:0|0:2,0:0:0:0:
197,204,40849,1,8,0:2:0:0:
247,181,41010,6,0,L|364:176,1,100,0|8,1:0|0:2,0:0:0:0:
449,216,41655,2,0,B|445:270|445:270|411:313,1,100,0|8,1:0|0:2,0:0:0:0:
376,342,42139,1,8,3:2:0:0:
321,333,42300,2,0,P|273:319|211:333,1,100,0|8,0:0|0:2,0:0:0:0:
117,353,42945,2,0,P|113:305|141:252,1,100,0|8,1:0|0:2,0:0:0:0:
256,192,43591,12,4,44881,1:1:0:0:
92,66,46171,6,0,L|83:189,1,100,4|8,0:2|1:2,0:0:0:0:
175,237,46816,2,0,P|194:191|192:142,1,100,0|8,1:0|1:2,0:0:0:0:
162,35,47462,1,0,1:0:0:0:
265,66,47784,2,0,P|316:84|387:72,1,100,8|0,1:2|1:0,0:0:0:0:
468,57,48429,1,8,1:2:0:0:
435,162,48752,6,0,B|425:214|425:214|437:283,1,100,0|8,1:0|1:2,0:0:0:0:
328,295,49397,2,0,B|338:243|338:243|326:174,1,100,0|8,1:0|1:2,0:0:0:0:
285,95,50042,2,0,P|240:124|221:185,1,100,0|8,1:0|1:2,0:0:0:0:
228,275,50687,2,0,B|178:275|178:275|135:244,1,100,0|8,1:0|0:2,0:0:0:0:
141,135,51332,6,0,L|156:37,1,100,0|8,1:0|1:2,0:0:0:0:
52,74,51978,2,0,L|37:172,1,100,0|8,1:0|1:2,0:0:0:0:
111,257,52623,1,0,1:0:0:0:
219,285,52945,2,0,B|266:277|266:277|336:282,1,100,8|0,1:2|1:0,0:0:0:0:
425,305,53591,5,8,1:2:0:0:
471,275,53752,2,0,P|481:220|465:174,1,100,0|0,3:0|3:0,0:0:0:0:
416,159,54236,1,8,1:2:0:0:
372,125,54397,2,0,B|319:135|319:135|266:125,1,100,0|0,3:0|0:0,0:0:0:0:
220,110,54881,1,8,1:2:0:0:
166,120,55042,2,0,P|138:176|158:221,1,100,0|0,3:0|3:0,0:0:0:0:
189,247,55526,5,8,1:2:0:0:
243,246,55687,2,0,B|292:237|292:237|363:252,1,100,0|0,3:0|3:0,0:0:0:0:
395,236,56171,1,8,1:2:0:0:
445,256,56332,2,0,L|457:146,1,100,0|8,3:0|3:3,0:0:0:0:
444,102,56816,1,8,0:2:0:0:
394,78,56978,2,0,B|335:88|296:69|296:69|246:93,1,150,0|0,1:0|1:0,0:0:0:0:
149,133,57784,5,8,1:2:0:0:
185,236,58107,1,8,1:2:0:0:
287,197,58429,1,8,1:2:0:0:
106,194,60365,5,6,1:1:0:0:
156,96,60687,1,10,3:2:0:0:
261,126,61010,1,2,1:2:0:0:
331,41,61332,2,0,P|381:41|433:78,1,100,8|0,3:2|1:2,0:0:0:0:
476,162,61978,2,0,B|476:219|476:219|500:265,2,100,10|0|10,0:2|1:0|1:2,0:0:0:0:
430,131,62784,1,2,3:3:0:0:
376,141,62945,6,0,P|377:190|362:241,1,100,2|8,1:2|0:2,0:0:0:0:
272,301,63591,1,0,1:0:0:0:
166,271,63913,1,10,1:2:0:0:
88,348,64236,2,0,P|57:264|121:169,1,200,2|2,1:2|1:2,0:0:0:0:
219,187,65203,1,8,1:2:0:0:
319,141,65526,5,2,1:2:0:0:
424,171,65849,1,10,1:2:0:0:
508,101,66171,2,0,P|536:154|526:207,1,100,2|0,1:2|0:0,0:0:0:0:
456,271,66816,1,2,1:2:0:0:
350,238,67139,1,10,1:2:0:0:
240,250,67462,2,0,P|235:197|256:148,1,100,2|12,1:2|1:2,0:0:0:0:
341,90,68107,6,0,L|403:65,2,50,2|2|10,1:2|3:0|1:2,0:0:0:0:
402,181,68752,2,0,L|467:167,2,50,2|2|10,1:2|3:0|1:2,0:0:0:0:
438,284,69397,2,0,P|361:288|290:191,1,200,2|8,1:2|0:2,0:0:0:0:
87,113,70687,6,0,B|87:168|87:168|75:223,1,100,4|8,1:1|1:2,0:0:0:0:
91,320,71332,2,0,P|140:328|190:308,1,100,0|8,0:0|1:2,0:0:0:0:
231,279,71816,2,0,B|306:271|306:271|403:298,1,150,2|8,3:0|1:2,0:0:0:0:
400,341,72462,2,0,P|453:326|456:212,1,150,2|10,1:3|1:2,0:0:0:0:
436,204,73107,5,2,3:0:0:0:
422,150,73268,2,0,B|420:101|420:101|430:44,1,100,2|8,1:0|1:2,0:0:0:0:
321,73,73913,1,0,1:0:0:0:
215,41,74236,1,10,1:2:0:0:
117,91,74558,2,0,B|52:117|52:117|16:119,2,100,2|10|2,1:0|1:2|1:2,0:0:0:0:
215,41,75526,1,8,1:2:0:0:
289,121,75849,6,0,P|289:177|234:212,1,100,2|10,1:2|1:2,0:0:0:0:
160,158,76494,2,0,B|142:208|142:208|154:280,1,100,2|10,1:2|1:2,0:0:0:0:
230,329,77139,1,2,1:2:0:0:
331,286,77462,1,10,1:2:0:0:
434,322,77784,1,2,1:2:0:0:
461,215,78107,6,0,B|491:144|491:144|495:110,2,100,10|2|10,1:2|1:0|1:2,0:0:0:0:
352,232,79074,1,2,1:2:0:0:
281,147,79397,2,0,B|283:124|283:124|313:53,2,100,10|2|10,1:2|1:0|1:2,0:0:0:0:
352,232,80365,1,2,1:2:0:0:
253,279,80687,2,0,P|163:238|82:306,1,200,10|10,1:2|1:2,0:0:0:0:
172,336,81655,6,0,L|138:127,1,200,2|0,1:2|1:0,0:0:0:0:
236,86,82623,1,10,0:2:0:0:
342,112,82945,1,10,0:2:0:0:
443,69,83268,1,10,0:2:0:0:
256,192,83591,12,2,84881,1:0:0:0:
59,207,86171,6,0,P|102:237|165:236,1,100,2|10,1:0|1:2,0:0:0:0:
246,190,86816,2,0,B|298:188|298:188|349:208,1,100,2|10,1:2|1:2,0:0:0:0:
385,240,87300,1,2,0:3:0:0:
487,198,87623,2,0,P|491:144|453:94,1,100,2|2,0:3|0:3,0:0:0:0:
417,84,88107,1,2,1:0:0:0:
308,98,88429,1,10,0:2:0:0:
200,49,88752,6,0,B|185:98|185:98|192:148,1,100,2|14,1:2|1:2,0:0:0:0:
275,218,89397,2,0,P|230:255|167:255,1,100,2|10,1:2|1:2,0:0:0:0:
135,248,89881,2,0,B|116:300|116:300|130:346,1,100,2|2,0:3|0:3,0:0:0:0:
175,372,90365,1,10,1:2:0:0:
272,320,90687,1,2,1:2:0:0:
379,344,91010,1,10,1:2:0:0:
472,286,91332,6,0,L|472:168,1,100,2|8,1:2|1:2,0:0:0:0:
370,142,91978,2,0,L|370:260,1,100,2|8,1:2|1:2,0:0:0:0:
268,199,92623,2,0,L|268:126,1,50,10|8,0:2|0:2,0:0:0:0:
199,62,93107,2,0,P|113:66|62:130,1,150,0|0,0:0|0:0,0:0:0:0:
