osu file format v14

[General]
AudioFilename: audio.mp3
AudioLeadIn: 0
PreviewTime: 59769
Countdown: 0
SampleSet: Normal
StackLeniency: 0.7
Mode: 3
LetterboxInBreaks: 0
SpecialStyle: 0
WidescreenStoryboard: 1

[Editor]
Bookmarks: 38619,151419
DistanceSpacing: 0.8
BeatDivisor: 4
GridSize: 4
TimelineZoom: 1.9

[Metadata]
Title:Chururi Chururira
TitleUnicode:ちゅるりちゅるりら
Artist:Dempagumi.inc
ArtistUnicode:でんぱ組.inc
Creator:JztCallMeRon
Version:Easy
Source:
Tags:j-pop
BeatmapID:1469737
BeatmapSetID:688773

[Difficulty]
HPDrainRate:7
CircleSize:4
OverallDifficulty:7
ApproachRate:5
SliderMultiplier:1.4
SliderTickRate:1

[Events]
//Background and Video events
0,0,"Japan-Wallpaper-24.jpg",0,0
//Break Periods
//Storyboard Layer 0 (Background)
//Storyboard Layer 1 (Fail)
//Storyboard Layer 2 (Pass)
//Storyboard Layer 3 (Foreground)
//Storyboard Sound Samples
Sample,2619,0,"soft-hitnormal.wav",40
Sample,5019,0,"soft-hitnormal.wav",40
Sample,6219,0,"soft-hitnormal.wav",40
Sample,6219,0,"normal-hitwhistle.wav",40
Sample,6369,0,"soft-hitnormal.wav",40
Sample,6519,0,"normal-hitwhistle.wav",40
Sample,6519,0,"normal-hitfinish.wav",40
Sample,6669,0,"soft-hitnormal.wav",40
Sample,6819,0,"normal-hitwhistle.wav",40
Sample,6819,0,"soft-hitnormal.wav",40
Sample,7419,0,"soft-hitnormal.wav",40
Sample,8019,0,"normal-hitwhistle.wav",40
Sample,9069,0,"LR_Snare Drum .wav",40
Sample,9144,0,"LR_Snare Drum .wav",40
Sample,9219,0,"normal-hitwhistle.wav",40
Sample,9294,0,"LR_Snare Drum .wav",40
Sample,9369,0,"LR_Snare Drum .wav",40
Sample,9444,0,"LR_Snare Drum .wav",40
Sample,9519,0,"normal-hitfinish.wav",40
Sample,9519,0,"normal-hitwhistle.wav",40
Sample,9669,0,"LR_Snare Drum .wav",40
Sample,9744,0,"LR_Snare Drum .wav",40
Sample,9819,0,"normal-hitwhistle.wav",40
Sample,9819,0,"normal-hitfinish.wav",40
Sample,10419,0,"normal-hitfinish.wav",40
Sample,11019,0,"soft-hitnormal.wav",40
Sample,11244,0,"soft-hitnormal.wav",40
Sample,11319,0,"normal-hitfinish.wav",40
Sample,11469,0,"normal-hitfinish.wav",40
Sample,11469,0,"normal-hitwhistle.wav",40
Sample,11469,0,"soft-hitnormal.wav",40
Sample,11619,0,"soft-hitnormal.wav",40
Sample,14919,0,"LR_Drum Click.wav",40
Sample,15519,0,"LR_Clap kick.wav",40
Sample,15969,0,"LR_Drum Click.wav",40
Sample,16044,0,"LR_Drum Click.wav",40
Sample,16119,0,"LR_Drum Click.wav",40
Sample,16719,0,"normal-hitwhistle.wav",40
Sample,17169,0,"normal-hitfinish.wav",40
Sample,17169,0,"normal-hitwhistle.wav",40
Sample,17469,0,"normal-hitwhistle.wav",40
Sample,17469,0,"normal-hitfinish.wav",40
Sample,17769,0,"normal-hitwhistle.wav",40
Sample,18069,0,"normal-hitwhistle.wav",40
Sample,18069,0,"normal-hitfinish.wav",40
Sample,18219,0,"normal-hitfinish.wav",40
Sample,18369,0,"normal-hitwhistle.wav",40
Sample,18519,0,"normal-hitfinish.wav",40
Sample,18669,0,"normal-hitwhistle.wav",40
Sample,18819,0,"normal-hitwhistle.wav",40
Sample,18819,0,"LR_Snare Drum .wav",40
Sample,18894,0,"LR_Snare Drum .wav",40
Sample,18969,0,"LR_Snare Drum .wav",40
Sample,19044,0,"LR_Snare Drum .wav",40
Sample,19119,0,"LR_Snare Drum .wav",40
Sample,19119,0,"normal-hitwhistle.wav",40
Sample,19194,0,"LR_Snare Drum .wav",40
Sample,19269,0,"LR_Snare Drum .wav",40
Sample,19344,0,"LR_Snare Drum .wav",40
Sample,19719,0,"LR_Drum Click.wav",40
Sample,20319,0,"LR_Clap kick.wav",40
Sample,20769,0,"LR_Drum Click.wav",40
Sample,20844,0,"LR_Drum Click.wav",40
Sample,20919,0,"LR_Drum Click.wav",40
Sample,21519,0,"normal-hitwhistle.wav",40
Sample,21969,0,"normal-hitfinish.wav",40
Sample,21969,0,"normal-hitwhistle.wav",40
Sample,22269,0,"normal-hitwhistle.wav",40
Sample,22269,0,"normal-hitfinish.wav",40
Sample,22569,0,"normal-hitwhistle.wav",40
Sample,22869,0,"normal-hitwhistle.wav",40
Sample,22869,0,"normal-hitfinish.wav",40
Sample,23019,0,"normal-hitfinish.wav",40
Sample,23169,0,"normal-hitwhistle.wav",40
Sample,23319,0,"normal-hitfinish.wav",40
Sample,23469,0,"normal-hitwhistle.wav",40
Sample,23619,0,"normal-hitwhistle.wav",40
Sample,23619,0,"LR_Snare Drum .wav",40
Sample,23694,0,"LR_Snare Drum .wav",40
Sample,23769,0,"LR_Snare Drum .wav",40
Sample,23844,0,"LR_Snare Drum .wav",40
Sample,23919,0,"LR_Snare Drum .wav",40
Sample,23919,0,"normal-hitwhistle.wav",40
Sample,23994,0,"LR_Snare Drum .wav",40
Sample,24069,0,"LR_Snare Drum .wav",40
Sample,24144,0,"LR_Snare Drum .wav",40
Sample,24219,0,"cymbal light.wav",40
Sample,24369,0,"bitter hat.wav",40
Sample,24669,0,"bitter hat.wav",40
Sample,24819,0,"normal-hitwhistle.wav",40
Sample,24969,0,"bitter hat.wav",40
Sample,25269,0,"bitter hat.wav",40
Sample,25569,0,"bitter hat.wav",40
Sample,25869,0,"bitter hat.wav",40
Sample,26019,0,"normal-hitwhistle.wav",40
Sample,26169,0,"bitter hat.wav",40
Sample,26469,0,"bitter hat.wav",40
Sample,26769,0,"bitter hat.wav",40
Sample,27069,0,"bitter hat.wav",40
Sample,27219,0,"normal-hitwhistle.wav",40
Sample,27369,0,"bitter hat.wav",40
Sample,27669,0,"bitter hat.wav",40
Sample,27969,0,"soft-hitnormal.wav",40
Sample,28119,0,"normal-hitfinish.wav",40
Sample,28269,0,"soft-hitnormal.wav",40
Sample,28569,0,"soft-hitnormal.wav",40
Sample,28719,0,"normal-hitwhistle.wav",40
Sample,28869,0,"LR_Snare Drum .wav",40
Sample,28944,0,"LR_Snare Drum .wav",40
Sample,29019,0,"normal-hitwhistle.wav",40
Sample,29019,0,"cymbal light.wav",40
Sample,29019,0,"normal-hitfinish.wav",40
Sample,29169,0,"bitter hat.wav",40
Sample,29469,0,"bitter hat.wav",40
Sample,29619,0,"normal-hitwhistle.wav",40
Sample,29769,0,"bitter hat.wav",40
Sample,30069,0,"bitter hat.wav",40
Sample,30369,0,"bitter hat.wav",40
Sample,30669,0,"bitter hat.wav",40
Sample,30819,0,"normal-hitwhistle.wav",40
Sample,30969,0,"bitter hat.wav",40
Sample,31269,0,"bitter hat.wav",40
Sample,31569,0,"bitter hat.wav",40
Sample,31719,0,"normal-hitwhistle.wav",40
Sample,31719,0,"normal-hitfinish.wav",40
Sample,31869,0,"bitter hat.wav",40
Sample,32169,0,"bitter hat.wav",40
Sample,32319,0,"normal-hitfinish.wav",40
Sample,32319,0,"normal-hitwhistle.wav",40
Sample,32469,0,"bitter hat.wav",40
Sample,32619,0,"normal-hitwhistle.wav",40
Sample,32619,0,"soft-hitnormal.wav",40
Sample,32819,0,"normal-hitwhistle.wav",40
Sample,32819,0,"normal-hitfinish.wav",40
Sample,32819,0,"soft-hitnormal.wav",40
Sample,33019,0,"normal-hitwhistle.wav",40
Sample,33019,0,"soft-hitnormal.wav",40
Sample,33219,0,"normal-hitfinish.wav",40
Sample,33219,0,"soft-hitnormal.wav",40
Sample,34119,0,"LR_Drum Click.wav",40
Sample,34719,0,"LR_Clap kick.wav",40
Sample,35169,0,"LR_Drum Click.wav",40
Sample,35244,0,"LR_Drum Click.wav",40
Sample,35319,0,"LR_Drum Click.wav",40
Sample,35919,0,"normal-hitwhistle.wav",40
Sample,36369,0,"normal-hitfinish.wav",40
Sample,36369,0,"normal-hitwhistle.wav",40
Sample,36669,0,"normal-hitwhistle.wav",40
Sample,36669,0,"normal-hitfinish.wav",40
Sample,36969,0,"normal-hitwhistle.wav",40
Sample,37119,0,"normal-hitwhistle.wav",40
Sample,37269,0,"normal-hitfinish.wav",40
Sample,38019,0,"normal-hitwhistle.wav",40
Sample,38019,0,"normal-hitfinish.wav",40
Sample,38094,0,"LR_Snare Drum .wav",40
Sample,38169,0,"LR_Snare Drum .wav",40
Sample,38244,0,"LR_Snare Drum .wav",40
Sample,38319,0,"normal-hitfinish.wav",40
Sample,38319,0,"LR_Snare Drum .wav",40
Sample,38319,0,"normal-hitwhistle.wav",40
Sample,38394,0,"LR_Snare Drum .wav",40
Sample,38469,0,"LR_Snare Drum .wav",40
Sample,38544,0,"LR_Snare Drum .wav",40
Sample,38619,0,"cymbal light.wav",40
Sample,38769,0,"bitter hat.wav",40
Sample,39069,0,"bitter hat.wav",40
Sample,39219,0,"normal-hitwhistle.wav",40
Sample,39369,0,"bitter hat.wav",40
Sample,39669,0,"bitter hat.wav",40
Sample,39969,0,"bitter hat.wav",40
Sample,40269,0,"bitter hat.wav",40
Sample,40419,0,"normal-hitwhistle.wav",40
Sample,40569,0,"bitter hat.wav",40
Sample,40869,0,"bitter hat.wav",40
Sample,41169,0,"bitter hat.wav",40
Sample,41469,0,"bitter hat.wav",40
Sample,41619,0,"normal-hitwhistle.wav",40
Sample,41769,0,"bitter hat.wav",40
Sample,42069,0,"bitter hat.wav",40
Sample,42369,0,"soft-hitnormal.wav",40
Sample,42519,0,"normal-hitfinish.wav",40
Sample,42669,0,"soft-hitnormal.wav",40
Sample,42969,0,"soft-hitnormal.wav",40
Sample,43119,0,"normal-hitwhistle.wav",40
Sample,43269,0,"LR_Snare Drum .wav",40
Sample,43344,0,"LR_Snare Drum .wav",40
Sample,43419,0,"cymbal light.wav",40
Sample,43419,0,"normal-hitfinish.wav",40
Sample,43419,0,"normal-hitwhistle.wav",40
Sample,43569,0,"bitter hat.wav",40
Sample,43869,0,"bitter hat.wav",40
Sample,44019,0,"normal-hitwhistle.wav",40
Sample,44169,0,"bitter hat.wav",40
Sample,44469,0,"bitter hat.wav",40
Sample,44769,0,"bitter hat.wav",40
Sample,45069,0,"bitter hat.wav",40
Sample,45219,0,"normal-hitwhistle.wav",40
Sample,45369,0,"bitter hat.wav",40
Sample,45669,0,"bitter hat.wav",40
Sample,45969,0,"bitter hat.wav",40
Sample,46119,0,"normal-hitwhistle.wav",40
Sample,46119,0,"normal-hitfinish.wav",40
Sample,46269,0,"bitter hat.wav",40
Sample,46419,0,"LR_Snare Drum .wav",40
Sample,46494,0,"LR_Snare Drum .wav",40
Sample,46569,0,"LR_Snare Drum .wav",40
Sample,46644,0,"LR_Snare Drum .wav",40
Sample,46719,0,"LR_Snare Drum .wav",40
Sample,46719,0,"normal-hitfinish.wav",40
Sample,46719,0,"normal-hitwhistle.wav",40
Sample,46794,0,"LR_Snare Drum .wav",40
Sample,46869,0,"LR_Snare Drum .wav",40
Sample,46944,0,"LR_Snare Drum .wav",40
Sample,47019,0,"normal-hitwhistle.wav",40
Sample,47019,0,"soft-hitnormal.wav",40
Sample,47219,0,"soft-hitnormal.wav",40
Sample,47219,0,"normal-hitwhistle.wav",40
Sample,47219,0,"normal-hitfinish.wav",40
Sample,47419,0,"normal-hitwhistle.wav",40
Sample,47419,0,"soft-hitnormal.wav",40
Sample,47619,0,"normal-hitfinish.wav",40
Sample,47619,0,"soft-hitnormal.wav",40
Sample,48219,0,"normal-hitfinish.wav",40
Sample,48219,0,"LR3_BassDrop.wav",40
Sample,55569,0,"normal-hitwhistle.wav",40
Sample,55719,0,"normal-hitwhistle.wav",40
Sample,55869,0,"normal-hitwhistle.wav",40
Sample,56619,0,"cymbal light.wav",40
Sample,56769,0,"normal-hitwhistle.wav",40
Sample,57069,0,"normal-hitwhistle.wav",40
Sample,57369,0,"normal-hitwhistle.wav",40
Sample,57669,0,"normal-hitwhistle.wav",40
Sample,57819,0,"cymbal light.wav",40
Sample,57819,0,"normal-hitwhistle.wav",40
Sample,58419,0,"cymbal light.wav",40
Sample,58419,0,"normal-hitwhistle.wav",40
Sample,60819,0,"normal-hitwhistle.wav",40
Sample,62019,0,"normal-hitwhistle.wav",40
Sample,62469,0,"LR_Snare Drum .wav",40
Sample,62544,0,"LR_Snare Drum .wav",40
Sample,62619,0,"LR_Snare Drum .wav",40
Sample,63219,0,"normal-hitwhistle.wav",40
Sample,63669,0,"LR_Snare Drum .wav",40
Sample,63744,0,"LR_Snare Drum .wav",40
Sample,63819,0,"normal-hitwhistle.wav",40
Sample,63819,0,"LR_Snare Drum .wav",40
Sample,64119,0,"normal-hitfinish.wav",40
Sample,64419,0,"normal-hitwhistle.wav",40
Sample,64719,0,"LR_Snare Drum .wav",40
Sample,64719,0,"normal-hitwhistle.wav",40
Sample,66369,0,"normal-hitwhistle.wav",40
Sample,66519,0,"normal-hitfinish.wav",40
Sample,66669,0,"normal-hitwhistle.wav",40
Sample,66819,0,"normal-hitfinish.wav",40
Sample,66969,0,"normal-hitwhistle.wav",40
Sample,67119,0,"normal-hitfinish.wav",40
Sample,67269,0,"normal-hitwhistle.wav",40
Sample,67419,0,"normal-hitwhistle.wav",40
Sample,67419,0,"LR3_BassDrop.wav",40
Sample,68019,0,"normal-hitwhistle.wav",40
Sample,68019,0,"LR3_BassDrop.wav",40
Sample,68619,0,"normal-hitfinish.wav",40
Sample,68919,0,"normal-hitwhistle.wav",40
Sample,69219,0,"normal-hitfinish.wav",40
Sample,70419,0,"normal-hitwhistle.wav",40
Sample,71619,0,"normal-hitwhistle.wav",40
Sample,72069,0,"LR_Snare Drum .wav",40
Sample,72144,0,"LR_Snare Drum .wav",40
Sample,72219,0,"LR_Snare Drum .wav",40
Sample,72219,0,"normal-hitfinish.wav",40
Sample,72419,0,"normal-hitwhistle.wav",40
Sample,72419,0,"normal-hitfinish.wav",40
Sample,72619,0,"normal-hitwhistle.wav",40
Sample,72819,0,"normal-hitwhistle.wav",40
Sample,72819,0,"normal-hitfinish.wav",40
Sample,73419,0,"normal-hitfinish.wav",40
Sample,73619,0,"normal-hitwhistle.wav",40
Sample,73619,0,"normal-hitfinish.wav",40
Sample,73819,0,"normal-hitwhistle.wav",40
Sample,74019,0,"normal-hitwhistle.wav",40
Sample,74019,0,"normal-hitfinish.wav",40
Sample,74619,0,"normal-hitwhistle.wav",40
Sample,74619,0,"cymbal light.wav",40
Sample,75969,0,"normal-hitfinish.wav",40
Sample,75969,0,"LR_Snare Drum .wav",40
Sample,75969,0,"normal-hitwhistle.wav",40
Sample,76044,0,"LR_Snare Drum .wav",40
Sample,76044,0,"normal-hitwhistle.wav",40
Sample,76044,0,"normal-hitfinish.wav",40
Sample,76119,0,"normal-hitfinish.wav",40
Sample,76119,0,"normal-hitwhistle.wav",40
Sample,76119,0,"LR_Snare Drum .wav",40
Sample,76269,0,"normal-hitwhistle.wav",40
Sample,76269,0,"LR_Snare Drum .wav",40
Sample,76269,0,"normal-hitfinish.wav",40
Sample,76419,0,"normal-hitwhistle.wav",40
Sample,76419,0,"normal-hitfinish.wav",40
Sample,76419,0,"LR_Snare Drum .wav",40
Sample,76569,0,"normal-hitwhistle.wav",40
Sample,76569,0,"LR_Snare Drum .wav",40
Sample,76569,0,"normal-hitfinish.wav",40
Sample,76719,0,"normal-hitwhistle.wav",40
Sample,76719,0,"normal-hitfinish.wav",40
Sample,76719,0,"LR_Snare Drum .wav",40
Sample,76869,0,"normal-hitwhistle.wav",40
Sample,76869,0,"LR_Snare Drum .wav",40
Sample,76869,0,"normal-hitfinish.wav",40
Sample,77019,0,"normal-hitwhistle.wav",40
Sample,78219,0,"normal-hitwhistle.wav",40
Sample,78219,0,"soft-hitnormal.wav",40
Sample,78519,0,"normal-hitfinish.wav",40
Sample,78519,0,"soft-hitnormal.wav",40
Sample,78819,0,"soft-hitnormal.wav",40
Sample,80019,0,"normal-hitwhistle.wav",40
Sample,81219,0,"normal-hitwhistle.wav",40
Sample,82419,0,"normal-hitwhistle.wav",40
Sample,83019,0,"normal-hitfinish.wav",40
Sample,83019,0,"soft-hitnormal.wav",40
Sample,83169,0,"soft-hitnormal.wav",40
Sample,83319,0,"normal-hitwhistle.wav",40
Sample,83319,0,"normal-hitfinish.wav",40
Sample,83469,0,"soft-hitnormal.wav",40
Sample,83619,0,"normal-hitfinish.wav",40
Sample,83619,0,"normal-hitwhistle.wav",40
Sample,84819,0,"normal-hitwhistle.wav",40
Sample,85869,0,"LR_Snare Drum .wav",40
Sample,85944,0,"LR_Snare Drum .wav",40
Sample,86019,0,"LR_Snare Drum .wav",40
Sample,86169,0,"LR_Snare Drum .wav",40
Sample,86244,0,"LR_Snare Drum .wav",40
Sample,86319,0,"normal-hitfinish.wav",40
Sample,86319,0,"LR_Snare Drum .wav",40
Sample,86394,0,"LR_Snare Drum .wav",40
Sample,86469,0,"LR_Snare Drum .wav",40
Sample,86544,0,"LR_Snare Drum .wav",40
Sample,86619,0,"normal-hitfinish.wav",40
Sample,86619,0,"LR_Snare Drum .wav",40
Sample,87219,0,"normal-hitfinish.wav",40
Sample,87819,0,"soft-hitnormal.wav",40
Sample,88044,0,"soft-hitnormal.wav",40
Sample,88119,0,"normal-hitfinish.wav",40
Sample,88269,0,"soft-hitnormal.wav",40
Sample,88269,0,"normal-hitfinish.wav",40
Sample,88269,0,"normal-hitwhistle.wav",40
Sample,88419,0,"soft-hitnormal.wav",40
Sample,91719,0,"LR_Drum Click.wav",40
Sample,92319,0,"LR_Clap kick.wav",40
Sample,92769,0,"LR_Drum Click.wav",40
Sample,92844,0,"LR_Drum Click.wav",40
Sample,92919,0,"LR_Drum Click.wav",40
Sample,93519,0,"normal-hitwhistle.wav",40
Sample,93969,0,"normal-hitfinish.wav",40
Sample,93969,0,"normal-hitwhistle.wav",40
Sample,94269,0,"normal-hitwhistle.wav",40
Sample,94269,0,"normal-hitfinish.wav",40
Sample,94569,0,"normal-hitfinish.wav",40
Sample,94569,0,"normal-hitwhistle.wav",40
Sample,94869,0,"normal-hitwhistle.wav",40
Sample,94869,0,"normal-hitfinish.wav",40
Sample,95019,0,"normal-hitfinish.wav",40
Sample,95169,0,"normal-hitwhistle.wav",40
Sample,95319,0,"normal-hitfinish.wav",40
Sample,95469,0,"normal-hitwhistle.wav",40
Sample,95619,0,"normal-hitwhistle.wav",40
Sample,95619,0,"LR_Snare Drum .wav",40
Sample,95694,0,"LR_Snare Drum .wav",40
Sample,95769,0,"LR_Snare Drum .wav",40
Sample,95844,0,"LR_Snare Drum .wav",40
Sample,95919,0,"LR_Snare Drum .wav",40
Sample,95919,0,"normal-hitwhistle.wav",40
Sample,95994,0,"LR_Snare Drum .wav",40
Sample,96069,0,"LR_Snare Drum .wav",40
Sample,96144,0,"LR_Snare Drum .wav",40
Sample,96519,0,"LR_Drum Click.wav",40
Sample,97119,0,"LR_Clap kick.wav",40
Sample,97569,0,"LR_Drum Click.wav",40
Sample,97644,0,"LR_Drum Click.wav",40
Sample,97719,0,"LR_Drum Click.wav",40
Sample,98319,0,"normal-hitwhistle.wav",40
Sample,98769,0,"normal-hitfinish.wav",40
Sample,98769,0,"normal-hitwhistle.wav",40
Sample,99069,0,"normal-hitwhistle.wav",40
Sample,99069,0,"normal-hitfinish.wav",40
Sample,99369,0,"normal-hitfinish.wav",40
Sample,99369,0,"normal-hitwhistle.wav",40
Sample,99669,0,"normal-hitwhistle.wav",40
Sample,99669,0,"normal-hitfinish.wav",40
Sample,99819,0,"normal-hitfinish.wav",40
Sample,99969,0,"normal-hitwhistle.wav",40
Sample,100119,0,"normal-hitfinish.wav",40
Sample,100269,0,"normal-hitwhistle.wav",40
Sample,100419,0,"normal-hitwhistle.wav",40
Sample,100419,0,"LR_Snare Drum .wav",40
Sample,100494,0,"LR_Snare Drum .wav",40
Sample,100569,0,"LR_Snare Drum .wav",40
Sample,100644,0,"LR_Snare Drum .wav",40
Sample,100719,0,"LR_Snare Drum .wav",40
Sample,100719,0,"normal-hitwhistle.wav",40
Sample,100794,0,"LR_Snare Drum .wav",40
Sample,100869,0,"LR_Snare Drum .wav",40
Sample,100944,0,"LR_Snare Drum .wav",40
Sample,101019,0,"cymbal light.wav",40
Sample,101169,0,"bitter hat.wav",40
Sample,101469,0,"bitter hat.wav",40
Sample,101619,0,"normal-hitwhistle.wav",40
Sample,101769,0,"bitter hat.wav",40
Sample,102069,0,"bitter hat.wav",40
Sample,102369,0,"bitter hat.wav",40
Sample,102669,0,"bitter hat.wav",40
Sample,102819,0,"normal-hitwhistle.wav",40
Sample,102969,0,"bitter hat.wav",40
Sample,103269,0,"bitter hat.wav",40
Sample,103569,0,"bitter hat.wav",40
Sample,103869,0,"bitter hat.wav",40
Sample,104019,0,"normal-hitwhistle.wav",40
Sample,104169,0,"bitter hat.wav",40
Sample,104469,0,"bitter hat.wav",40
Sample,104769,0,"soft-hitnormal.wav",40
Sample,104919,0,"normal-hitfinish.wav",40
Sample,105069,0,"soft-hitnormal.wav",40
Sample,105369,0,"soft-hitnormal.wav",40
Sample,105519,0,"normal-hitwhistle.wav",40
Sample,105669,0,"LR_Snare Drum .wav",40
Sample,105744,0,"LR_Snare Drum .wav",40
Sample,105819,0,"cymbal light.wav",40
Sample,105819,0,"normal-hitfinish.wav",40
Sample,105819,0,"normal-hitwhistle.wav",40
Sample,105969,0,"bitter hat.wav",40
Sample,106269,0,"bitter hat.wav",40
Sample,106419,0,"normal-hitwhistle.wav",40
Sample,106569,0,"bitter hat.wav",40
Sample,106869,0,"bitter hat.wav",40
Sample,107169,0,"bitter hat.wav",40
Sample,107469,0,"bitter hat.wav",40
Sample,107619,0,"normal-hitwhistle.wav",40
Sample,107769,0,"bitter hat.wav",40
Sample,108069,0,"bitter hat.wav",40
Sample,108369,0,"bitter hat.wav",40
Sample,108519,0,"normal-hitwhistle.wav",40
Sample,108519,0,"normal-hitfinish.wav",40
Sample,108669,0,"bitter hat.wav",40
Sample,108969,0,"bitter hat.wav",40
Sample,109119,0,"normal-hitfinish.wav",40
Sample,109119,0,"normal-hitwhistle.wav",40
Sample,109269,0,"bitter hat.wav",40
Sample,109419,0,"normal-hitwhistle.wav",40
Sample,109419,0,"soft-hitnormal.wav",40
Sample,109619,0,"soft-hitnormal.wav",40
Sample,109619,0,"normal-hitwhistle.wav",40
Sample,109619,0,"normal-hitfinish.wav",40
Sample,109819,0,"normal-hitwhistle.wav",40
Sample,109819,0,"soft-hitnormal.wav",40
Sample,110019,0,"normal-hitfinish.wav",40
Sample,110019,0,"soft-hitnormal.wav",40
Sample,110769,0,"LR_Drum Click.wav",40
Sample,110769,0,"normal-hitfinish.wav",40
Sample,110919,0,"normal-hitwhistle.wav",40
Sample,111069,0,"normal-hitwhistle.wav",40
Sample,111069,0,"normal-hitfinish.wav",40
Sample,111219,0,"normal-hitwhistle.wav",40
Sample,111369,0,"normal-hitwhistle.wav",40
Sample,111369,0,"normal-hitfinish.wav",40
Sample,111519,0,"normal-hitwhistle.wav",40
Sample,111669,0,"normal-hitwhistle.wav",40
Sample,111669,0,"LR_Drum Click.wav",40
Sample,111969,0,"normal-hitwhistle.wav",40
Sample,111969,0,"normal-hitfinish.wav",40
Sample,112119,0,"normal-hitwhistle.wav",40
Sample,112269,0,"normal-hitwhistle.wav",40
Sample,112269,0,"LR_Drum Click.wav",40
Sample,112419,0,"normal-hitwhistle.wav",40
Sample,112569,0,"normal-hitwhistle.wav",40
Sample,112569,0,"normal-hitfinish.wav",40
Sample,112719,0,"normal-hitwhistle.wav",40
Sample,112869,0,"normal-hitwhistle.wav",40
Sample,112869,0,"LR_Drum Click.wav",40
Sample,113019,0,"cymbal light.wav",40
Sample,113169,0,"LR_Drum Click.wav",40
Sample,113169,0,"normal-hitwhistle.wav",40
Sample,113169,0,"normal-hitfinish.wav",40
Sample,113244,0,"LR_Snare Drum .wav",40
Sample,113319,0,"normal-hitwhistle.wav",40
Sample,113469,0,"normal-hitfinish.wav",40
Sample,113469,0,"LR_Drum Click.wav",40
Sample,113619,0,"cymbal light.wav",40
Sample,113769,0,"normal-hitfinish.wav",40
Sample,113769,0,"LR_Drum Click.wav",40
Sample,113919,0,"normal-hitwhistle.wav",40
Sample,114069,0,"normal-hitwhistle.wav",40
Sample,114069,0,"normal-hitfinish.wav",40
Sample,114219,0,"normal-hitwhistle.wav",40
Sample,114369,0,"LR_Drum Click.wav",40
Sample,114369,0,"normal-hitfinish.wav",40
Sample,114369,0,"normal-hitwhistle.wav",40
Sample,114669,0,"LR_Drum Click.wav",40
Sample,114669,0,"normal-hitwhistle.wav",40
Sample,114669,0,"normal-hitfinish.wav",40
Sample,114969,0,"LR_Drum Click.wav",40
Sample,114969,0,"normal-hitfinish.wav",40
Sample,114969,0,"normal-hitwhistle.wav",40
Sample,114969,0,"LR_Snare Drum .wav",40
Sample,115044,0,"LR_Snare Drum .wav",40
Sample,115269,0,"LR_Snare Drum .wav",40
Sample,115269,0,"normal-hitwhistle.wav",40
Sample,115344,0,"LR_Snare Drum .wav",40
Sample,115419,0,"normal-hitfinish.wav",40
Sample,115419,0,"LR_Snare Drum .wav",40
Sample,115419,0,"normal-hitwhistle.wav",40
Sample,115569,0,"normal-hitwhistle.wav",40
Sample,115569,0,"normal-hitfinish.wav",40
Sample,115569,0,"LR_Drum Click.wav",40
Sample,115644,0,"LR_Snare Drum .wav",40
Sample,115719,0,"normal-hitwhistle.wav",40
Sample,115869,0,"normal-hitwhistle.wav",40
Sample,115869,0,"LR_Drum Click.wav",40
Sample,116019,0,"normal-hitwhistle.wav",40
Sample,116169,0,"normal-hitwhistle.wav",40
Sample,116169,0,"normal-hitfinish.wav",40
Sample,116319,0,"normal-hitwhistle.wav",40
Sample,116469,0,"normal-hitwhistle.wav",40
Sample,116469,0,"LR_Drum Click.wav",40
Sample,116619,0,"normal-hitwhistle.wav",40
Sample,116769,0,"normal-hitwhistle.wav",40
Sample,116769,0,"normal-hitfinish.wav",40
Sample,116769,0,"LR_Snare Drum .wav",40
Sample,116844,0,"LR_Snare Drum .wav",40
Sample,116919,0,"normal-hitwhistle.wav",40
Sample,117069,0,"normal-hitwhistle.wav",40
Sample,117069,0,"normal-hitfinish.wav",40
Sample,117219,0,"normal-hitwhistle.wav",40
Sample,117369,0,"normal-hitwhistle.wav",40
Sample,117369,0,"LR_Drum Click.wav",40
Sample,117519,0,"normal-hitwhistle.wav",40
Sample,117669,0,"normal-hitwhistle.wav",40
Sample,117669,0,"normal-hitfinish.wav",40
Sample,117819,0,"cymbal light.wav",40
Sample,117969,0,"normal-hitwhistle.wav",40
Sample,117969,0,"normal-hitfinish.wav",40
Sample,117969,0,"LR_Snare Drum .wav",40
Sample,118044,0,"LR_Snare Drum .wav",40
Sample,118119,0,"normal-hitwhistle.wav",40
Sample,118269,0,"LR_Drum Click.wav",40
Sample,118419,0,"normal-hitfinish.wav",40
Sample,118419,0,"normal-hitwhistle.wav",40
Sample,118569,0,"normal-hitwhistle.wav",40
Sample,118569,0,"LR_Drum Click.wav",40
Sample,118719,0,"normal-hitwhistle.wav",40
Sample,118719,0,"normal-hitfinish.wav",40
Sample,118869,0,"LR_Drum Click.wav",40
Sample,118869,0,"normal-hitwhistle.wav",40
Sample,119019,0,"normal-hitwhistle.wav",40
Sample,119619,0,"normal-hitfinish.wav",40
Sample,120219,0,"normal-hitwhistle.wav",40
Sample,120819,0,"normal-hitwhistle.wav",40
Sample,124119,0,"normal-hitwhistle.wav",40
Sample,124569,0,"LR_Snare Drum .wav",40
Sample,124644,0,"LR_Snare Drum .wav",40
Sample,124719,0,"LR_Snare Drum .wav",40
Sample,124719,0,"normal-hitwhistle.wav",40
Sample,124719,0,"normal-hitfinish.wav",40
Sample,124794,0,"LR_Snare Drum .wav",40
Sample,124869,0,"LR_Snare Drum .wav",40
Sample,124944,0,"LR_Snare Drum .wav",40
Sample,125019,0,"LR_Snare Drum .wav",40
Sample,126069,0,"LR_Snare Drum .wav",40
Sample,126144,0,"LR_Snare Drum .wav",40
Sample,126219,0,"normal-hitwhistle.wav",40
Sample,126219,0,"LR_Snare Drum .wav",40
Sample,126519,0,"normal-hitfinish.wav",40
Sample,126819,0,"normal-hitwhistle.wav",40
Sample,126819,0,"LR_Snare Drum .wav",40
Sample,126894,0,"LR_Snare Drum .wav",40
Sample,126969,0,"LR_Snare Drum .wav",40
Sample,127044,0,"LR_Snare Drum .wav",40
Sample,127119,0,"LR_Snare Drum .wav",40
Sample,127119,0,"normal-hitwhistle.wav",40
Sample,127194,0,"LR_Snare Drum .wav",40
Sample,127269,0,"LR_Snare Drum .wav",40
Sample,127344,0,"LR_Snare Drum .wav",40
Sample,128769,0,"normal-hitwhistle.wav",40
Sample,128919,0,"normal-hitfinish.wav",40
Sample,129069,0,"normal-hitwhistle.wav",40
Sample,129219,0,"normal-hitfinish.wav",40
Sample,129369,0,"normal-hitwhistle.wav",40
Sample,129519,0,"normal-hitfinish.wav",40
Sample,129669,0,"normal-hitwhistle.wav",40
Sample,129819,0,"normal-hitwhistle.wav",40
Sample,129819,0,"LR3_BassDrop.wav",40
Sample,130419,0,"normal-hitwhistle.wav",40
Sample,130419,0,"LR3_BassDrop.wav",40
Sample,133719,0,"normal-hitfinish.wav",40
Sample,133719,0,"normal-hitwhistle.wav",40
Sample,134019,0,"LR_Snare Drum .wav",40
Sample,134094,0,"LR_Snare Drum .wav",40
Sample,134169,0,"LR_Snare Drum .wav",40
Sample,134244,0,"LR_Snare Drum .wav",40
Sample,134319,0,"normal-hitwhistle.wav",40
Sample,134319,0,"normal-hitfinish.wav",40
Sample,134319,0,"LR_Snare Drum .wav",40
Sample,134394,0,"LR_Snare Drum .wav",40
Sample,134469,0,"LR_Snare Drum .wav",40
Sample,134544,0,"LR_Snare Drum .wav",40
Sample,134619,0,"LR_Snare Drum .wav",40
Sample,134619,0,"normal-hitfinish.wav",40
Sample,134819,0,"normal-hitwhistle.wav",40
Sample,134819,0,"normal-hitfinish.wav",40
Sample,135019,0,"normal-hitwhistle.wav",40
Sample,135219,0,"normal-hitwhistle.wav",40
Sample,135219,0,"normal-hitfinish.wav",40
Sample,135819,0,"normal-hitfinish.wav",40
Sample,136019,0,"normal-hitwhistle.wav",40
Sample,136019,0,"normal-hitfinish.wav",40
Sample,136219,0,"normal-hitwhistle.wav",40
Sample,136419,0,"normal-hitwhistle.wav",40
Sample,136419,0,"normal-hitfinish.wav",40
Sample,137019,0,"normal-hitwhistle.wav",40
Sample,137019,0,"cymbal light.wav",40
Sample,138369,0,"normal-hitwhistle.wav",40
Sample,138369,0,"normal-hitfinish.wav",40
Sample,138444,0,"normal-hitfinish.wav",40
Sample,138444,0,"LR_Snare Drum .wav",40
Sample,138444,0,"normal-hitwhistle.wav",40
Sample,138519,0,"LR_Snare Drum .wav",40
Sample,138519,0,"normal-hitfinish.wav",40
Sample,138669,0,"normal-hitwhistle.wav",40
Sample,138669,0,"LR_Snare Drum .wav",40
Sample,138669,0,"normal-hitfinish.wav",40
Sample,138819,0,"LR_Snare Drum .wav",40
Sample,138819,0,"normal-hitwhistle.wav",40
Sample,138969,0,"normal-hitfinish.wav",40
Sample,138969,0,"normal-hitwhistle.wav",40
Sample,138969,0,"LR_Snare Drum .wav",40
Sample,139119,0,"LR_Snare Drum .wav",40
Sample,139119,0,"normal-hitwhistle.wav",40
Sample,139269,0,"normal-hitwhistle.wav",40
Sample,139269,0,"LR_Snare Drum .wav",40
Sample,139269,0,"normal-hitfinish.wav",40
Sample,140019,0,"normal-hitwhistle.wav",40
Sample,140619,0,"normal-hitwhistle.wav",40
Sample,140619,0,"soft-hitnormal.wav",40
Sample,140919,0,"normal-hitfinish.wav",40
Sample,140919,0,"soft-hitnormal.wav",40
Sample,141219,0,"normal-hitwhistle.wav",40
Sample,141219,0,"soft-hitnormal.wav",40
Sample,141819,0,"soft-hitnormal.wav",40
Sample,144219,0,"normal-hitfinish.wav",40
Sample,146619,0,"normal-hitfinish.wav",40
Sample,149019,0,"soft-hitnormal.wav",40
Sample,150219,0,"normal-hitwhistle.wav",40
Sample,150519,0,"soft-hitnormal.wav",40
Sample,150819,0,"normal-hitwhistle.wav",40
Sample,151569,0,"bitter hat.wav",40
Sample,151869,0,"bitter hat.wav",40
Sample,152019,0,"normal-hitwhistle.wav",40
Sample,152169,0,"bitter hat.wav",40
Sample,152469,0,"bitter hat.wav",40
Sample,152769,0,"bitter hat.wav",40
Sample,153069,0,"bitter hat.wav",40
Sample,153219,0,"normal-hitwhistle.wav",40
Sample,153369,0,"bitter hat.wav",40
Sample,153669,0,"bitter hat.wav",40
Sample,153969,0,"bitter hat.wav",40
Sample,154269,0,"bitter hat.wav",40
Sample,154419,0,"normal-hitwhistle.wav",40
Sample,154569,0,"bitter hat.wav",40
Sample,154869,0,"bitter hat.wav",40
Sample,155169,0,"bitter hat.wav",40
Sample,155469,0,"bitter hat.wav",40
Sample,155619,0,"normal-hitwhistle.wav",40
Sample,155769,0,"bitter hat.wav",40
Sample,156069,0,"bitter hat.wav",40
Sample,156369,0,"bitter hat.wav",40
Sample,156669,0,"bitter hat.wav",40
Sample,156819,0,"normal-hitwhistle.wav",40
Sample,156969,0,"bitter hat.wav",40
Sample,157269,0,"bitter hat.wav",40
Sample,157569,0,"bitter hat.wav",40
Sample,157869,0,"bitter hat.wav",40
Sample,158019,0,"normal-hitwhistle.wav",40
Sample,158169,0,"bitter hat.wav",40
Sample,158469,0,"bitter hat.wav",40
Sample,158769,0,"bitter hat.wav",40
Sample,159069,0,"bitter hat.wav",40
Sample,159219,0,"normal-hitwhistle.wav",40
Sample,159369,0,"bitter hat.wav",40
Sample,159669,0,"bitter hat.wav",40
Sample,159969,0,"bitter hat.wav",40
Sample,160419,0,"normal-hitwhistle.wav",40
Sample,160419,0,"LR_Snare Drum .wav",40
Sample,160494,0,"LR_Snare Drum .wav",40
Sample,160569,0,"LR_Snare Drum .wav",40
Sample,160644,0,"LR_Snare Drum .wav",40
Sample,160719,0,"normal-hitfinish.wav",40
Sample,160719,0,"normal-hitwhistle.wav",40
Sample,160794,0,"LR_Snare Drum .wav",40
Sample,160869,0,"LR_Snare Drum .wav",40
Sample,160944,0,"LR_Snare Drum .wav",40
Sample,161169,0,"bitter hat.wav",40
Sample,161469,0,"bitter hat.wav",40
Sample,161619,0,"normal-hitwhistle.wav",40
Sample,161769,0,"bitter hat.wav",40
Sample,162069,0,"bitter hat.wav",40
Sample,162369,0,"bitter hat.wav",40
Sample,162669,0,"bitter hat.wav",40
Sample,162819,0,"normal-hitwhistle.wav",40
Sample,162969,0,"bitter hat.wav",40
Sample,163269,0,"bitter hat.wav",40
Sample,163569,0,"bitter hat.wav",40
Sample,163869,0,"bitter hat.wav",40
Sample,164019,0,"normal-hitwhistle.wav",40
Sample,164169,0,"bitter hat.wav",40
Sample,164469,0,"bitter hat.wav",40
Sample,164769,0,"bitter hat.wav",40
Sample,165069,0,"bitter hat.wav",40
Sample,165219,0,"normal-hitwhistle.wav",40
Sample,165369,0,"bitter hat.wav",40
Sample,165669,0,"bitter hat.wav",40
Sample,166119,0,"normal-hitwhistle.wav",40
Sample,166269,0,"bitter hat.wav",40
Sample,166719,0,"normal-hitfinish.wav",40
Sample,166869,0,"bitter hat.wav",40
Sample,167319,0,"normal-hitwhistle.wav",40
Sample,167469,0,"bitter hat.wav",40
Sample,167769,0,"bitter hat.wav",40
Sample,167919,0,"normal-hitfinish.wav",40
Sample,168069,0,"bitter hat.wav",40
Sample,168219,0,"cymbal light.wav",40
Sample,168444,0,"normal-hitwhistle.wav",40
Sample,168519,0,"normal-hitwhistle.wav",40
Sample,168519,0,"normal-hitfinish.wav",40
Sample,168819,0,"normal-hitfinish.wav",40
Sample,168969,0,"normal-hitwhistle.wav",40
Sample,169119,0,"normal-hitwhistle.wav",40
Sample,169119,0,"normal-hitfinish.wav",40
Sample,169269,0,"normal-hitwhistle.wav",40
Sample,169419,0,"normal-hitwhistle.wav",40
Sample,169794,0,"LR_Snare Drum .wav",40
Sample,169869,0,"LR_Snare Drum .wav",40
Sample,169944,0,"LR_Snare Drum .wav",40
Sample,170019,0,"LR_Snare Drum .wav",40
Sample,170094,0,"LR_Snare Drum .wav",40
Sample,170169,0,"LR_Snare Drum .wav",40
Sample,170244,0,"LR_Snare Drum .wav",40
Sample,170319,0,"LR_Snare Drum .wav",40
Sample,170469,0,"LR_Snare Drum .wav",40
Sample,170544,0,"LR_Snare Drum .wav",40
Sample,182619,0,"normal-hitwhistle.wav",40
Sample,183219,0,"normal-hitwhistle.wav",40
Sample,184419,0,"normal-hitfinish.wav",40
Sample,185619,0,"normal-hitwhistle.wav",40
Sample,186819,0,"normal-hitwhistle.wav",40
Sample,187344,0,"LR_Snare Drum .wav",40
Sample,187419,0,"LR_Snare Drum .wav",40
Sample,188019,0,"normal-hitwhistle.wav",40
Sample,188469,0,"LR_Snare Drum .wav",40
Sample,188544,0,"LR_Snare Drum .wav",40
Sample,188619,0,"normal-hitwhistle.wav",40
Sample,188619,0,"LR_Snare Drum .wav",40
Sample,188919,0,"normal-hitfinish.wav",40
Sample,189219,0,"normal-hitwhistle.wav",40
Sample,189219,0,"LR_Snare Drum .wav",40
Sample,189294,0,"LR_Snare Drum .wav",40
Sample,189369,0,"LR_Snare Drum .wav",40
Sample,189444,0,"LR_Snare Drum .wav",40
Sample,189519,0,"LR_Snare Drum .wav",40
Sample,189519,0,"normal-hitwhistle.wav",40
Sample,189594,0,"LR_Snare Drum .wav",40
Sample,189669,0,"LR_Snare Drum .wav",40
Sample,189819,0,"LR3_BassDrop.wav",40
Sample,191169,0,"normal-hitwhistle.wav",40
Sample,191319,0,"normal-hitfinish.wav",40
Sample,191469,0,"normal-hitwhistle.wav",40
Sample,191619,0,"normal-hitfinish.wav",40
Sample,191769,0,"normal-hitwhistle.wav",40
Sample,191919,0,"normal-hitfinish.wav",40
Sample,192069,0,"normal-hitwhistle.wav",40
Sample,192219,0,"normal-hitwhistle.wav",40
Sample,192219,0,"LR3_BassDrop.wav",40
Sample,192819,0,"normal-hitwhistle.wav",40
Sample,192819,0,"LR3_BassDrop.wav",40
Sample,193419,0,"normal-hitfinish.wav",40
Sample,193719,0,"normal-hitwhistle.wav",40
Sample,194019,0,"normal-hitfinish.wav",40
Sample,195819,0,"LR_Snare Drum .wav",40
Sample,195894,0,"LR_Snare Drum .wav",40
Sample,195969,0,"LR_Snare Drum .wav",40
Sample,196044,0,"LR_Snare Drum .wav",40
Sample,196119,0,"LR_Snare Drum .wav",40
Sample,196119,0,"normal-hitfinish.wav",40
Sample,196119,0,"normal-hitwhistle.wav",40
Sample,196194,0,"LR_Snare Drum .wav",40
Sample,196269,0,"LR_Snare Drum .wav",40
Sample,196344,0,"LR_Snare Drum .wav",40
Sample,196419,0,"LR_Snare Drum .wav",40
Sample,196494,0,"LR_Snare Drum .wav",40
Sample,196569,0,"LR_Snare Drum .wav",40
Sample,196644,0,"LR_Snare Drum .wav",40
Sample,196719,0,"LR_Snare Drum .wav",40
Sample,196719,0,"normal-hitwhistle.wav",40
Sample,196719,0,"normal-hitfinish.wav",40
Sample,196794,0,"LR_Snare Drum .wav",40
Sample,196869,0,"LR_Snare Drum .wav",40
Sample,196944,0,"LR_Snare Drum .wav",40
Sample,197019,0,"normal-hitfinish.wav",40
Sample,197219,0,"normal-hitwhistle.wav",40
Sample,197219,0,"normal-hitfinish.wav",40
Sample,197619,0,"normal-hitwhistle.wav",40
Sample,197619,0,"normal-hitfinish.wav",40
Sample,198419,0,"normal-hitwhistle.wav",40
Sample,198419,0,"normal-hitfinish.wav",40
Sample,198819,0,"normal-hitwhistle.wav",40
Sample,198819,0,"normal-hitfinish.wav",40
Sample,199419,0,"normal-hitwhistle.wav",40
Sample,199419,0,"cymbal light.wav",40
Sample,200769,0,"LR_Snare Drum .wav",40
Sample,200769,0,"normal-hitwhistle.wav",40
Sample,200769,0,"normal-hitfinish.wav",40
Sample,200844,0,"normal-hitfinish.wav",40
Sample,200844,0,"LR_Snare Drum .wav",40
Sample,200844,0,"normal-hitwhistle.wav",40
Sample,200919,0,"normal-hitwhistle.wav",40
Sample,200919,0,"LR_Snare Drum .wav",40
Sample,200919,0,"normal-hitfinish.wav",40
Sample,201069,0,"normal-hitfinish.wav",40
Sample,201069,0,"normal-hitwhistle.wav",40
Sample,201069,0,"LR_Snare Drum .wav",40
Sample,201219,0,"normal-hitfinish.wav",40
Sample,201219,0,"LR_Snare Drum .wav",40
Sample,201219,0,"normal-hitwhistle.wav",40
Sample,201369,0,"normal-hitfinish.wav",40
Sample,201369,0,"normal-hitwhistle.wav",40
Sample,201369,0,"LR_Snare Drum .wav",40
Sample,201519,0,"normal-hitfinish.wav",40
Sample,201519,0,"LR_Snare Drum .wav",40
Sample,201519,0,"normal-hitwhistle.wav",40
Sample,201669,0,"normal-hitfinish.wav",40
Sample,201669,0,"normal-hitwhistle.wav",40
Sample,201669,0,"LR_Snare Drum .wav",40
Sample,203019,0,"normal-hitwhistle.wav",40
Sample,203319,0,"normal-hitfinish.wav",40
Sample,205419,0,"normal-hitwhistle.wav",40
Sample,205419,0,"LR_Snare Drum .wav",40
Sample,205494,0,"LR_Snare Drum .wav",40
Sample,205569,0,"LR_Snare Drum .wav",40
Sample,205644,0,"LR_Snare Drum .wav",40
Sample,205719,0,"normal-hitfinish.wav",40
Sample,205719,0,"LR_Snare Drum .wav",40
Sample,205794,0,"LR_Snare Drum .wav",40
Sample,205869,0,"LR_Snare Drum .wav",40
Sample,205944,0,"LR_Snare Drum .wav",40
Sample,206019,0,"normal-hitwhistle.wav",40
Sample,206019,0,"LR_Snare Drum .wav",40
Sample,207819,0,"normal-hitfinish.wav",40
Sample,208119,0,"normal-hitwhistle.wav",40
Sample,208269,0,"LR_Snare Drum .wav",40
Sample,208344,0,"LR_Snare Drum .wav",40
Sample,208419,0,"normal-hitfinish.wav",40
Sample,208419,0,"LR_Snare Drum .wav",40
Sample,208569,0,"LR_Snare Drum .wav",40
Sample,208719,0,"normal-hitfinish.wav",40
Sample,208719,0,"LR_Snare Drum .wav",40
Sample,208869,0,"LR_Snare Drum .wav",40
Sample,209019,0,"normal-hitwhistle.wav",40
Sample,209019,0,"LR_Snare Drum .wav",40
Sample,209244,0,"LR_Drum Click.wav",40
Sample,209319,0,"LR_Drum Click.wav",40
Sample,209469,0,"LR_Drum Click.wav",40
Sample,209619,0,"LR_Drum Click.wav",40
Sample,209844,0,"LR_Drum Click.wav",40
Sample,209919,0,"LR_Drum Click.wav",40
Sample,210069,0,"LR_Drum Click.wav",40
Sample,210219,0,"LR_Drum Click.wav",40
Sample,210444,0,"LR_Drum Click.wav",40
Sample,210519,0,"LR_Drum Click.wav",40
Sample,210669,0,"LR_Drum Click.wav",40
Sample,210819,0,"LR_Drum Click.wav",40

[TimingPoints]
182,300,4,1,0,30,1,0
2619,300,4,1,0,30,1,0
2719,-100,4,1,1,30,0,0
60219,-100,4,1,1,30,0,1
67419,-100,4,1,1,30,0,0
69819,-100,4,1,1,30,0,1
78669,-100,4,1,1,30,0,0
122619,-100,4,1,1,30,0,1
129819,-100,4,1,1,30,0,0
132219,-100,4,1,1,30,0,1
141069,-100,4,1,1,30,0,0
185019,-100,4,1,1,30,0,1
192219,-100,4,1,1,30,0,0
194619,-100,4,1,1,30,0,1
209019,-100,4,1,1,30,0,0

[HitObjects]
64,192,182,5,0,0:0:0:40:normal-hitwhistle.wav
448,192,182,1,0,0:0:0:40:normal-hitfinish.wav
64,192,1382,1,0,0:0:0:40:normal-hitfinish.wav
64,192,1682,1,0,0:0:0:40:normal-hitwhistle.wav
448,192,1982,1,0,0:0:0:40:normal-hitwhistle.wav
448,192,2619,1,0,0:0:0:40:normal-hitfinish.wav
64,192,2619,1,0,0:0:0:40:normal-hitwhistle.wav
320,192,3819,1,0,0:0:0:40:normal-hitwhistle.wav
448,192,3819,1,0,0:0:0:40:normal-hitfinish.wav
192,192,4419,1,0,0:0:0:40:normal-hitfinish.wav
64,192,4419,1,0,0:0:0:40:normal-hitwhistle.wav
192,192,5019,1,0,0:0:0:40:normal-hitwhistle.wav
448,192,5019,1,0,0:0:0:40:normal-hitfinish.wav
320,192,6219,128,0,6369:0:0:0:40:normal-hitfinish.wav
192,192,6519,128,0,6669:0:0:0:40:soft-hitnormal.wav
64,192,6819,128,0,7119:0:0:0:40:normal-hitfinish.wav
64,192,7419,1,0,0:0:0:40:normal-hitfinish.wav
448,192,7419,1,0,0:0:0:40:normal-hitwhistle.wav
320,192,7719,1,0,0:0:0:40:normal-hitwhistle.wav
448,192,7719,1,0,0:0:0:40:normal-hitfinish.wav
320,192,8319,1,0,0:0:0:40:normal-hitwhistle.wav
448,192,8319,1,0,0:0:0:40:normal-hitfinish.wav
192,192,8619,1,0,0:0:0:40:normal-hitwhistle.wav
64,192,8919,1,0,0:0:0:40:normal-hitfinish.wav
192,192,8919,1,0,0:0:0:40:normal-hitwhistle.wav
320,192,9219,128,0,9519:0:0:0:40:LR_Snare Drum .wav
64,192,9519,1,0,0:0:0:40:LR_Snare Drum .wav
64,192,9819,1,0,0:0:0:40:LR_Snare Drum .wav
448,192,9819,1,0,0:0:0:40:soft-hitnormal.wav
64,192,10419,1,0,0:0:0:40:soft-hitnormal.wav
448,192,10419,1,0,0:0:0:40:normal-hitwhistle.wav
192,192,11019,1,0,0:0:0:40:normal-hitfinish.wav
320,192,11019,1,0,0:0:0:40:normal-hitwhistle.wav
192,192,11319,1,0,0:0:0:40:soft-hitnormal.wav
320,192,11319,1,0,0:0:0:40:normal-hitwhistle.wav
64,192,11619,1,0,0:0:0:40:normal-hitfinish.wav
448,192,11619,128,0,12219:0:0:0:40:normal-hitwhistle.wav
320,192,12219,1,0,0:0:0:0:
320,192,12519,1,0,0:0:0:0:
320,192,12819,1,0,0:0:0:0:
320,192,13269,1,0,0:0:0:0:
192,192,13419,1,0,0:0:0:0:
192,192,13719,1,0,0:0:0:0:
192,192,14019,128,0,14319:0:0:0:0:
448,192,14619,1,0,0:0:0:40:LR3_BassDrop.wav
448,192,15069,128,0,15519:0:0:0:40:LR3_BassDrop.wav
64,192,15519,1,0,0:0:0:40:normal-hitwhistle.wav
64,192,15819,1,0,0:0:0:40:LR3_BassDrop.wav
64,192,16269,128,0,16719:0:0:0:40:LR3_BassDrop.wav
448,192,16719,1,0,0:0:0:40:LR_Clap kick.wav
320,192,17019,128,0,17319:0:0:0:40:normal-hitwhistle.wav
192,192,17319,1,0,0:0:0:40:normal-hitwhistle.wav
448,192,17619,1,0,0:0:0:40:normal-hitwhistle.wav
64,192,17769,1,0,0:0:0:40:normal-hitfinish.wav
192,192,17919,1,0,0:0:0:40:normal-hitwhistle.wav
448,192,18219,128,0,18519:0:0:0:40:normal-hitwhistle.wav
320,192,18519,128,0,18819:0:0:0:40:normal-hitwhistle.wav
64,192,18819,128,0,19119:0:0:0:40:normal-hitfinish.wav
192,192,19419,1,0,0:0:0:40:LR3_BassDrop.wav
192,192,19869,128,0,20319:0:0:0:40:LR3_BassDrop.wav
320,192,20319,1,0,0:0:0:40:normal-hitwhistle.wav
320,192,20619,1,0,0:0:0:40:LR3_BassDrop.wav
320,192,21069,128,0,21519:0:0:0:40:LR3_BassDrop.wav
192,192,21519,1,0,0:0:0:40:LR_Clap kick.wav
448,192,21819,128,0,22119:0:0:0:40:normal-hitwhistle.wav
192,192,22119,1,0,0:0:0:40:normal-hitwhistle.wav
320,192,22419,1,0,0:0:0:40:normal-hitwhistle.wav
64,192,22569,1,0,0:0:0:40:normal-hitfinish.wav
448,192,22719,1,0,0:0:0:40:normal-hitwhistle.wav
64,192,23019,128,0,23319:0:0:0:40:normal-hitwhistle.wav
192,192,23319,128,0,23619:0:0:0:40:normal-hitwhistle.wav
448,192,23619,128,0,24219:0:0:0:40:normal-hitfinish.wav
64,192,24219,1,0,0:0:0:40:normal-hitwhistle.wav
64,192,24519,1,0,0:0:0:40:normal-hitfinish.wav
192,192,24519,1,0,0:0:0:40:normal-hitwhistle.wav
64,192,25119,1,0,0:0:0:40:normal-hitfinish.wav
320,192,25119,1,0,0:0:0:40:normal-hitwhistle.wav
448,192,25419,1,0,0:0:0:40:normal-hitwhistle.wav
448,192,25719,1,0,0:0:0:40:normal-hitwhistle.wav
320,192,25719,1,0,0:0:0:40:normal-hitfinish.wav
192,192,26319,1,0,0:0:0:40:normal-hitfinish.wav
448,192,26319,1,0,0:0:0:40:normal-hitwhistle.wav
320,192,26619,1,0,0:0:0:40:normal-hitwhistle.wav
320,192,26919,1,0,0:0:0:40:normal-hitwhistle.wav
192,192,26919,1,0,0:0:0:40:normal-hitfinish.wav
64,192,27519,1,0,0:0:0:40:normal-hitfinish.wav
320,192,27519,1,0,0:0:0:40:normal-hitwhistle.wav
448,192,27819,128,0,28119:0:0:0:40:normal-hitwhistle.wav
320,192,28119,128,0,28419:0:0:0:40:normal-hitwhistle.wav
192,192,28419,128,0,28719:0:0:0:40:normal-hitwhistle.wav
64,192,28719,128,0,29019:0:0:0:40:normal-hitfinish.wav
192,192,29019,1,0,0:0:0:40:LR_Snare Drum .wav
192,192,29319,1,0,0:0:0:40:normal-hitfinish.wav
320,192,29319,1,0,0:0:0:40:normal-hitwhistle.wav
192,192,29919,1,0,0:0:0:40:normal-hitfinish.wav
448,192,29919,1,0,0:0:0:40:normal-hitwhistle.wav
320,192,30219,1,0,0:0:0:40:normal-hitwhistle.wav
192,192,30519,1,0,0:0:0:40:normal-hitwhistle.wav
320,192,30519,1,0,0:0:0:40:normal-hitfinish.wav
64,192,31119,1,0,0:0:0:40:normal-hitwhistle.wav
320,192,31119,1,0,0:0:0:40:normal-hitfinish.wav
192,192,31419,128,0,32019:0:0:0:40:normal-hitwhistle.wav
448,192,32019,128,0,32619:0:0:0:40:normal-hitwhistle.wav
64,192,32619,128,0,32819:0:0:0:40:normal-hitfinish.wav
320,192,33019,128,0,33219:0:0:0:40:normal-hitfinish.wav
192,192,33219,128,0,33819:0:0:0:40:normal-hitwhistle.wav
448,192,33819,1,0,0:0:0:40:LR3_BassDrop.wav
448,192,34269,128,0,34719:0:0:0:40:LR3_BassDrop.wav
192,192,34719,1,0,0:0:0:40:normal-hitwhistle.wav
64,192,35019,1,0,0:0:0:40:LR3_BassDrop.wav
64,192,35469,128,0,35919:0:0:0:40:LR3_BassDrop.wav
320,192,35919,1,0,0:0:0:40:LR_Clap kick.wav
448,192,36219,128,0,36519:0:0:0:40:normal-hitwhistle.wav
192,192,36519,1,0,0:0:0:40:normal-hitwhistle.wav
320,192,36819,1,0,0:0:0:40:normal-hitwhistle.wav
64,192,36969,1,0,0:0:0:40:normal-hitfinish.wav
448,192,37269,1,0,0:0:0:40:normal-hitwhistle.wav
192,192,37569,1,0,0:0:0:0:
192,192,37869,1,0,0:0:0:0:
320,192,38019,128,0,38619:0:0:0:40:LR_Snare Drum .wav
64,192,38619,1,0,0:0:0:40:normal-hitwhistle.wav
64,192,38919,1,0,0:0:0:40:normal-hitfinish.wav
192,192,38919,1,0,0:0:0:40:normal-hitwhistle.wav
64,192,39519,1,0,0:0:0:40:normal-hitfinish.wav
448,192,39519,1,0,0:0:0:40:normal-hitwhistle.wav
192,192,39819,1,0,0:0:0:40:normal-hitwhistle.wav
320,192,40119,1,0,0:0:0:40:normal-hitwhistle.wav
448,192,40119,1,0,0:0:0:40:normal-hitfinish.wav
64,192,40719,1,0,0:0:0:40:normal-hitfinish.wav
448,192,40719,1,0,0:0:0:40:normal-hitwhistle.wav
320,192,41019,1,0,0:0:0:40:normal-hitwhistle.wav
320,192,41319,1,0,0:0:0:40:normal-hitwhistle.wav
64,192,41319,1,0,0:0:0:40:normal-hitfinish.wav
320,192,41919,1,0,0:0:0:40:normal-hitfinish.wav
448,192,41919,1,0,0:0:0:40:normal-hitwhistle.wav
64,192,42219,128,0,42519:0:0:0:40:normal-hitwhistle.wav
192,192,42519,128,0,42819:0:0:0:40:normal-hitwhistle.wav
320,192,42819,128,0,43119:0:0:0:40:normal-hitwhistle.wav
448,192,43119,128,0,43419:0:0:0:40:normal-hitfinish.wav
192,192,43419,1,0,0:0:0:40:LR_Snare Drum .wav
192,192,43719,1,0,0:0:0:40:normal-hitfinish.wav
448,192,43719,1,0,0:0:0:40:normal-hitwhistle.wav
64,192,44319,1,0,0:0:0:40:normal-hitfinish.wav
192,192,44319,1,0,0:0:0:40:normal-hitwhistle.wav
448,192,44619,1,0,0:0:0:40:normal-hitwhistle.wav
64,192,44919,1,0,0:0:0:40:normal-hitwhistle.wav
448,192,44919,1,0,0:0:0:40:normal-hitfinish.wav
192,192,45519,1,0,0:0:0:40:normal-hitwhistle.wav
320,192,45519,1,0,0:0:0:40:normal-hitfinish.wav
64,192,45819,128,0,46419:0:0:0:40:normal-hitwhistle.wav
448,192,46419,128,0,47019:0:0:0:40:normal-hitwhistle.wav
192,192,47019,128,0,47219:0:0:0:40:normal-hitfinish.wav
320,192,47419,128,0,47619:0:0:0:40:normal-hitfinish.wav
192,192,47619,128,0,48219:0:0:0:40:normal-hitwhistle.wav
448,192,48219,128,0,49419:0:0:0:40:normal-hitwhistle.wav
64,192,49269,128,0,49419:0:0:0:0:
64,192,50619,128,0,51819:0:0:0:40:LR3_BassDrop.wav
448,192,50619,1,0,0:0:0:0:
320,192,50919,1,0,0:0:0:0:
448,192,51219,1,0,0:0:0:0:
320,192,51519,1,0,0:0:0:0:
448,192,51819,128,0,53019:0:0:0:0:
192,192,51819,1,0,0:0:0:0:
64,192,52119,1,0,0:0:0:0:
192,192,52419,1,0,0:0:0:0:
64,192,52719,1,0,0:0:0:0:
320,192,53019,128,0,54219:0:0:0:40:LR3_BassDrop.wav
192,192,54069,128,0,54219:0:0:0:0:
64,192,55419,128,0,56019:0:0:0:40:normal-hitwhistle.wav
448,192,56019,128,0,56319:0:0:0:40:normal-hitwhistle.wav
192,192,56319,1,0,0:0:0:40:normal-hitwhistle.wav
320,192,56619,128,0,56919:0:0:0:40:normal-hitwhistle.wav
192,192,56919,128,0,57219:0:0:0:40:normal-hitwhistle.wav
448,192,57219,128,0,57519:0:0:0:40:normal-hitwhistle.wav
64,192,57519,128,0,57819:0:0:0:40:normal-hitwhistle.wav
320,192,57819,128,0,58119:0:0:0:40:normal-hitfinish.wav
192,192,58419,128,0,58719:0:0:0:40:normal-hitfinish.wav
64,192,59019,1,0,0:0:0:40:normal-hitwhistle.wav
448,192,59319,1,0,0:0:0:40:normal-hitwhistle.wav
64,192,59619,1,0,0:0:0:40:normal-hitfinish.wav
320,192,59919,128,0,60219:0:0:0:40:LR_Clap kick.wav
64,192,60219,1,0,0:0:0:40:normal-hitwhistle.wav
320,192,60519,1,0,0:0:0:40:normal-hitfinish.wav
448,192,60519,1,0,0:0:0:40:normal-hitwhistle.wav
320,192,61119,1,0,0:0:0:40:normal-hitwhistle.wav
448,192,61119,1,0,0:0:0:40:normal-hitfinish.wav
448,192,61419,1,0,0:0:0:40:normal-hitwhistle.wav
192,192,61719,1,0,0:0:0:40:normal-hitfinish.wav
64,192,61719,1,0,0:0:0:40:normal-hitwhistle.wav
320,192,62169,1,0,0:0:0:0:
192,192,62319,1,0,0:0:0:40:normal-hitwhistle.wav
64,192,62319,1,0,0:0:0:40:normal-hitfinish.wav
320,192,62619,1,0,0:0:0:40:normal-hitwhistle.wav
192,192,62919,1,0,0:0:0:40:normal-hitfinish.wav
448,192,62919,1,0,0:0:0:40:normal-hitwhistle.wav
64,192,63519,1,0,0:0:0:40:normal-hitfinish.wav
320,192,63519,1,0,0:0:0:40:normal-hitwhistle.wav
192,192,63819,128,0,64119:0:0:0:40:normal-hitfinish.wav
320,192,64119,128,0,64419:0:0:0:40:normal-hitwhistle.wav
448,192,64419,128,0,65019:0:0:0:40:normal-hitfinish.wav
64,192,65019,1,0,0:0:0:40:normal-hitwhistle.wav
192,192,65019,1,0,0:0:0:40:LR3_BassDrop.wav
64,192,66369,1,0,0:0:0:40:normal-hitfinish.wav
192,192,66519,1,0,0:0:0:40:normal-hitwhistle.wav
320,192,66669,1,0,0:0:0:40:normal-hitfinish.wav
448,192,66819,1,0,0:0:0:40:normal-hitwhistle.wav
320,192,66969,1,0,0:0:0:40:normal-hitfinish.wav
192,192,67119,1,0,0:0:0:40:normal-hitwhistle.wav
64,192,67269,1,0,0:0:0:40:normal-hitfinish.wav
448,192,67419,128,0,67719:0:0:0:40:normal-hitfinish.wav
192,192,67719,1,0,0:0:0:0:
64,192,68019,128,0,68319:0:0:0:40:normal-hitfinish.wav
320,192,68319,1,0,0:0:0:0:
192,192,68619,128,0,68769:0:0:0:40:normal-hitwhistle.wav
320,192,68919,128,0,69069:0:0:0:40:normal-hitfinish.wav
192,192,69219,1,0,0:0:0:40:normal-hitwhistle.wav
448,192,69519,128,0,69819:0:0:0:40:LR_Clap kick.wav
192,192,69819,1,0,0:0:0:40:normal-hitwhistle.wav
320,192,70119,1,0,0:0:0:40:normal-hitfinish.wav
448,192,70119,1,0,0:0:0:40:normal-hitwhistle.wav
192,192,70719,1,0,0:0:0:40:normal-hitwhistle.wav
320,192,70719,1,0,0:0:0:40:normal-hitfinish.wav
448,192,71019,1,0,0:0:0:40:normal-hitwhistle.wav
64,192,71319,1,0,0:0:0:40:normal-hitfinish.wav
192,192,71319,1,0,0:0:0:40:normal-hitwhistle.wav
192,192,71919,1,0,0:0:0:40:normal-hitwhistle.wav
320,192,71919,1,0,0:0:0:40:normal-hitfinish.wav
64,192,72219,128,0,72419:0:0:0:40:normal-hitwhistle.wav
448,192,72619,128,0,72819:0:0:0:40:normal-hitfinish.wav
192,192,73419,128,0,73619:0:0:0:40:normal-hitwhistle.wav
320,192,73819,128,0,74019:0:0:0:40:normal-hitfinish.wav
448,192,74469,1,0,0:0:0:0:
64,192,74619,128,0,74919:0:0:0:40:LR3_BassDrop.wav
192,192,74919,128,0,75219:0:0:0:0:
320,192,75219,128,0,75519:0:0:0:0:
448,192,75519,128,0,75819:0:0:0:0:
64,192,75819,128,0,77019:0:0:0:0:
320,192,77019,1,0,0:0:0:40:cymbal light.wav
192,192,77319,1,0,0:0:0:40:normal-hitwhistle.wav
448,192,77319,1,0,0:0:0:40:normal-hitfinish.wav
320,192,77619,1,0,0:0:0:40:normal-hitwhistle.wav
64,192,77919,1,0,0:0:0:40:normal-hitwhistle.wav
192,192,77919,1,0,0:0:0:40:normal-hitfinish.wav
448,192,78219,128,0,78369:0:0:0:40:normal-hitfinish.wav
64,192,78519,128,0,78669:0:0:0:40:normal-hitwhistle.wav
320,192,78819,1,0,0:0:0:40:normal-hitfinish.wav
448,192,78819,1,0,0:0:0:40:normal-hitwhistle.wav
64,192,79419,1,0,0:0:0:40:normal-hitwhistle.wav
448,192,79419,1,0,0:0:0:40:cymbal light.wav
320,192,79719,1,0,0:0:0:40:normal-hitfinish.wav
448,192,79719,1,0,0:0:0:40:normal-hitwhistle.wav
64,192,80319,1,0,0:0:0:40:normal-hitwhistle.wav
192,192,80319,1,0,0:0:0:40:normal-hitfinish.wav
448,192,80619,1,0,0:0:0:40:normal-hitwhistle.wav
192,192,80919,1,0,0:0:0:40:normal-hitfinish.wav
320,192,80919,1,0,0:0:0:40:normal-hitwhistle.wav
320,192,81519,1,0,0:0:0:40:normal-hitwhistle.wav
448,192,81519,1,0,0:0:0:40:normal-hitfinish.wav
64,192,81819,1,0,0:0:0:40:normal-hitwhistle.wav
192,192,82119,1,0,0:0:0:40:normal-hitfinish.wav
320,192,82119,1,0,0:0:0:40:normal-hitwhistle.wav
64,192,82719,1,0,0:0:0:40:normal-hitwhistle.wav
192,192,82719,1,0,0:0:0:40:normal-hitfinish.wav
320,192,83019,128,0,83169:0:0:0:40:normal-hitwhistle.wav
192,192,83319,128,0,83469:0:0:0:40:soft-hitnormal.wav
320,192,83619,128,0,83919:0:0:0:40:soft-hitnormal.wav
64,192,84219,1,0,0:0:0:40:normal-hitwhistle.wav
448,192,84219,1,0,0:0:0:40:cymbal light.wav
320,192,84519,1,0,0:0:0:40:normal-hitfinish.wav
448,192,84519,1,0,0:0:0:40:normal-hitwhistle.wav
192,192,85119,1,0,0:0:0:40:normal-hitwhistle.wav
320,192,85119,1,0,0:0:0:40:normal-hitfinish.wav
448,192,85419,1,0,0:0:0:40:normal-hitwhistle.wav
64,192,85719,1,0,0:0:0:40:normal-hitfinish.wav
320,192,85719,1,0,0:0:0:40:normal-hitwhistle.wav
448,192,86019,128,0,86319:0:0:0:40:normal-hitwhistle.wav
192,192,86319,128,0,86619:0:0:0:40:normal-hitwhistle.wav
320,192,86619,1,0,0:0:0:40:soft-hitnormal.wav
448,192,86619,1,0,0:0:0:40:normal-hitwhistle.wav
320,192,87219,1,0,0:0:0:40:soft-hitnormal.wav
448,192,87219,1,0,0:0:0:40:normal-hitwhistle.wav
64,192,87819,1,0,0:0:0:40:normal-hitfinish.wav
448,192,88119,1,0,0:0:0:40:normal-hitwhistle.wav
64,192,88419,128,0,89019:0:0:0:40:normal-hitwhistle.wav
320,192,89019,1,0,0:0:0:0:
320,192,89319,1,0,0:0:0:0:
320,192,89619,1,0,0:0:0:0:
320,192,90069,1,0,0:0:0:0:
192,192,90219,1,0,0:0:0:0:
192,192,90519,1,0,0:0:0:0:
192,192,90819,1,0,0:0:0:0:
320,192,91119,128,0,91419:0:0:0:0:
64,192,91419,1,0,0:0:0:40:LR3_BassDrop.wav
64,192,91869,128,0,92319:0:0:0:40:LR3_BassDrop.wav
448,192,92319,1,0,0:0:0:40:normal-hitwhistle.wav
320,192,92619,1,0,0:0:0:40:LR3_BassDrop.wav
320,192,93069,128,0,93519:0:0:0:40:LR3_BassDrop.wav
192,192,93519,1,0,0:0:0:40:LR_Clap kick.wav
64,192,93819,128,0,94119:0:0:0:40:normal-hitwhistle.wav
448,192,94119,1,0,0:0:0:40:normal-hitwhistle.wav
192,192,94419,128,0,94719:0:0:0:40:normal-hitwhistle.wav
448,192,94719,1,0,0:0:0:40:normal-hitwhistle.wav
320,192,95019,128,0,95319:0:0:0:40:normal-hitwhistle.wav
192,192,95319,128,0,95619:0:0:0:40:normal-hitwhistle.wav
64,192,95619,128,0,96219:0:0:0:40:normal-hitfinish.wav
192,192,96219,1,0,0:0:0:40:LR3_BassDrop.wav
192,192,96669,128,0,97119:0:0:0:40:LR3_BassDrop.wav
448,192,97119,1,0,0:0:0:40:normal-hitwhistle.wav
320,192,97419,1,0,0:0:0:40:LR3_BassDrop.wav
320,192,97869,128,0,98319:0:0:0:40:LR3_BassDrop.wav
64,192,98319,1,0,0:0:0:40:LR_Clap kick.wav
320,192,98619,128,0,98919:0:0:0:40:normal-hitwhistle.wav
64,192,98919,1,0,0:0:0:40:normal-hitwhistle.wav
448,192,99219,128,0,99519:0:0:0:40:normal-hitwhistle.wav
64,192,99519,1,0,0:0:0:40:normal-hitwhistle.wav
192,192,99819,128,0,100119:0:0:0:40:normal-hitwhistle.wav
320,192,100119,128,0,100419:0:0:0:40:normal-hitwhistle.wav
448,192,100419,128,0,101019:0:0:0:40:normal-hitfinish.wav
192,192,101019,1,0,0:0:0:40:normal-hitwhistle.wav
192,192,101319,1,0,0:0:0:40:normal-hitfinish.wav
448,192,101319,1,0,0:0:0:40:normal-hitwhistle.wav
320,192,101919,1,0,0:0:0:40:normal-hitfinish.wav
448,192,101919,1,0,0:0:0:40:normal-hitwhistle.wav
192,192,102219,1,0,0:0:0:40:normal-hitwhistle.wav
64,192,102519,1,0,0:0:0:40:normal-hitwhistle.wav
320,192,102519,1,0,0:0:0:40:normal-hitfinish.wav
192,192,103119,1,0,0:0:0:40:normal-hitfinish.wav
320,192,103119,1,0,0:0:0:40:normal-hitwhistle.wav
448,192,103419,1,0,0:0:0:40:normal-hitwhistle.wav
64,192,103719,1,0,0:0:0:40:normal-hitwhistle.wav
320,192,103719,1,0,0:0:0:40:normal-hitfinish.wav
192,192,104319,1,0,0:0:0:40:normal-hitfinish.wav
448,192,104319,1,0,0:0:0:40:normal-hitwhistle.wav
64,192,104619,128,0,104919:0:0:0:40:normal-hitwhistle.wav
192,192,104919,128,0,105219:0:0:0:40:normal-hitwhistle.wav
448,192,105219,128,0,105519:0:0:0:40:normal-hitwhistle.wav
320,192,105519,128,0,105819:0:0:0:40:normal-hitfinish.wav
64,192,105819,1,0,0:0:0:40:LR_Snare Drum .wav
192,192,106119,1,0,0:0:0:40:normal-hitfinish.wav
448,192,106119,1,0,0:0:0:40:normal-hitwhistle.wav
64,192,106719,1,0,0:0:0:40:normal-hitfinish.wav
192,192,106719,1,0,0:0:0:40:normal-hitwhistle.wav
448,192,107019,1,0,0:0:0:40:normal-hitwhistle.wav
64,192,107319,1,0,0:0:0:40:normal-hitwhistle.wav
320,192,107319,1,0,0:0:0:40:normal-hitfinish.wav
320,192,107919,1,0,0:0:0:40:normal-hitwhistle.wav
448,192,107919,1,0,0:0:0:40:normal-hitfinish.wav
192,192,108219,128,0,108819:0:0:0:40:normal-hitwhistle.wav
448,192,108819,128,0,109419:0:0:0:40:normal-hitwhistle.wav
64,192,109419,128,0,109619:0:0:0:40:normal-hitfinish.wav
320,192,109819,128,0,110019:0:0:0:40:normal-hitfinish.wav
192,192,110019,128,0,110619:0:0:0:40:normal-hitwhistle.wav
320,192,110619,1,0,0:0:0:40:normal-hitwhistle.wav
448,192,110619,1,0,0:0:0:0:
64,192,110769,1,0,0:0:0:40:normal-hitwhistle.wav
192,192,111069,1,0,0:0:0:40:LR_Drum Click.wav
320,192,111369,1,0,0:0:0:40:LR_Drum Click.wav
448,192,111669,1,0,0:0:0:40:normal-hitfinish.wav
192,192,111819,1,0,0:0:0:40:normal-hitwhistle.wav
320,192,111969,1,0,0:0:0:40:LR_Drum Click.wav
192,192,112269,1,0,0:0:0:40:normal-hitfinish.wav
64,192,112569,1,0,0:0:0:40:LR_Drum Click.wav
192,192,112869,1,0,0:0:0:40:normal-hitfinish.wav
448,192,113019,1,0,0:0:0:40:normal-hitwhistle.wav
64,192,113169,1,0,0:0:0:40:LR_Snare Drum .wav
320,192,113469,1,0,0:0:0:40:normal-hitwhistle.wav
448,192,113619,1,0,0:0:0:40:normal-hitwhistle.wav
192,192,113769,1,0,0:0:0:40:normal-hitwhistle.wav
320,192,114069,1,0,0:0:0:40:LR_Drum Click.wav
192,192,114219,128,0,114519:0:0:0:40:cymbal light.wav
64,192,114519,128,0,114819:0:0:0:40:normal-hitwhistle.wav
320,192,114819,128,0,115119:0:0:0:40:normal-hitwhistle.wav
448,192,115119,128,0,115419:0:0:0:40:LR_Snare Drum .wav
192,192,115419,1,0,0:0:0:40:cymbal light.wav
320,192,115569,1,0,0:0:0:40:LR_Snare Drum .wav
64,192,115869,1,0,0:0:0:40:normal-hitfinish.wav
448,192,116169,1,0,0:0:0:40:LR_Drum Click.wav
192,192,116469,1,0,0:0:0:40:normal-hitfinish.wav
320,192,116769,1,0,0:0:0:40:LR_Drum Click.wav
64,192,117069,1,0,0:0:0:40:LR_Drum Click.wav
448,192,117369,1,0,0:0:0:40:normal-hitfinish.wav
192,192,117669,1,0,0:0:0:40:LR_Drum Click.wav
448,192,117819,1,0,0:0:0:40:normal-hitwhistle.wav
64,192,117969,1,0,0:0:0:40:LR_Drum Click.wav
320,192,118269,1,0,0:0:0:40:normal-hitwhistle.wav
64,192,118419,128,0,118719:0:0:0:40:cymbal light.wav
448,192,118719,128,0,119019:0:0:0:40:cymbal light.wav
64,192,119019,1,0,0:0:0:40:cymbal light.wav
192,192,119019,1,0,0:0:0:40:normal-hitfinish.wav
320,192,119319,1,0,0:0:0:40:normal-hitfinish.wav
448,192,119319,1,0,0:0:0:40:normal-hitwhistle.wav
64,192,119619,128,0,119769:0:0:0:40:normal-hitwhistle.wav
448,192,119919,128,0,120069:0:0:0:0:
64,192,120219,1,0,0:0:0:40:normal-hitfinish.wav
192,192,120219,1,0,0:0:0:40:cymbal light.wav
320,192,120819,1,0,0:0:0:40:normal-hitfinish.wav
448,192,120819,1,0,0:0:0:40:cymbal light.wav
192,192,121419,1,0,0:0:0:40:normal-hitwhistle.wav
64,192,121719,1,0,0:0:0:40:normal-hitfinish.wav
320,192,122019,1,0,0:0:0:40:normal-hitfinish.wav
448,192,122319,128,0,122619:0:0:0:40:LR_Clap kick.wav
320,192,122619,1,0,0:0:0:40:normal-hitwhistle.wav
64,192,122919,1,0,0:0:0:40:normal-hitfinish.wav
448,192,122919,1,0,0:0:0:40:normal-hitwhistle.wav
64,192,123519,1,0,0:0:0:40:normal-hitwhistle.wav
448,192,123519,1,0,0:0:0:40:normal-hitfinish.wav
320,192,123819,128,0,124119:0:0:0:40:normal-hitwhistle.wav
192,192,124119,128,0,124419:0:0:0:40:normal-hitfinish.wav
448,192,124419,128,0,125019:0:0:0:40:normal-hitwhistle.wav
64,192,125019,1,0,0:0:0:40:normal-hitwhistle.wav
192,192,125319,1,0,0:0:0:40:normal-hitfinish.wav
448,192,125319,1,0,0:0:0:40:normal-hitwhistle.wav
320,192,125919,1,0,0:0:0:40:normal-hitfinish.wav
448,192,125919,1,0,0:0:0:40:normal-hitwhistle.wav
64,192,126219,128,0,126519:0:0:0:40:normal-hitfinish.wav
192,192,126519,128,0,126819:0:0:0:40:normal-hitwhistle.wav
448,192,126819,128,0,127419:0:0:0:40:normal-hitfinish.wav
64,192,127419,1,0,0:0:0:40:normal-hitwhistle.wav
192,192,127419,1,0,0:0:0:40:LR3_BassDrop.wav
448,192,128769,1,0,0:0:0:40:normal-hitfinish.wav
320,192,128919,1,0,0:0:0:40:normal-hitwhistle.wav
192,192,129069,1,0,0:0:0:40:normal-hitfinish.wav
64,192,129219,1,0,0:0:0:40:normal-hitwhistle.wav
192,192,129369,1,0,0:0:0:40:normal-hitfinish.wav
320,192,129519,1,0,0:0:0:40:normal-hitwhistle.wav
448,192,129669,1,0,0:0:0:40:normal-hitfinish.wav
64,192,129819,128,0,129969:0:0:0:40:normal-hitfinish.wav
448,192,130419,128,0,130569:0:0:0:40:normal-hitfinish.wav
64,192,131019,1,0,0:0:0:40:normal-hitwhistle.wav
192,192,131319,1,0,0:0:0:40:normal-hitfinish.wav
320,192,131619,1,0,0:0:0:40:normal-hitwhistle.wav
64,192,131919,128,0,132219:0:0:0:40:LR_Clap kick.wav
320,192,132219,1,0,0:0:0:40:normal-hitwhistle.wav
192,192,132519,1,0,0:0:0:40:normal-hitfinish.wav
448,192,132519,1,0,0:0:0:40:normal-hitwhistle.wav
64,192,133119,1,0,0:0:0:40:normal-hitwhistle.wav
448,192,133119,1,0,0:0:0:40:normal-hitfinish.wav
192,192,133419,128,0,134019:0:0:0:40:normal-hitwhistle.wav
448,192,134019,128,0,134619:0:0:0:40:normal-hitwhistle.wav
64,192,134619,128,0,134819:0:0:0:40:normal-hitwhistle.wav
320,192,135019,128,0,135219:0:0:0:40:normal-hitfinish.wav
192,192,135819,128,0,136019:0:0:0:40:normal-hitwhistle.wav
448,192,136219,128,0,136419:0:0:0:40:normal-hitfinish.wav
320,192,136869,128,0,137019:0:0:0:0:
64,192,137019,128,0,138219:0:0:0:40:LR3_BassDrop.wav
320,192,138369,128,0,138519:0:0:0:40:LR_Snare Drum .wav
192,192,138519,1,0,0:0:0:40:normal-hitwhistle.wav
320,192,138819,1,0,0:0:0:40:normal-hitfinish.wav
192,192,139119,1,0,0:0:0:40:normal-hitfinish.wav
64,192,139419,1,0,0:0:0:40:cymbal light.wav
448,192,139419,1,0,0:0:0:40:normal-hitwhistle.wav
320,192,139719,1,0,0:0:0:40:normal-hitwhistle.wav
448,192,139719,1,0,0:0:0:40:normal-hitfinish.wav
64,192,140319,1,0,0:0:0:40:normal-hitwhistle.wav
320,192,140319,1,0,0:0:0:40:normal-hitfinish.wav
192,192,140619,128,0,140919:0:0:0:40:normal-hitfinish.wav
320,192,140919,128,0,141219:0:0:0:40:normal-hitwhistle.wav
448,192,141219,128,0,141369:0:0:0:40:normal-hitfinish.wav
64,192,141819,1,0,0:0:0:40:normal-hitfinish.wav
192,192,141819,1,0,0:0:0:40:normal-hitwhistle.wav
192,192,143019,1,0,0:0:0:40:normal-hitwhistle.wav
320,192,143019,1,0,0:0:0:40:normal-hitfinish.wav
320,192,143619,1,0,0:0:0:40:normal-hitfinish.wav
448,192,143619,1,0,0:0:0:40:normal-hitwhistle.wav
64,192,144219,1,0,0:0:0:40:normal-hitwhistle.wav
320,192,144219,1,0,0:0:0:40:soft-hitnormal.wav
448,192,145419,1,0,0:0:0:40:normal-hitwhistle.wav
64,192,145719,1,0,0:0:0:40:normal-hitwhistle.wav
448,192,146019,1,0,0:0:0:40:normal-hitwhistle.wav
320,192,146319,1,0,0:0:0:0:
64,192,146619,1,0,0:0:0:40:normal-hitwhistle.wav
448,192,146619,1,0,0:0:0:40:soft-hitnormal.wav
192,192,147819,1,0,0:0:0:40:normal-hitwhistle.wav
320,192,147819,1,0,0:0:0:40:normal-hitfinish.wav
64,192,148419,1,0,0:0:0:40:normal-hitfinish.wav
448,192,148419,1,0,0:0:0:40:normal-hitwhistle.wav
320,192,149019,1,0,0:0:0:40:normal-hitwhistle.wav
448,192,149019,1,0,0:0:0:40:normal-hitfinish.wav
192,192,150219,1,0,0:0:0:40:normal-hitfinish.wav
320,192,150519,1,0,0:0:0:40:normal-hitfinish.wav
448,192,150819,1,0,0:0:0:40:normal-hitfinish.wav
64,192,151119,1,0,0:0:0:40:LR_Clap kick.wav
192,192,151419,1,0,0:0:0:40:cymbal light.wav
448,192,151419,1,0,0:0:0:40:normal-hitwhistle.wav
64,192,151719,1,0,0:0:0:40:normal-hitwhistle.wav
192,192,151719,1,0,0:0:0:40:normal-hitfinish.wav
192,192,152319,1,0,0:0:0:40:normal-hitfinish.wav
320,192,152319,1,0,0:0:0:40:normal-hitwhistle.wav
448,192,152619,1,0,0:0:0:40:normal-hitwhistle.wav
64,192,152919,1,0,0:0:0:40:normal-hitwhistle.wav
320,192,152919,1,0,0:0:0:40:normal-hitfinish.wav
320,192,153519,1,0,0:0:0:40:normal-hitfinish.wav
448,192,153519,1,0,0:0:0:40:normal-hitwhistle.wav
192,192,153819,1,0,0:0:0:40:normal-hitwhistle.wav
64,192,154119,1,0,0:0:0:40:normal-hitwhistle.wav
320,192,154119,1,0,0:0:0:40:normal-hitfinish.wav
192,192,154719,1,0,0:0:0:40:normal-hitwhistle.wav
320,192,154719,1,0,0:0:0:40:normal-hitfinish.wav
448,192,155019,1,0,0:0:0:40:normal-hitwhistle.wav
192,192,155319,1,0,0:0:0:40:normal-hitfinish.wav
448,192,155319,1,0,0:0:0:40:normal-hitwhistle.wav
64,192,155919,1,0,0:0:0:40:normal-hitwhistle.wav
192,192,155919,1,0,0:0:0:40:normal-hitfinish.wav
448,192,156219,1,0,0:0:0:40:cymbal light.wav
320,192,156519,1,0,0:0:0:40:normal-hitfinish.wav
448,192,156519,1,0,0:0:0:40:normal-hitwhistle.wav
192,192,157119,1,0,0:0:0:40:normal-hitwhistle.wav
320,192,157119,1,0,0:0:0:40:normal-hitfinish.wav
448,192,157419,1,0,0:0:0:40:normal-hitwhistle.wav
64,192,157719,1,0,0:0:0:40:normal-hitfinish.wav
448,192,157719,1,0,0:0:0:40:normal-hitwhistle.wav
64,192,158319,1,0,0:0:0:40:normal-hitwhistle.wav
320,192,158319,1,0,0:0:0:40:normal-hitfinish.wav
448,192,158619,1,0,0:0:0:40:cymbal light.wav
64,192,158919,1,0,0:0:0:40:normal-hitwhistle.wav
192,192,158919,1,0,0:0:0:40:normal-hitfinish.wav
192,192,159519,1,0,0:0:0:40:normal-hitfinish.wav
448,192,159519,1,0,0:0:0:40:normal-hitwhistle.wav
320,192,159819,1,0,0:0:0:40:normal-hitwhistle.wav
64,192,160119,1,0,0:0:0:40:normal-hitwhistle.wav
192,192,160119,1,0,0:0:0:40:normal-hitfinish.wav
320,192,160419,128,0,160719:0:0:0:40:LR_Tom Hit.wav
192,192,160719,128,0,161019:0:0:0:40:LR_Snare Drum .wav
448,192,161019,1,0,0:0:0:40:cymbal light.wav
64,192,161019,1,0,0:0:0:40:normal-hitwhistle.wav
192,192,161319,1,0,0:0:0:40:normal-hitwhistle.wav
448,192,161319,1,0,0:0:0:40:normal-hitfinish.wav
64,192,161919,1,0,0:0:0:40:normal-hitfinish.wav
320,192,161919,1,0,0:0:0:40:normal-hitwhistle.wav
192,192,162219,1,0,0:0:0:40:normal-hitwhistle.wav
320,192,162519,1,0,0:0:0:40:normal-hitwhistle.wav
448,192,162519,1,0,0:0:0:40:normal-hitfinish.wav
192,192,163119,1,0,0:0:0:40:normal-hitfinish.wav
320,192,163119,1,0,0:0:0:40:normal-hitwhistle.wav
448,192,163419,1,0,0:0:0:40:normal-hitwhistle.wav
64,192,163719,1,0,0:0:0:40:normal-hitwhistle.wav
192,192,163719,1,0,0:0:0:40:normal-hitfinish.wav
192,192,164319,1,0,0:0:0:40:normal-hitwhistle.wav
320,192,164319,1,0,0:0:0:40:normal-hitfinish.wav
64,192,164619,1,0,0:0:0:40:normal-hitwhistle.wav
192,192,164919,1,0,0:0:0:40:normal-hitfinish.wav
448,192,164919,1,0,0:0:0:40:normal-hitwhistle.wav
320,192,165519,1,0,0:0:0:40:normal-hitwhistle.wav
448,192,165519,1,0,0:0:0:40:normal-hitfinish.wav
64,192,165819,1,0,0:0:0:40:normal-hitwhistle.wav
192,192,165969,1,0,0:0:0:40:bitter hat.wav
320,192,166119,128,0,166269:0:0:0:40:normal-hitfinish.wav
192,192,166419,1,0,0:0:0:40:normal-hitwhistle.wav
320,192,166569,1,0,0:0:0:40:bitter hat.wav
448,192,166719,128,0,166869:0:0:0:40:normal-hitwhistle.wav
64,192,167019,1,0,0:0:0:40:normal-hitwhistle.wav
192,192,167169,1,0,0:0:0:40:bitter hat.wav
320,192,167319,128,0,167469:0:0:0:40:normal-hitfinish.wav
64,192,167619,128,0,167919:0:0:0:40:normal-hitwhistle.wav
320,192,167919,128,0,168219:0:0:0:40:normal-hitwhistle.wav
448,192,168219,128,0,168669:0:0:0:40:normal-hitwhistle.wav
64,192,168669,1,0,0:0:0:40:normal-hitwhistle.wav
192,192,168819,128,0,169419:0:0:0:40:normal-hitwhistle.wav
448,192,169419,1,0,0:0:0:40:normal-hitfinish.wav
64,192,169569,1,0,0:0:0:40:normal-hitwhistle.wav
320,192,169719,128,0,170619:0:0:0:40:LR_Snare Drum .wav
192,192,170619,1,0,0:0:0:0:
448,192,171819,1,0,0:0:0:0:
64,192,172419,1,0,0:0:0:0:
192,192,173019,1,0,0:0:0:0:
320,192,173619,1,0,0:0:0:0:
448,192,174219,128,0,175419:0:0:0:0:
64,192,175419,1,0,0:0:0:0:
192,192,176619,1,0,0:0:0:0:
320,192,177219,1,0,0:0:0:0:
448,192,177819,1,0,0:0:0:0:
320,192,178269,128,0,178419:0:0:0:0:
64,192,178419,1,0,0:0:0:0:
448,192,178719,1,0,0:0:0:0:
192,192,179019,128,0,179619:0:0:0:0:
320,192,179619,128,0,179919:0:0:0:0:
64,192,180219,128,0,182619:0:0:0:40:LR3_BassDrop.wav
320,192,182619,1,0,0:0:0:40:normal-hitfinish.wav
448,192,182619,128,0,182769:0:0:0:40:cymbal light.wav
64,192,183219,128,0,183369:0:0:0:40:normal-hitfinish.wav
192,192,183219,1,0,0:0:0:40:cymbal light.wav
320,192,183819,1,0,0:0:0:40:normal-hitwhistle.wav
192,192,184119,1,0,0:0:0:40:normal-hitwhistle.wav
448,192,184419,1,0,0:0:0:40:normal-hitwhistle.wav
192,192,184719,128,0,185019:0:0:0:40:LR_Clap kick.wav
320,192,185019,1,0,0:0:0:40:normal-hitwhistle.wav
448,192,185019,1,0,0:0:0:0:
64,192,185319,1,0,0:0:0:40:normal-hitfinish.wav
320,192,185319,1,0,0:0:0:40:normal-hitwhistle.wav
192,192,185919,1,0,0:0:0:40:normal-hitwhistle.wav
320,192,185919,1,0,0:0:0:40:normal-hitfinish.wav
64,192,186219,1,0,0:0:0:40:normal-hitwhistle.wav
192,192,186519,1,0,0:0:0:40:normal-hitfinish.wav
448,192,186519,1,0,0:0:0:40:normal-hitwhistle.wav
320,192,187119,1,0,0:0:0:40:normal-hitwhistle.wav
448,192,187119,1,0,0:0:0:40:normal-hitfinish.wav
64,192,187269,1,0,0:0:0:40:LR_Snare Drum .wav
192,192,187419,1,0,0:0:0:40:normal-hitwhistle.wav
64,192,187719,1,0,0:0:0:40:normal-hitfinish.wav
448,192,187719,1,0,0:0:0:40:normal-hitwhistle.wav
64,192,188319,1,0,0:0:0:40:normal-hitfinish.wav
320,192,188319,1,0,0:0:0:40:normal-hitwhistle.wav
448,192,188619,128,0,188919:0:0:0:40:normal-hitfinish.wav
320,192,188919,128,0,189219:0:0:0:40:normal-hitwhistle.wav
192,192,189219,128,0,189819:0:0:0:40:normal-hitfinish.wav
64,192,189819,1,0,0:0:0:40:normal-hitwhistle.wav
192,192,191169,1,0,0:0:0:40:normal-hitfinish.wav
320,192,191319,1,0,0:0:0:40:normal-hitwhistle.wav
192,192,191469,1,0,0:0:0:40:normal-hitfinish.wav
448,192,191619,1,0,0:0:0:40:normal-hitwhistle.wav
64,192,191769,1,0,0:0:0:40:normal-hitfinish.wav
192,192,191919,1,0,0:0:0:40:normal-hitwhistle.wav
320,192,192069,1,0,0:0:0:40:normal-hitfinish.wav
448,192,192219,128,0,192369:0:0:0:40:normal-hitfinish.wav
64,192,192819,128,0,192969:0:0:0:40:normal-hitfinish.wav
192,192,193419,128,0,193719:0:0:0:40:normal-hitwhistle.wav
320,192,193719,128,0,194019:0:0:0:40:normal-hitfinish.wav
64,192,194019,1,0,0:0:0:40:normal-hitwhistle.wav
448,192,194319,128,0,194469:0:0:0:40:LR_Clap kick.wav
64,192,194619,1,0,0:0:0:40:normal-hitwhistle.wav
320,192,194619,1,0,0:0:0:0:
192,192,194919,1,0,0:0:0:40:normal-hitfinish.wav
448,192,194919,1,0,0:0:0:40:normal-hitwhistle.wav
64,192,195519,1,0,0:0:0:40:normal-hitwhistle.wav
192,192,195519,1,0,0:0:0:40:normal-hitfinish.wav
320,192,195819,128,0,196419:0:0:0:40:normal-hitwhistle.wav
192,192,196419,128,0,197019:0:0:0:40:normal-hitwhistle.wav
320,192,197019,128,0,197219:0:0:0:40:normal-hitwhistle.wav
448,192,197019,128,0,197219:0:0:0:40:LR_Snare Drum .wav
192,192,197419,128,0,197619:0:0:0:40:normal-hitfinish.wav
64,192,197419,128,0,197619:0:0:0:40:normal-hitwhistle.wav
64,192,198219,128,0,198419:0:0:0:40:normal-hitwhistle.wav
320,192,198219,128,0,198419:0:0:0:40:normal-hitfinish.wav
192,192,198619,128,0,198819:0:0:0:40:normal-hitfinish.wav
448,192,198619,128,0,198819:0:0:0:40:normal-hitwhistle.wav
192,192,199269,128,0,199419:0:0:0:0:
448,192,199419,128,0,199719:0:0:0:40:LR3_BassDrop.wav
320,192,199719,128,0,200019:0:0:0:0:
192,192,200019,128,0,200319:0:0:0:0:
64,192,200319,128,0,200619:0:0:0:0:
448,192,200619,128,0,201819:0:0:0:0:
64,192,201819,1,0,0:0:0:40:cymbal light.wav
320,192,201819,1,0,0:0:0:40:normal-hitwhistle.wav
192,192,202119,1,0,0:0:0:40:normal-hitwhistle.wav
448,192,202119,1,0,0:0:0:40:normal-hitfinish.wav
192,192,202719,1,0,0:0:0:40:normal-hitwhistle.wav
64,192,202719,1,0,0:0:0:40:normal-hitfinish.wav
448,192,203019,128,0,203169:0:0:0:40:normal-hitfinish.wav
64,192,203319,128,0,203469:0:0:0:40:normal-hitwhistle.wav
192,192,203619,128,0,203769:0:0:0:40:normal-hitfinish.wav
320,192,203619,128,0,203769:0:0:0:40:normal-hitwhistle.wav
64,192,204219,1,0,0:0:0:40:cymbal light.wav
448,192,204219,1,0,0:0:0:40:normal-hitwhistle.wav
320,192,204519,1,0,0:0:0:40:normal-hitwhistle.wav
448,192,204519,1,0,0:0:0:40:normal-hitfinish.wav
64,192,205119,1,0,0:0:0:40:normal-hitwhistle.wav
320,192,205119,1,0,0:0:0:40:normal-hitfinish.wav
192,192,205419,128,0,205719:0:0:0:40:normal-hitfinish.wav
320,192,205719,128,0,206019:0:0:0:40:normal-hitwhistle.wav
64,192,206019,128,0,206169:0:0:0:40:normal-hitfinish.wav
192,192,206619,1,0,0:0:0:40:normal-hitwhistle.wav
448,192,206619,1,0,0:0:0:40:cymbal light.wav
64,192,206919,1,0,0:0:0:40:normal-hitfinish.wav
320,192,206919,1,0,0:0:0:40:normal-hitwhistle.wav
448,192,207219,1,0,0:0:0:40:normal-hitwhistle.wav
192,192,207519,1,0,0:0:0:40:normal-hitfinish.wav
320,192,207519,1,0,0:0:0:40:normal-hitwhistle.wav
64,192,207819,128,0,208119:0:0:0:40:normal-hitwhistle.wav
320,192,208119,128,0,208419:0:0:0:40:normal-hitfinish.wav
192,192,208419,128,0,208719:0:0:0:40:normal-hitwhistle.wav
448,192,208719,128,0,209019:0:0:0:40:normal-hitwhistle.wav
64,192,209019,128,0,211119:0:0:0:40:normal-hitfinish.wav
320,192,211119,1,0,0:0:0:40:normal-hitwhistle.wav
448,192,211119,1,0,0:0:0:40:LR3_BassDrop.wav
