osu file format v14

[General]
AudioFilename: audio.mp3
AudioLeadIn: 0
PreviewTime: 59769
Countdown: 0
SampleSet: Normal
StackLeniency: 0.7
Mode: 3
LetterboxInBreaks: 0
SpecialStyle: 0
WidescreenStoryboard: 1

[Editor]
Bookmarks: 38619,151419
DistanceSpacing: 0.8
BeatDivisor: 4
GridSize: 4
TimelineZoom: 1.9

[Metadata]
Title:Chururi Chururira
TitleUnicode:ちゅるりちゅるりら
Artist:Dempagumi.inc
ArtistUnicode:でんぱ組.inc
Creator:JztCallMeRon
Version:Normal
Source:
Tags:j-pop
BeatmapID:1458388
BeatmapSetID:688773

[Difficulty]
HPDrainRate:7
CircleSize:4
OverallDifficulty:7
ApproachRate:5
SliderMultiplier:1.4
SliderTickRate:1

[Events]
//Background and Video events
0,0,"Japan-Wallpaper-24.jpg",0,0
//Break Periods
//Storyboard Layer 0 (Background)
//Storyboard Layer 1 (Fail)
//Storyboard Layer 2 (Pass)
//Storyboard Layer 3 (Foreground)
//Storyboard Sound Samples
Sample,182,0,"normal-hitfinish.wav",40
Sample,2619,0,"soft-hitnormal.wav",40
Sample,5019,0,"soft-hitnormal.wav",40
Sample,6219,0,"soft-hitnormal.wav",40
Sample,6219,0,"normal-hitwhistle.wav",40
Sample,6519,0,"normal-hitwhistle.wav",40
Sample,6519,0,"normal-hitfinish.wav",40
Sample,6819,0,"normal-hitwhistle.wav",40
Sample,6819,0,"soft-hitnormal.wav",40
Sample,7419,0,"soft-hitnormal.wav",40
Sample,7719,0,"normal-hitfinish.wav",40
Sample,8319,0,"normal-hitfinish.wav",40
Sample,8919,0,"normal-hitwhistle.wav",40
Sample,9144,0,"LR_Snare Drum .wav",40
Sample,9219,0,"normal-hitwhistle.wav",40
Sample,9294,0,"LR_Snare Drum .wav",40
Sample,9444,0,"LR_Snare Drum .wav",40
Sample,9519,0,"normal-hitfinish.wav",40
Sample,9519,0,"normal-hitwhistle.wav",40
Sample,9744,0,"LR_Snare Drum .wav",40
Sample,9819,0,"normal-hitfinish.wav",40
Sample,9819,0,"normal-hitwhistle.wav",40
Sample,10419,0,"normal-hitfinish.wav",40
Sample,11019,0,"soft-hitnormal.wav",40
Sample,11319,0,"normal-hitfinish.wav",40
Sample,11469,0,"normal-hitwhistle.wav",40
Sample,11469,0,"soft-hitnormal.wav",40
Sample,11619,0,"soft-hitnormal.wav",40
Sample,15969,0,"LR_Drum Click.wav",40
Sample,16044,0,"LR_Drum Click.wav",40
Sample,17169,0,"normal-hitwhistle.wav",40
Sample,17469,0,"normal-hitfinish.wav",40
Sample,17769,0,"normal-hitwhistle.wav",40
Sample,18069,0,"normal-hitfinish.wav",40
Sample,18219,0,"normal-hitfinish.wav",40
Sample,18369,0,"normal-hitwhistle.wav",40
Sample,18519,0,"normal-hitfinish.wav",40
Sample,18669,0,"normal-hitwhistle.wav",40
Sample,18819,0,"LR_Snare Drum .wav",40
Sample,18819,0,"normal-hitwhistle.wav",40
Sample,18894,0,"LR_Snare Drum .wav",40
Sample,18969,0,"LR_Snare Drum .wav",40
Sample,19044,0,"LR_Snare Drum .wav",40
Sample,19119,0,"normal-hitwhistle.wav",40
Sample,20844,0,"LR_Drum Click.wav",40
Sample,21969,0,"normal-hitwhistle.wav",40
Sample,22269,0,"normal-hitfinish.wav",40
Sample,22569,0,"normal-hitwhistle.wav",40
Sample,22869,0,"normal-hitfinish.wav",40
Sample,23019,0,"normal-hitfinish.wav",40
Sample,23169,0,"normal-hitwhistle.wav",40
Sample,23319,0,"normal-hitfinish.wav",40
Sample,23469,0,"normal-hitwhistle.wav",40
Sample,23619,0,"normal-hitwhistle.wav",40
Sample,23619,0,"LR_Snare Drum .wav",40
Sample,23694,0,"LR_Snare Drum .wav",40
Sample,23844,0,"LR_Snare Drum .wav",40
Sample,23919,0,"normal-hitwhistle.wav",40
Sample,23994,0,"LR_Snare Drum .wav",40
Sample,24144,0,"LR_Snare Drum .wav",40
Sample,24219,0,"cymbal light.wav",40
Sample,24369,0,"bitter hat.wav",40
Sample,24519,0,"normal-hitwhistle.wav",40
Sample,24669,0,"bitter hat.wav",40
Sample,24969,0,"bitter hat.wav",40
Sample,25569,0,"bitter hat.wav",40
Sample,25719,0,"normal-hitfinish.wav",40
Sample,25869,0,"bitter hat.wav",40
Sample,26169,0,"bitter hat.wav",40
Sample,26769,0,"bitter hat.wav",40
Sample,26919,0,"normal-hitfinish.wav",40
Sample,27069,0,"bitter hat.wav",40
Sample,27369,0,"bitter hat.wav",40
Sample,28119,0,"normal-hitfinish.wav",40
Sample,28719,0,"normal-hitwhistle.wav",40
Sample,28944,0,"LR_Snare Drum .wav",40
Sample,29019,0,"normal-hitwhistle.wav",40
Sample,29019,0,"normal-hitfinish.wav",40
Sample,29169,0,"bitter hat.wav",40
Sample,29319,0,"normal-hitwhistle.wav",40
Sample,29469,0,"bitter hat.wav",40
Sample,29769,0,"bitter hat.wav",40
Sample,30369,0,"bitter hat.wav",40
Sample,30519,0,"normal-hitfinish.wav",40
Sample,30669,0,"bitter hat.wav",40
Sample,30969,0,"bitter hat.wav",40
Sample,31569,0,"bitter hat.wav",40
Sample,31719,0,"normal-hitfinish.wav",40
Sample,31869,0,"bitter hat.wav",40
Sample,32169,0,"bitter hat.wav",40
Sample,32319,0,"normal-hitwhistle.wav",40
Sample,32469,0,"bitter hat.wav",40
Sample,32619,0,"soft-hitnormal.wav",40
Sample,32819,0,"soft-hitnormal.wav",40
Sample,33019,0,"soft-hitnormal.wav",40
Sample,33219,0,"soft-hitnormal.wav",40
Sample,35244,0,"LR_Drum Click.wav",40
Sample,36369,0,"normal-hitwhistle.wav",40
Sample,36669,0,"normal-hitfinish.wav",40
Sample,36969,0,"normal-hitwhistle.wav",40
Sample,37269,0,"normal-hitfinish.wav",40
Sample,38019,0,"normal-hitwhistle.wav",40
Sample,38019,0,"normal-hitfinish.wav",40
Sample,38094,0,"LR_Snare Drum .wav",40
Sample,38244,0,"LR_Snare Drum .wav",40
Sample,38319,0,"normal-hitwhistle.wav",40
Sample,38319,0,"normal-hitfinish.wav",40
Sample,38394,0,"LR_Snare Drum .wav",40
Sample,38544,0,"LR_Snare Drum .wav",40
Sample,38769,0,"bitter hat.wav",40
Sample,38919,0,"normal-hitwhistle.wav",40
Sample,39069,0,"bitter hat.wav",40
Sample,39369,0,"bitter hat.wav",40
Sample,39969,0,"bitter hat.wav",40
Sample,40119,0,"normal-hitfinish.wav",40
Sample,40269,0,"bitter hat.wav",40
Sample,40569,0,"bitter hat.wav",40
Sample,41169,0,"bitter hat.wav",40
Sample,41319,0,"normal-hitfinish.wav",40
Sample,41469,0,"bitter hat.wav",40
Sample,41769,0,"bitter hat.wav",40
Sample,42519,0,"normal-hitfinish.wav",40
Sample,43119,0,"normal-hitwhistle.wav",40
Sample,43344,0,"LR_Snare Drum .wav",40
Sample,43419,0,"normal-hitwhistle.wav",40
Sample,43419,0,"normal-hitfinish.wav",40
Sample,43569,0,"bitter hat.wav",40
Sample,43719,0,"normal-hitwhistle.wav",40
Sample,43869,0,"bitter hat.wav",40
Sample,44169,0,"bitter hat.wav",40
Sample,44769,0,"bitter hat.wav",40
Sample,44919,0,"normal-hitfinish.wav",40
Sample,45069,0,"bitter hat.wav",40
Sample,45369,0,"bitter hat.wav",40
Sample,45969,0,"bitter hat.wav",40
Sample,46119,0,"normal-hitfinish.wav",40
Sample,46269,0,"bitter hat.wav",40
Sample,46419,0,"LR_Snare Drum .wav",40
Sample,46494,0,"LR_Snare Drum .wav",40
Sample,46569,0,"LR_Snare Drum .wav",40
Sample,46644,0,"LR_Snare Drum .wav",40
Sample,46719,0,"normal-hitwhistle.wav",40
Sample,46719,0,"LR_Snare Drum .wav",40
Sample,46794,0,"LR_Snare Drum .wav",40
Sample,46869,0,"LR_Snare Drum .wav",40
Sample,46944,0,"LR_Snare Drum .wav",40
Sample,47019,0,"soft-hitnormal.wav",40
Sample,47219,0,"soft-hitnormal.wav",40
Sample,47419,0,"soft-hitnormal.wav",40
Sample,47619,0,"soft-hitnormal.wav",40
Sample,48219,0,"LR3_BassDrop.wav",40
Sample,48219,0,"normal-hitfinish.wav",40
Sample,56619,0,"cymbal light.wav",40
Sample,57819,0,"cymbal light.wav",40
Sample,57819,0,"normal-hitwhistle.wav",40
Sample,58419,0,"cymbal light.wav",40
Sample,58419,0,"normal-hitwhistle.wav",40
Sample,60519,0,"normal-hitwhistle.wav",40
Sample,61119,0,"normal-hitfinish.wav",40
Sample,61719,0,"normal-hitwhistle.wav",40
Sample,62319,0,"normal-hitfinish.wav",40
Sample,62544,0,"LR_Snare Drum .wav",40
Sample,62919,0,"normal-hitwhistle.wav",40
Sample,63519,0,"normal-hitwhistle.wav",40
Sample,63744,0,"LR_Snare Drum .wav",40
Sample,63819,0,"LR_Snare Drum .wav",40
Sample,64119,0,"normal-hitfinish.wav",40
Sample,64419,0,"normal-hitwhistle.wav",40
Sample,64719,0,"normal-hitwhistle.wav",40
Sample,65019,0,"LR3_BassDrop.wav",40
Sample,66369,0,"normal-hitwhistle.wav",40
Sample,66519,0,"normal-hitfinish.wav",40
Sample,66669,0,"normal-hitwhistle.wav",40
Sample,66819,0,"normal-hitfinish.wav",40
Sample,66969,0,"normal-hitwhistle.wav",40
Sample,67119,0,"normal-hitfinish.wav",40
Sample,67269,0,"normal-hitwhistle.wav",40
Sample,67419,0,"normal-hitwhistle.wav",40
Sample,67419,0,"LR3_BassDrop.wav",40
Sample,68019,0,"normal-hitwhistle.wav",40
Sample,68019,0,"LR3_BassDrop.wav",40
Sample,68619,0,"normal-hitfinish.wav",40
Sample,68919,0,"normal-hitwhistle.wav",40
Sample,70119,0,"normal-hitwhistle.wav",40
Sample,70719,0,"normal-hitfinish.wav",40
Sample,71319,0,"normal-hitwhistle.wav",40
Sample,71919,0,"normal-hitfinish.wav",40
Sample,72069,0,"LR_Snare Drum .wav",40
Sample,72144,0,"LR_Snare Drum .wav",40
Sample,72219,0,"LR_Snare Drum .wav",40
Sample,72219,0,"normal-hitfinish.wav",40
Sample,72419,0,"normal-hitfinish.wav",40
Sample,72619,0,"normal-hitwhistle.wav",40
Sample,72819,0,"normal-hitfinish.wav",40
Sample,73419,0,"normal-hitfinish.wav",40
Sample,73619,0,"normal-hitfinish.wav",40
Sample,73819,0,"normal-hitwhistle.wav",40
Sample,74019,0,"normal-hitfinish.wav",40
Sample,74619,0,"cymbal light.wav",40
Sample,74619,0,"normal-hitwhistle.wav",40
Sample,75969,0,"normal-hitfinish.wav",40
Sample,75969,0,"normal-hitwhistle.wav",40
Sample,76044,0,"normal-hitwhistle.wav",40
Sample,76044,0,"LR_Snare Drum .wav",40
Sample,76044,0,"normal-hitfinish.wav",40
Sample,76119,0,"LR_Snare Drum .wav",40
Sample,76119,0,"normal-hitfinish.wav",40
Sample,76269,0,"LR_Snare Drum .wav",40
Sample,76269,0,"normal-hitfinish.wav",40
Sample,76269,0,"normal-hitwhistle.wav",40
Sample,76419,0,"normal-hitwhistle.wav",40
Sample,76419,0,"LR_Snare Drum .wav",40
Sample,76569,0,"LR_Snare Drum .wav",40
Sample,76569,0,"normal-hitwhistle.wav",40
Sample,76569,0,"normal-hitfinish.wav",40
Sample,76719,0,"LR_Snare Drum .wav",40
Sample,76719,0,"normal-hitwhistle.wav",40
Sample,76869,0,"LR_Snare Drum .wav",40
Sample,76869,0,"normal-hitfinish.wav",40
Sample,77319,0,"normal-hitfinish.wav",40
Sample,78219,0,"soft-hitnormal.wav",40
Sample,78219,0,"normal-hitwhistle.wav",40
Sample,78519,0,"soft-hitnormal.wav",40
Sample,78519,0,"normal-hitfinish.wav",40
Sample,78819,0,"soft-hitnormal.wav",40
Sample,79719,0,"normal-hitwhistle.wav",40
Sample,80319,0,"normal-hitfinish.wav",40
Sample,80919,0,"normal-hitwhistle.wav",40
Sample,81519,0,"normal-hitfinish.wav",40
Sample,82119,0,"normal-hitwhistle.wav",40
Sample,82719,0,"normal-hitfinish.wav",40
Sample,83019,0,"normal-hitfinish.wav",40
Sample,83019,0,"soft-hitnormal.wav",40
Sample,83319,0,"normal-hitwhistle.wav",40
Sample,83319,0,"normal-hitfinish.wav",40
Sample,83619,0,"normal-hitfinish.wav",40
Sample,83619,0,"normal-hitwhistle.wav",40
Sample,84519,0,"normal-hitwhistle.wav",40
Sample,85119,0,"normal-hitfinish.wav",40
Sample,85719,0,"normal-hitwhistle.wav",40
Sample,85944,0,"LR_Snare Drum .wav",40
Sample,86019,0,"LR_Snare Drum .wav",40
Sample,86244,0,"LR_Snare Drum .wav",40
Sample,86319,0,"normal-hitfinish.wav",40
Sample,86319,0,"LR_Snare Drum .wav",40
Sample,86394,0,"LR_Snare Drum .wav",40
Sample,86544,0,"LR_Snare Drum .wav",40
Sample,86619,0,"normal-hitfinish.wav",40
Sample,86619,0,"LR_Snare Drum .wav",40
Sample,87219,0,"normal-hitfinish.wav",40
Sample,87819,0,"soft-hitnormal.wav",40
Sample,88119,0,"normal-hitfinish.wav",40
Sample,88269,0,"soft-hitnormal.wav",40
Sample,88269,0,"normal-hitwhistle.wav",40
Sample,88419,0,"soft-hitnormal.wav",40
Sample,92319,0,"LR_Clap kick.wav",40
Sample,92844,0,"LR_Drum Click.wav",40
Sample,93519,0,"normal-hitwhistle.wav",40
Sample,93969,0,"normal-hitwhistle.wav",40
Sample,94269,0,"normal-hitfinish.wav",40
Sample,94569,0,"normal-hitwhistle.wav",40
Sample,94869,0,"normal-hitfinish.wav",40
Sample,95019,0,"normal-hitfinish.wav",40
Sample,95319,0,"normal-hitfinish.wav",40
Sample,95619,0,"LR_Snare Drum .wav",40
Sample,95619,0,"normal-hitwhistle.wav",40
Sample,95694,0,"LR_Snare Drum .wav",40
Sample,95769,0,"LR_Snare Drum .wav",40
Sample,95844,0,"LR_Snare Drum .wav",40
Sample,95919,0,"normal-hitwhistle.wav",40
Sample,95994,0,"LR_Snare Drum .wav",40
Sample,96144,0,"LR_Snare Drum .wav",40
Sample,97119,0,"LR_Clap kick.wav",40
Sample,97569,0,"LR_Drum Click.wav",40
Sample,97644,0,"LR_Drum Click.wav",40
Sample,98319,0,"normal-hitwhistle.wav",40
Sample,98769,0,"normal-hitwhistle.wav",40
Sample,99069,0,"normal-hitfinish.wav",40
Sample,99369,0,"normal-hitwhistle.wav",40
Sample,99669,0,"normal-hitfinish.wav",40
Sample,99819,0,"normal-hitfinish.wav",40
Sample,100119,0,"normal-hitfinish.wav",40
Sample,100419,0,"LR_Snare Drum .wav",40
Sample,100419,0,"normal-hitwhistle.wav",40
Sample,100494,0,"LR_Snare Drum .wav",40
Sample,100569,0,"LR_Snare Drum .wav",40
Sample,100644,0,"LR_Snare Drum .wav",40
Sample,100719,0,"normal-hitwhistle.wav",40
Sample,100794,0,"LR_Snare Drum .wav",40
Sample,100944,0,"LR_Snare Drum .wav",40
Sample,101169,0,"bitter hat.wav",40
Sample,101319,0,"normal-hitwhistle.wav",40
Sample,101469,0,"bitter hat.wav",40
Sample,101769,0,"bitter hat.wav",40
Sample,102369,0,"bitter hat.wav",40
Sample,102519,0,"normal-hitfinish.wav",40
Sample,102669,0,"bitter hat.wav",40
Sample,102969,0,"bitter hat.wav",40
Sample,103569,0,"bitter hat.wav",40
Sample,103719,0,"normal-hitfinish.wav",40
Sample,103869,0,"bitter hat.wav",40
Sample,104169,0,"bitter hat.wav",40
Sample,104919,0,"normal-hitfinish.wav",40
Sample,105519,0,"normal-hitwhistle.wav",40
Sample,105744,0,"LR_Snare Drum .wav",40
Sample,105819,0,"normal-hitfinish.wav",40
Sample,105819,0,"normal-hitwhistle.wav",40
Sample,105969,0,"bitter hat.wav",40
Sample,106119,0,"normal-hitwhistle.wav",40
Sample,106269,0,"bitter hat.wav",40
Sample,106569,0,"bitter hat.wav",40
Sample,107169,0,"bitter hat.wav",40
Sample,107319,0,"normal-hitfinish.wav",40
Sample,107469,0,"bitter hat.wav",40
Sample,107769,0,"bitter hat.wav",40
Sample,108369,0,"bitter hat.wav",40
Sample,108519,0,"normal-hitfinish.wav",40
Sample,108669,0,"bitter hat.wav",40
Sample,108969,0,"bitter hat.wav",40
Sample,109119,0,"normal-hitwhistle.wav",40
Sample,109269,0,"bitter hat.wav",40
Sample,109619,0,"soft-hitnormal.wav",40
Sample,109819,0,"soft-hitnormal.wav",40
Sample,110019,0,"soft-hitnormal.wav",40
Sample,110769,0,"normal-hitfinish.wav",40
Sample,110769,0,"LR_Drum Click.wav",40
Sample,111069,0,"normal-hitfinish.wav",40
Sample,111069,0,"normal-hitwhistle.wav",40
Sample,111369,0,"normal-hitfinish.wav",40
Sample,111369,0,"normal-hitwhistle.wav",40
Sample,111669,0,"LR_Drum Click.wav",40
Sample,111669,0,"normal-hitwhistle.wav",40
Sample,111969,0,"normal-hitfinish.wav",40
Sample,111969,0,"normal-hitwhistle.wav",40
Sample,112269,0,"LR_Drum Click.wav",40
Sample,112269,0,"normal-hitwhistle.wav",40
Sample,112569,0,"normal-hitfinish.wav",40
Sample,112569,0,"normal-hitwhistle.wav",40
Sample,112869,0,"LR_Drum Click.wav",40
Sample,112869,0,"normal-hitwhistle.wav",40
Sample,113019,0,"cymbal light.wav",40
Sample,113169,0,"normal-hitwhistle.wav",40
Sample,113169,0,"normal-hitfinish.wav",40
Sample,113169,0,"LR_Snare Drum .wav",40
Sample,113169,0,"LR_Drum Click.wav",40
Sample,113244,0,"LR_Snare Drum .wav",40
Sample,113469,0,"LR_Drum Click.wav",40
Sample,113469,0,"normal-hitfinish.wav",40
Sample,113769,0,"normal-hitfinish.wav",40
Sample,113769,0,"normal-hitwhistle.wav",40
Sample,113769,0,"LR_Drum Click.wav",40
Sample,114069,0,"normal-hitwhistle.wav",40
Sample,114069,0,"normal-hitfinish.wav",40
Sample,114069,0,"LR_Drum Click.wav",40
Sample,114369,0,"normal-hitwhistle.wav",40
Sample,114369,0,"normal-hitfinish.wav",40
Sample,114369,0,"LR_Drum Click.wav",40
Sample,114669,0,"normal-hitwhistle.wav",40
Sample,114669,0,"normal-hitfinish.wav",40
Sample,114669,0,"LR_Drum Click.wav",40
Sample,114969,0,"LR_Drum Click.wav",40
Sample,114969,0,"normal-hitwhistle.wav",40
Sample,114969,0,"LR_Snare Drum .wav",40
Sample,115044,0,"LR_Snare Drum .wav",40
Sample,115269,0,"normal-hitwhistle.wav",40
Sample,115344,0,"LR_Snare Drum .wav",40
Sample,115419,0,"normal-hitwhistle.wav",40
Sample,115419,0,"LR_Snare Drum .wav",40
Sample,115419,0,"normal-hitfinish.wav",40
Sample,115569,0,"normal-hitfinish.wav",40
Sample,115569,0,"LR_Drum Click.wav",40
Sample,115569,0,"normal-hitwhistle.wav",40
Sample,115644,0,"LR_Snare Drum .wav",40
Sample,115869,0,"normal-hitwhistle.wav",40
Sample,115869,0,"LR_Drum Click.wav",40
Sample,116169,0,"normal-hitwhistle.wav",40
Sample,116169,0,"normal-hitfinish.wav",40
Sample,116469,0,"normal-hitwhistle.wav",40
Sample,116469,0,"LR_Drum Click.wav",40
Sample,116769,0,"normal-hitfinish.wav",40
Sample,116769,0,"LR_Snare Drum .wav",40
Sample,116769,0,"normal-hitwhistle.wav",40
Sample,116844,0,"LR_Snare Drum .wav",40
Sample,117069,0,"normal-hitwhistle.wav",40
Sample,117069,0,"normal-hitfinish.wav",40
Sample,117369,0,"normal-hitwhistle.wav",40
Sample,117369,0,"LR_Drum Click.wav",40
Sample,117669,0,"normal-hitwhistle.wav",40
Sample,117669,0,"normal-hitfinish.wav",40
Sample,117819,0,"cymbal light.wav",40
Sample,117969,0,"LR_Snare Drum .wav",40
Sample,117969,0,"LR_Drum Click.wav",40
Sample,117969,0,"normal-hitfinish.wav",40
Sample,117969,0,"normal-hitwhistle.wav",40
Sample,118044,0,"LR_Snare Drum .wav",40
Sample,118269,0,"LR_Drum Click.wav",40
Sample,118419,0,"normal-hitwhistle.wav",40
Sample,118569,0,"normal-hitwhistle.wav",40
Sample,118569,0,"LR_Drum Click.wav",40
Sample,118719,0,"normal-hitwhistle.wav",40
Sample,118719,0,"normal-hitfinish.wav",40
Sample,118869,0,"LR_Drum Click.wav",40
Sample,118869,0,"normal-hitwhistle.wav",40
Sample,119019,0,"normal-hitwhistle.wav",40
Sample,120219,0,"normal-hitwhistle.wav",40
Sample,120219,0,"cymbal light.wav",40
Sample,120819,0,"normal-hitwhistle.wav",40
Sample,120819,0,"cymbal light.wav",40
Sample,124119,0,"normal-hitwhistle.wav",40
Sample,124644,0,"LR_Snare Drum .wav",40
Sample,124719,0,"LR_Snare Drum .wav",40
Sample,124719,0,"normal-hitfinish.wav",40
Sample,124794,0,"LR_Snare Drum .wav",40
Sample,124869,0,"LR_Snare Drum .wav",40
Sample,124944,0,"LR_Snare Drum .wav",40
Sample,126144,0,"LR_Snare Drum .wav",40
Sample,126219,0,"LR_Snare Drum .wav",40
Sample,126219,0,"normal-hitwhistle.wav",40
Sample,126519,0,"normal-hitfinish.wav",40
Sample,126819,0,"LR_Snare Drum .wav",40
Sample,126894,0,"LR_Snare Drum .wav",40
Sample,126969,0,"LR_Snare Drum .wav",40
Sample,127044,0,"LR_Snare Drum .wav",40
Sample,127119,0,"normal-hitwhistle.wav",40
Sample,127194,0,"LR_Snare Drum .wav",40
Sample,127269,0,"LR_Snare Drum .wav",40
Sample,127344,0,"LR_Snare Drum .wav",40
Sample,127419,0,"LR3_BassDrop.wav",40
Sample,128769,0,"normal-hitwhistle.wav",40
Sample,128919,0,"normal-hitfinish.wav",40
Sample,129069,0,"normal-hitwhistle.wav",40
Sample,129219,0,"normal-hitfinish.wav",40
Sample,129369,0,"normal-hitwhistle.wav",40
Sample,129519,0,"normal-hitfinish.wav",40
Sample,129669,0,"normal-hitwhistle.wav",40
Sample,129819,0,"normal-hitwhistle.wav",40
Sample,129819,0,"LR3_BassDrop.wav",40
Sample,130419,0,"normal-hitwhistle.wav",40
Sample,130419,0,"LR3_BassDrop.wav",40
Sample,131019,0,"normal-hitfinish.wav",40
Sample,131319,0,"normal-hitwhistle.wav",40
Sample,133719,0,"normal-hitwhistle.wav",40
Sample,134019,0,"LR_Snare Drum .wav",40
Sample,134094,0,"LR_Snare Drum .wav",40
Sample,134169,0,"LR_Snare Drum .wav",40
Sample,134244,0,"LR_Snare Drum .wav",40
Sample,134319,0,"LR_Snare Drum .wav",40
Sample,134319,0,"normal-hitfinish.wav",40
Sample,134394,0,"LR_Snare Drum .wav",40
Sample,134469,0,"LR_Snare Drum .wav",40
Sample,134544,0,"LR_Snare Drum .wav",40
Sample,134619,0,"normal-hitfinish.wav",40
Sample,137019,0,"cymbal light.wav",40
Sample,137019,0,"normal-hitwhistle.wav",40
Sample,138369,0,"normal-hitfinish.wav",40
Sample,138369,0,"normal-hitwhistle.wav",40
Sample,138444,0,"normal-hitwhistle.wav",40
Sample,138444,0,"LR_Snare Drum .wav",40
Sample,138444,0,"normal-hitfinish.wav",40
Sample,138519,0,"LR_Snare Drum .wav",40
Sample,138519,0,"normal-hitfinish.wav",40
Sample,138669,0,"LR_Snare Drum .wav",40
Sample,138669,0,"normal-hitfinish.wav",40
Sample,138669,0,"normal-hitwhistle.wav",40
Sample,138819,0,"normal-hitwhistle.wav",40
Sample,138819,0,"LR_Snare Drum .wav",40
Sample,138969,0,"LR_Snare Drum .wav",40
Sample,138969,0,"normal-hitwhistle.wav",40
Sample,138969,0,"normal-hitfinish.wav",40
Sample,139119,0,"LR_Snare Drum .wav",40
Sample,139119,0,"normal-hitwhistle.wav",40
Sample,139269,0,"LR_Snare Drum .wav",40
Sample,139269,0,"normal-hitfinish.wav",40
Sample,140319,0,"normal-hitfinish.wav",40
Sample,140619,0,"soft-hitnormal.wav",40
Sample,140619,0,"normal-hitwhistle.wav",40
Sample,140919,0,"soft-hitnormal.wav",40
Sample,140919,0,"normal-hitfinish.wav",40
Sample,141219,0,"soft-hitnormal.wav",40
Sample,141819,0,"soft-hitnormal.wav",40
Sample,144219,0,"normal-hitfinish.wav",40
Sample,146619,0,"normal-hitfinish.wav",40
Sample,149019,0,"soft-hitnormal.wav",40
Sample,150219,0,"normal-hitwhistle.wav",40
Sample,150519,0,"soft-hitnormal.wav",40
Sample,150819,0,"normal-hitwhistle.wav",40
Sample,152319,0,"normal-hitwhistle.wav",40
Sample,153519,0,"normal-hitwhistle.wav",40
Sample,154719,0,"normal-hitfinish.wav",40
Sample,155919,0,"normal-hitfinish.wav",40
Sample,156219,0,"cymbal light.wav",40
Sample,157119,0,"normal-hitfinish.wav",40
Sample,158319,0,"normal-hitfinish.wav",40
Sample,158919,0,"normal-hitfinish.wav",40
Sample,159519,0,"normal-hitwhistle.wav",40
Sample,160419,0,"normal-hitwhistle.wav",40
Sample,160419,0,"LR_Snare Drum .wav",40
Sample,160494,0,"LR_Snare Drum .wav",40
Sample,160644,0,"LR_Snare Drum .wav",40
Sample,160719,0,"normal-hitfinish.wav",40
Sample,160719,0,"normal-hitwhistle.wav",40
Sample,160794,0,"LR_Snare Drum .wav",40
Sample,160944,0,"LR_Snare Drum .wav",40
Sample,161019,0,"normal-hitwhistle.wav",40
Sample,161319,0,"normal-hitfinish.wav",40
Sample,161619,0,"normal-hitwhistle.wav",40
Sample,161919,0,"normal-hitwhistle.wav",40
Sample,162219,0,"normal-hitwhistle.wav",40
Sample,162519,0,"normal-hitfinish.wav",40
Sample,162819,0,"normal-hitwhistle.wav",40
Sample,163119,0,"normal-hitwhistle.wav",40
Sample,163569,0,"bitter hat.wav",40
Sample,163719,0,"normal-hitfinish.wav",40
Sample,164019,0,"normal-hitwhistle.wav",40
Sample,164319,0,"normal-hitfinish.wav",40
Sample,164319,0,"normal-hitwhistle.wav",40
Sample,164619,0,"normal-hitwhistle.wav",40
Sample,164919,0,"normal-hitwhistle.wav",40
Sample,165069,0,"bitter hat.wav",40
Sample,165369,0,"bitter hat.wav",40
Sample,165669,0,"bitter hat.wav",40
Sample,166119,0,"normal-hitwhistle.wav",40
Sample,166269,0,"bitter hat.wav",40
Sample,166719,0,"normal-hitfinish.wav",40
Sample,166869,0,"bitter hat.wav",40
Sample,167319,0,"normal-hitwhistle.wav",40
Sample,167469,0,"bitter hat.wav",40
Sample,167769,0,"bitter hat.wav",40
Sample,167919,0,"normal-hitfinish.wav",40
Sample,168069,0,"bitter hat.wav",40
Sample,168219,0,"cymbal light.wav",40
Sample,168444,0,"normal-hitwhistle.wav",40
Sample,168519,0,"normal-hitfinish.wav",40
Sample,168519,0,"normal-hitwhistle.wav",40
Sample,168819,0,"normal-hitfinish.wav",40
Sample,168969,0,"normal-hitwhistle.wav",40
Sample,169119,0,"normal-hitfinish.wav",40
Sample,169119,0,"normal-hitwhistle.wav",40
Sample,169269,0,"normal-hitwhistle.wav",40
Sample,169419,0,"normal-hitwhistle.wav",40
Sample,169794,0,"LR_Snare Drum .wav",40
Sample,169944,0,"LR_Snare Drum .wav",40
Sample,170094,0,"LR_Snare Drum .wav",40
Sample,170244,0,"LR_Snare Drum .wav",40
Sample,182619,0,"normal-hitwhistle.wav",40
Sample,182619,0,"cymbal light.wav",40
Sample,183219,0,"normal-hitwhistle.wav",40
Sample,183219,0,"cymbal light.wav",40
Sample,184419,0,"normal-hitfinish.wav",40
Sample,186519,0,"normal-hitwhistle.wav",40
Sample,187119,0,"normal-hitfinish.wav",40
Sample,187269,0,"LR_Snare Drum .wav",40
Sample,187344,0,"LR_Snare Drum .wav",40
Sample,188544,0,"LR_Snare Drum .wav",40
Sample,188619,0,"LR_Snare Drum .wav",40
Sample,188619,0,"normal-hitwhistle.wav",40
Sample,188919,0,"normal-hitfinish.wav",40
Sample,189219,0,"normal-hitwhistle.wav",40
Sample,189219,0,"LR_Snare Drum .wav",40
Sample,189294,0,"LR_Snare Drum .wav",40
Sample,189369,0,"LR_Snare Drum .wav",40
Sample,189444,0,"LR_Snare Drum .wav",40
Sample,189519,0,"normal-hitwhistle.wav",40
Sample,189519,0,"LR_Snare Drum .wav",40
Sample,189594,0,"LR_Snare Drum .wav",40
Sample,189669,0,"LR_Snare Drum .wav",40
Sample,189819,0,"LR3_BassDrop.wav",40
Sample,191169,0,"normal-hitwhistle.wav",40
Sample,191319,0,"normal-hitfinish.wav",40
Sample,191469,0,"normal-hitwhistle.wav",40
Sample,191619,0,"normal-hitfinish.wav",40
Sample,191769,0,"normal-hitwhistle.wav",40
Sample,191919,0,"normal-hitfinish.wav",40
Sample,192069,0,"normal-hitwhistle.wav",40
Sample,192219,0,"LR3_BassDrop.wav",40
Sample,192219,0,"normal-hitwhistle.wav",40
Sample,192819,0,"LR3_BassDrop.wav",40
Sample,192819,0,"normal-hitwhistle.wav",40
Sample,193419,0,"normal-hitfinish.wav",40
Sample,193719,0,"normal-hitwhistle.wav",40
Sample,195819,0,"LR_Snare Drum .wav",40
Sample,195894,0,"LR_Snare Drum .wav",40
Sample,195969,0,"LR_Snare Drum .wav",40
Sample,196044,0,"LR_Snare Drum .wav",40
Sample,196119,0,"normal-hitwhistle.wav",40
Sample,196119,0,"normal-hitfinish.wav",40
Sample,196119,0,"LR_Snare Drum .wav",40
Sample,196194,0,"LR_Snare Drum .wav",40
Sample,196269,0,"LR_Snare Drum .wav",40
Sample,196344,0,"LR_Snare Drum .wav",40
Sample,196419,0,"LR_Snare Drum .wav",40
Sample,196494,0,"LR_Snare Drum .wav",40
Sample,196569,0,"LR_Snare Drum .wav",40
Sample,196644,0,"LR_Snare Drum .wav",40
Sample,196719,0,"normal-hitfinish.wav",40
Sample,196719,0,"normal-hitwhistle.wav",40
Sample,196719,0,"LR_Snare Drum .wav",40
Sample,196794,0,"LR_Snare Drum .wav",40
Sample,196869,0,"LR_Snare Drum .wav",40
Sample,196944,0,"LR_Snare Drum .wav",40
Sample,197019,0,"normal-hitfinish.wav",40
Sample,199419,0,"normal-hitwhistle.wav",40
Sample,199419,0,"cymbal light.wav",40
Sample,200769,0,"normal-hitwhistle.wav",40
Sample,200769,0,"normal-hitfinish.wav",40
Sample,200844,0,"normal-hitwhistle.wav",40
Sample,200844,0,"normal-hitfinish.wav",40
Sample,200844,0,"LR_Snare Drum .wav",40
Sample,200919,0,"normal-hitfinish.wav",40
Sample,200919,0,"LR_Snare Drum .wav",40
Sample,201069,0,"LR_Snare Drum .wav",40
Sample,201069,0,"normal-hitwhistle.wav",40
Sample,201069,0,"normal-hitfinish.wav",40
Sample,201219,0,"LR_Snare Drum .wav",40
Sample,201219,0,"normal-hitwhistle.wav",40
Sample,201369,0,"LR_Snare Drum .wav",40
Sample,201369,0,"normal-hitfinish.wav",40
Sample,201369,0,"normal-hitwhistle.wav",40
Sample,201519,0,"normal-hitwhistle.wav",40
Sample,201519,0,"LR_Snare Drum .wav",40
Sample,201669,0,"LR_Snare Drum .wav",40
Sample,201669,0,"normal-hitwhistle.wav",40
Sample,201669,0,"normal-hitfinish.wav",40
Sample,202719,0,"normal-hitfinish.wav",40
Sample,203019,0,"normal-hitwhistle.wav",40
Sample,203319,0,"normal-hitfinish.wav",40
Sample,205119,0,"normal-hitfinish.wav",40
Sample,205419,0,"normal-hitwhistle.wav",40
Sample,205419,0,"LR_Snare Drum .wav",40
Sample,205494,0,"LR_Snare Drum .wav",40
Sample,205644,0,"LR_Snare Drum .wav",40
Sample,205719,0,"normal-hitfinish.wav",40
Sample,205719,0,"LR_Snare Drum .wav",40
Sample,205794,0,"LR_Snare Drum .wav",40
Sample,205944,0,"LR_Snare Drum .wav",40
Sample,206019,0,"LR_Snare Drum .wav",40
Sample,206619,0,"cymbal light.wav",40
Sample,206919,0,"normal-hitwhistle.wav",40
Sample,207519,0,"normal-hitwhistle.wav",40
Sample,208269,0,"LR_Snare Drum .wav",40
Sample,208344,0,"LR_Snare Drum .wav",40
Sample,208419,0,"LR_Snare Drum .wav",40
Sample,208569,0,"LR_Snare Drum .wav",40
Sample,208719,0,"LR_Snare Drum .wav",40
Sample,208869,0,"LR_Snare Drum .wav",40
Sample,209019,0,"LR_Snare Drum .wav",40

[TimingPoints]
182,300,4,1,1,30,1,0
2619,300,4,1,1,30,1,0
2719,-100,4,1,1,30,0,0
60219,-100,4,1,1,30,0,1
67419,-100,4,1,1,30,0,0
69819,-100,4,1,1,30,0,1
78669,-100,4,1,1,30,0,0
122619,-100,4,1,1,30,0,1
129819,-100,4,1,1,30,0,0
132219,-100,4,1,1,30,0,1
141069,-100,4,1,1,30,0,0
185019,-100,4,1,1,30,0,1
192219,-100,4,1,1,30,0,0
194619,-100,4,1,1,30,0,1
209019,-100,4,1,1,30,0,0

[HitObjects]
320,192,182,128,0,332:0:0:0:40:normal-hitwhistle.wav
192,192,332,128,0,482:0:0:0:0:
320,192,482,128,0,632:0:0:0:0:
192,192,632,128,0,782:0:0:0:0:
64,192,782,128,0,932:0:0:0:0:
320,192,932,128,0,1082:0:0:0:0:
448,192,1082,1,0,0:0:0:0:
192,192,1232,1,0,0:0:0:0:
448,192,1382,1,0,0:0:0:40:normal-hitfinish.wav
320,192,1382,1,0,0:0:0:40:normal-hitwhistle.wav
320,192,1682,1,0,0:0:0:40:normal-hitwhistle.wav
192,192,1682,1,0,0:0:0:40:normal-hitfinish.wav
64,192,1982,1,0,0:0:0:40:normal-hitfinish.wav
448,192,1982,1,0,0:0:0:40:normal-hitwhistle.wav
448,192,2619,1,0,0:0:0:40:normal-hitfinish.wav
320,192,2619,1,0,0:0:0:40:normal-hitwhistle.wav
320,192,2919,128,0,3069:0:0:0:0:
192,192,3069,128,0,3219:0:0:0:0:
448,192,3219,1,0,0:0:0:0:
64,192,3369,1,0,0:0:0:0:
448,192,3519,1,0,0:0:0:0:
64,192,3669,1,0,0:0:0:0:
320,192,3819,1,0,0:0:0:40:normal-hitwhistle.wav
320,192,4119,128,0,4269:0:0:0:0:
64,192,4269,1,0,0:0:0:0:
448,192,4419,1,0,0:0:0:40:normal-hitwhistle.wav
192,192,4569,1,0,0:0:0:0:
448,192,4719,1,0,0:0:0:0:
320,192,4869,1,0,0:0:0:0:
64,192,5019,1,0,0:0:0:40:normal-hitwhistle.wav
192,192,5019,1,0,0:0:0:40:normal-hitfinish.wav
320,192,5319,1,0,0:0:0:0:
192,192,5619,1,0,0:0:0:0:
320,192,5769,1,0,0:0:0:0:
192,192,5919,1,0,0:0:0:0:
448,192,6069,1,0,0:0:0:0:
192,192,6219,1,0,0:0:0:40:normal-hitfinish.wav
448,192,6369,1,0,0:0:0:40:soft-hitnormal.wav
64,192,6519,1,0,0:0:0:40:soft-hitnormal.wav
320,192,6669,1,0,0:0:0:40:soft-hitnormal.wav
64,192,6819,128,0,7119:0:0:0:40:normal-hitfinish.wav
192,192,7119,128,0,7344:0:0:0:0:
64,192,7419,1,0,0:0:0:40:normal-hitfinish.wav
448,192,7419,1,0,0:0:0:40:normal-hitwhistle.wav
448,192,7719,1,0,0:0:0:40:normal-hitwhistle.wav
320,192,7869,128,0,8019:0:0:0:0:
64,192,8019,1,0,0:0:0:40:normal-hitwhistle.wav
448,192,8169,1,0,0:0:0:0:
192,192,8319,1,0,0:0:0:40:normal-hitwhistle.wav
448,192,8469,1,0,0:0:0:0:
64,192,8619,1,0,0:0:0:40:normal-hitwhistle.wav
320,192,8919,1,0,0:0:0:40:normal-hitfinish.wav
192,192,9069,1,0,0:0:0:40:LR_Snare Drum .wav
448,192,9219,1,0,0:0:0:40:LR_Snare Drum .wav
64,192,9369,1,0,0:0:0:40:LR_Snare Drum .wav
320,192,9519,1,0,0:0:0:40:LR_Snare Drum .wav
192,192,9669,1,0,0:0:0:40:LR_Snare Drum .wav
64,192,9819,1,0,0:0:0:40:LR_Snare Drum .wav
448,192,9819,1,0,0:0:0:40:soft-hitnormal.wav
192,192,10044,1,0,0:0:0:0:
448,192,10119,1,0,0:0:0:0:
448,192,10269,1,0,0:0:0:0:
64,192,10419,1,0,0:0:0:40:soft-hitnormal.wav
448,192,10644,1,0,0:0:0:0:
192,192,10719,1,0,0:0:0:0:
192,192,10869,1,0,0:0:0:0:
448,192,11019,1,0,0:0:0:40:normal-hitwhistle.wav
320,192,11244,1,0,0:0:0:40:soft-hitnormal.wav
64,192,11319,1,0,0:0:0:40:soft-hitnormal.wav
192,192,11469,1,0,0:0:0:40:normal-hitfinish.wav
448,192,11619,128,0,12219:0:0:0:40:normal-hitwhistle.wav
320,192,12219,128,0,12369:0:0:0:0:
192,192,12519,128,0,12669:0:0:0:0:
320,192,12819,128,0,13119:0:0:0:0:
192,192,13269,128,0,13419:0:0:0:0:
320,192,13419,128,0,13569:0:0:0:0:
192,192,13719,128,0,13869:0:0:0:0:
320,192,14019,128,0,14319:0:0:0:0:
448,192,14619,1,0,0:0:0:40:LR3_BassDrop.wav
448,192,14919,1,0,0:0:0:40:LR_Drum Click.wav
448,192,15069,1,0,0:0:0:40:LR3_BassDrop.wav
320,192,15519,1,0,0:0:0:40:normal-hitwhistle.wav
448,192,15519,1,0,0:0:0:40:LR_Clap kick.wav
64,192,15819,1,0,0:0:0:40:LR3_BassDrop.wav
64,192,16119,1,0,0:0:0:40:LR_Drum Click.wav
64,192,16269,1,0,0:0:0:40:LR3_BassDrop.wav
448,192,16419,128,0,16719:0:0:0:0:
64,192,16719,1,0,0:0:0:40:LR_Clap kick.wav
192,192,16719,1,0,0:0:0:40:normal-hitwhistle.wav
448,192,17019,1,0,0:0:0:40:normal-hitwhistle.wav
192,192,17169,1,0,0:0:0:40:normal-hitfinish.wav
320,192,17319,1,0,0:0:0:40:normal-hitwhistle.wav
64,192,17469,1,0,0:0:0:40:normal-hitwhistle.wav
192,192,17619,1,0,0:0:0:40:normal-hitwhistle.wav
448,192,17769,1,0,0:0:0:40:normal-hitfinish.wav
64,192,17919,1,0,0:0:0:40:normal-hitwhistle.wav
320,192,18069,1,0,0:0:0:40:normal-hitwhistle.wav
448,192,18219,128,0,18519:0:0:0:40:normal-hitwhistle.wav
192,192,18519,128,0,18819:0:0:0:40:normal-hitwhistle.wav
448,192,18819,128,0,19119:0:0:0:40:normal-hitfinish.wav
320,192,19119,128,0,19419:0:0:0:0:
64,192,19419,1,0,0:0:0:40:LR3_BassDrop.wav
320,192,19719,1,0,0:0:0:40:LR_Drum Click.wav
320,192,19869,1,0,0:0:0:40:LR3_BassDrop.wav
320,192,20319,1,0,0:0:0:40:normal-hitwhistle.wav
448,192,20319,1,0,0:0:0:40:LR_Clap kick.wav
448,192,20619,1,0,0:0:0:40:LR3_BassDrop.wav
192,192,20769,1,0,0:0:0:40:LR_Drum Click.wav
192,192,20919,1,0,0:0:0:40:LR_Drum Click.wav
192,192,21069,1,0,0:0:0:40:LR3_BassDrop.wav
320,192,21219,128,0,21519:0:0:0:0:
192,192,21519,1,0,0:0:0:40:LR_Clap kick.wav
64,192,21519,1,0,0:0:0:40:normal-hitwhistle.wav
64,192,21819,1,0,0:0:0:40:normal-hitwhistle.wav
320,192,21969,1,0,0:0:0:40:normal-hitfinish.wav
192,192,22119,1,0,0:0:0:40:normal-hitwhistle.wav
448,192,22269,1,0,0:0:0:40:normal-hitwhistle.wav
320,192,22419,1,0,0:0:0:40:normal-hitwhistle.wav
64,192,22569,1,0,0:0:0:40:normal-hitfinish.wav
448,192,22719,1,0,0:0:0:40:normal-hitwhistle.wav
192,192,22869,1,0,0:0:0:40:normal-hitwhistle.wav
64,192,23019,128,0,23319:0:0:0:40:normal-hitwhistle.wav
192,192,23319,128,0,23619:0:0:0:40:normal-hitwhistle.wav
448,192,23619,1,0,0:0:0:40:normal-hitfinish.wav
64,192,23769,1,0,0:0:0:40:LR_Snare Drum .wav
448,192,23919,1,0,0:0:0:40:LR_Snare Drum .wav
64,192,24069,1,0,0:0:0:40:LR_Snare Drum .wav
448,192,24219,1,0,0:0:0:40:normal-hitwhistle.wav
192,192,24519,1,0,0:0:0:40:normal-hitfinish.wav
320,192,24819,1,0,0:0:0:40:normal-hitwhistle.wav
64,192,25119,1,0,0:0:0:40:normal-hitfinish.wav
192,192,25119,1,0,0:0:0:40:normal-hitwhistle.wav
448,192,25269,1,0,0:0:0:40:bitter hat.wav
320,192,25419,1,0,0:0:0:40:normal-hitwhistle.wav
320,192,25719,1,0,0:0:0:40:normal-hitwhistle.wav
64,192,26019,1,0,0:0:0:40:normal-hitwhistle.wav
64,192,26319,1,0,0:0:0:40:normal-hitfinish.wav
448,192,26319,1,0,0:0:0:40:normal-hitwhistle.wav
192,192,26469,1,0,0:0:0:40:bitter hat.wav
448,192,26619,1,0,0:0:0:40:normal-hitwhistle.wav
320,192,26919,1,0,0:0:0:40:normal-hitwhistle.wav
192,192,27219,1,0,0:0:0:40:normal-hitwhistle.wav
320,192,27519,1,0,0:0:0:40:normal-hitfinish.wav
64,192,27519,1,0,0:0:0:40:normal-hitwhistle.wav
448,192,27669,1,0,0:0:0:40:bitter hat.wav
192,192,27819,1,0,0:0:0:40:normal-hitwhistle.wav
64,192,27969,1,0,0:0:0:40:soft-hitnormal.wav
192,192,28119,1,0,0:0:0:40:normal-hitwhistle.wav
448,192,28269,1,0,0:0:0:40:soft-hitnormal.wav
192,192,28419,1,0,0:0:0:40:normal-hitwhistle.wav
64,192,28569,1,0,0:0:0:40:soft-hitnormal.wav
448,192,28719,1,0,0:0:0:40:normal-hitfinish.wav
64,192,28869,1,0,0:0:0:40:LR_Snare Drum .wav
320,192,29019,1,0,0:0:0:40:LR_Snare Drum .wav
448,192,29019,1,0,0:0:0:40:cymbal light.wav
64,192,29319,1,0,0:0:0:40:normal-hitfinish.wav
320,192,29619,1,0,0:0:0:40:normal-hitwhistle.wav
192,192,29919,1,0,0:0:0:40:normal-hitfinish.wav
448,192,29919,1,0,0:0:0:40:normal-hitwhistle.wav
64,192,30069,1,0,0:0:0:40:bitter hat.wav
448,192,30219,1,0,0:0:0:40:normal-hitwhistle.wav
320,192,30519,1,0,0:0:0:40:normal-hitwhistle.wav
192,192,30819,1,0,0:0:0:40:normal-hitwhistle.wav
320,192,31119,1,0,0:0:0:40:normal-hitwhistle.wav
448,192,31119,1,0,0:0:0:40:normal-hitfinish.wav
192,192,31269,1,0,0:0:0:40:bitter hat.wav
64,192,31419,128,0,32019:0:0:0:40:normal-hitwhistle.wav
448,192,31719,1,0,0:0:0:40:normal-hitwhistle.wav
448,192,32019,128,0,32619:0:0:0:40:normal-hitwhistle.wav
64,192,32319,1,0,0:0:0:40:normal-hitfinish.wav
192,192,32619,1,0,0:0:0:40:normal-hitfinish.wav
64,192,32819,1,0,0:0:0:40:normal-hitfinish.wav
448,192,33019,1,0,0:0:0:40:normal-hitwhistle.wav
64,192,33219,128,0,33669:0:0:0:40:normal-hitwhistle.wav
448,192,33219,128,0,33669:0:0:0:40:normal-hitfinish.wav
320,192,33819,1,0,0:0:0:40:LR3_BassDrop.wav
192,192,34119,1,0,0:0:0:40:LR_Drum Click.wav
192,192,34269,1,0,0:0:0:40:LR3_BassDrop.wav
64,192,34719,1,0,0:0:0:40:normal-hitwhistle.wav
192,192,34719,1,0,0:0:0:40:LR_Clap kick.wav
448,192,35019,1,0,0:0:0:40:LR3_BassDrop.wav
192,192,35169,1,0,0:0:0:40:LR_Drum Click.wav
320,192,35319,1,0,0:0:0:40:LR_Drum Click.wav
320,192,35469,1,0,0:0:0:40:LR3_BassDrop.wav
64,192,35619,128,0,35919:0:0:0:0:
320,192,35919,1,0,0:0:0:40:LR_Clap kick.wav
448,192,35919,1,0,0:0:0:40:normal-hitwhistle.wav
64,192,36219,1,0,0:0:0:40:normal-hitwhistle.wav
192,192,36369,1,0,0:0:0:40:normal-hitfinish.wav
320,192,36519,1,0,0:0:0:40:normal-hitwhistle.wav
64,192,36669,1,0,0:0:0:40:normal-hitwhistle.wav
448,192,36819,1,0,0:0:0:40:normal-hitwhistle.wav
64,192,36969,1,0,0:0:0:40:normal-hitfinish.wav
448,192,37119,1,0,0:0:0:40:normal-hitwhistle.wav
192,192,37269,1,0,0:0:0:40:normal-hitwhistle.wav
320,192,37569,1,0,0:0:0:0:
320,192,37869,1,0,0:0:0:0:
64,192,38019,1,0,0:0:0:40:LR_Snare Drum .wav
448,192,38169,1,0,0:0:0:40:LR_Snare Drum .wav
64,192,38319,1,0,0:0:0:40:LR_Snare Drum .wav
448,192,38469,1,0,0:0:0:40:LR_Snare Drum .wav
192,192,38619,1,0,0:0:0:40:cymbal light.wav
448,192,38919,1,0,0:0:0:40:normal-hitfinish.wav
64,192,38919,1,0,0:0:0:0:
320,192,39219,1,0,0:0:0:40:normal-hitwhistle.wav
64,192,39519,1,0,0:0:0:40:normal-hitfinish.wav
192,192,39519,1,0,0:0:0:40:normal-hitwhistle.wav
448,192,39669,1,0,0:0:0:40:bitter hat.wav
320,192,39819,1,0,0:0:0:40:normal-hitwhistle.wav
320,192,40119,1,0,0:0:0:40:normal-hitwhistle.wav
192,192,40119,1,0,0:0:0:0:
64,192,40419,1,0,0:0:0:40:normal-hitwhistle.wav
64,192,40719,1,0,0:0:0:40:normal-hitfinish.wav
448,192,40719,1,0,0:0:0:40:normal-hitwhistle.wav
192,192,40869,1,0,0:0:0:40:bitter hat.wav
448,192,41019,1,0,0:0:0:40:normal-hitwhistle.wav
320,192,41319,1,0,0:0:0:40:normal-hitwhistle.wav
192,192,41319,1,0,0:0:0:0:
64,192,41619,1,0,0:0:0:40:normal-hitwhistle.wav
320,192,41919,1,0,0:0:0:40:normal-hitfinish.wav
448,192,41919,1,0,0:0:0:40:normal-hitwhistle.wav
192,192,42069,1,0,0:0:0:40:bitter hat.wav
64,192,42219,1,0,0:0:0:40:normal-hitwhistle.wav
320,192,42369,1,0,0:0:0:40:soft-hitnormal.wav
192,192,42519,1,0,0:0:0:40:normal-hitwhistle.wav
448,192,42669,1,0,0:0:0:40:soft-hitnormal.wav
320,192,42819,1,0,0:0:0:40:normal-hitwhistle.wav
192,192,42969,1,0,0:0:0:40:soft-hitnormal.wav
448,192,43119,1,0,0:0:0:40:normal-hitfinish.wav
64,192,43269,1,0,0:0:0:40:LR_Snare Drum .wav
320,192,43419,1,0,0:0:0:40:LR_Snare Drum .wav
448,192,43419,1,0,0:0:0:40:cymbal light.wav
64,192,43719,1,0,0:0:0:40:normal-hitfinish.wav
320,192,44019,1,0,0:0:0:40:normal-hitwhistle.wav
192,192,44319,1,0,0:0:0:40:normal-hitfinish.wav
64,192,44319,1,0,0:0:0:40:normal-hitwhistle.wav
448,192,44469,1,0,0:0:0:40:bitter hat.wav
320,192,44619,1,0,0:0:0:40:normal-hitwhistle.wav
192,192,44919,1,0,0:0:0:40:normal-hitwhistle.wav
320,192,45219,1,0,0:0:0:40:normal-hitwhistle.wav
320,192,45519,1,0,0:0:0:40:normal-hitwhistle.wav
448,192,45519,1,0,0:0:0:40:normal-hitfinish.wav
64,192,45669,1,0,0:0:0:40:bitter hat.wav
448,192,45819,128,0,46419:0:0:0:40:normal-hitwhistle.wav
192,192,46119,1,0,0:0:0:40:normal-hitwhistle.wav
64,192,46419,128,0,47019:0:0:0:40:normal-hitwhistle.wav
320,192,46719,1,0,0:0:0:40:normal-hitfinish.wav
448,192,47019,1,0,0:0:0:40:normal-hitwhistle.wav
320,192,47219,1,0,0:0:0:40:normal-hitfinish.wav
192,192,47419,1,0,0:0:0:40:normal-hitfinish.wav
320,192,47619,128,0,48219:0:0:0:40:normal-hitwhistle.wav
64,192,47619,128,0,48219:0:0:0:40:normal-hitfinish.wav
448,192,48219,128,0,48519:0:0:0:40:normal-hitwhistle.wav
320,192,48519,128,0,48819:0:0:0:0:
192,192,48819,128,0,49119:0:0:0:0:
64,192,49119,128,0,49419:0:0:0:0:
448,192,49419,128,0,49719:0:0:0:0:
64,192,49719,128,0,49869:0:0:0:0:
192,192,49869,128,0,50019:0:0:0:0:
448,192,50019,128,0,50319:0:0:0:0:
320,192,50319,128,0,50619:0:0:0:0:
64,192,50619,128,0,51219:0:0:0:40:LR3_BassDrop.wav
448,192,50619,1,0,0:0:0:0:
320,192,50919,1,0,0:0:0:0:
192,192,51219,1,0,0:0:0:0:
64,192,51519,1,0,0:0:0:0:
448,192,51819,128,0,52419:0:0:0:0:
64,192,51819,1,0,0:0:0:0:
192,192,52119,1,0,0:0:0:0:
320,192,52419,1,0,0:0:0:0:
448,192,52719,1,0,0:0:0:0:
64,192,53019,128,0,53319:0:0:0:40:LR3_BassDrop.wav
192,192,53319,128,0,53619:0:0:0:0:
320,192,53619,128,0,53919:0:0:0:0:
448,192,53919,128,0,54219:0:0:0:0:
64,192,54219,128,0,54519:0:0:0:0:
448,192,54519,128,0,54669:0:0:0:0:
320,192,54669,128,0,54819:0:0:0:0:
64,192,54819,128,0,55119:0:0:0:0:
192,192,55119,128,0,55419:0:0:0:0:
448,192,55419,1,0,0:0:0:40:normal-hitwhistle.wav
320,192,55569,1,0,0:0:0:40:normal-hitwhistle.wav
192,192,55719,1,0,0:0:0:40:normal-hitwhistle.wav
64,192,55869,1,0,0:0:0:40:normal-hitwhistle.wav
320,192,56019,1,0,0:0:0:40:normal-hitwhistle.wav
192,192,56319,1,0,0:0:0:40:normal-hitwhistle.wav
64,192,56619,1,0,0:0:0:40:normal-hitwhistle.wav
192,192,56769,1,0,0:0:0:40:normal-hitwhistle.wav
448,192,56919,1,0,0:0:0:40:normal-hitwhistle.wav
320,192,57069,1,0,0:0:0:40:normal-hitwhistle.wav
192,192,57219,1,0,0:0:0:40:normal-hitwhistle.wav
64,192,57369,1,0,0:0:0:40:normal-hitwhistle.wav
320,192,57519,1,0,0:0:0:40:normal-hitwhistle.wav
448,192,57669,1,0,0:0:0:40:normal-hitwhistle.wav
64,192,57819,128,0,57969:0:0:0:40:normal-hitfinish.wav
192,192,58119,1,0,0:0:0:0:
448,192,58419,128,0,58569:0:0:0:40:normal-hitfinish.wav
320,192,58719,1,0,0:0:0:0:
64,192,59019,1,0,0:0:0:40:normal-hitwhistle.wav
192,192,59019,1,0,0:0:0:40:normal-hitfinish.wav
320,192,59319,1,0,0:0:0:40:normal-hitfinish.wav
448,192,59319,1,0,0:0:0:40:normal-hitwhistle.wav
64,192,59619,1,0,0:0:0:40:normal-hitwhistle.wav
192,192,59619,1,0,0:0:0:40:normal-hitfinish.wav
448,192,59919,128,0,60069:0:0:0:40:LR_Clap kick.wav
64,192,59919,128,0,60069:0:0:0:0:
64,192,60219,1,0,0:0:0:40:normal-hitwhistle.wav
448,192,60219,1,0,0:0:0:0:
448,192,60519,1,0,0:0:0:40:normal-hitfinish.wav
320,192,60519,1,0,0:0:0:0:
448,192,60819,1,0,0:0:0:40:normal-hitwhistle.wav
64,192,61119,1,0,0:0:0:40:normal-hitwhistle.wav
192,192,61119,1,0,0:0:0:0:
64,192,61419,1,0,0:0:0:40:normal-hitwhistle.wav
448,192,61569,1,0,0:0:0:0:
192,192,61719,1,0,0:0:0:40:normal-hitfinish.wav
320,192,61869,1,0,0:0:0:0:
448,192,62019,1,0,0:0:0:40:normal-hitwhistle.wav
192,192,62169,1,0,0:0:0:0:
192,192,62319,1,0,0:0:0:40:normal-hitwhistle.wav
64,192,62619,1,0,0:0:0:40:LR_Snare Drum .wav
320,192,62769,1,0,0:0:0:0:
448,192,62919,1,0,0:0:0:40:normal-hitfinish.wav
192,192,62919,1,0,0:0:0:0:
320,192,63219,1,0,0:0:0:40:normal-hitwhistle.wav
192,192,63369,1,0,0:0:0:0:
448,192,63519,1,0,0:0:0:40:normal-hitfinish.wav
64,192,63669,1,0,0:0:0:40:LR_Snare Drum .wav
448,192,63819,128,0,64119:0:0:0:40:normal-hitfinish.wav
320,192,63819,1,0,0:0:0:40:normal-hitwhistle.wav
192,192,64119,128,0,64419:0:0:0:40:normal-hitwhistle.wav
64,192,64419,128,0,65019:0:0:0:40:normal-hitfinish.wav
448,192,64719,1,0,0:0:0:40:LR_Snare Drum .wav
320,192,65019,128,0,65169:0:0:0:40:normal-hitwhistle.wav
192,192,65169,128,0,65319:0:0:0:0:
64,192,65319,128,0,65469:0:0:0:0:
448,192,65469,128,0,65619:0:0:0:0:
320,192,65619,128,0,65919:0:0:0:0:
192,192,65919,128,0,66219:0:0:0:0:
448,192,66219,128,0,66369:0:0:0:0:
64,192,66369,1,0,0:0:0:40:normal-hitfinish.wav
448,192,66519,1,0,0:0:0:40:normal-hitwhistle.wav
64,192,66669,1,0,0:0:0:40:normal-hitfinish.wav
320,192,66819,1,0,0:0:0:40:normal-hitwhistle.wav
192,192,66969,1,0,0:0:0:40:normal-hitfinish.wav
320,192,67119,1,0,0:0:0:40:normal-hitwhistle.wav
192,192,67269,1,0,0:0:0:40:normal-hitfinish.wav
64,192,67419,128,0,67569:0:0:0:40:normal-hitfinish.wav
192,192,67719,1,0,0:0:0:0:
448,192,68019,128,0,68169:0:0:0:40:normal-hitfinish.wav
320,192,68319,1,0,0:0:0:0:
64,192,68619,1,0,0:0:0:40:normal-hitwhistle.wav
192,192,68769,1,0,0:0:0:0:
448,192,68919,1,0,0:0:0:40:normal-hitfinish.wav
320,192,69069,1,0,0:0:0:0:
448,192,69219,1,0,0:0:0:40:normal-hitwhistle.wav
64,192,69219,1,0,0:0:0:40:normal-hitfinish.wav
64,192,69519,128,0,69669:0:0:0:40:LR_Clap kick.wav
448,192,69519,128,0,69669:0:0:0:0:
64,192,69819,1,0,0:0:0:40:normal-hitwhistle.wav
192,192,69819,1,0,0:0:0:0:
448,192,69969,1,0,0:0:0:0:
320,192,70119,1,0,0:0:0:40:normal-hitfinish.wav
64,192,70119,1,0,0:0:0:0:
448,192,70419,1,0,0:0:0:40:normal-hitwhistle.wav
192,192,70569,1,0,0:0:0:0:
64,192,70719,1,0,0:0:0:40:normal-hitwhistle.wav
320,192,70719,1,0,0:0:0:0:
448,192,71019,128,0,71619:0:0:0:40:normal-hitwhistle.wav
192,192,71319,1,0,0:0:0:40:normal-hitfinish.wav
64,192,71619,128,0,72069:0:0:0:40:normal-hitwhistle.wav
448,192,71919,1,0,0:0:0:40:normal-hitwhistle.wav
64,192,72219,1,0,0:0:0:40:normal-hitwhistle.wav
448,192,72419,1,0,0:0:0:40:normal-hitwhistle.wav
64,192,72619,1,0,0:0:0:40:normal-hitfinish.wav
448,192,72819,1,0,0:0:0:40:normal-hitwhistle.wav
320,192,73419,1,0,0:0:0:40:normal-hitwhistle.wav
192,192,73619,1,0,0:0:0:40:normal-hitwhistle.wav
320,192,73819,1,0,0:0:0:40:normal-hitfinish.wav
192,192,74019,1,0,0:0:0:40:normal-hitwhistle.wav
448,192,74469,128,0,74619:0:0:0:0:
64,192,74619,128,0,74919:0:0:0:40:LR3_BassDrop.wav
192,192,74919,128,0,75219:0:0:0:0:
320,192,75219,128,0,75519:0:0:0:0:
64,192,75519,128,0,75819:0:0:0:0:
448,192,75819,128,0,76719:0:0:0:0:
64,192,75969,1,0,0:0:0:40:LR_Snare Drum .wav
192,192,76119,1,0,0:0:0:40:normal-hitwhistle.wav
320,192,76419,1,0,0:0:0:40:normal-hitfinish.wav
192,192,76719,1,0,0:0:0:40:normal-hitfinish.wav
448,192,76869,1,0,0:0:0:40:normal-hitwhistle.wav
64,192,77019,1,0,0:0:0:40:cymbal light.wav
320,192,77019,1,0,0:0:0:40:normal-hitwhistle.wav
192,192,77169,1,0,0:0:0:0:
320,192,77319,1,0,0:0:0:40:normal-hitwhistle.wav
448,192,77319,1,0,0:0:0:0:
320,192,77619,1,0,0:0:0:40:normal-hitwhistle.wav
448,192,77769,1,0,0:0:0:0:
192,192,77919,1,0,0:0:0:40:normal-hitwhistle.wav
64,192,77919,1,0,0:0:0:40:normal-hitfinish.wav
320,192,78219,1,0,0:0:0:40:normal-hitfinish.wav
448,192,78369,1,0,0:0:0:0:
192,192,78519,1,0,0:0:0:40:normal-hitwhistle.wav
64,192,78669,1,0,0:0:0:0:
192,192,78819,128,0,78969:0:0:0:40:normal-hitfinish.wav
320,192,78819,128,0,78969:0:0:0:40:normal-hitwhistle.wav
64,192,79419,1,0,0:0:0:40:normal-hitwhistle.wav
448,192,79419,1,0,0:0:0:40:cymbal light.wav
320,192,79719,1,0,0:0:0:40:normal-hitfinish.wav
192,192,79869,128,0,80019:0:0:0:0:
448,192,80019,128,0,80169:0:0:0:40:normal-hitwhistle.wav
192,192,80169,1,0,0:0:0:0:
448,192,80319,128,0,80469:0:0:0:40:normal-hitwhistle.wav
64,192,80469,1,0,0:0:0:0:
320,192,80619,1,0,0:0:0:40:normal-hitwhistle.wav
448,192,80619,1,0,0:0:0:0:
448,192,80919,1,0,0:0:0:40:normal-hitfinish.wav
64,192,81069,128,0,81219:0:0:0:0:
320,192,81219,1,0,0:0:0:40:normal-hitwhistle.wav
192,192,81369,128,0,81519:0:0:0:0:
448,192,81519,1,0,0:0:0:40:normal-hitwhistle.wav
320,192,81669,1,0,0:0:0:0:
64,192,81819,1,0,0:0:0:40:normal-hitwhistle.wav
192,192,81819,1,0,0:0:0:0:
320,192,82119,1,0,0:0:0:40:normal-hitfinish.wav
192,192,82419,128,0,82569:0:0:0:40:normal-hitwhistle.wav
320,192,82569,1,0,0:0:0:0:
192,192,82719,128,0,82869:0:0:0:40:normal-hitwhistle.wav
448,192,82869,1,0,0:0:0:0:
64,192,83019,1,0,0:0:0:40:normal-hitwhistle.wav
320,192,83169,1,0,0:0:0:40:soft-hitnormal.wav
192,192,83319,1,0,0:0:0:40:soft-hitnormal.wav
448,192,83469,1,0,0:0:0:40:soft-hitnormal.wav
64,192,83619,128,0,83919:0:0:0:40:soft-hitnormal.wav
192,192,83919,128,0,84144:0:0:0:0:
64,192,84219,1,0,0:0:0:40:normal-hitwhistle.wav
448,192,84219,1,0,0:0:0:40:cymbal light.wav
448,192,84519,1,0,0:0:0:40:normal-hitfinish.wav
320,192,84669,128,0,84819:0:0:0:0:
64,192,84819,1,0,0:0:0:40:normal-hitwhistle.wav
448,192,84969,1,0,0:0:0:0:
192,192,85119,1,0,0:0:0:40:normal-hitwhistle.wav
448,192,85269,1,0,0:0:0:0:
64,192,85419,1,0,0:0:0:40:normal-hitwhistle.wav
192,192,85419,1,0,0:0:0:0:
448,192,85719,1,0,0:0:0:40:normal-hitfinish.wav
64,192,85869,128,0,86019:0:0:0:40:LR_Snare Drum .wav
320,192,86019,1,0,0:0:0:40:normal-hitwhistle.wav
192,192,86169,128,0,86319:0:0:0:40:LR_Snare Drum .wav
448,192,86319,1,0,0:0:0:40:normal-hitwhistle.wav
192,192,86469,1,0,0:0:0:40:LR_Snare Drum .wav
64,192,86619,1,0,0:0:0:40:soft-hitnormal.wav
448,192,86619,1,0,0:0:0:40:normal-hitwhistle.wav
64,192,86844,1,0,0:0:0:0:
320,192,86919,1,0,0:0:0:0:
320,192,87069,1,0,0:0:0:0:
64,192,87219,1,0,0:0:0:40:soft-hitnormal.wav
448,192,87219,1,0,0:0:0:40:normal-hitwhistle.wav
448,192,87444,1,0,0:0:0:0:
192,192,87519,1,0,0:0:0:0:
192,192,87669,1,0,0:0:0:0:
64,192,87819,1,0,0:0:0:40:normal-hitfinish.wav
448,192,87819,1,0,0:0:0:40:normal-hitwhistle.wav
320,192,88044,1,0,0:0:0:40:soft-hitnormal.wav
64,192,88119,1,0,0:0:0:40:soft-hitnormal.wav
448,192,88119,1,0,0:0:0:40:normal-hitwhistle.wav
192,192,88269,1,0,0:0:0:40:normal-hitfinish.wav
320,192,88419,1,0,0:0:0:40:normal-hitfinish.wav
448,192,88419,128,0,89019:0:0:0:40:normal-hitwhistle.wav
192,192,89019,128,0,89169:0:0:0:0:
320,192,89319,128,0,89469:0:0:0:0:
192,192,89619,128,0,89919:0:0:0:0:
320,192,90069,128,0,90219:0:0:0:0:
192,192,90219,128,0,90369:0:0:0:0:
320,192,90519,128,0,90669:0:0:0:0:
192,192,90819,128,0,91119:0:0:0:0:
320,192,91119,128,0,91344:0:0:0:0:
448,192,91419,1,0,0:0:0:40:LR3_BassDrop.wav
64,192,91419,1,0,0:0:0:0:
448,192,91569,128,0,91719:0:0:0:0:
192,192,91719,1,0,0:0:0:40:LR_Drum Click.wav
192,192,91869,1,0,0:0:0:40:LR3_BassDrop.wav
448,192,92019,1,0,0:0:0:0:
448,192,92169,128,0,92319:0:0:0:0:
64,192,92319,1,0,0:0:0:40:normal-hitwhistle.wav
64,192,92469,1,0,0:0:0:0:
320,192,92619,128,0,92769:0:0:0:40:LR3_BassDrop.wav
192,192,92769,1,0,0:0:0:40:LR_Drum Click.wav
448,192,92919,128,0,93069:0:0:0:40:LR_Drum Click.wav
320,192,93069,1,0,0:0:0:40:LR3_BassDrop.wav
64,192,93219,128,0,93519:0:0:0:0:
320,192,93519,128,0,93669:0:0:0:40:LR_Clap kick.wav
192,192,93669,1,0,0:0:0:0:
448,192,93819,1,0,0:0:0:40:normal-hitwhistle.wav
64,192,93819,1,0,0:0:0:0:
320,192,93969,1,0,0:0:0:40:normal-hitfinish.wav
192,192,94119,1,0,0:0:0:40:normal-hitwhistle.wav
448,192,94269,1,0,0:0:0:40:normal-hitwhistle.wav
192,192,94419,1,0,0:0:0:40:normal-hitwhistle.wav
64,192,94569,1,0,0:0:0:40:normal-hitfinish.wav
448,192,94719,1,0,0:0:0:40:normal-hitwhistle.wav
192,192,94869,1,0,0:0:0:40:normal-hitwhistle.wav
64,192,95019,128,0,95169:0:0:0:40:normal-hitwhistle.wav
320,192,95169,1,0,0:0:0:40:normal-hitwhistle.wav
192,192,95319,128,0,95469:0:0:0:40:normal-hitwhistle.wav
448,192,95469,1,0,0:0:0:40:normal-hitwhistle.wav
320,192,95619,128,0,95919:0:0:0:40:normal-hitfinish.wav
64,192,95919,1,0,0:0:0:40:LR_Snare Drum .wav
448,192,96069,1,0,0:0:0:40:LR_Snare Drum .wav
64,192,96219,1,0,0:0:0:40:LR3_BassDrop.wav
320,192,96369,128,0,96519:0:0:0:0:
64,192,96519,1,0,0:0:0:40:LR_Drum Click.wav
64,192,96669,1,0,0:0:0:40:LR3_BassDrop.wav
448,192,96819,1,0,0:0:0:0:
192,192,96969,128,0,97119:0:0:0:0:
448,192,97119,1,0,0:0:0:40:normal-hitwhistle.wav
448,192,97269,1,0,0:0:0:0:
192,192,97419,128,0,97719:0:0:0:40:LR3_BassDrop.wav
320,192,97719,128,0,97869:0:0:0:40:LR_Drum Click.wav
64,192,97869,128,0,98019:0:0:0:40:LR3_BassDrop.wav
448,192,98019,128,0,98169:0:0:0:0:
192,192,98169,128,0,98319:0:0:0:0:
320,192,98319,128,0,98469:0:0:0:40:LR_Clap kick.wav
64,192,98469,128,0,98619:0:0:0:0:
448,192,98619,1,0,0:0:0:40:normal-hitwhistle.wav
320,192,98619,1,0,0:0:0:0:
192,192,98769,1,0,0:0:0:40:normal-hitfinish.wav
64,192,98919,1,0,0:0:0:40:normal-hitwhistle.wav
320,192,99069,1,0,0:0:0:40:normal-hitwhistle.wav
64,192,99219,1,0,0:0:0:40:normal-hitwhistle.wav
448,192,99369,1,0,0:0:0:40:normal-hitfinish.wav
192,192,99519,1,0,0:0:0:40:normal-hitwhistle.wav
448,192,99669,1,0,0:0:0:40:normal-hitwhistle.wav
192,192,99819,128,0,99969:0:0:0:40:normal-hitwhistle.wav
64,192,99969,1,0,0:0:0:40:normal-hitwhistle.wav
320,192,100119,128,0,100269:0:0:0:40:normal-hitwhistle.wav
448,192,100269,1,0,0:0:0:40:normal-hitwhistle.wav
192,192,100419,128,0,100719:0:0:0:40:normal-hitfinish.wav
448,192,100719,1,0,0:0:0:40:LR_Snare Drum .wav
64,192,100869,1,0,0:0:0:40:LR_Snare Drum .wav
320,192,101019,1,0,0:0:0:40:normal-hitwhistle.wav
448,192,101019,1,0,0:0:0:40:cymbal light.wav
64,192,101319,1,0,0:0:0:40:normal-hitfinish.wav
448,192,101619,1,0,0:0:0:40:normal-hitwhistle.wav
64,192,101919,1,0,0:0:0:40:normal-hitfinish.wav
192,192,101919,1,0,0:0:0:40:normal-hitwhistle.wav
448,192,102069,1,0,0:0:0:40:bitter hat.wav
448,192,102219,1,0,0:0:0:40:normal-hitwhistle.wav
192,192,102219,1,0,0:0:0:0:
64,192,102519,1,0,0:0:0:40:normal-hitwhistle.wav
320,192,102819,1,0,0:0:0:40:normal-hitwhistle.wav
192,192,103119,1,0,0:0:0:40:normal-hitfinish.wav
448,192,103119,1,0,0:0:0:40:normal-hitwhistle.wav
64,192,103269,1,0,0:0:0:40:bitter hat.wav
64,192,103419,1,0,0:0:0:40:normal-hitwhistle.wav
448,192,103419,1,0,0:0:0:0:
320,192,103719,1,0,0:0:0:40:normal-hitwhistle.wav
64,192,104019,1,0,0:0:0:40:normal-hitwhistle.wav
320,192,104319,1,0,0:0:0:40:normal-hitfinish.wav
448,192,104319,1,0,0:0:0:40:normal-hitwhistle.wav
64,192,104469,1,0,0:0:0:40:bitter hat.wav
64,192,104619,128,0,104769:0:0:0:40:normal-hitwhistle.wav
320,192,104769,1,0,0:0:0:40:soft-hitnormal.wav
192,192,104919,128,0,105069:0:0:0:40:normal-hitwhistle.wav
448,192,105069,1,0,0:0:0:40:soft-hitnormal.wav
320,192,105219,128,0,105369:0:0:0:40:normal-hitwhistle.wav
192,192,105369,1,0,0:0:0:40:soft-hitnormal.wav
448,192,105519,128,0,105669:0:0:0:40:normal-hitfinish.wav
64,192,105669,1,0,0:0:0:40:LR_Snare Drum .wav
320,192,105819,1,0,0:0:0:40:LR_Snare Drum .wav
448,192,105819,1,0,0:0:0:40:cymbal light.wav
64,192,106119,1,0,0:0:0:40:normal-hitfinish.wav
320,192,106419,1,0,0:0:0:40:normal-hitwhistle.wav
192,192,106719,1,0,0:0:0:40:normal-hitfinish.wav
64,192,106719,1,0,0:0:0:40:normal-hitwhistle.wav
448,192,106869,1,0,0:0:0:40:bitter hat.wav
64,192,107019,1,0,0:0:0:40:normal-hitwhistle.wav
448,192,107019,1,0,0:0:0:0:
192,192,107319,1,0,0:0:0:40:normal-hitwhistle.wav
64,192,107619,1,0,0:0:0:40:normal-hitwhistle.wav
320,192,107919,1,0,0:0:0:40:normal-hitwhistle.wav
448,192,107919,1,0,0:0:0:40:normal-hitfinish.wav
64,192,108069,1,0,0:0:0:40:bitter hat.wav
448,192,108219,128,0,108819:0:0:0:40:normal-hitwhistle.wav
64,192,108219,1,0,0:0:0:0:
192,192,108519,1,0,0:0:0:40:normal-hitwhistle.wav
64,192,108819,128,0,109419:0:0:0:40:normal-hitwhistle.wav
320,192,109119,1,0,0:0:0:40:normal-hitfinish.wav
64,192,109419,1,0,0:0:0:40:normal-hitfinish.wav
448,192,109419,1,0,0:0:0:40:normal-hitwhistle.wav
192,192,109419,1,0,0:0:0:40:soft-hitnormal.wav
64,192,109619,1,0,0:0:0:40:normal-hitwhistle.wav
320,192,109619,1,0,0:0:0:40:normal-hitfinish.wav
448,192,109819,1,0,0:0:0:40:normal-hitfinish.wav
192,192,109819,1,0,0:0:0:40:normal-hitwhistle.wav
448,192,110019,128,0,110469:0:0:0:40:normal-hitwhistle.wav
64,192,110019,128,0,110469:0:0:0:40:normal-hitfinish.wav
192,192,110619,128,0,110769:0:0:0:40:normal-hitwhistle.wav
448,192,110769,1,0,0:0:0:40:normal-hitwhistle.wav
320,192,110919,128,0,111069:0:0:0:40:normal-hitwhistle.wav
64,192,111069,1,0,0:0:0:40:LR_Drum Click.wav
192,192,111219,128,0,111369:0:0:0:40:normal-hitwhistle.wav
448,192,111369,1,0,0:0:0:40:LR_Drum Click.wav
320,192,111519,128,0,111669:0:0:0:40:normal-hitwhistle.wav
64,192,111669,1,0,0:0:0:40:normal-hitfinish.wav
448,192,111819,128,0,111969:0:0:0:40:normal-hitwhistle.wav
64,192,111969,1,0,0:0:0:40:LR_Drum Click.wav
320,192,112119,128,0,112269:0:0:0:40:normal-hitwhistle.wav
64,192,112269,1,0,0:0:0:40:normal-hitfinish.wav
192,192,112419,128,0,112569:0:0:0:40:normal-hitwhistle.wav
448,192,112569,1,0,0:0:0:40:LR_Drum Click.wav
64,192,112719,128,0,112869:0:0:0:40:normal-hitwhistle.wav
448,192,112869,1,0,0:0:0:40:normal-hitfinish.wav
320,192,113019,128,0,113319:0:0:0:40:normal-hitwhistle.wav
64,192,113319,128,0,113469:0:0:0:40:normal-hitwhistle.wav
192,192,113469,128,0,113619:0:0:0:40:normal-hitwhistle.wav
448,192,113619,128,0,113919:0:0:0:40:normal-hitwhistle.wav
320,192,113619,1,0,0:0:0:40:cymbal light.wav
64,192,113919,128,0,114219:0:0:0:40:normal-hitwhistle.wav
192,192,114219,128,0,114519:0:0:0:40:cymbal light.wav
448,192,114219,1,0,0:0:0:40:normal-hitwhistle.wav
320,192,114519,128,0,114819:0:0:0:40:normal-hitwhistle.wav
448,192,114819,128,0,114969:0:0:0:40:normal-hitwhistle.wav
192,192,114969,128,0,115119:0:0:0:40:normal-hitfinish.wav
64,192,115119,1,0,0:0:0:40:LR_Snare Drum .wav
320,192,115269,128,0,115419:0:0:0:40:LR_Snare Drum .wav
192,192,115419,128,0,115569:0:0:0:40:cymbal light.wav
64,192,115569,1,0,0:0:0:40:LR_Snare Drum .wav
320,192,115719,128,0,115869:0:0:0:40:normal-hitwhistle.wav
192,192,115869,1,0,0:0:0:40:normal-hitfinish.wav
448,192,116019,128,0,116169:0:0:0:40:normal-hitwhistle.wav
64,192,116169,1,0,0:0:0:40:LR_Drum Click.wav
320,192,116319,128,0,116469:0:0:0:40:normal-hitwhistle.wav
448,192,116469,1,0,0:0:0:40:normal-hitfinish.wav
192,192,116619,128,0,116769:0:0:0:40:normal-hitwhistle.wav
320,192,116769,1,0,0:0:0:40:LR_Drum Click.wav
64,192,116919,128,0,117069:0:0:0:40:normal-hitwhistle.wav
448,192,117069,1,0,0:0:0:40:LR_Drum Click.wav
192,192,117219,128,0,117369:0:0:0:40:normal-hitwhistle.wav
320,192,117369,1,0,0:0:0:40:normal-hitfinish.wav
448,192,117519,128,0,117669:0:0:0:40:normal-hitwhistle.wav
64,192,117669,1,0,0:0:0:40:LR_Drum Click.wav
320,192,117819,128,0,118119:0:0:0:40:normal-hitwhistle.wav
64,192,118119,128,0,118269:0:0:0:40:normal-hitwhistle.wav
192,192,118269,128,0,118419:0:0:0:40:normal-hitwhistle.wav
448,192,118419,128,0,118719:0:0:0:40:cymbal light.wav
320,192,118419,1,0,0:0:0:40:normal-hitfinish.wav
64,192,118719,128,0,119019:0:0:0:40:cymbal light.wav
320,192,119019,1,0,0:0:0:40:cymbal light.wav
448,192,119019,1,0,0:0:0:40:normal-hitfinish.wav
192,192,119319,1,0,0:0:0:40:normal-hitfinish.wav
320,192,119319,1,0,0:0:0:40:normal-hitwhistle.wav
64,192,119619,1,0,0:0:0:40:normal-hitwhistle.wav
192,192,119619,1,0,0:0:0:40:normal-hitfinish.wav
448,192,119769,1,0,0:0:0:0:
64,192,119919,1,0,0:0:0:0:
448,192,120069,1,0,0:0:0:0:
64,192,120219,128,0,120369:0:0:0:40:normal-hitfinish.wav
192,192,120519,1,0,0:0:0:0:
448,192,120819,128,0,120969:0:0:0:40:normal-hitfinish.wav
320,192,121119,1,0,0:0:0:0:
64,192,121419,1,0,0:0:0:40:normal-hitwhistle.wav
192,192,121419,1,0,0:0:0:40:normal-hitfinish.wav
320,192,121719,1,0,0:0:0:40:normal-hitfinish.wav
448,192,121719,1,0,0:0:0:40:normal-hitwhistle.wav
64,192,122019,1,0,0:0:0:40:normal-hitwhistle.wav
192,192,122019,1,0,0:0:0:40:normal-hitfinish.wav
64,192,122319,128,0,122469:0:0:0:40:LR_Clap kick.wav
448,192,122319,128,0,122469:0:0:0:0:
64,192,122619,1,0,0:0:0:40:normal-hitwhistle.wav
448,192,122619,1,0,0:0:0:0:
192,192,122769,1,0,0:0:0:0:
448,192,122919,1,0,0:0:0:40:normal-hitfinish.wav
320,192,122919,1,0,0:0:0:40:normal-hitwhistle.wav
192,192,123069,1,0,0:0:0:0:
448,192,123219,1,0,0:0:0:40:normal-hitwhistle.wav
320,192,123369,1,0,0:0:0:0:
64,192,123519,1,0,0:0:0:40:normal-hitwhistle.wav
192,192,123519,1,0,0:0:0:40:normal-hitfinish.wav
320,192,123669,1,0,0:0:0:0:
448,192,123819,128,0,123969:0:0:0:40:normal-hitwhistle.wav
64,192,123969,1,0,0:0:0:0:
448,192,124119,128,0,124269:0:0:0:40:normal-hitfinish.wav
192,192,124269,1,0,0:0:0:0:
320,192,124419,128,0,124719:0:0:0:40:normal-hitwhistle.wav
64,192,124569,1,0,0:0:0:40:LR_Snare Drum .wav
64,192,124719,1,0,0:0:0:40:normal-hitwhistle.wav
192,192,125019,1,0,0:0:0:40:normal-hitwhistle.wav
64,192,125019,1,0,0:0:0:40:LR_Snare Drum .wav
320,192,125169,1,0,0:0:0:0:
64,192,125319,1,0,0:0:0:40:normal-hitfinish.wav
448,192,125319,1,0,0:0:0:40:normal-hitwhistle.wav
192,192,125469,1,0,0:0:0:0:
320,192,125619,1,0,0:0:0:40:normal-hitwhistle.wav
192,192,125769,1,0,0:0:0:0:
320,192,125919,1,0,0:0:0:40:normal-hitfinish.wav
448,192,125919,1,0,0:0:0:40:normal-hitwhistle.wav
64,192,126069,1,0,0:0:0:40:LR_Snare Drum .wav
448,192,126219,128,0,126519:0:0:0:40:normal-hitfinish.wav
192,192,126519,128,0,126819:0:0:0:40:normal-hitwhistle.wav
64,192,126819,128,0,127419:0:0:0:40:normal-hitfinish.wav
448,192,126819,1,0,0:0:0:40:normal-hitwhistle.wav
320,192,127119,1,0,0:0:0:40:LR_Snare Drum .wav
320,192,127419,128,0,127569:0:0:0:40:normal-hitwhistle.wav
448,192,127569,128,0,127719:0:0:0:0:
320,192,127719,128,0,127869:0:0:0:0:
192,192,127869,128,0,128019:0:0:0:0:
64,192,128019,128,0,128319:0:0:0:0:
192,192,128319,128,0,128619:0:0:0:0:
448,192,128619,128,0,128769:0:0:0:0:
64,192,128769,1,0,0:0:0:40:normal-hitfinish.wav
448,192,128919,1,0,0:0:0:40:normal-hitwhistle.wav
64,192,129069,1,0,0:0:0:40:normal-hitfinish.wav
320,192,129219,1,0,0:0:0:40:normal-hitwhistle.wav
192,192,129369,1,0,0:0:0:40:normal-hitfinish.wav
320,192,129519,1,0,0:0:0:40:normal-hitwhistle.wav
192,192,129669,1,0,0:0:0:40:normal-hitfinish.wav
64,192,129819,128,0,129969:0:0:0:40:normal-hitfinish.wav
192,192,130119,1,0,0:0:0:0:
448,192,130419,128,0,130569:0:0:0:40:normal-hitfinish.wav
320,192,130719,1,0,0:0:0:0:
64,192,131019,1,0,0:0:0:40:normal-hitwhistle.wav
64,192,131169,1,0,0:0:0:0:
448,192,131319,1,0,0:0:0:40:normal-hitfinish.wav
448,192,131469,1,0,0:0:0:0:
320,192,131619,1,0,0:0:0:40:normal-hitwhistle.wav
192,192,131619,1,0,0:0:0:40:normal-hitfinish.wav
64,192,131919,128,0,132069:0:0:0:40:LR_Clap kick.wav
448,192,131919,128,0,132069:0:0:0:0:
64,192,132219,1,0,0:0:0:40:normal-hitwhistle.wav
192,192,132219,1,0,0:0:0:0:
320,192,132369,1,0,0:0:0:0:
192,192,132519,1,0,0:0:0:40:normal-hitfinish.wav
448,192,132519,1,0,0:0:0:40:normal-hitwhistle.wav
320,192,132669,1,0,0:0:0:0:
64,192,132819,1,0,0:0:0:40:normal-hitwhistle.wav
448,192,132969,1,0,0:0:0:0:
64,192,133119,1,0,0:0:0:40:normal-hitwhistle.wav
320,192,133119,1,0,0:0:0:40:normal-hitfinish.wav
192,192,133269,1,0,0:0:0:0:
448,192,133419,128,0,134019:0:0:0:40:normal-hitwhistle.wav
320,192,133719,1,0,0:0:0:40:normal-hitfinish.wav
64,192,134019,128,0,134619:0:0:0:40:normal-hitwhistle.wav
448,192,134319,1,0,0:0:0:40:normal-hitwhistle.wav
448,192,134619,1,0,0:0:0:40:normal-hitwhistle.wav
320,192,134619,1,0,0:0:0:40:LR_Snare Drum .wav
64,192,134819,1,0,0:0:0:40:normal-hitwhistle.wav
192,192,134819,1,0,0:0:0:40:normal-hitfinish.wav
448,192,135019,1,0,0:0:0:40:normal-hitfinish.wav
320,192,135019,1,0,0:0:0:40:normal-hitwhistle.wav
64,192,135219,1,0,0:0:0:40:normal-hitwhistle.wav
192,192,135219,1,0,0:0:0:40:normal-hitfinish.wav
64,192,135819,1,0,0:0:0:40:normal-hitwhistle.wav
320,192,135819,1,0,0:0:0:40:normal-hitfinish.wav
448,192,136019,1,0,0:0:0:40:normal-hitwhistle.wav
192,192,136019,1,0,0:0:0:40:normal-hitfinish.wav
320,192,136219,1,0,0:0:0:40:normal-hitfinish.wav
64,192,136219,1,0,0:0:0:40:normal-hitwhistle.wav
192,192,136419,1,0,0:0:0:40:normal-hitwhistle.wav
448,192,136419,1,0,0:0:0:40:normal-hitfinish.wav
448,192,136869,128,0,137019:0:0:0:0:
64,192,137019,128,0,137319:0:0:0:40:LR3_BassDrop.wav
192,192,137319,128,0,137619:0:0:0:0:
320,192,137619,128,0,137919:0:0:0:0:
192,192,137919,128,0,138219:0:0:0:0:
448,192,138219,128,0,139119:0:0:0:0:
64,192,138369,1,0,0:0:0:40:LR_Snare Drum .wav
64,192,138519,1,0,0:0:0:40:normal-hitwhistle.wav
192,192,138819,1,0,0:0:0:40:normal-hitfinish.wav
64,192,139119,1,0,0:0:0:40:normal-hitfinish.wav
320,192,139269,1,0,0:0:0:40:normal-hitwhistle.wav
192,192,139419,1,0,0:0:0:40:cymbal light.wav
448,192,139419,1,0,0:0:0:40:normal-hitwhistle.wav
320,192,139569,1,0,0:0:0:0:
448,192,139719,1,0,0:0:0:40:normal-hitwhistle.wav
192,192,139719,1,0,0:0:0:40:normal-hitfinish.wav
320,192,139869,1,0,0:0:0:0:
64,192,140019,1,0,0:0:0:40:normal-hitwhistle.wav
448,192,140169,128,0,140319:0:0:0:0:
192,192,140319,1,0,0:0:0:40:normal-hitwhistle.wav
448,192,140469,1,0,0:0:0:0:
192,192,140619,1,0,0:0:0:40:normal-hitfinish.wav
192,192,140769,1,0,0:0:0:0:
320,192,140919,1,0,0:0:0:40:normal-hitwhistle.wav
320,192,141069,1,0,0:0:0:0:
64,192,141219,128,0,141369:0:0:0:40:normal-hitfinish.wav
448,192,141219,128,0,141369:0:0:0:40:normal-hitwhistle.wav
320,192,141819,1,0,0:0:0:40:normal-hitfinish.wav
448,192,141819,1,0,0:0:0:40:normal-hitwhistle.wav
192,192,142044,1,0,0:0:0:0:
64,192,142119,1,0,0:0:0:0:
448,192,142419,1,0,0:0:0:0:
320,192,142494,1,0,0:0:0:0:
192,192,142644,1,0,0:0:0:0:
64,192,142719,1,0,0:0:0:0:
64,192,143019,1,0,0:0:0:40:normal-hitwhistle.wav
192,192,143019,1,0,0:0:0:40:normal-hitfinish.wav
320,192,143244,1,0,0:0:0:0:
448,192,143319,1,0,0:0:0:0:
64,192,143544,1,0,0:0:0:0:
320,192,143619,1,0,0:0:0:40:normal-hitfinish.wav
448,192,143619,1,0,0:0:0:40:normal-hitwhistle.wav
64,192,143844,1,0,0:0:0:0:
192,192,143919,1,0,0:0:0:0:
320,192,144219,1,0,0:0:0:40:normal-hitwhistle.wav
448,192,144219,1,0,0:0:0:40:soft-hitnormal.wav
64,192,144444,1,0,0:0:0:0:
320,192,144519,1,0,0:0:0:0:
64,192,144819,1,0,0:0:0:0:
448,192,144894,1,0,0:0:0:0:
192,192,145044,1,0,0:0:0:0:
448,192,145119,1,0,0:0:0:0:
64,192,145419,1,0,0:0:0:40:normal-hitfinish.wav
192,192,145419,1,0,0:0:0:40:normal-hitwhistle.wav
192,192,145644,1,0,0:0:0:0:
320,192,145719,1,0,0:0:0:40:normal-hitwhistle.wav
448,192,145719,1,0,0:0:0:40:normal-hitfinish.wav
320,192,145944,1,0,0:0:0:0:
64,192,146019,1,0,0:0:0:40:normal-hitfinish.wav
192,192,146019,1,0,0:0:0:40:normal-hitwhistle.wav
320,192,146281,1,0,0:0:0:0:
448,192,146356,1,0,0:0:0:0:
320,192,146619,1,0,0:0:0:40:normal-hitwhistle.wav
448,192,146619,1,0,0:0:0:40:soft-hitnormal.wav
64,192,146844,1,0,0:0:0:0:
192,192,146919,1,0,0:0:0:0:
448,192,147219,1,0,0:0:0:0:
320,192,147294,1,0,0:0:0:0:
448,192,147444,1,0,0:0:0:0:
64,192,147519,1,0,0:0:0:0:
64,192,147819,1,0,0:0:0:40:normal-hitwhistle.wav
192,192,147819,1,0,0:0:0:40:normal-hitfinish.wav
448,192,148044,1,0,0:0:0:0:
320,192,148119,1,0,0:0:0:0:
64,192,148344,1,0,0:0:0:0:
448,192,148419,1,0,0:0:0:40:normal-hitfinish.wav
320,192,148419,1,0,0:0:0:40:normal-hitwhistle.wav
192,192,148644,1,0,0:0:0:0:
448,192,148719,1,0,0:0:0:0:
320,192,149019,1,0,0:0:0:40:normal-hitwhistle.wav
448,192,149019,1,0,0:0:0:40:normal-hitfinish.wav
192,192,149244,1,0,0:0:0:0:
448,192,149319,1,0,0:0:0:0:
64,192,149619,1,0,0:0:0:0:
192,192,149694,1,0,0:0:0:0:
64,192,149844,1,0,0:0:0:0:
448,192,149919,1,0,0:0:0:0:
64,192,150219,1,0,0:0:0:40:soft-hitnormal.wav
192,192,150219,1,0,0:0:0:40:normal-hitfinish.wav
192,192,150444,1,0,0:0:0:0:
320,192,150519,1,0,0:0:0:40:normal-hitwhistle.wav
448,192,150519,1,0,0:0:0:40:normal-hitfinish.wav
320,192,150744,1,0,0:0:0:0:
64,192,150819,1,0,0:0:0:40:soft-hitnormal.wav
192,192,150819,1,0,0:0:0:40:normal-hitfinish.wav
448,192,151069,1,0,0:0:0:0:
64,192,151119,1,0,0:0:0:40:LR_Clap kick.wav
64,192,151419,1,0,0:0:0:40:cymbal light.wav
448,192,151419,1,0,0:0:0:40:normal-hitwhistle.wav
192,192,151569,1,0,0:0:0:40:bitter hat.wav
64,192,151719,1,0,0:0:0:40:normal-hitwhistle.wav
320,192,151719,1,0,0:0:0:40:normal-hitfinish.wav
192,192,151869,1,0,0:0:0:40:bitter hat.wav
448,192,152019,1,0,0:0:0:40:normal-hitwhistle.wav
320,192,152169,128,0,152319:0:0:0:40:bitter hat.wav
64,192,152319,1,0,0:0:0:40:normal-hitfinish.wav
448,192,152469,1,0,0:0:0:40:bitter hat.wav
64,192,152619,1,0,0:0:0:40:normal-hitwhistle.wav
192,192,152769,1,0,0:0:0:40:bitter hat.wav
320,192,152919,1,0,0:0:0:40:normal-hitwhistle.wav
448,192,152919,1,0,0:0:0:40:normal-hitfinish.wav
192,192,153069,1,0,0:0:0:40:bitter hat.wav
64,192,153219,1,0,0:0:0:40:normal-hitwhistle.wav
320,192,153369,128,0,153519:0:0:0:40:bitter hat.wav
448,192,153519,1,0,0:0:0:40:normal-hitfinish.wav
64,192,153669,1,0,0:0:0:40:bitter hat.wav
448,192,153819,1,0,0:0:0:40:normal-hitwhistle.wav
64,192,153969,1,0,0:0:0:40:bitter hat.wav
320,192,154119,1,0,0:0:0:40:normal-hitwhistle.wav
448,192,154119,1,0,0:0:0:40:normal-hitfinish.wav
192,192,154269,1,0,0:0:0:40:bitter hat.wav
64,192,154419,1,0,0:0:0:40:normal-hitwhistle.wav
192,192,154569,128,0,154719:0:0:0:40:bitter hat.wav
448,192,154719,1,0,0:0:0:40:normal-hitwhistle.wav
64,192,154869,1,0,0:0:0:40:bitter hat.wav
320,192,155019,1,0,0:0:0:40:normal-hitwhistle.wav
448,192,155169,1,0,0:0:0:40:bitter hat.wav
64,192,155319,1,0,0:0:0:40:normal-hitfinish.wav
192,192,155319,1,0,0:0:0:40:normal-hitwhistle.wav
320,192,155469,1,0,0:0:0:40:bitter hat.wav
448,192,155619,1,0,0:0:0:40:normal-hitwhistle.wav
64,192,155769,128,0,155919:0:0:0:40:bitter hat.wav
320,192,155919,1,0,0:0:0:40:normal-hitwhistle.wav
448,192,156069,1,0,0:0:0:40:bitter hat.wav
64,192,156219,1,0,0:0:0:40:normal-hitwhistle.wav
192,192,156369,1,0,0:0:0:40:bitter hat.wav
320,192,156519,1,0,0:0:0:40:normal-hitfinish.wav
448,192,156519,1,0,0:0:0:40:normal-hitwhistle.wav
64,192,156669,1,0,0:0:0:40:bitter hat.wav
448,192,156819,1,0,0:0:0:40:normal-hitwhistle.wav
64,192,156969,128,0,157119:0:0:0:40:bitter hat.wav
448,192,157119,1,0,0:0:0:40:normal-hitwhistle.wav
192,192,157269,1,0,0:0:0:40:bitter hat.wav
320,192,157419,1,0,0:0:0:40:normal-hitwhistle.wav
64,192,157569,1,0,0:0:0:40:bitter hat.wav
320,192,157719,1,0,0:0:0:40:normal-hitfinish.wav
448,192,157719,1,0,0:0:0:40:normal-hitwhistle.wav
64,192,157869,1,0,0:0:0:40:bitter hat.wav
320,192,158019,1,0,0:0:0:40:normal-hitwhistle.wav
192,192,158169,128,0,158319:0:0:0:40:bitter hat.wav
448,192,158319,1,0,0:0:0:40:normal-hitwhistle.wav
320,192,158469,1,0,0:0:0:40:bitter hat.wav
64,192,158619,1,0,0:0:0:40:normal-hitwhistle.wav
192,192,158619,1,0,0:0:0:40:cymbal light.wav
448,192,158769,1,0,0:0:0:40:bitter hat.wav
64,192,158919,1,0,0:0:0:40:normal-hitwhistle.wav
192,192,159069,1,0,0:0:0:40:bitter hat.wav
320,192,159219,1,0,0:0:0:40:normal-hitwhistle.wav
64,192,159369,128,0,159519:0:0:0:40:bitter hat.wav
448,192,159519,1,0,0:0:0:40:normal-hitfinish.wav
192,192,159669,128,0,159819:0:0:0:40:bitter hat.wav
448,192,159819,1,0,0:0:0:40:normal-hitwhistle.wav
64,192,159969,1,0,0:0:0:40:bitter hat.wav
192,192,160119,1,0,0:0:0:40:normal-hitwhistle.wav
320,192,160119,1,0,0:0:0:40:normal-hitfinish.wav
64,192,160269,1,0,0:0:0:0:
320,192,160419,128,0,160569:0:0:0:40:LR_Tom Hit.wav
64,192,160569,1,0,0:0:0:40:LR_Snare Drum .wav
448,192,160719,128,0,160869:0:0:0:40:LR_Snare Drum .wav
192,192,160869,1,0,0:0:0:40:LR_Snare Drum .wav
320,192,161019,128,0,161169:0:0:0:40:cymbal light.wav
448,192,161169,128,0,161319:0:0:0:40:bitter hat.wav
64,192,161319,128,0,161469:0:0:0:40:normal-hitwhistle.wav
192,192,161469,128,0,161769:0:0:0:40:bitter hat.wav
320,192,161769,128,0,161919:0:0:0:40:bitter hat.wav
448,192,161919,128,0,162069:0:0:0:40:normal-hitfinish.wav
64,192,162069,128,0,162369:0:0:0:40:bitter hat.wav
448,192,162369,128,0,162519:0:0:0:40:bitter hat.wav
320,192,162519,128,0,162669:0:0:0:40:normal-hitwhistle.wav
192,192,162669,128,0,162969:0:0:0:40:bitter hat.wav
64,192,162969,128,0,163119:0:0:0:40:bitter hat.wav
448,192,163119,128,0,163269:0:0:0:40:normal-hitfinish.wav
64,192,163269,128,0,163419:0:0:0:40:bitter hat.wav
192,192,163419,128,0,163719:0:0:0:40:normal-hitwhistle.wav
448,192,163719,128,0,163869:0:0:0:40:normal-hitwhistle.wav
192,192,163869,128,0,164169:0:0:0:40:bitter hat.wav
320,192,164169,128,0,164469:0:0:0:40:bitter hat.wav
448,192,164469,128,0,164769:0:0:0:40:bitter hat.wav
64,192,164769,128,0,164919:0:0:0:40:bitter hat.wav
448,192,164919,128,0,165519:0:0:0:40:normal-hitfinish.wav
64,192,165219,1,0,0:0:0:40:normal-hitwhistle.wav
192,192,165519,1,0,0:0:0:40:normal-hitwhistle.wav
64,192,165519,1,0,0:0:0:40:normal-hitfinish.wav
64,192,165819,128,0,165969:0:0:0:40:normal-hitwhistle.wav
448,192,165819,1,0,0:0:0:0:
192,192,165969,128,0,166119:0:0:0:40:bitter hat.wav
448,192,166119,128,0,166419:0:0:0:40:normal-hitfinish.wav
64,192,166419,128,0,166569:0:0:0:40:normal-hitwhistle.wav
320,192,166419,1,0,0:0:0:0:
192,192,166569,128,0,166719:0:0:0:40:bitter hat.wav
448,192,166719,128,0,167019:0:0:0:40:normal-hitwhistle.wav
64,192,167019,128,0,167169:0:0:0:40:normal-hitwhistle.wav
320,192,167019,1,0,0:0:0:0:
192,192,167169,128,0,167319:0:0:0:40:bitter hat.wav
448,192,167319,128,0,167619:0:0:0:40:normal-hitfinish.wav
192,192,167619,128,0,167919:0:0:0:40:normal-hitwhistle.wav
320,192,167919,128,0,168219:0:0:0:40:normal-hitwhistle.wav
64,192,168219,128,0,168519:0:0:0:40:normal-hitwhistle.wav
448,192,168669,128,0,168819:0:0:0:40:normal-hitwhistle.wav
64,192,168819,128,0,169419:0:0:0:40:normal-hitwhistle.wav
448,192,169419,1,0,0:0:0:40:normal-hitfinish.wav
64,192,169569,1,0,0:0:0:40:normal-hitwhistle.wav
320,192,169719,1,0,0:0:0:40:LR_Snare Drum .wav
192,192,169869,1,0,0:0:0:40:LR_Snare Drum .wav
448,192,170019,1,0,0:0:0:40:LR_Snare Drum .wav
64,192,170169,1,0,0:0:0:40:LR_Snare Drum .wav
320,192,170319,1,0,0:0:0:40:LR_Snare Drum .wav
192,192,170469,1,0,0:0:0:40:LR_Snare Drum .wav
320,192,170544,1,0,0:0:0:40:LR_Snare Drum .wav
192,192,170619,128,0,170919:0:0:0:0:
320,192,171219,128,0,171369:0:0:0:0:
448,192,171519,128,0,171669:0:0:0:0:
64,192,171819,128,0,171969:0:0:0:0:
192,192,172119,128,0,172269:0:0:0:0:
448,192,172269,128,0,172419:0:0:0:0:
192,192,172419,128,0,172569:0:0:0:0:
320,192,173019,128,0,173319:0:0:0:0:
192,192,173319,128,0,173469:0:0:0:0:
448,192,173469,128,0,173619:0:0:0:0:
64,192,173619,128,0,173919:0:0:0:0:
320,192,173919,128,0,174219:0:0:0:0:
192,192,174219,128,0,174369:0:0:0:0:
64,192,174369,128,0,174519:0:0:0:0:
320,192,174519,128,0,174669:0:0:0:0:
192,192,174669,128,0,174819:0:0:0:0:
448,192,174819,128,0,174969:0:0:0:0:
320,192,174969,128,0,175119:0:0:0:0:
64,192,175119,128,0,175269:0:0:0:0:
192,192,175269,128,0,175419:0:0:0:0:
448,192,175419,128,0,175719:0:0:0:0:
64,192,176019,128,0,176169:0:0:0:0:
320,192,176319,128,0,176469:0:0:0:0:
192,192,176619,128,0,176919:0:0:0:0:
320,192,176919,128,0,177069:0:0:0:0:
448,192,177069,128,0,177219:0:0:0:0:
64,192,177219,128,0,177519:0:0:0:0:
320,192,177819,128,0,177969:0:0:0:0:
192,192,177969,128,0,178119:0:0:0:0:
448,192,178119,128,0,178269:0:0:0:0:
64,192,178269,128,0,178419:0:0:0:0:
192,192,178419,128,0,178719:0:0:0:0:
320,192,178719,128,0,179019:0:0:0:0:
448,192,179019,128,0,179169:0:0:0:0:
320,192,179169,128,0,179319:0:0:0:0:
448,192,179319,128,0,179469:0:0:0:0:
64,192,179469,128,0,179619:0:0:0:0:
192,192,179619,128,0,179919:0:0:0:0:
448,192,180219,128,0,182619:0:0:0:40:LR3_BassDrop.wav
192,192,180819,128,0,182619:0:0:0:0:
320,192,181419,128,0,182619:0:0:0:0:
64,192,182619,128,0,182769:0:0:0:40:normal-hitfinish.wav
192,192,182919,1,0,0:0:0:0:
448,192,183219,128,0,183369:0:0:0:40:normal-hitfinish.wav
320,192,183519,1,0,0:0:0:0:
320,192,183819,1,0,0:0:0:40:normal-hitwhistle.wav
448,192,183819,1,0,0:0:0:40:normal-hitfinish.wav
64,192,183969,1,0,0:0:0:0:
192,192,184044,1,0,0:0:0:0:
320,192,184119,1,0,0:0:0:40:normal-hitfinish.wav
448,192,184119,1,0,0:0:0:40:normal-hitwhistle.wav
64,192,184269,1,0,0:0:0:0:
448,192,184419,1,0,0:0:0:40:normal-hitwhistle.wav
64,192,184719,128,0,184869:0:0:0:40:LR_Clap kick.wav
448,192,184719,128,0,184869:0:0:0:0:
320,192,185019,1,0,0:0:0:40:normal-hitwhistle.wav
448,192,185019,1,0,0:0:0:0:
192,192,185169,1,0,0:0:0:0:
320,192,185319,1,0,0:0:0:40:normal-hitfinish.wav
448,192,185319,1,0,0:0:0:40:normal-hitwhistle.wav
64,192,185469,1,0,0:0:0:0:
320,192,185619,1,0,0:0:0:40:normal-hitwhistle.wav
64,192,185769,1,0,0:0:0:0:
192,192,185919,1,0,0:0:0:40:normal-hitwhistle.wav
320,192,185919,1,0,0:0:0:40:normal-hitfinish.wav
448,192,186069,1,0,0:0:0:0:
64,192,186219,128,0,186369:0:0:0:40:normal-hitwhistle.wav
192,192,186369,1,0,0:0:0:0:
448,192,186519,128,0,186669:0:0:0:40:normal-hitfinish.wav
320,192,186669,1,0,0:0:0:0:
192,192,186819,128,0,187119:0:0:0:40:normal-hitwhistle.wav
448,192,186969,1,0,0:0:0:0:
448,192,187119,1,0,0:0:0:40:normal-hitwhistle.wav
64,192,187419,1,0,0:0:0:40:normal-hitwhistle.wav
320,192,187419,1,0,0:0:0:40:LR_Snare Drum .wav
192,192,187569,1,0,0:0:0:0:
448,192,187719,1,0,0:0:0:40:normal-hitfinish.wav
64,192,187719,1,0,0:0:0:40:normal-hitwhistle.wav
320,192,187869,1,0,0:0:0:0:
192,192,188019,1,0,0:0:0:40:normal-hitwhistle.wav
320,192,188169,1,0,0:0:0:0:
448,192,188319,1,0,0:0:0:40:normal-hitfinish.wav
64,192,188319,1,0,0:0:0:40:normal-hitwhistle.wav
192,192,188469,1,0,0:0:0:40:LR_Snare Drum .wav
448,192,188619,128,0,188919:0:0:0:40:normal-hitfinish.wav
192,192,188919,128,0,189219:0:0:0:40:normal-hitwhistle.wav
64,192,189219,128,0,189819:0:0:0:40:normal-hitfinish.wav
192,192,189819,128,0,189969:0:0:0:40:normal-hitwhistle.wav
448,192,189969,128,0,190119:0:0:0:0:
64,192,190119,128,0,190269:0:0:0:0:
320,192,190269,128,0,190419:0:0:0:0:
448,192,190419,128,0,190719:0:0:0:0:
64,192,190719,128,0,191019:0:0:0:0:
448,192,191019,128,0,191169:0:0:0:0:
64,192,191169,1,0,0:0:0:40:normal-hitfinish.wav
448,192,191319,1,0,0:0:0:40:normal-hitwhistle.wav
64,192,191469,1,0,0:0:0:40:normal-hitfinish.wav
320,192,191619,1,0,0:0:0:40:normal-hitwhistle.wav
192,192,191769,1,0,0:0:0:40:normal-hitfinish.wav
320,192,191919,1,0,0:0:0:40:normal-hitwhistle.wav
192,192,192069,1,0,0:0:0:40:normal-hitfinish.wav
448,192,192219,128,0,192369:0:0:0:40:normal-hitfinish.wav
320,192,192519,1,0,0:0:0:0:
64,192,192819,128,0,192969:0:0:0:40:normal-hitfinish.wav
192,192,193119,1,0,0:0:0:0:
192,192,193419,1,0,0:0:0:40:normal-hitwhistle.wav
192,192,193569,1,0,0:0:0:0:
320,192,193719,1,0,0:0:0:40:normal-hitfinish.wav
320,192,193869,1,0,0:0:0:0:
64,192,194019,1,0,0:0:0:40:normal-hitwhistle.wav
448,192,194019,1,0,0:0:0:40:normal-hitfinish.wav
64,192,194319,128,0,194469:0:0:0:40:LR_Clap kick.wav
448,192,194319,128,0,194469:0:0:0:0:
64,192,194619,1,0,0:0:0:40:normal-hitwhistle.wav
192,192,194619,1,0,0:0:0:0:
448,192,194769,1,0,0:0:0:0:
192,192,194919,1,0,0:0:0:40:normal-hitfinish.wav
320,192,194919,1,0,0:0:0:40:normal-hitwhistle.wav
448,192,195069,1,0,0:0:0:0:
64,192,195219,1,0,0:0:0:40:normal-hitwhistle.wav
192,192,195369,1,0,0:0:0:0:
320,192,195519,1,0,0:0:0:40:normal-hitwhistle.wav
448,192,195519,1,0,0:0:0:40:normal-hitfinish.wav
192,192,195669,1,0,0:0:0:0:
448,192,195819,128,0,196419:0:0:0:40:normal-hitwhistle.wav
64,192,196419,128,0,196869:0:0:0:40:normal-hitwhistle.wav
448,192,197019,1,0,0:0:0:40:normal-hitwhistle.wav
320,192,197019,1,0,0:0:0:40:LR_Snare Drum .wav
64,192,197219,1,0,0:0:0:40:normal-hitwhistle.wav
192,192,197219,1,0,0:0:0:40:normal-hitfinish.wav
448,192,197419,1,0,0:0:0:40:normal-hitfinish.wav
320,192,197419,1,0,0:0:0:40:normal-hitwhistle.wav
64,192,197619,1,0,0:0:0:40:normal-hitwhistle.wav
192,192,197619,1,0,0:0:0:40:normal-hitfinish.wav
64,192,198219,1,0,0:0:0:40:normal-hitwhistle.wav
320,192,198219,1,0,0:0:0:40:normal-hitfinish.wav
448,192,198419,1,0,0:0:0:40:normal-hitwhistle.wav
192,192,198419,1,0,0:0:0:40:normal-hitfinish.wav
320,192,198619,1,0,0:0:0:40:normal-hitfinish.wav
64,192,198619,1,0,0:0:0:40:normal-hitwhistle.wav
192,192,198819,1,0,0:0:0:40:normal-hitwhistle.wav
448,192,198819,1,0,0:0:0:40:normal-hitfinish.wav
448,192,199269,128,0,199419:0:0:0:0:
64,192,199419,128,0,199719:0:0:0:40:LR3_BassDrop.wav
192,192,199719,128,0,200019:0:0:0:0:
320,192,200019,128,0,200319:0:0:0:0:
64,192,200319,128,0,200619:0:0:0:0:
448,192,200619,128,0,201519:0:0:0:0:
64,192,200769,1,0,0:0:0:40:LR_Snare Drum .wav
320,192,200919,1,0,0:0:0:40:normal-hitwhistle.wav
192,192,201219,1,0,0:0:0:40:normal-hitfinish.wav
64,192,201519,1,0,0:0:0:40:normal-hitfinish.wav
64,192,201819,1,0,0:0:0:40:cymbal light.wav
448,192,201819,1,0,0:0:0:40:normal-hitwhistle.wav
320,192,201969,1,0,0:0:0:0:
64,192,202119,1,0,0:0:0:40:normal-hitwhistle.wav
192,192,202119,1,0,0:0:0:40:normal-hitfinish.wav
448,192,202269,1,0,0:0:0:0:
320,192,202419,1,0,0:0:0:40:normal-hitwhistle.wav
192,192,202569,128,0,202719:0:0:0:0:
64,192,202719,1,0,0:0:0:40:normal-hitwhistle.wav
448,192,202869,1,0,0:0:0:0:
192,192,203019,1,0,0:0:0:40:normal-hitfinish.wav
192,192,203169,1,0,0:0:0:0:
320,192,203319,1,0,0:0:0:40:normal-hitwhistle.wav
320,192,203469,1,0,0:0:0:0:
64,192,203619,128,0,203769:0:0:0:40:normal-hitfinish.wav
448,192,203619,128,0,203769:0:0:0:40:normal-hitwhistle.wav
64,192,204219,1,0,0:0:0:40:cymbal light.wav
448,192,204219,1,0,0:0:0:40:normal-hitwhistle.wav
320,192,204369,1,0,0:0:0:0:
64,192,204519,1,0,0:0:0:40:normal-hitwhistle.wav
192,192,204519,1,0,0:0:0:40:normal-hitfinish.wav
448,192,204669,1,0,0:0:0:0:
64,192,204819,1,0,0:0:0:40:normal-hitwhistle.wav
192,192,204969,128,0,205119:0:0:0:0:
448,192,205119,1,0,0:0:0:40:normal-hitwhistle.wav
64,192,205269,1,0,0:0:0:0:
448,192,205419,1,0,0:0:0:40:normal-hitfinish.wav
64,192,205569,1,0,0:0:0:40:LR_Snare Drum .wav
320,192,205719,1,0,0:0:0:40:normal-hitwhistle.wav
192,192,205869,1,0,0:0:0:40:LR_Snare Drum .wav
64,192,206019,128,0,206169:0:0:0:40:normal-hitfinish.wav
448,192,206019,128,0,206169:0:0:0:40:normal-hitwhistle.wav
64,192,206619,128,0,206769:0:0:0:40:normal-hitwhistle.wav
448,192,206769,128,0,206919:0:0:0:0:
64,192,206919,128,0,207069:0:0:0:40:normal-hitfinish.wav
448,192,207069,128,0,207219:0:0:0:0:
192,192,207219,128,0,207369:0:0:0:40:normal-hitwhistle.wav
320,192,207369,128,0,207519:0:0:0:0:
64,192,207519,1,0,0:0:0:40:normal-hitfinish.wav
320,192,207669,1,0,0:0:0:0:
192,192,207819,1,0,0:0:0:40:normal-hitwhistle.wav
64,192,207819,128,0,208119:0:0:0:40:normal-hitfinish.wav
320,192,208119,1,0,0:0:0:40:normal-hitfinish.wav
448,192,208119,128,0,208419:0:0:0:40:normal-hitwhistle.wav
192,192,208419,128,0,208719:0:0:0:40:normal-hitwhistle.wav
64,192,208419,1,0,0:0:0:40:normal-hitfinish.wav
320,192,208719,128,0,209019:0:0:0:40:normal-hitwhistle.wav
448,192,208719,1,0,0:0:0:40:normal-hitfinish.wav
448,192,209019,128,0,211044:0:0:0:40:normal-hitfinish.wav
64,192,209019,1,0,0:0:0:40:normal-hitwhistle.wav
64,192,209244,1,0,0:0:0:40:LR_Drum Click.wav
192,192,209319,1,0,0:0:0:40:LR_Drum Click.wav
64,192,209469,1,0,0:0:0:40:LR_Drum Click.wav
64,192,209619,1,0,0:0:0:40:LR_Drum Click.wav
192,192,209844,1,0,0:0:0:40:LR_Drum Click.wav
64,192,209919,1,0,0:0:0:40:LR_Drum Click.wav
192,192,210069,1,0,0:0:0:40:LR_Drum Click.wav
192,192,210219,1,0,0:0:0:40:LR_Drum Click.wav
64,192,210444,1,0,0:0:0:40:LR_Drum Click.wav
192,192,210519,1,0,0:0:0:40:LR_Drum Click.wav
320,192,210669,1,0,0:0:0:40:LR_Drum Click.wav
320,192,210819,1,0,0:0:0:40:LR_Drum Click.wav
64,192,211119,1,0,0:0:0:40:normal-hitwhistle.wav
192,192,211119,1,0,0:0:0:40:LR3_BassDrop.wav
