osu file format v14

[General]
AudioFilename: audio.mp3
AudioLeadIn: 0
PreviewTime: 57813
Countdown: 0
SampleSet: Normal
StackLeniency: 0.7
Mode: 0
LetterboxInBreaks: 0
WidescreenStoryboard: 0

[Editor]
DistanceSpacing: 0.8
BeatDivisor: 4
GridSize: 4
TimelineZoom: 1.4

[Metadata]
Title:Bali 3 Kyouwakoku
TitleUnicode:バリ3共和国
Artist:Dempagumi.inc
ArtistUnicode:でんぱ組.inc
Creator:alacat
Version:Nemukyun
Source:でんぱジャック -World Wide Akihabara-
Tags:
BeatmapID:1137432
BeatmapSetID:536691

[Difficulty]
HPDrainRate:6
CircleSize:4.2
OverallDifficulty:9
ApproachRate:9.4
SliderMultiplier:2
SliderTickRate:1

[Events]
//Background and Video events
0,0,"BG3.jpg",0,0
//Break Periods
2,16537,18256
2,19160,20551
//Storyboard Layer 0 (Background)
//Storyboard Layer 1 (Fail)
//Storyboard Layer 2 (Pass)
//Storyboard Layer 3 (Foreground)
//Storyboard Sound Samples

[TimingPoints]
600,327.868852459016,4,1,0,60,1,0
5518,-142.857142857143,4,1,0,60,0,0
5845,-100,4,1,0,60,0,0
21255,-142.857142857143,4,1,0,60,0,0
21583,-100,4,1,0,60,0,0
37321,-125,4,1,0,60,0,0
47813,-100,4,1,0,60,0,0
58304,-100,4,1,0,60,0,1
62567,-66.6666666666667,4,1,0,60,0,1
62895,-100,4,1,0,60,0,1
63222,-200,4,1,0,60,0,1
63550,-100,4,1,0,60,0,1
68632,-100,4,1,0,60,0,0
68796,-100,4,1,0,60,0,1
73059,-66.6666666666667,4,1,0,60,0,1
73386,-100,4,1,0,60,0,1
73714,-200,4,1,0,60,0,1
74042,-100,4,1,0,60,0,1
79288,-100,4,1,0,60,0,0
93878,-100,4,2,0,60,0,0
99780,-100,4,2,0,5,0,0

[Colours]
Combo1 : 180,180,180
Combo2 : 66,255,114
Combo3 : 68,152,255
Combo4 : 243,41,72
Combo5 : 255,208,66
Combo6 : 255,104,255

[HitObjects]
300,136,5518,6,0,B|294:171|294:171|304:209|304:209|299:241,1,104.999996795654,0|0,0:0|2:0,0:0:0:0:
232,284,5845,6,0,P|184:264|136:260,1,100
380,164,6173,2,0,P|429:168|475:188,1,100
308,320,6501,1,0,0:0:0:0:
368,80,6665,1,0,0:0:0:0:
368,80,6747,1,0,0:0:0:0:
368,80,6829,1,0,0:0:0:0:
408,256,6993,1,0,0:0:0:0:
224,200,7157,5,0,0:0:0:0:
380,164,7321,1,0,0:0:0:0:
196,108,7485,1,0,0:0:0:0:
408,256,7649,1,0,0:0:0:0:
208,380,7813,2,0,B|192:356|192:356|207:286,1,100
476,188,8140,2,0,B|492:164|492:164|476:94,1,100
218,10,8468,6,0,L|196:108,1,100
320,276,8796,2,0,P|332:228|320:180,1,100
112,40,9124,1,0,0:0:0:0:
236,184,9288,1,0,0:0:0:0:
236,184,9370,1,0,0:0:0:0:
236,184,9452,1,0,0:0:0:0:
20,72,9616,1,0,0:0:0:0:
218,10,9780,5,0,0:0:0:0:
152,196,9944,1,0,0:0:0:0:
292,64,10108,5,0,0:0:0:0:
320,276,10272,1,0,0:0:0:0:
376,32,10436,5,0,0:0:0:0:
484,221,10599,2,0,L|492:172,1,50
424,284,10763,1,0,0:0:0:0:
428,304,10845,1,0,0:0:0:0:
432,324,10927,1,0,0:0:0:0:
436,344,11009,1,0,0:0:0:0:
440,364,11091,6,0,L|336:352,1,100
152,196,11419,2,0,L|256:184,1,100
248,336,11747,1,0,0:0:0:0:
44,228,11911,1,0,0:0:0:0:
36,208,11993,1,0,0:0:0:0:
28,188,12075,2,0,L|127:176,1,100
328,260,12403,5,0,0:0:0:0:
140,312,12567,1,0,0:0:0:0:
184,112,12731,1,0,0:0:0:0:
248,336,12895,1,0,0:0:0:0:
484,188,13059,2,0,L|384:176,1,100
256,32,13386,1,0,0:0:0:0:
328,260,13550,1,0,0:0:0:0:
240,56,13714,6,0,L|252:156,1,100
328,260,14042,2,0,L|316:360,1,100
152,192,14370,1,0,0:0:0:0:
360,96,14534,2,0,L|367:145,1,50
425,255,14698,2,0,P|376:247|328:260,1,100
192,356,15026,5,0,0:0:0:0:
40,280,15190,1,0,0:0:0:0:
28,264,15272,1,0,0:0:0:0:
16,248,15354,2,0,L|24:196,3,50
84,144,15681,2,0,L|76:92,3,50
52,20,16009,1,0,0:0:0:0:
72,24,16091,1,0,0:0:0:0:
92,28,16173,1,0,0:0:0:0:
112,32,16255,1,0,0:0:0:0:
132,36,16337,5,0,0:0:0:0:
380,348,18796,5,0,0:0:0:0:
380,348,18960,1,0,0:0:0:0:
168,264,21091,5,0,0:0:0:0:
168,264,21255,2,0,P|172:220|224:212,1,104.999996795654,0|0,0:0|2:0,0:0:0:0:
188,344,21583,6,0,P|132:336|84:340,1,100
248,288,21911,1,0,0:0:0:0:
104,176,22075,1,0,0:0:0:0:
313,351,22239,2,0,P|297:278|315:206,1,150
408,176,22567,2,0,P|364:200|315:206,1,100
280,96,22895,5,0,0:0:0:0:
248,288,23059,1,0,0:0:0:0:
280,96,23222,1,0,0:0:0:0:
380,244,23386,2,0,P|423:268|472:274,1,100
456,108,23714,5,0,0:0:0:0:
248,288,23878,1,0,0:0:0:0:
380,244,24042,1,0,0:0:0:0:
208,184,24206,5,0,0:0:0:0:
304,352,24370,1,0,0:0:0:0:
304,352,24452,1,0,0:0:0:0:
304,352,24534,2,0,B|276:368|276:368|208:364,1,100
100,208,24862,1,0,0:0:0:0:
248,288,25026,1,0,0:0:0:0:
56,304,25190,1,0,0:0:0:0:
248,288,25354,1,0,0:0:0:0:
108,113,25518,6,0,B|88:181|88:181|100:208,1,100
208,184,25845,1,0,0:0:0:0:
132,16,26009,2,0,L|32:28,1,100
224,84,26337,1,0,0:0:0:0:
243,87,26419,1,0,0:0:0:0:
263,90,26501,1,0,0:0:0:0:
283,93,26583,1,0,0:0:0:0:
303,96,26665,1,0,0:0:0:0:
322,99,26747,1,0,0:0:0:0:
342,102,26829,5,0,0:0:0:0:
484,68,26993,1,0,0:0:0:0:
484,68,27075,1,0,0:0:0:0:
484,68,27157,2,0,B|495:94|495:94|475:162,1,100
224,208,27485,1,0,0:0:0:0:
380,184,27649,1,0,0:0:0:0:
212,192,27813,1,0,0:0:0:0:
444,260,27977,1,0,0:0:0:0:
200,176,28140,6,0,L|212:276,1,100
280,364,28468,1,0,0:0:0:0:
188,160,28632,1,0,0:0:0:0:
188,160,28960,1,0,0:0:0:0:
380,220,29124,1,0,0:0:0:0:
116,248,29288,1,0,0:0:0:0:
300,96,29452,6,0,P|284:148|284:200,1,100
96,136,29780,1,0,0:0:0:0:
316,80,29944,1,0,0:0:0:0:
99,14,30108,2,0,P|114:62|116:112,1,100
84,264,30436,1,0,0:0:0:0:
300,96,30599,1,0,0:0:0:0:
201,166,30763,5,0,0:0:0:0:
201,166,30927,1,0,0:0:0:0:
96,136,31091,1,0,0:0:0:0:
307,196,31255,1,0,0:0:0:0:
232,59,31419,5,0,0:0:0:0:
171,271,31583,1,0,0:0:0:0:
387,177,31747,2,0,B|287:153|287:153|307:196,1,150,0|0,0:0|2:0,0:0:0:0:
368,284,32075,5,0,0:0:0:0:
456,72,32239,2,0,L|356:88,2,100
496,204,32731,1,0,0:0:0:0:
496,204,32895,1,0,0:0:0:0:
356,380,33059,2,0,P|351:330|367:283,1,100
472,312,33386,5,0,0:0:0:0:
268,256,33550,1,0,0:0:0:0:
396,176,33714,1,0,0:0:0:0:
356,380,33878,2,0,L|256:372,1,100
300,112,34206,2,0,L|308:164,1,50
268,256,34370,1,0,0:0:0:0:
288,24,34534,1,0,0:0:0:0:
396,176,34698,5,0,0:0:0:0:
212,76,34862,1,0,0:0:0:0:
212,76,34944,1,0,0:0:0:0:
212,76,35026,2,0,L|112:76,1,100
60,192,35354,2,0,L|160:192,1,100
288,24,35681,1,0,0:0:0:0:
160,192,35845,1,0,0:0:0:0:
32,76,36009,5,0,0:0:0:0:
248,192,36173,1,0,0:0:0:0:
248,192,36255,1,0,0:0:0:0:
248,192,36337,1,0,0:0:0:0:
164,24,36501,1,0,0:0:0:0:
164,24,36583,1,0,0:0:0:0:
164,24,36665,2,0,B|144:92|144:92|156:120,1,100
348,136,36993,2,0,B|299:84|299:84|268:81,1,100
128,245,37321,6,0,P|203:254|248:192,1,160
40,176,37813,1,0,0:0:0:0:
40,176,37977,2,0,L|52:336,1,160
132,372,38468,1,0,0:0:0:0:
204,320,38632,6,0,P|248:328|280:344,1,80
411,252,38960,2,0,P|372:258|336:276,1,80
199,187,39288,2,0,P|238:193|275:211,1,80
407,120,39616,2,0,P|368:126|332:144,1,80
448,336,39944,6,0,P|455:257|476:176,2,160
328,224,40763,1,0,0:0:0:0:
280,352,40927,2,0,P|324:344|352:324,1,80
248,104,41255,6,0,L|228:264,1,160
140,68,41747,1,0,0:0:0:0:
140,68,41911,2,0,L|148:148,1,80
72,16,42239,2,0,P|32:16|12:48,1,80
60,180,42567,6,0,L|40:340,1,160
220,272,43059,1,0,0:0:0:0:
220,272,43222,2,0,B|176:236|132:252|132:252|120:324,1,160
204,352,43714,1,0,0:0:0:0:
240,188,43878,6,0,L|228:108,1,80
132,56,44206,2,0,L|144:136,1,80
328,224,44534,2,0,L|316:144,1,80
112,256,44862,2,0,L|124:336,1,80
328,224,45190,6,0,P|248:228|200:288,1,160
100,168,45681,1,0,0:0:0:0:
255,32,45845,2,0,B|227:77|231:129|231:129|208:114|176:120,1,160
332,100,46337,6,0,P|412:92|492:104,1,160
304,200,46829,2,0,P|264:196|224:200,1,80
156,32,47157,1,0,0:0:0:0:
76,124,47321,1,0,0:0:0:0:
73,143,47403,1,0,0:0:0:0:
70,163,47485,1,0,0:0:0:0:
67,183,47567,1,0,0:0:0:0:
64,203,47649,1,0,0:0:0:0:
61,222,47731,1,0,0:0:0:0:
58,242,47813,6,0,L|74:342,1,100
192,152,48140,2,0,L|176:252,1,100
88,32,48468,1,0,0:0:0:0:
67,183,48632,1,0,0:0:0:0:
292,96,48796,2,0,P|240:96|196:116,1,100
320,268,49124,5,0,0:0:0:0:
320,268,49288,2,0,P|346:222|350:174,1,100
158,209,49616,2,0,P|184:254|223:282,1,100
292,96,49944,1,0,0:0:0:0:
222,282,50108,1,0,0:0:0:0:
292,96,50272,1,0,0:0:0:0:
158,209,50436,6,0,L|54:201,1,100
244,40,50763,2,0,P|248:92|228:140,1,100
268,344,51091,2,0,P|263:294|281:248,1,100
453,182,51418,2,0,L|354:175,1,100
368,32,51747,5,0,0:0:0:0:
400,272,51911,1,0,0:0:0:0:
292,96,52075,1,0,0:0:0:0:
456,80,52239,1,0,0:0:0:0:
456,80,52321,1,0,0:0:0:0:
456,80,52403,1,0,0:0:0:0:
354,175,52567,1,0,0:0:0:0:
216,156,52731,1,0,0:0:0:0:
136,40,52895,1,0,0:0:0:0:
354,175,53059,5,0,0:0:0:0:
132,224,53222,1,0,0:0:0:0:
236,20,53386,1,0,0:0:0:0:
400,272,53550,5,0,0:0:0:0:
216,156,53714,1,0,0:0:0:0:
456,80,53878,1,0,0:0:0:0:
256,304,54042,5,0,0:0:0:0:
344,52,54206,1,0,0:0:0:0:
504,284,54370,1,0,0:0:0:0:
216,156,54534,5,0,0:0:0:0:
456,80,54698,1,0,0:0:0:0:
336,328,54862,1,0,0:0:0:0:
120,36,55026,5,0,0:0:0:0:
504,284,55190,1,0,0:0:0:0:
136,196,55354,1,0,0:0:0:0:
456,80,55518,1,0,0:0:0:0:
212,48,55681,6,0,B|180:148|252:148|216:248,1,200
292,96,56173,1,0,0:0:0:0:
136,196,56337,1,0,0:0:0:0:
136,196,56501,1,0,0:0:0:0:
384,119,56665,2,0,P|341:95|292:96,1,100
156,296,56993,5,0,0:0:0:0:
188,320,57075,1,0,0:0:0:0:
228,328,57157,1,0,0:0:0:0:
264,316,57239,1,0,0:0:0:0:
288,284,57321,1,0,0:0:0:0:
324,264,57403,1,0,0:0:0:0:
364,264,57485,1,0,0:0:0:0:
400,284,57567,1,0,0:0:0:0:
424,316,57649,1,0,0:0:0:0:
217,242,57813,5,0,0:0:0:0:
348,348,57977,1,0,0:0:0:0:
217,242,58140,1,0,0:0:0:0:
392,92,58304,6,0,P|388:144|364:188,1,100
122,266,58632,2,0,P|167:244|217:242,1,100
348,348,58960,1,0,0:0:0:0:
268,160,59124,1,0,0:0:0:0:
53,334,59288,2,0,P|103:338|148:360,1,100
406,271,59616,6,0,L|308:256,1,100
105,112,59944,2,0,L|204:128,1,100
446,363,60272,2,0,L|348:348,1,100
164,36,60599,1,0,0:0:0:0:
32,192,60763,1,0,0:0:0:0:
328,300,60927,6,0,P|316:208|348:104,2,200
204,128,61747,1,0,0:0:0:0:
344,328,61911,1,0,0:0:0:0:
140,208,62075,1,0,0:0:0:0:
364,344,62239,6,0,L|464:332,1,100
140,208,62567,6,0,P|80:256|176:296,1,225.000008583069,0|0,0:0|2:0,0:0:0:0:
296,221,62895,6,0,P|226:227|208:296,1,150,0|0,0:0|3:0,0:0:0:0:
320,380,63222,6,0,L|308:304,1,75,0|0,0:0|2:0,0:0:0:0:
284,136,63550,5,0,0:0:0:0:
420,228,63714,1,0,0:0:0:0:
280,107,63878,1,0,0:0:0:0:
224,324,64042,1,0,0:0:0:0:
276,82,64206,1,0,0:0:0:0:
512,256,64370,1,0,0:0:0:0:
272,57,64534,1,0,0:0:0:0:
140,340,64698,1,0,0:0:0:0:
420,228,64862,5,0,0:0:0:0:
92,156,65026,1,0,0:0:0:0:
224,324,65190,1,0,0:0:0:0:
432,200,65354,1,0,0:0:0:0:
72,236,65518,5,0,0:0:0:0:
444,172,65681,1,0,0:0:0:0:
52,312,65845,1,0,0:0:0:0:
456,148,66009,1,0,0:0:0:0:
140,340,66173,5,0,0:0:0:0:
372,44,66337,1,0,0:0:0:0:
388,304,66501,1,0,0:0:0:0:
124,80,66665,1,0,0:0:0:0:
400,324,66829,5,0,0:0:0:0:
112,56,66993,1,0,0:0:0:0:
124,364,67157,1,0,0:0:0:0:
384,16,67321,1,0,0:0:0:0:
36,280,67485,6,0,L|136:260,1,100
492,176,67813,2,0,L|392:156,1,100
148,24,68140,5,0,0:0:0:0:
128,60,68222,1,0,0:0:0:0:
132,100,68304,1,0,0:0:0:0:
164,124,68386,1,0,0:0:0:0:
204,124,68468,6,0,L|256:136,1,50
296,316,68632,2,0,L|247:304,1,50
100,196,68796,6,0,L|200:220,1,100
415,67,69124,2,0,P|390:110|388:160,1,100
476,228,69452,1,0,0:0:0:0:
476,228,69616,1,0,0:0:0:0:
324,40,69780,2,0,L|220:52,1,100
224,312,70108,6,0,P|264:280|280:236,1,100
144,84,70436,2,0,P|104:116|88:160,1,100
356,292,70763,2,0,P|374:244|366:198,1,100
190,189,71091,1,0,0:0:0:0:
140,356,71255,1,0,0:0:0:0:
286,141,71419,6,0,L|82:161,2,200
352,308,72239,1,0,0:0:0:0:
260,60,72403,1,0,0:0:0:0:
356,328,72567,1,0,0:0:0:0:
248,40,72731,6,0,L|148:52,1,100
352,212,73059,6,0,B|504:232|504:232|440:196,1,225.000008583069,0|0,0:0|2:0,0:0:0:0:
240,136,73386,6,0,P|208:192|272:200,1,150,0|0,0:0|2:0,0:0:0:0:
336,96,73714,6,0,L|324:20,1,75,0|0,0:0|2:0,0:0:0:0:
160,100,74042,5,0,0:0:0:0:
348,184,74206,1,0,0:0:0:0:
88,156,74370,1,0,0:0:0:0:
420,128,74534,1,0,0:0:0:0:
76,72,74698,5,0,0:0:0:0:
112,332,74862,1,0,0:0:0:0:
336,96,75026,1,0,0:0:0:0:
100,244,75190,1,0,0:0:0:0:
296,352,75354,5,0,0:0:0:0:
348,184,75518,1,0,0:0:0:0:
112,332,75682,1,0,0:0:0:0:
76,72,75846,1,0,0:0:0:0:
304,328,76009,5,0,0:0:0:0:
12,212,76173,1,0,0:0:0:0:
420,128,76337,1,0,0:0:0:0:
160,316,76501,5,0,0:0:0:0:
160,316,76583,1,0,0:0:0:0:
160,316,76665,1,0,0:0:0:0:
352,68,76829,1,0,0:0:0:0:
92,224,76993,1,0,0:0:0:0:
420,160,77157,1,0,0:0:0:0:
168,24,77321,5,0,0:0:0:0:
344,360,77485,1,0,0:0:0:0:
500,116,77649,1,0,0:0:0:0:
12,268,77813,1,0,0:0:0:0:
352,68,77977,6,0,L|344:120,3,50
240,174,78304,2,0,L|248:224,3,50
320,296,78632,5,0,0:0:0:0:
288,320,78714,1,0,0:0:0:0:
248,328,78796,1,0,0:0:0:0:
208,316,78878,1,0,0:0:0:0:
180,288,78960,1,0,0:0:0:0:
140,276,79042,1,0,0:0:0:0:
104,288,79124,1,0,0:0:0:0:
76,316,79206,1,0,0:0:0:0:
64,352,79288,5,0,0:0:0:0:
256,192,79370,12,0,81911,0:0:0:0:
316,264,82239,5,0,0:0:0:0:
324,288,82567,1,0,0:0:0:0:
144,228,82731,1,0,0:0:0:0:
144,228,82813,1,0,0:0:0:0:
144,228,82895,1,0,0:0:0:0:
332,308,83059,1,0,0:0:0:0:
172,136,83223,5,0,0:0:0:0:
328,172,83387,1,0,0:0:0:0:
144,228,83551,1,0,0:0:0:0:
356,80,83715,1,0,0:0:0:0:
496,224,83878,2,0,P|444:224|400:248,1,100
252,348,84206,2,0,P|207:325|158:326,1,100
248,152,84534,6,0,L|260:256,1,100
356,80,84862,2,0,L|344:184,1,100
156,124,85190,1,0,0:0:0:0:
440,140,85354,1,0,0:0:0:0:
440,140,85436,1,0,0:0:0:0:
440,140,85518,1,0,0:0:0:0:
236,56,85682,1,0,0:0:0:0:
168,205,85846,5,0,0:0:0:0:
344,179,86010,1,0,0:0:0:0:
96,160,86174,1,0,0:0:0:0:
416,224,86338,1,0,0:0:0:0:
96,244,86501,2,0,P|44:236|-4:240,1,100
416,140,86829,2,0,P|468:148|516:144,1,100
296,32,87157,6,0,B|272:72|272:72|292:112|292:112|244:152|260:216,1,200
272,240,87813,1,0,0:0:0:0:
188,92,87977,1,0,0:0:0:0:
188,92,88059,1,0,0:0:0:0:
188,92,88140,2,0,L|88:104,1,100
168,256,88468,5,0,0:0:0:0:
372,220,88632,1,0,0:0:0:0:
188,92,88796,1,0,0:0:0:0:
236,328,88960,1,0,0:0:0:0:
372,220,89124,2,0,P|300:156|204:188,1,200
192,204,89780,5,0,0:0:0:0:
172,96,89944,1,0,0:0:0:0:
88,168,90108,1,0,0:0:0:0:
216,304,90272,1,0,0:0:0:0:
216,304,90599,2,0,B|296:292|296:292|332:308|332:308|412:296,1,200
488,204,91091,5,0,0:0:0:0:
380,184,91255,1,0,0:0:0:0:
272,160,91419,1,0,0:0:0:0:
410,296,91583,1,0,0:0:0:0:
410,296,91911,2,0,B|432:144|432:144|404:104,1,200
304,64,92403,5,0,0:0:0:0:
196,88,92567,1,0,0:0:0:0:
304,64,92731,1,0,0:0:0:0:
88,112,92895,1,0,0:0:0:0:
88,112,93222,2,0,B|61:150|61:150|83:302,1,200
268,236,93714,5,0,0:0:0:0:
268,236,93878,2,0,B|220:224|220:224|168:224,2,100
368,124,94370,2,0,P|316:128|276:156,1,100
316,304,94698,2,0,P|388:296|444:236,1,150,0|0,0:0|2:0,0:0:0:0:
352,212,95026,5,4,0:0:0:0:
256,192,95108,12,0,99780,0:0:0:0:
