osu file format v14

[General]
AudioFilename: audio.mp3
AudioLeadIn: 0
PreviewTime: -1
Countdown: 0
SampleSet: Soft
StackLeniency: 0.6
Mode: 0
LetterboxInBreaks: 0
WidescreenStoryboard: 1

[Editor]
DistanceSpacing: 1
BeatDivisor: 4
GridSize: 4
TimelineZoom: 1.8

[Metadata]
Title:Miami Hotline-Vol.3
TitleUnicode:Miami Hotline-Vol.3
Artist:Demonicity
ArtistUnicode:Demonicity
Creator:phunky_psycho
Version:Hard
Source:
Tags:
BeatmapID:1382279
BeatmapSetID:651841

[Difficulty]
HPDrainRate:5
CircleSize:4
OverallDifficulty:6
ApproachRate:7
SliderMultiplier:1.4
SliderTickRate:1

[Events]
//Background and Video events
//Break Periods
//Storyboard Layer 0 (Background)
//Storyboard Layer 1 (Fail)
//Storyboard Layer 2 (Pass)
//Storyboard Layer 3 (Foreground)
//Storyboard Sound Samples

[TimingPoints]
89.6345076617933,461.538461538462,4,2,0,100,1,0
43935,342.857142857143,4,2,0,100,1,0
44412,230.769230769231,4,3,0,100,1,1
73950,923.076923076923,4,1,0,100,1,0
88719,461.538461538462,4,2,0,100,1,0
103488,230.769230769231,4,3,0,100,1,1
133026,461.538461538462,4,2,0,30,1,0

[HitObjects]
80,80,89,6,0,B|148:116|148:116|100:178|100:178,1,140
109,165,1012,2,0,L|254:100,1,140
236,107,1935,2,0,B|313:136|313:136|265:176,1,140
268,172,2858,2,0,L|334:300,1,140
332,296,3781,2,0,L|327:153,1,140
328,156,4705,2,0,L|180:168,1,140
188,167,5628,2,0,L|292:64,1,140
284,72,6551,2,0,L|344:212,1,140
336,200,7474,6,0,L|308:224,2,35
379,145,7935,1,8,0:0:0:0:
188,156,8397,6,0,L|224:156,2,35
224,215,8858,1,8,0:0:0:0:
326,119,9320,6,0,L|354:95,2,35
308,50,9782,1,8,0:0:0:0:
357,180,10243,6,0,L|357:220,2,35
424,128,10705,1,8,0:0:0:0:
424,128,11166,6,0,L|384:128,2,35
388,184,11628,1,8,0:0:0:0:
256,184,12089,6,0,L|216:184,2,35
256,112,12551,1,8,0:0:0:0:
392,116,13012,6,0,L|392:156,2,35
336,152,13474,1,8,0:0:0:0:
236,148,13935,6,0,L|208:184,2,35
280,80,14397,1,8,0:0:0:0:
352,112,14858,5,0,0:0:0:0:
400,152,15089,2,0,L|376:180,1,35
336,224,15320,1,8,0:0:0:0:
244,220,15782,5,0,0:0:0:0:
192,184,16012,2,0,L|156:160,1,35
112,132,16243,1,8,0:0:0:0:
296,116,16705,5,0,0:0:0:0:
296,164,16935,2,0,L|332:164,1,35
392,168,17166,1,8,0:0:0:0:
228,220,17628,5,0,0:0:0:0:
172,220,17858,2,0,L|172:176,1,35
172,128,18089,1,8,0:0:0:0:
340,164,18551,5,0,0:0:0:0:
340,220,18782,2,0,L|340:260,1,35
340,316,19012,1,8,0:0:0:0:
140,256,19474,5,0,0:0:0:0:
140,200,19705,2,0,L|140:164,1,35
140,104,19935,1,8,0:0:0:0:
328,164,20397,5,0,0:0:0:0:
328,224,20628,2,0,L|292:224,1,35
232,224,20859,1,8,0:0:0:0:
276,92,21320,5,0,0:0:0:0:
336,92,21551,2,0,L|376:92,1,35
436,92,21782,1,8,0:0:0:0:
372,216,22243,5,0,0:0:0:0:
316,216,22474,2,0,L|276:216,1,35
281,216,22705,1,8,0:0:0:0:
224,160,23166,5,0,0:0:0:0:
168,160,23397,2,0,L|136:132,1,35
141,136,23628,1,8,0:0:0:0:
264,84,24089,5,0,0:0:0:0:
264,140,24320,2,0,L|264:180,1,35
264,175,24551,1,8,0:0:0:0:
404,176,25012,5,0,0:0:0:0:
384,108,25243,2,0,L|336:108,1,35
349,108,25474,1,8,0:0:0:0:
356,248,25935,5,0,0:0:0:0:
284,248,26166,2,0,L|248:220,1,35
256,226,26397,1,8,0:0:0:0:
116,224,26859,5,0,0:0:0:0:
116,156,27089,2,0,L|184:156,1,35
151,156,27320,1,8,0:0:0:0:
292,160,27782,5,2,0:0:0:0:
292,300,28243,1,8,0:0:0:0:
152,300,28705,1,2,0:0:0:0:
152,160,29166,1,8,0:0:0:0:
292,160,29628,5,0,0:0:0:0:
364,160,29859,1,0,0:0:0:0:
432,160,30089,2,0,L|432:196,11,35
406,171,31474,5,0,0:0:0:0:
336,162,31705,1,0,0:0:0:0:
283,115,31936,1,0,0:0:0:0:
344,81,32166,2,0,L|380:81,10,35
220,132,33782,5,0,0:0:0:0:
360,128,34243,1,0,0:0:0:0:
220,132,34705,1,0,0:0:0:0:
220,204,34936,1,0,0:0:0:0:
220,272,35166,1,0,0:0:0:0:
360,272,35628,1,0,0:0:0:0:
360,132,36089,2,0,L|360:96,8,35
360,204,37243,5,0,0:0:0:0:
269,151,37474,2,0,L|294:122,11,35
320,145,38859,5,0,0:0:0:0:
379,181,39089,1,0,0:0:0:0:
313,205,39320,1,0,0:0:0:0:
245,187,39551,2,0,L|214:171,10,35
385,188,41166,5,0,0:0:0:0:
244,188,41628,1,0,0:0:0:0:
246,48,42089,2,0,L|336:48,1,70
386,48,42551,1,0,0:0:0:0:
392,108,42897,2,0,L|350:107,1,35
357,107,43243,1,0,0:0:0:0:
288,124,43474,1,0,0:0:0:0:
189,156,43936,2,0,B|174:104|170:88|135:77|118:97|120:204,1,175
122,204,44628,5,0,0:0:0:0:
189,185,44858,1,8,0:0:0:0:
262,95,45320,2,0,B|300:97|322:122|296:143|292:176|301:182|305:183|316:186|320:186|322:185|325:184|329:180|331:179|334:176|342:173|348:145|348:145|425:235,1,280,0|8,0:0|0:0,0:0:0:0:
310,245,46243,6,0,B|274:242|274:242|319:189|319:189|302:175|302:175|258:182,1,140
190,174,46705,1,8,0:0:0:0:
305,178,47166,2,0,B|276:155|276:155|299:126|299:126|360:165,1,140
405,99,47628,1,8,0:0:0:0:
125,94,48089,5,0,0:0:0:0:
246,167,48551,1,8,0:0:0:0:
128,228,49012,1,0,0:0:0:0:
206,290,49474,1,8,0:0:0:0:
285,238,49704,1,0,0:0:0:0:
153,188,49935,2,0,B|95:149|95:149|139:100|139:100|193:135|193:135|219:101|219:101|254:123,1,280,0|8,0:0|0:0,0:0:0:0:
366,120,50858,1,0,0:0:0:0:
368,189,51320,2,0,B|366:261|366:261|297:258|297:257,2,140,12|4|4,0:0|0:0|0:0,0:0:0:0:
370,110,52012,5,0,0:0:0:0:
294,111,52243,2,0,B|225:112|195:173|154:188|98:129|229:46,1,280,8|0,0:0|0:0,0:0:0:0:
337,44,53166,1,8,0:0:0:0:
335,162,53628,6,0,B|265:162|265:162|265:125|265:125|228:126,1,140
232,68,54089,1,8,0:0:0:0:
317,68,54551,2,0,B|317:137|317:137|390:135,1,140
387,223,55012,1,8,0:0:0:0:
258,224,55474,5,0,0:0:0:0:
258,129,55935,1,8,0:0:0:0:
141,127,56397,1,0,0:0:0:0:
140,213,56858,1,8,0:0:0:0:
216,212,57089,2,0,L|216:70,1,140
342,75,57781,2,8,B|483:75|483:75|421:138|421:138|468:191,1,280,8|0,0:0|0:0,0:0:0:0:
444,240,58704,2,12,L|374:241,1,70,12|4,0:0|0:0,0:0:0:0:
374,240,59051,2,4,L|320:192,1,70
310,111,59397,5,0,0:0:0:0:
401,111,59628,2,0,B|401:290|401:290|294:289,2,280,8|0|8,0:0|0:0|0:0,0:0:0:0:
399,109,61012,6,0,B|257:104|257:104|250:124,1,140
164,104,61474,1,8,0:0:0:0:
164,184,61935,2,0,B|172:214|172:214|212:215|212:215|212:144,2,140,0|0|8,0:0|0:0|0:0,0:0:0:0:
192,80,62858,6,0,B|264:80|264:80|264:112|264:112|304:112|304:112|304:80|304:80|344:80|344:80|344:112|344:112|376:112|376:112,2,280,0|8|0,0:0|0:0|0:0,0:0:0:0:
188,176,64243,1,8,0:0:0:0:
280,176,64474,1,0,0:0:0:0:
232,176,64704,1,0,0:0:0:0:
232,240,65166,1,8,0:0:0:0:
224,236,65628,2,0,B|164:176|268:132|352:216|292:320|216:332|168:284,1,280,0|12,0:0|0:0,0:0:0:0:
128,236,66320,1,4,0:0:0:0:
164,144,66551,1,4,0:0:0:0:
212,144,66796,5,0,0:0:0:0:
256,144,67012,1,8,0:0:0:0:
420,308,67474,1,0,0:0:0:0:
136,308,67935,1,8,0:0:0:0:
136,160,68397,5,0,0:0:0:0:
208,160,68628,1,0,0:0:0:0:
208,240,68858,1,8,0:0:0:0:
292,232,69335,2,0,B|344:184|344:184|288:144,1,140
232,104,69796,1,8,0:0:0:0:
312,88,70258,5,0,0:0:0:0:
136,84,70719,1,8,0:0:0:0:
256,84,71181,1,0,0:0:0:0:
344,88,71642,2,0,P|408:120|352:144,1,140,8|0,0:0|0:0,0:0:0:0:
312,148,72104,1,0,0:0:0:0:
312,92,72565,1,8,0:0:0:0:
312,168,73027,1,0,0:0:0:0:
312,236,73488,2,12,L|360:184,1,70,12|4,0:0|0:0,0:0:0:0:
420,208,73835,1,4,0:0:0:0:
256,192,73950,12,4,75796,0:0:0:0:
256,192,75796,12,4,77642,0:0:0:0:
256,192,77642,12,4,79488,0:0:0:0:
256,192,79488,12,4,81334,0:0:0:0:
236,88,82257,5,4,0:0:0:0:
356,104,83180,2,4,B|284:104|284:104|332:152,1,140
156,100,85026,1,4,0:0:0:0:
248,100,85488,1,4,0:0:0:0:
352,100,85950,1,4,0:0:0:0:
352,176,86411,1,4,0:0:0:0:
292,172,86873,1,4,0:0:0:0:
240,172,87103,1,4,0:0:0:0:
188,172,87334,1,4,0:0:0:0:
136,172,87565,1,4,0:0:0:0:
256,192,87796,12,0,88719,0:0:0:0:
256,192,88949,5,0,0:0:0:0:
200,192,89180,2,0,L|160:192,11,35
236,152,90565,1,0,0:0:0:0:
292,152,90795,1,0,0:0:0:0:
236,200,91026,1,0,0:0:0:0:
184,148,91257,2,0,L|148:132,9,35
108,112,92411,6,0,B|180:112|180:112|180:144|180:144|216:144,1,140
216,148,93334,1,0,0:0:0:0:
216,208,93795,2,0,L|288:208,1,70
286,208,94257,1,0,0:0:0:0:
288,36,94719,1,0,0:0:0:0:
284,156,95180,2,0,L|248:156,8,35
356,156,96334,5,0,0:0:0:0:
280,216,96565,2,0,L|244:216,11,35
192,216,97949,1,0,0:0:0:0:
196,148,98180,1,0,0:0:0:0:
248,196,98411,1,0,0:0:0:0:
192,200,98642,2,0,L|192:240,10,35
248,200,100257,5,0,0:0:0:0:
364,196,100719,1,0,0:0:0:0:
276,108,101180,1,0,0:0:0:0:
224,160,101411,1,0,0:0:0:0:
268,192,101641,1,0,0:0:0:0:
128,180,101988,2,0,L|152:144,1,35
200,128,102334,1,0,0:0:0:0:
268,176,102565,1,0,0:0:0:0:
280,272,103026,2,0,P|392:264|392:260,1,140
392,232,103718,6,8,B|360:212|360:212|340:240|340:240|312:216|312:216|288:236|288:236,1,140,0|8,0:0|0:0,0:0:0:0:
324,116,104411,2,8,B|288:96|268:64|268:64|216:112|228:164|228:164|136:164|136:164,1,280,0|8,0:0|0:0,0:0:0:0:
300,72,105334,5,0,0:0:0:0:
256,252,105564,1,0,0:0:0:0:
136,164,105795,1,8,0:0:0:0:
212,120,106257,2,0,B|252:120|252:120|252:196|252:196|308:120|308:120|312:192,1,280,0|8,0:0|0:0,0:0:0:0:
104,80,107180,5,0,0:0:0:0:
320,84,107641,1,8,0:0:0:0:
104,220,108103,1,0,0:0:0:0:
260,216,108564,1,8,0:0:0:0:
260,116,108795,1,0,0:0:0:0:
436,80,109026,2,0,P|520:196|440:216,2,280,0|8|0,0:0|0:0|0:0,0:0:0:0:
284,80,110411,5,12,0:0:0:0:
284,180,110641,2,4,B|284:115|314:105|208:136,1,140
148,176,111103,5,0,0:0:0:0:
180,64,111334,2,0,B|256:64|256:64|216:124|216:124|328:128|340:84,1,280,8|0,0:0|0:0,0:0:0:0:
312,176,112257,1,8,0:0:0:0:
148,180,112718,6,0,B|192:124|192:124|108:160,1,140
68,184,113180,2,0,B|60:288|116:308|236:136,2,280,8|0|8,0:0|0:0|0:0,0:0:0:0:
232,80,114564,6,0,B|300:108|300:108|264:164|264:164|336:44,1,280,0|8,0:0|0:0,0:0:0:0:
312,176,115488,1,0,0:0:0:0:
216,244,115949,2,0,L|128:132,1,140,8|0,0:0|0:0,0:0:0:0:
248,88,116411,2,0,B|284:160|284:160|224:188|224:188|336:264|336:276,1,280,0|8,0:0|0:0,0:0:0:0:
328,264,117334,2,0,B|288:200|288:200|312:108|312:108|224:184|224:184,1,280,0|12,0:0|0:0,0:0:0:0:
229,179,117911,1,4,0:0:0:0:
132,172,118141,1,4,0:0:0:0:
124,120,118257,1,4,0:0:0:0:
240,96,118718,5,8,0:0:0:0:
392,248,119180,1,0,0:0:0:0:
224,176,119641,1,8,0:0:0:0:
360,84,120103,2,0,P|324:144|384:184,1,140
360,236,120564,1,8,0:0:0:0:
256,200,121026,2,0,B|208:152|184:164|184:164|212:92|212:92,1,140
288,48,121488,1,8,0:0:0:0:
388,136,121949,6,0,B|248:136|248:136|376:224,1,280,0|8,0:0|0:0,0:0:0:0:
192,88,122872,2,0,B|328:120|328:120|264:252|264:252|256:244|256:244,1,280,0|8,0:0|0:0,0:0:0:0:
176,200,123564,2,0,P|156:132|216:100,1,140
360,68,124257,2,0,B|360:144|360:144|420:184|420:184|424:112|424:112|376:160|376:160|368:172|368:172,1,280,8|0,0:0|0:0,0:0:0:0:
208,136,125180,1,4,0:0:0:0:
224,264,125411,2,4,B|284:216|284:216|328:264,1,140
288,120,126103,5,8,0:0:0:0:
408,160,126564,1,0,0:0:0:0:
332,232,127026,2,0,B|192:280|192:280|204:192|288:200,1,280,8|0,0:0|0:0,0:0:0:0:
340,140,127718,1,0,0:0:0:0:
248,128,127949,1,8,0:0:0:0:
248,192,128411,6,0,P|248:332|248:336,2,140,0|0|8,0:0|0:0|0:0,0:0:0:0:
176,176,129334,2,0,P|272:64|360:128,1,280,0|8,0:0|0:0,0:0:0:0:
268,144,130257,1,0,0:0:0:0:
152,160,130718,2,0,B|168:120|168:120|136:116|136:116|116:152|116:152|124:188,1,140,8|0,0:0|0:0,0:0:0:0:
128,248,131180,5,0,0:0:0:0:
260,152,131641,1,8,0:0:0:0:
84,148,132103,2,0,P|200:68|304:156,1,280,0|4,0:0|0:0,0:0:0:0:
296,200,132680,1,4,0:0:0:0:
200,200,132911,1,4,0:0:0:0:
156,136,133026,1,0,0:0:0:0:
224,72,133256,1,0,0:0:0:0:
320,88,133487,6,0,B|464:108|408:176|224:180|224:180|220:276,1,385
220,275,134872,1,0,0:0:0:0:
176,228,135102,2,0,L|128:168,1,70
144,108,135564,6,0,B|216:56|216:56|252:128|252:128|208:160|208:160|248:200|248:200|248:128|276:152,1,350
328,200,137179,1,0,0:0:0:0:
240,232,137641,1,0,0:0:0:0:
124,176,138102,1,0,0:0:0:0:
180,108,138333,1,0,0:0:0:0:
272,80,138564,1,0,0:0:0:0:
352,192,139026,1,0,0:0:0:0:
288,236,139487,6,0,B|224:288|224:288|168:232|256:156|256:156|188:144,1,280
132,96,140641,1,0,0:0:0:0:
232,88,140872,6,0,B|316:88|316:88|312:176|312:176|264:160|264:160|288:245|152:156,1,385
116,116,142256,1,0,0:0:0:0:
208,76,142487,1,0,0:0:0:0:
296,136,142718,1,0,0:0:0:0:
216,180,142949,6,0,B|144:176|144:176|136:320|280:208|280:208|288:276,1,350
388,200,144564,1,0,0:0:0:0:
292,200,145026,1,0,0:0:0:0:
288,132,145487,2,0,L|288:48,1,70
236,60,145949,1,0,0:0:0:0:
168,128,146410,1,0,0:0:0:0:
224,232,146872,5,0,0:0:0:0:
