osu file format v14

[General]
AudioFilename: audio.mp3
AudioLeadIn: 0
PreviewTime: 1047
Countdown: 0
SampleSet: None
StackLeniency: 0.6
Mode: 0
LetterboxInBreaks: 0
WidescreenStoryboard: 0

[Editor]
DistanceSpacing: 1
BeatDivisor: 4
GridSize: 8
TimelineZoom: 2

[Metadata]
Title:Through The Fire and Flames
TitleUnicode:Through The Fire and Flames
Artist:Demon (Gabe the Dog)
ArtistUnicode:Demon (Gabe the Dog)
Creator:Cris_1
Version:Old mapping style
Source:Youtube
Tags:DragonForce Inhuman Rampage Album
BeatmapID:1240398
BeatmapSetID:585581

[Difficulty]
HPDrainRate:6
CircleSize:4
OverallDifficulty:6
ApproachRate:7
SliderMultiplier:1.8
SliderTickRate:1

[Events]
//Background and Video events
0,0,"gabedog.jpg",0,0
//Break Periods
//Storyboard Layer 0 (Background)
//Storyboard Layer 1 (Fail)
//Storyboard Layer 2 (Pass)
//Storyboard Layer 3 (Foreground)
//Storyboard Sound Samples

[TimingPoints]
1122,300,4,3,0,50,1,0
1122,-100,4,3,0,50,0,0
5922,-166.666666666667,4,3,0,40,0,0
7422,-166.666666666667,4,3,0,20,0,0
7572,-100,4,3,0,40,0,0
8322,-76.9230769230769,4,3,0,50,0,0
8472,-100,4,3,0,40,0,0
9522,-90.9090909090909,4,1,0,60,0,0
10722,-100,4,3,0,70,0,0
17922,-100,4,3,0,75,0,0
19122,-58.8235294117647,4,3,0,78,0,0
19422,-55.5555555555556,4,3,0,70,0,0
19722,-52.6315789473684,4,3,0,78,0,0
20022,-50,4,3,0,70,0,0
20322,-50,4,3,0,50,0,0
20472,-100,4,3,0,20,0,0

[HitObjects]
56,48,1122,6,0,L|56:176,1,90
56,224,1422,1,0,0:0:0:0:
56,312,1572,1,0,0:0:0:0:
144,312,1722,1,0,0:0:0:0:
144,224,1872,1,0,0:0:0:0:
56,224,2022,1,0,0:0:0:0:
56,312,2172,1,0,0:0:0:0:
144,312,2322,6,0,L|256:312,2,90
144,224,2772,2,0,L|48:224,2,90
144,136,3222,2,0,L|264:136,2,90
144,48,3672,6,0,L|248:48,1,90
320,48,3972,1,0,0:0:0:0:
408,48,4122,1,0,0:0:0:0:
496,48,4272,1,0,0:0:0:0:
496,136,4422,1,0,0:0:0:0:
408,136,4572,1,0,0:0:0:0:
408,224,4722,5,0,0:0:0:0:
496,224,4872,1,0,0:0:0:0:
408,224,5022,1,0,0:0:0:0:
320,224,5172,1,0,0:0:0:0:
320,136,5322,1,0,0:0:0:0:
232,136,5472,1,0,0:0:0:0:
232,224,5622,1,0,0:0:0:0:
232,312,5772,1,0,0:0:0:0:
232,224,5922,6,0,B|64:216|32:120|80:32|248:-24|384:64,1,539.999983520508
448,120,7572,1,0,0:0:0:0:
448,208,7722,1,0,0:0:0:0:
360,208,7872,1,0,0:0:0:0:
360,296,8022,1,0,0:0:0:0:
272,296,8172,1,0,0:0:0:0:
360,296,8322,6,0,L|488:296,1,116.999994644165
480,208,8622,1,0,0:0:0:0:
480,120,8772,1,0,0:0:0:0:
480,32,8922,1,0,0:0:0:0:
392,32,9072,1,0,0:0:0:0:
392,120,9222,1,0,0:0:0:0:
392,208,9372,1,0,0:0:0:0:
296,208,9522,6,0,L|296:128,3,49.5000015106202
296,112,9822,2,0,L|224:112,3,49.5000015106202
200,112,10122,2,0,L|200:32,3,49.5000015106202
200,16,10422,2,0,L|112:16,3,49.5000015106202
104,16,10722,6,0,L|104:144,1,90
104,192,11022,1,0,0:0:0:0:
16,192,11172,1,0,0:0:0:0:
16,280,11322,1,0,0:0:0:0:
16,368,11472,2,0,L|136:368,2,90
16,280,11922,5,0,0:0:0:0:
16,192,12072,1,0,0:0:0:0:
104,192,12222,2,0,L|104:296,1,90
104,368,12522,2,0,L|224:368,2,90
104,280,12972,2,0,L|216:280,1,90
280,280,13272,6,0,L|280:168,1,90
280,104,13572,1,0,0:0:0:0:
368,104,13722,2,0,L|368:200,1,90
368,280,14022,2,0,L|488:280,1,90
456,192,14322,6,0,L|456:96,1,90
456,16,14622,1,0,0:0:0:0:
368,16,14772,1,0,0:0:0:0:
280,16,14922,1,0,0:0:0:0:
368,16,15072,2,0,L|368:128,2,90
456,16,15522,5,0,0:0:0:0:
456,104,15672,1,0,0:0:0:0:
456,192,15822,2,0,L|336:192,1,90
280,192,16122,1,0,0:0:0:0:
192,192,16272,2,0,L|192:88,2,90
192,280,16722,6,0,L|80:280,1,90
16,280,17022,1,0,0:0:0:0:
16,192,17172,1,0,0:0:0:0:
104,192,17322,1,0,0:0:0:0:
104,104,17472,2,0,L|0:104,1,90
16,16,17772,2,0,L|144:16,1,90
192,16,18072,5,0,0:0:0:0:
280,16,18222,1,0,0:0:0:0:
280,104,18372,1,0,0:0:0:0:
192,104,18522,1,0,0:0:0:0:
192,192,18672,1,0,0:0:0:0:
280,192,18822,1,0,0:0:0:0:
192,192,18972,1,0,0:0:0:0:
256,192,19122,12,0,20472,0:0:0:0:
