osu file format v14

[General]
AudioFilename: audio.mp3
AudioLeadIn: 0
PreviewTime: 60594
Countdown: 0
SampleSet: None
StackLeniency: 0.2
Mode: 2
LetterboxInBreaks: 0
WidescreenStoryboard: 0

[Editor]
Bookmarks: 11284,23008,34043,43353,74732,86456,97146,107836,127146,138181,163008,174043,182318,186456,193353,204387,208870
DistanceSpacing: 0.8
BeatDivisor: 4
GridSize: 16
TimelineZoom: 2.6

[Metadata]
Title:Heart Attack
TitleUnicode:Heart Attack
Artist:Demi Lovato
ArtistUnicode:Demi Lovato
Creator:i Only Azir
Version:Rain
Source:
Tags:Demi Lovato Heart Attack
BeatmapID:1831763
BeatmapSetID:876444

[Difficulty]
HPDrainRate:6.6
CircleSize:3
OverallDifficulty:9
ApproachRate:9.1
SliderMultiplier:1.6
SliderTickRate:2

[Events]
//Background and Video events
//Break Periods
//Storyboard Layer 0 (Background)
//Storyboard Layer 1 (Fail)
//Storyboard Layer 2 (Pass)
//Storyboard Layer 3 (Foreground)
//Storyboard Sound Samples

[TimingPoints]
250,344.827586206897,4,1,0,100,1,0
250,-100,4,2,0,30,0,0
11284,-100,4,1,0,70,0,0
24732,-66.6666666666667,4,1,0,70,0,0
26112,-100,4,1,0,70,0,0
43353,-100,4,1,0,40,0,0
43353,-100,4,1,0,40,0,0
46155,-100,4,1,0,5,0,0
46801,-100,4,1,0,40,0,0
46844,-100,4,1,0,5,0,0
47663,-100,4,1,0,40,0,0
51672,-100,4,1,0,5,0,0
52318,-100,4,1,0,40,0,0
52362,-100,4,1,0,5,0,0
53353,-100,4,1,0,40,0,0
63698,-100,4,3,0,80,0,1
63741,-100,4,3,0,5,0,1
64043,-100,4,3,0,80,0,1
69258,-100,4,3,0,5,0,1
69560,-100,4,3,0,80,0,1
75422,-100,4,1,0,40,0,0
88181,-66.6666666666667,4,1,0,40,0,0
89215,-100,4,1,0,40,0,0
109603,-100,4,1,0,5,0,0
110250,-100,4,1,0,40,0,0
110293,-100,4,1,0,5,0,0
111112,-100,4,1,0,40,0,0
115120,-100,4,1,0,5,0,0
115767,-100,4,1,0,40,0,0
115810,-100,4,1,0,5,0,0
116801,-100,4,1,0,40,0,0
127146,-100,4,3,0,80,0,1
127189,-100,4,3,0,5,0,1
127491,-100,4,3,0,80,0,1
132706,-100,4,3,0,5,0,1
133008,-100,4,3,0,80,0,1
138178,-100,4,1,0,40,0,0
164775,-100,4,1,0,5,0,0
165422,-100,4,1,0,40,0,0
165465,-100,4,1,0,5,0,0
166284,-100,4,1,0,40,0,0
170293,-100,4,1,0,5,0,0
170939,-100,4,1,0,40,0,0
170982,-100,4,1,0,5,0,0
171974,-100,4,1,0,40,0,0
182318,-100,4,3,0,80,0,1
182362,-100,4,3,0,5,0,1
183008,-100,4,3,0,80,0,1
187879,-100,4,3,0,5,0,1
188181,-100,4,3,0,80,0,1
204387,-100,4,2,0,30,0,0
205071,-100,4,2,0,20,0,0
205767,-100,4,2,0,15,0,0
206456,-100,4,2,0,10,0,0
207146,-100,4,2,0,5,0,0
208870,-100,4,2,0,5,0,0

[HitObjects]
352,192,250,5,0,0:0:0:0:
224,192,422,1,0,0:0:0:0:
96,192,594,2,0,P|64:160|96:160,1,80
192,192,939,6,0,L|352:96,1,160
96,192,1629,6,0,L|352:0,1,320
320,192,2836,5,0,0:0:0:0:
192,192,3008,1,0,0:0:0:0:
320,192,3181,1,0,0:0:0:0:
192,192,3353,6,0,L|96:160,1,80
384,192,3698,6,0,P|416:160|352:64,1,160
160,192,4387,6,0,P|96:160|192:0,1,320
384,192,5422,5,0,0:0:0:0:
256,192,5594,1,0,0:0:0:0:
384,192,5767,6,0,L|480:128,1,80
320,192,6112,5,0,0:0:0:0:
64,192,6456,5,0,0:0:0:0:
384,192,6974,5,0,0:0:0:0:
256,192,7146,6,0,L|256:96,1,80
512,192,7491,5,0,0:0:0:0:
256,192,7663,5,0,0:0:0:0:
128,192,7836,2,0,P|64:160|128:96,1,160
352,192,8525,6,0,L|448:192,3,80
160,192,9215,6,0,L|80:192,3,80
352,192,9905,6,0,L|432:192,3,80
176,192,10594,5,0,0:0:0:0:
80,128,10767,1,0,0:0:0:0:
32,48,10939,1,0,0:0:0:0:
80,16,11112,1,0,0:0:0:0:
176,32,11284,1,4,0:0:0:0:
192,192,11974,6,0,L|80:160,1,80
288,192,12318,5,0,0:0:0:0:
32,192,12491,1,0,0:0:0:0:
288,192,12663,6,0,L|416:80,1,160,0|4,0:0|0:0,0:0:0:0:
64,192,13353,5,0,0:0:0:0:
192,192,13525,1,0,0:0:0:0:
320,192,13698,6,0,L|192:96,1,160,0|4,0:0|0:0,0:0:0:0:
128,192,14732,6,0,L|48:192,1,80
176,192,15077,2,0,L|304:80,1,160
32,192,15767,5,0,0:0:0:0:
288,192,15939,1,0,0:0:0:0:
32,192,16112,6,0,L|160:80,2,160
144,192,17491,6,0,L|208:144,1,80
80,192,17836,5,0,0:0:0:0:
336,192,18008,1,0,0:0:0:0:
80,208,18181,6,0,L|16:112,1,80
288,208,18525,6,0,L|352:144,1,80
224,192,18870,5,0,0:0:0:0:
480,192,19043,1,0,0:0:0:0:
224,192,19215,6,0,P|160:176|192:80,1,160
320,192,20250,6,0,L|416:144,1,80
256,192,20594,5,0,0:0:0:0:
512,192,20767,1,0,0:0:0:0:
256,192,20939,6,0,L|336:128,1,80
192,192,21284,5,0,0:0:0:0:
448,192,21456,5,0,0:0:0:0:
192,192,21629,6,0,L|112:144,1,80
384,192,21974,6,0,L|464:48,1,160
112,192,23008,6,0,L|48:112,1,80
224,192,23353,6,0,L|432:64,1,240
288,208,24043,6,0,L|64:96,1,240
272,224,24732,2,0,B|192:128|432:160|480:128|576:176|224:112,1,480.000018310548
400,208,25767,5,0,0:0:0:0:
400,208,26112,6,0,L|320:160,1,80
464,208,26456,1,0,0:0:0:0:
208,208,26629,1,0,0:0:0:0:
80,208,26801,2,0,L|80:128,1,80
336,224,27146,6,0,P|384:208|480:144,2,160,0|0|4,0:0|0:0|0:0,0:0:0:0:
176,192,28525,6,0,L|80:128,1,80
368,192,28870,6,0,P|416:192|368:64,1,240
128,208,29560,6,0,P|48:192|112:80,1,240
352,208,30250,2,0,B|448:144|416:80|144:192,1,320
272,192,31284,5,0,0:0:0:0:
272,192,31629,6,0,L|192:128,1,80
336,192,31974,5,0,0:0:0:0:
80,192,32146,5,0,0:0:0:0:
336,192,32318,6,0,L|416:128,1,80
272,192,32663,6,0,P|208:192|256:128,1,160
496,192,33181,2,0,P|432:160|448:0,1,240
176,192,34043,5,0,0:0:0:0:
176,192,34732,6,0,L|80:192,3,80
352,192,35422,2,0,L|352:112,1,80
208,192,35767,6,0,L|112:144,1,80
400,208,36112,6,0,P|464:192|416:64,1,240
224,208,36801,2,0,L|128:144,1,80
416,192,37146,2,0,L|496:144,1,80
224,112,37491,2,0,L|128:80,1,80
272,96,37836,5,0,0:0:0:0:
16,128,38181,6,0,L|96:96,1,80
352,176,38525,2,0,L|256:144,1,80
16,208,38870,6,0,P|96:160|160:128,2,160
144,192,40250,6,0,L|48:128,1,80
336,192,40594,5,0,0:0:0:0:
80,208,40939,6,0,L|144:128,1,80
256,128,41284,5,0,0:0:0:0:
384,128,41456,1,0,0:0:0:0:
128,208,41629,6,0,L|32:80,1,160
288,208,42318,5,0,0:0:0:0:
32,208,42663,5,0,0:0:0:0:
288,224,42836,2,0,L|416:16,1,240,0|4,0:0|0:0,0:0:0:0:
144,192,43698,5,0,0:0:0:0:
400,192,44043,1,0,0:0:0:0:
144,192,44387,6,0,L|32:64,1,160
304,192,45077,1,0,0:0:0:0:
48,192,45422,2,0,B|192:160|176:112|48:80|64:48|240:32|224:80|96:16,1,320
112,16,46155,2,0,B|215:44|279:60|87:124|103:172|231:188,1,300
226,187,46844,6,0,B|343:140|391:188|423:92|359:28|327:76|487:28|487:76|295:28,1,380
176,192,47836,6,0,L|96:144,1,80
368,160,48181,2,0,L|448:128,1,80
176,144,48525,5,0,0:0:0:0:
432,128,48870,6,0,L|512:64,1,80
368,128,49215,5,0,0:0:0:0:
112,128,49560,1,0,0:0:0:0:
368,224,49905,6,0,L|528:144,2,160
112,256,50939,6,0,B|176:176|224:208|80:32|112:112|288:176,1,320
285,175,51672,2,0,B|93:191|436:221|397:239|173:255|285:351,1,300
272,240,52362,2,0,B|146:257|146:305|560:288|450:353|192:368,1,460
448,192,54043,5,0,0:0:0:0:
112,192,54732,6,0,L|304:32,1,240
32,208,55422,6,0,L|128:176,1,80
368,208,55767,2,0,L|272:176,1,80
32,208,56112,2,0,L|208:128,1,160
432,208,56801,6,0,B|368:192|400:112|128:64,1,320
464,192,58008,5,0,0:0:0:0:
208,192,58181,6,0,L|128:144,1,80
400,160,58525,2,0,L|496:112,1,80
208,144,58870,6,0,L|48:48,1,160
336,272,59560,6,0,B|416:240|416:160|192:64,1,320
464,240,60594,5,0,0:0:0:0:
208,240,60767,1,0,0:0:0:0:
464,240,60939,6,0,L|368:240,1,80
128,240,61284,5,0,0:0:0:0:
384,240,61629,1,0,0:0:0:0:
16,240,62146,5,0,0:0:0:0:
272,240,62318,2,0,L|192:240,1,80
448,160,62663,6,0,L|448:80,1,80
192,96,63008,2,0,L|352:192,2,160
48,224,63741,6,0,L|192:176,1,140
448,160,64387,5,0,0:0:0:0:
192,224,64732,6,0,P|112:208|32:64,1,240
304,256,65422,6,0,P|384:256|480:112,1,240
224,304,66112,2,0,B|272:224|272:208|96:96|80:128|48:256|128:288|240:48,1,480
384,240,67663,5,0,0:0:0:0:
224,240,67835,2,0,L|292:198,1,80
128,240,68180,6,0,L|53:210,1,80
448,80,68525,2,0,L|310:162,2,160
448,80,69258,6,0,L|315:35,1,140
0,160,69904,5,0,0:0:0:0:
304,224,70249,6,0,P|414:186|464:81,1,240
207,256,70939,6,0,P|92:239|32:140,1,240
286,302,71629,2,0,B|240:224|240:208|416:96|432:128|464:256|384:288|275:54,1,480
368,192,73181,5,0,0:0:0:0:
208,192,73353,2,0,L|112:144,1,80
400,96,73698,2,0,L|480:80,1,80
208,96,74043,6,0,L|128:96,2,80
320,192,74732,1,4,0:0:0:0:
320,192,75422,6,0,L|432:224,1,80
224,192,75766,5,0,0:0:0:0:
480,192,75939,1,0,0:0:0:0:
224,192,76112,2,0,L|112:192,1,80
272,112,76456,6,0,L|352:112,1,80
320,192,76801,5,0,0:0:0:0:
320,192,76973,1,0,0:0:0:0:
192,192,77146,6,0,L|32:240,1,160,0|4,0:0|0:0,0:0:0:0:
384,192,78180,6,0,L|464:192,1,80
336,192,78525,2,0,L|256:272,2,80
464,192,79043,5,0,0:0:0:0:
480,192,79215,5,0,0:0:0:0:
224,192,79387,1,0,0:0:0:0:
480,192,79560,2,0,L|480:112,1,80
224,192,79905,6,0,P|160:160|208:96,1,160
368,192,80939,6,0,L|304:240,1,80
432,192,81284,5,0,0:0:0:0:
176,192,81456,1,0,0:0:0:0:
432,176,81629,6,0,L|512:240,2,80
176,192,82146,6,0,P|112:176|128:96,1,160
384,272,82836,6,0,P|448:240|368:112,1,240
272,112,83525,5,0,0:0:0:0:
144,128,83698,6,0,L|48:176,1,80
336,176,84042,5,0,0:0:0:0:
80,192,84215,1,0,0:0:0:0:
208,192,84387,6,0,L|128:256,1,80
272,192,84732,5,0,0:0:0:0:
16,192,84904,5,0,0:0:0:0:
272,192,85077,6,0,L|352:240,2,80
16,80,85594,6,0,L|128:304,1,240
400,192,86456,6,0,L|464:272,1,80
288,192,86801,6,0,L|80:320,1,240
224,176,87491,6,0,L|448:288,1,240
240,160,88180,2,0,B|128:80|80:224|160:256|80:224|256:272,1,320
112,176,89215,5,0,0:0:0:0:
112,176,89560,6,0,L|192:224,1,80
48,176,89904,1,0,0:0:0:0:
304,176,90077,1,0,0:0:0:0:
432,176,90249,2,0,L|432:256,1,80
176,160,90594,6,0,P|128:176|32:240,2,160,0|0|4,0:0|0:0|0:0,0:0:0:0:
336,192,91973,6,0,L|432:256,1,80
144,192,92318,6,0,P|96:192|144:320,1,240
384,176,93008,6,0,P|464:192|400:304,1,240
160,176,93698,2,0,B|64:240|96:304|368:192,1,320
240,192,94732,5,0,0:0:0:0:
240,192,95077,6,0,L|320:256,1,80
176,192,95422,5,0,0:0:0:0:
432,192,95594,5,0,0:0:0:0:
176,192,95766,6,0,L|96:256,1,80
240,192,96111,6,0,P|304:192|256:256,1,160
16,192,96629,2,0,P|80:224|64:384,1,240
336,192,97491,5,0,0:0:0:0:
336,192,98180,6,0,L|432:192,3,80
160,192,98870,2,0,L|160:272,1,80
304,192,99215,6,0,L|400:240,1,80
112,176,99560,6,0,P|48:192|96:320,1,240
288,176,100249,2,0,L|384:240,1,80
96,192,100594,2,0,L|16:240,1,80
288,272,100939,2,0,L|384:304,1,80
240,288,101284,5,0,0:0:0:0:
496,256,101629,6,0,L|416:288,1,80
160,208,101973,2,0,L|256:240,1,80
496,176,102318,6,0,P|416:224|352:256,2,160
368,192,103698,6,0,L|464:256,1,80
176,192,104042,5,0,0:0:0:0:
432,176,104387,6,0,L|368:256,1,80
256,256,104732,5,0,0:0:0:0:
128,256,104904,1,0,0:0:0:0:
384,176,105077,6,0,L|480:304,1,160
224,176,105766,5,0,0:0:0:0:
480,176,106111,5,0,0:0:0:0:
224,160,106284,2,0,L|96:368,1,240,0|4,0:0|0:0,0:0:0:0:
368,192,107146,5,0,0:0:0:0:
112,192,107491,1,0,0:0:0:0:
368,192,107835,6,0,L|480:320,1,160
208,192,108525,1,0,0:0:0:0:
464,192,108870,2,0,B|320:224|336:272|464:304|448:336|272:352|288:304|416:368,1,320
400,368,109603,2,0,B|297:340|233:324|425:260|409:212|281:196,1,300
286,197,110292,6,0,B|169:244|121:196|89:292|153:356|185:308|25:356|25:308|217:356,1,380
336,192,111284,6,0,L|416:240,1,80
144,224,111629,2,0,L|64:256,1,80
336,240,111973,5,0,0:0:0:0:
80,256,112318,6,0,L|0:320,1,80
144,256,112663,5,0,0:0:0:0:
400,256,113008,1,0,0:0:0:0:
144,160,113353,6,0,L|-16:240,2,160
400,128,114387,6,0,B|336:208|288:176|432:352|400:272|224:208,1,320
227,209,115120,2,0,B|419:193|76:163|115:145|339:129|227:33,1,300
240,144,115810,2,0,B|366:127|366:79|-48:96|62:31|320:16,1,460
64,192,117491,5,0,0:0:0:0:
400,192,118180,6,0,L|208:352,1,240
480,176,118870,6,0,L|384:208,1,80
144,176,119215,2,0,L|240:208,1,80
480,176,119560,2,0,L|304:256,1,160
80,176,120249,6,0,B|144:192|112:272|384:320,1,320
48,192,121456,5,0,0:0:0:0:
304,192,121629,6,0,L|384:240,1,80
112,224,121973,2,0,L|16:272,1,80
304,240,122318,6,0,L|464:336,1,160
176,112,123008,6,0,B|96:144|96:224|320:320,1,320
48,144,124042,5,0,0:0:0:0:
304,144,124215,1,0,0:0:0:0:
48,144,124387,6,0,L|144:144,1,80
384,144,124732,5,0,0:0:0:0:
128,144,125077,1,0,0:0:0:0:
496,144,125594,5,0,0:0:0:0:
240,144,125766,2,0,L|320:144,1,80
64,224,126111,6,0,L|64:304,1,80
320,288,126456,2,0,L|160:192,2,160
464,160,127189,6,0,L|320:208,1,140
64,224,127835,5,0,0:0:0:0:
320,160,128180,6,0,P|400:176|480:320,1,240
208,128,128870,6,0,P|128:128|32:272,1,240
288,80,129560,2,0,B|240:160|240:176|416:288|432:256|464:128|384:96|272:336,1,480
128,144,131111,5,0,0:0:0:0:
288,144,131283,2,0,L|220:186,1,80
384,144,131628,6,0,L|459:174,1,80
64,304,131973,2,0,L|202:222,2,160
64,304,132706,6,0,L|197:349,1,140
512,224,133352,5,0,0:0:0:0:
208,160,133697,6,0,P|98:198|48:303,1,240
305,128,134387,6,0,P|420:145|480:244,1,240
226,82,135077,2,0,B|272:160|272:176|96:288|80:256|48:128|128:96|237:330,1,480
144,192,136629,5,0,0:0:0:0:
304,192,136801,2,0,L|400:240,1,80
112,288,137146,2,0,L|32:304,1,80
288,256,137491,2,0,L|432:160,1,160
160,160,138181,5,14,0:0:0:0:
144,192,139905,6,0,L|64:128,1,80
336,192,140250,6,0,L|448:192,2,80
208,192,140767,5,0,0:0:0:0:
336,208,140939,6,0,L|400:112,1,80
256,208,141284,2,0,L|304:128,1,80
32,208,141629,6,0,P|112:192|32:16,1,320
320,208,142663,6,0,L|384:160,1,80
256,208,143008,6,0,L|176:176,2,80
128,224,143525,1,0,0:0:0:0:
384,208,143698,6,0,L|288:352,1,160
160,224,144215,5,0,0:0:0:0:
416,224,144387,6,0,P|464:208|368:48,1,320
176,192,145939,6,0,L|128:112,2,80
448,192,146456,2,0,L|496:32,1,160
240,208,147146,6,0,L|128:80,1,160
400,304,147836,6,0,L|464:144,1,160
208,288,148525,5,0,0:0:0:0:
464,288,148870,2,0,B|368:256|320:240|448:176|576:80|192:48,1,480
336,240,150939,6,0,L|480:144,2,160
80,224,151974,6,0,L|224:112,1,160
80,224,152491,5,0,0:0:0:0:
336,240,152663,6,0,P|400:224|304:64,1,320
80,240,153698,6,0,L|224:128,2,160
208,256,154560,1,0,0:0:0:0:
464,272,154732,2,0,L|464:96,1,160
192,256,155250,5,0,0:0:0:0:
448,272,155422,2,0,B|464:208|480:160|320:144|304:112|448:32,1,320
192,240,156456,5,0,0:0:0:0:
320,240,156629,1,0,0:0:0:0:
64,256,156801,6,0,L|128:208,1,80
384,240,157146,6,0,L|320:192,1,80
320,192,157491,6,0,L|320:80,1,80
240,112,157836,2,0,L|240:224,1,80
320,112,158181,6,0,L|320:192,1,80
240,112,158525,2,0,L|240:208,1,80
400,112,158870,6,0,L|400:224,1,80
240,112,159215,2,0,L|240:208,1,80
400,112,159560,2,0,L|400:224,1,80
240,112,159905,2,0,L|240:224,1,80
480,112,160250,6,0,L|480:224,1,80
240,112,160594,2,0,L|240:208,1,80
480,112,160939,2,0,L|480:224,1,80
240,112,161284,2,0,L|240:208,1,80
480,112,161629,2,0,B|480:192|480:224|320:144|416:192,1,160
144,192,162319,5,0,0:0:0:0:
400,192,162664,1,0,0:0:0:0:
144,192,163008,6,0,L|32:64,1,160
304,192,163698,1,0,0:0:0:0:
48,192,164043,2,0,B|192:160|176:112|48:80|64:48|240:32|224:80|96:16,1,320
112,16,164776,2,0,B|215:44|279:60|87:124|103:172|231:188,1,300
226,187,165465,6,0,B|343:140|391:188|423:92|359:28|327:76|487:28|487:76|295:28,1,380
176,192,166457,6,0,L|96:144,1,80
368,160,166802,2,0,L|448:128,1,80
176,144,167146,5,0,0:0:0:0:
432,128,167491,6,0,L|512:64,1,80
368,128,167836,5,0,0:0:0:0:
112,128,168181,1,0,0:0:0:0:
368,224,168526,6,0,L|528:144,2,160
112,256,169560,6,0,B|176:176|224:208|80:32|112:112|288:176,1,320
285,175,170293,2,0,B|93:191|436:221|397:239|173:255|285:351,1,300
272,240,170983,2,0,B|146:257|146:305|560:288|450:353|192:368,1,460
448,192,172664,5,0,0:0:0:0:
112,192,173353,6,0,L|304:32,1,240
32,208,174043,6,0,L|128:176,1,80
368,208,174388,2,0,L|272:176,1,80
32,208,174733,2,0,L|208:128,1,160
432,208,175422,6,0,B|368:192|400:112|128:64,1,320
464,192,176629,5,0,0:0:0:0:
208,192,176802,6,0,L|128:144,1,80
400,160,177146,2,0,L|496:112,1,80
208,144,177491,6,0,L|48:48,1,160
336,272,178181,6,0,B|416:240|416:160|192:64,1,320
464,240,179215,5,0,0:0:0:0:
208,240,179388,1,0,0:0:0:0:
464,240,179560,6,0,L|368:240,1,80
128,240,179905,5,0,0:0:0:0:
384,240,180250,1,0,0:0:0:0:
16,240,180767,5,0,0:0:0:0:
272,240,180939,2,0,L|192:240,1,80
448,160,181284,6,0,L|448:80,1,80
192,96,181629,2,0,L|352:192,2,160
336,256,182362,6,0,P|400:256|336:112,1,300
80,176,183181,1,0,0:0:0:0:
336,176,183353,2,0,P|400:208|288:352,1,320
304,192,184387,6,0,L|400:144,1,80
112,192,184732,2,0,P|64:160|128:80,1,160
384,240,186284,5,0,0:0:0:0:
224,240,186456,2,0,L|292:198,1,80
128,240,186801,6,0,L|53:210,1,80
448,80,187146,2,0,L|310:162,2,160
448,80,187879,6,0,L|315:35,1,140
0,160,188525,5,0,0:0:0:0:
304,224,188870,6,0,P|414:186|464:81,1,240
207,256,189560,6,0,P|92:239|32:140,1,240
286,302,190250,2,0,B|240:224|240:208|416:96|432:128|464:256|384:288|275:54,1,480
368,192,191802,5,0,0:0:0:0:
208,192,191974,2,0,L|112:144,1,80
400,96,192319,2,0,L|480:80,1,80
224,96,192663,6,0,L|144:80,2,80
480,96,193353,6,0,L|320:64,1,160
64,160,194042,5,0,0:0:0:0:
320,224,194387,6,0,P|430:186|480:81,1,240
224,256,195077,6,0,P|109:239|49:140,1,240
304,304,195767,2,0,B|258:226|258:210|434:98|450:130|482:258|402:290|293:56,1,480
304,192,197319,5,0,0:0:0:0:
176,192,197491,2,0,L|80:144,1,80
368,96,197836,2,0,L|448:80,1,80
128,96,198181,6,0,L|288:96,1,160
32,96,198870,6,0,L|192:48,1,160
448,160,199559,5,0,0:0:0:0:
192,224,199904,6,0,P|82:186|32:81,1,240
288,256,200594,6,0,P|403:239|463:140,1,240
208,288,201284,2,0,B|254:210|254:194|78:82|62:114|30:242|110:274|219:40,1,480
208,192,202836,5,0,0:0:0:0:
336,192,203008,2,0,L|432:144,1,80
144,96,203353,2,0,L|64:80,1,80
320,96,203698,6,0,L|400:96,2,80
64,128,204387,1,4,0:0:0:0:
256,192,204560,12,4,208870,0:0:0:0:
