osu file format v14

[General]
AudioFilename: Demetori - Emotional Skyscraper ~ World's End (Extended Wear Remix).mp3
AudioLeadIn: 0
PreviewTime: 627555
Countdown: 0
SampleSet: Soft
StackLeniency: 0.7
Mode: 0
LetterboxInBreaks: 0
WidescreenStoryboard: 0

[Editor]
Bookmarks: 53679,139748,209989,281659,342279,421393,491726,566208
DistanceSpacing: 1
BeatDivisor: 4
GridSize: 8
TimelineZoom: 1

[Metadata]
Title:Emotional Skyscraper ~ World's End (Extended Broken Wear Remix)
TitleUnicode:Emotional Skyscraper ~ World's End (Extended Broken Wear Remix)
Artist:Demetori ft. Red Parka
ArtistUnicode:Demetori ft. Red Parka
Creator:happy30
Version:Marathon
Source:
Tags:
BeatmapID:235862
BeatmapSetID:86003

[Difficulty]
HPDrainRate:6
CircleSize:4
OverallDifficulty:8
ApproachRate:8
SliderMultiplier:1.6
SliderTickRate:1

[Events]
//Background and Video events
Video,51778,"Demetori - Emotional Skyscraper ~ World's End (Extended Wear Remix).flv"
0,0,"hijiriBG.jpg",0,0
//Break Periods
2,88436,93686
2,116804,138998
2,197878,201894
2,205947,209280
2,236713,243211
2,271472,280909
2,337720,351850
2,384048,385781
2,415282,420625
2,479426,493044
2,555235,565274
//Storyboard Layer 0 (Background)
//Storyboard Layer 1 (Fail)
//Storyboard Layer 2 (Pass)
//Storyboard Layer 3 (Foreground)
//Storyboard Sound Samples

[TimingPoints]
0,337.078651685393,4,2,1,100,1,0
49887,-100,4,2,1,5,0,0
53678,413.793103448276,4,2,1,100,1,0
80057,-100,4,2,0,100,0,0
80264,-100,4,2,1,100,0,0
84195,-66.6666666666667,4,2,1,100,0,0
95295,413.793103448276,4,2,0,100,1,0
95398,-100,4,2,0,100,0,0
100023,-66.6666666666667,4,2,0,100,0,0
102299,-200,4,2,0,100,0,0
106851,-100,4,2,1,100,0,0
110782,-133.333333333333,4,2,1,100,0,0
115053,-133.333333333333,4,2,0,100,0,0
115260,-133.333333333333,4,2,1,100,0,0
139748,413.793103448276,4,2,1,100,1,0
139949,-66.6666666666667,4,2,1,100,0,0
146156,-133.333333333333,4,2,1,100,0,0
149674,-100,4,2,1,100,0,0
164157,-55.5555555555556,4,2,1,100,0,0
165191,-100,4,2,1,100,0,0
165812,-55.5555555555556,4,2,1,100,0,0
166846,-100,4,2,1,100,0,0
167467,-55.5555555555556,4,2,1,100,0,0
168295,-100,4,2,1,100,0,0
169122,-55.5555555555556,4,2,1,100,0,0
170157,-100,4,2,1,100,0,0
170778,-55.5555555555556,4,2,1,100,0,0
171812,-100,4,2,1,100,0,0
172329,-55.5555555555556,4,2,1,100,0,0
173985,-100,4,2,1,100,0,0
176157,-133.333333333333,4,2,1,100,0,0
181123,-100,4,2,0,100,0,0
188985,-200,4,2,1,100,0,0
191468,-100,4,2,1,100,0,0
202437,-100,4,2,0,100,0,0
202748,-100,4,2,1,100,0,0
210030,413.801134020619,4,2,1,100,1,0
249341,-100,4,2,0,100,0,0
249754,-100,4,2,1,100,0,0
258030,-200,4,2,1,100,0,0
271169,-200,4,2,0,100,0,0
271479,-200,4,2,1,100,0,0
281659,413.793103448276,4,2,1,100,1,0
313727,-200,4,2,0,100,0,0
352600,413.793103448276,4,2,1,100,1,0
352600,-133.333333333333,4,2,0,100,0,0
358186,-100,4,2,0,100,0,0
362531,-66.6666666666667,4,2,0,100,0,0
366462,-133.333333333333,4,2,0,100,0,0
381979,-200,4,2,0,100,0,0
386324,-100,4,2,0,100,0,0
395634,-133.333333333333,4,2,0,100,0,0
401841,-66.6666666666667,4,2,0,100,0,0
409496,-100,4,2,0,100,0,0
421375,413.223103448276,4,2,1,100,1,0
429329,-100,4,2,0,100,0,0
429536,-100,4,2,1,100,0,0
439581,-66.6666666666667,4,2,1,100,0,0
442685,-100,4,2,1,100,0,0
447614,-200,4,2,1,100,0,0
450650,-100,4,2,1,100,0,0
472304,-100,4,2,0,100,0,0
472511,-100,4,2,1,100,0,0
478709,-66.6666666666667,4,2,1,100,0,0
479122,-66.6666666666667,4,2,0,100,0,0
479329,-66.6666666666667,4,2,1,100,0,0
493794,413.793103448276,4,2,1,100,1,0
519862,-200,4,2,1,100,0,0
521104,-100,4,2,1,100,0,0
526897,-66.6666666666667,4,2,1,100,0,0
531862,-50,4,2,1,100,0,0
531966,-50,4,2,1,5,0,0
532069,-50,4,2,1,100,0,0
532173,-50,4,2,1,5,0,0
532276,-50,4,2,1,100,0,0
532380,-50,4,2,1,5,0,0
532483,-50,4,2,1,100,0,0
532587,-50,4,2,1,5,0,0
532690,-66.6666666666667,4,2,1,100,0,0
535173,-100,4,2,1,100,0,0
554931,-100,4,2,0,100,0,0
555138,-100,4,2,1,100,0,0
566024,413.793103448276,4,2,1,100,1,0
566024,-66.6666666666667,4,2,1,100,0,0
575748,-133.333333333333,4,2,1,100,0,0
578851,-100,4,2,1,100,0,0
584024,-133.333333333333,4,2,1,100,0,0
585886,-66.6666666666667,4,2,1,100,0,0
590644,-133.333333333333,4,2,1,100,0,0
600782,-100,4,2,1,100,0,0
610299,-100,4,2,0,100,0,0
610610,-100,4,2,1,100,0,0
613817,-100,4,2,1,100,0,0
622196,-100,4,2,0,100,0,0
622403,-100,4,2,1,100,0,0
627795,337.078651685393,4,2,1,100,1,0

[HitObjects]
256,192,50224,12,0,51573,0:0:0:0:
88,296,53678,5,0,0:0:0:0:
0,176,54091,1,0,0:0:0:0:
104,40,54505,1,2,0:0:0:0:
176,72,54712,2,0,P|184:120|184:136,1,40
328,344,55022,2,0,P|336:296|336:280,1,40
408,272,55333,5,0,0:0:0:0:
248,304,55746,1,0,0:0:0:0:
104,272,56160,1,2,0:0:0:0:
168,320,56367,2,0,P|160:368|160:384,1,40
16,232,56678,2,0,P|24:184|24:168,1,40
48,104,56988,5,0,0:0:0:0:
256,360,57815,1,2,0:0:0:0:
464,104,58643,5,0,0:0:0:0:
336,192,59057,1,0,0:0:0:0:
456,296,59471,1,2,0:0:0:0:
504,232,59678,2,0,P|472:208|448:200,1,40
296,264,59988,2,0,P|328:288|352:296,1,40
240,344,60298,6,0,P|184:312|152:304,1,80
0,312,60712,2,0,P|56:344|88:352,1,80
176,224,61126,1,2,0:0:0:0:
112,176,61333,2,0,P|104:152|104:128,1,40
232,32,61643,2,0,P|240:56|240:80,1,40
352,320,61953,5,4,0:0:0:0:
360,344,62057,2,0,P|416:352|472:328,1,80
456,344,62367,2,0,P|448:280|440:240,1,80
440,248,62678,1,0,0:0:0:0:
368,224,62781,2,0,P|376:160|384:120,1,80,2|0,0:0|0:0,0:0:0:0:
480,56,63195,2,0,P|472:120|464:160,1,80
256,272,63609,5,0,0:0:0:0:
42,135,63815,2,0,P|40:120|32:56,1,80
128,184,64229,2,0,P|130:199|138:263,1,80,0|2,0:0|0:0,0:0:0:0:
72,312,64643,1,0,0:0:0:0:
136,360,64850,2,0,P|208:384|304:352,1,160
352,320,65471,6,0,L|408:336,2,40
256,184,65884,2,0,L|200:200,2,40,0|0|2,0:0|0:0|0:0,0:0:0:0:
352,40,66298,1,0,0:0:0:0:
424,80,66505,2,0,P|456:136|440:240,1,160
312,304,67126,6,0,L|304:352,2,40
144,208,67540,2,0,L|152:160,2,40,0|0|2,0:0|0:0|0:0,0:0:0:0:
72,240,67953,1,0,0:0:0:0:
24,176,68160,2,0,P|40:96|128:48,1,160
392,192,68781,5,4,0:0:0:0:
256,304,68988,1,0,0:0:0:0:
120,192,69402,5,0,0:0:0:0:
120,192,70229,2,0,L|208:208,1,80
312,360,70643,1,0,0:0:0:0:
288,368,70746,2,0,L|200:352,1,80
296,280,71057,2,0,L|384:296,1,80,2|0,0:0|0:0,0:0:0:0:
456,312,71471,1,0,0:0:0:0:
416,112,71884,5,0,0:0:0:0:
400,128,71988,2,0,L|304:144,1,80
208,240,72402,5,0,0:0:0:0:
192,224,72505,2,0,L|96:208,1,80,0|2,0:0|0:0,0:0:0:0:
16,192,72919,1,0,0:0:0:0:
48,280,73126,1,0,0:0:0:0:
360,352,73540,5,0,0:0:0:0:
376,336,73643,2,0,L|400:208,1,120
320,248,74057,5,0,0:0:0:0:
304,264,74160,2,0,L|288:360,1,80,0|2,0:0|0:0,0:0:0:0:
192,352,74574,1,0,0:0:0:0:
96,368,74781,1,0,0:0:0:0:
416,192,75195,5,0,0:0:0:0:
440,184,75298,2,0,L|456:88,2,80
416,192,75815,1,0,0:0:0:0:
344,264,76022,2,0,P|336:304|328:352,1,80,2|0,0:0|0:0,0:0:0:0:
240,384,76436,1,0,0:0:0:0:
240,384,77057,1,0,0:0:0:0:
32,272,77264,1,4,0:0:0:0:
32,272,77678,2,0,P|24:192|72:96,1,160
52,119,78712,1,0,0:0:0:0:
336,184,78919,2,0,P|344:264|296:360,1,160,4|0,0:0|0:0,0:0:0:0:
315,336,79746,1,0,0:0:0:0:
160,184,80160,6,0,L|72:200,1,80,4|0,0:0|0:0,0:0:0:0:
81,198,80781,1,0,0:0:0:0:
81,198,81195,1,0,0:0:0:0:
81,198,81609,1,0,0:0:0:0:
376,288,81815,6,0,L|464:304,1,80,4|0,0:0|0:0,0:0:0:0:
454,302,82436,1,0,0:0:0:0:
454,302,82850,1,0,0:0:0:0:
454,302,83264,1,0,0:0:0:0:
488,216,83471,6,0,P|480:128|448:64,1,160
80,96,84298,2,0,P|16:192|72:296,4,240.000009155274,0|2|0|2|0,0:0|0:0|0:0|0:0|0:0,0:0:0:0:
136,176,86160,2,0,P|240:200|264:200,1,120.000004577637,0|2,0:0|0:0,0:0:0:0:
496,280,86574,2,0,P|336:256|200:384,1,360.000013732911
32,376,87609,1,0,0:0:0:0:
0,208,88022,1,0,0:0:0:0:
88,192,94436,5,0,0:0:0:0:
424,192,94643,1,4,0:0:0:0:
256,368,95295,5,4,0:0:0:0:
48,80,96950,5,4,0:0:0:0:
464,80,98605,5,4,0:0:0:0:
48,360,99432,5,4,0:0:0:0:
464,80,100260,2,0,L|440:320,1,240.000009155274,4|4,0:0|0:0,0:0:0:0:
48,80,101088,2,0,L|72:320,1,240.000009155274,4|4,0:0|0:0,0:0:0:0:
71,318,102329,6,0,L|48:80,2,240.000009155274
256,288,105226,5,0,0:0:0:0:
256,288,105639,1,0,0:0:0:0:
256,288,106053,1,0,0:0:0:0:
256,288,106881,5,0,0:0:0:0:
272,264,106984,2,0,L|376:240,1,80
376,176,107295,1,0,0:0:0:0:
352,168,107398,2,0,L|248:192,1,80
464,192,108122,5,0,0:0:0:0:
256,376,108329,1,0,0:0:0:0:
48,192,108536,1,4,0:0:0:0:
48,192,108950,5,0,0:0:0:0:
48,192,109363,1,0,0:0:0:0:
48,192,109777,5,0,0:0:0:0:
48,192,109984,1,0,0:0:0:0:
128,240,110191,1,0,0:0:0:0:
152,224,110295,2,0,L|176:120,1,80
240,120,110605,1,0,0:0:0:0:
248,144,110708,1,0,0:0:0:0:
224,264,110915,2,0,P|256:336|376:248,1,270.000010299683
96,48,112260,5,0,0:0:0:0:
368,112,112674,1,0,0:0:0:0:
48,232,112881,2,0,P|96:272|168:248,1,120.000004577637,4|0,0:0|0:0,0:0:0:0:
216,216,113501,2,0,L|224:88,1,120.000004577637
223,96,114019,1,0,0:0:0:0:
296,184,114329,2,0,L|288:296,2,90.0000034332277
376,128,115157,5,4,0:0:0:0:
144,192,115984,1,0,0:0:0:0:
464,312,116191,2,0,P|416:352|344:328,1,120.000004577637,4|0,0:0|0:0,0:0:0:0:
16,328,139748,5,0,0:0:0:0:
112,304,139954,2,0,P|136:240|144:168,1,120.000004577637,0|2,0:0|0:0,0:0:0:0:
176,96,140368,5,0,0:0:0:0:
272,120,140575,2,0,P|296:184|304:256,1,120.000004577637
312,328,140989,5,2,0:0:0:0:
408,304,141196,2,0,P|432:240|440:168,1,120.000004577637
176,232,141610,2,0,P|152:296|144:368,1,120.000004577637,0|2,0:0|0:0,0:0:0:0:
16,112,142230,2,0,L|8:40,1,60.0000022888184
96,144,142437,2,0,L|104:216,1,60.0000022888184
168,104,142644,2,0,P|216:48|352:152,1,240.000009155274
488,264,143265,2,0,P|464:200|456:128,1,120.000004577637,0|2,0:0|0:0,0:0:0:0:
440,56,143679,5,0,0:0:0:0:
280,136,143885,2,0,P|256:200|248:272,1,120.000004577637
304,328,144299,5,2,0:0:0:0:
104,304,144506,2,0,P|80:240|72:168,1,120.000004577637
208,40,144920,2,0,P|232:104|240:176,1,120.000004577637,0|2,0:0|0:0,0:0:0:0:
239,155,145541,1,0,0:0:0:0:
440,72,145747,1,4,0:0:0:0:
104,56,146161,6,0,P|208:32|208:192,1,300.000011444092
40,112,147816,1,0,0:0:0:0:
0,184,148023,1,0,0:0:0:0:
16,264,148230,1,0,0:0:0:0:
88,304,148437,1,0,0:0:0:0:
88,304,148541,1,0,0:0:0:0:
168,280,148747,2,0,B|232:256|296:320|392:272,1,210.000008010865
456,232,149679,5,0,0:0:0:0:
472,216,149782,2,0,L|464:120,1,80
392,96,150092,2,0,L|400:192,1,80,2|0,0:0|0:0,0:0:0:0:
384,192,150403,2,0,L|387:235,2,40
312,232,150713,2,0,L|315:275,2,40
152,336,151334,6,0,L|56:344,1,80
16,208,151747,1,2,0:0:0:0:
39,206,151851,1,0,0:0:0:0:
62,204,151954,2,0,L|162:195,1,80
161,197,152265,1,0,0:0:0:0:
224,240,152368,2,0,L|267:236,2,40
408,352,152989,5,0,0:0:0:0:
408,352,153196,1,0,0:0:0:0:
472,152,153403,1,2,0:0:0:0:
472,152,153610,1,0,0:0:0:0:
312,304,153816,1,0,0:0:0:0:
288,309,153920,1,0,0:0:0:0:
265,316,154023,2,0,L|216:328,2,40
320,168,154644,5,0,0:0:0:0:
336,152,154747,2,0,P|344:96|328:48,1,80
256,24,155058,2,0,P|248:80|264:128,1,80
16,224,155472,2,0,B|72:288|24:312|112:376,1,160,2|0,0:0|0:0,0:0:0:0:
368,280,156299,6,0,L|472:264,1,80
456,248,156610,1,0,0:0:0:0:
480,168,156713,2,0,L|376:184,1,80
384,168,157023,1,0,0:0:0:0:
360,176,157127,1,2,0:0:0:0:
336,181,157230,1,0,0:0:0:0:
313,188,157334,2,0,L|264:200,2,40
176,328,157954,6,0,P|208:352|248:344,1,80
40,120,158368,1,4,0:0:0:0:
24,136,158472,2,0,L|40:240,1,80
40,240,158782,1,2,0:0:0:0:
45,264,158885,1,0,0:0:0:0:
52,287,158989,2,0,L|64:336,2,40
248,224,159610,5,0,0:0:0:0:
264,208,159713,2,0,L|280:72,1,120
296,80,160127,1,0,0:0:0:0:
320,72,160230,1,0,0:0:0:0:
344,64,160334,1,0,0:0:0:0:
368,56,160437,1,2,0:0:0:0:
392,48,160541,1,0,0:0:0:0:
416,40,160644,2,0,L|464:24,2,40
64,344,161472,6,0,B|248:240|264:440|448:336,1,400
496,264,162713,1,0,0:0:0:0:
456,176,162920,5,0,0:0:0:0:
360,160,163127,2,0,P|359:203|336:256,1,80
216,368,163541,2,0,P|220:284|264:192,1,160
464,320,164161,6,0,P|384:344|328:328,1,143.999995605469,2|0,0:0|0:0,0:0:0:0:
160,280,164575,5,0,0:0:0:0:
320,224,164782,1,0,0:0:0:0:
160,168,164989,1,0,0:0:0:0:
320,104,165196,2,0,P|392:136|464:104,1,160
256,24,165816,6,0,P|224:96|240:168,1,143.999995605469,2|0,0:0|0:0,0:0:0:0:
336,296,166230,5,0,0:0:0:0:
496,232,166437,1,0,0:0:0:0:
472,64,166644,1,0,0:0:0:0:
304,16,166851,2,0,L|280:184,1,160
56,264,167472,6,0,P|136:288|192:272,1,143.999995605469,2|0,0:0|0:0,0:0:0:0:
176,96,167885,5,0,0:0:0:0:
24,176,168092,1,0,0:0:0:0:
456,336,168506,2,0,P|384:360|304:336,1,160
432,112,169127,6,0,L|408:264,1,143.999995605469,2|0,0:0|0:0,0:0:0:0:
248,176,169541,5,0,0:0:0:0:
216,344,169747,1,0,0:0:0:0:
120,200,169954,1,0,0:0:0:0:
88,360,170161,2,0,P|32:320|16:216,1,160
176,288,170782,6,0,L|328:288,1,143.999995605469,2|0,0:0|0:0,0:0:0:0:
480,360,171196,5,0,0:0:0:0:
504,192,171403,1,0,0:0:0:0:
336,160,171610,1,0,0:0:0:0:
296,344,171816,2,0,P|216:368|144:344,1,160
232,192,172437,6,0,L|80:192,1,143.999995605469,2|0,0:0|0:0,0:0:0:0:
16,128,172851,5,0,0:0:0:0:
256,32,173058,1,0,0:0:0:0:
496,128,173472,5,0,0:0:0:0:
496,128,173885,1,0,0:0:0:0:
408,168,174092,1,0,0:0:0:0:
400,192,174196,1,0,0:0:0:0:
392,216,174299,2,0,L|380:258,2,40
256,192,174610,12,0,175747,0:0:0:0:
480,248,176161,6,0,B|512:328|496:336|320:432|224:312,1,360.000013732911
32,240,177816,6,0,B|0:320|16:328|192:424|288:304,1,360.000013732911
88,112,179265,5,0,0:0:0:0:
256,192,179472,1,2,0:0:0:0:
424,112,179679,1,0,0:0:0:0:
256,192,179885,2,0,B|240:264|272:288|256:384,1,180.000006866455
257,371,180713,1,2,0:0:0:0:
88,112,181541,5,0,0:0:0:0:
48,288,181954,2,0,L|40:232,1,40
128,272,182161,2,0,P|200:336|272:232,1,240
276,245,183403,5,4,0:0:0:0:
276,245,183610,2,0,L|368:256,1,80
432,80,184230,2,8,B|479:90|516:62|516:62|453:218,1,240,0|2,0:0|0:0,0:0:0:0:
460,201,185265,5,0,0:0:0:0:
460,201,185472,1,4,0:0:0:0:
24,128,185885,2,0,B|65:102|72:56|72:56|135:212,1,240,0|2,0:0|0:0,0:0:0:0:
128,195,186920,5,4,0:0:0:0:
128,195,187127,1,0,0:0:0:0:
304,224,187541,2,8,B|351:234|388:206|388:206|325:362,1,240,0|2,0:0|0:0,0:0:0:0:
332,345,188575,5,4,0:0:0:0:
332,345,188782,1,0,0:0:0:0:
160,96,189196,2,0,B|224:96|255:24|255:24|256:264,1,360,0|2,0:0|0:0,0:0:0:0:
256,256,192713,6,0,L|160:280,1,80
328,304,193127,6,0,L|424:280,1,80
160,208,193541,6,0,L|64:184,1,80
392,200,193954,6,0,L|488:223,1,80
112,352,194368,6,0,L|16:375,1,80
400,352,194782,6,0,L|496:375,1,80
0,200,196851,1,0,0:0:0:0:
0,200,197058,2,0,P|32:264|128:176,1,240
408,192,202644,5,4,0:0:0:0:
424,192,204920,2,0,L|256:216,1,160
240,288,205437,1,0,0:0:0:0:
216,296,205541,2,0,L|176:304,2,40
424,88,210030,5,0,0:0:0:0:
512,208,210443,1,0,0:0:0:0:
408,344,210857,1,2,0:0:0:0:
336,312,211064,2,0,P|328:264|328:248,1,40
184,40,211374,2,0,P|176:88|176:104,1,40
104,112,211685,5,0,0:0:0:0:
264,80,212099,1,0,0:0:0:0:
408,112,212512,1,2,0:0:0:0:
344,64,212719,2,0,P|352:16|352:0,1,40
496,152,213030,2,0,P|488:200|488:216,1,40
472,288,213340,6,0,B|256:96|40:280,1,480
41,278,214995,1,0,0:0:0:0:
176,192,215409,1,0,0:0:0:0:
56,88,215823,1,2,0:0:0:0:
8,152,216030,2,0,P|40:176|64:184,1,40
216,120,216340,2,0,P|184:96|160:88,1,40
272,40,216650,6,0,P|328:72|360:80,1,80
512,72,217064,2,0,P|456:40|424:32,1,80
336,160,217478,1,2,0:0:0:0:
400,208,217685,2,0,P|408:232|408:256,1,40
280,352,217995,2,0,P|272:328|272:304,1,40
160,112,218306,6,0,P|128:168|120:200,1,80
128,352,218719,2,0,P|160:296|168:264,1,80
256,96,219133,1,2,0:0:0:0:
304,32,219340,2,0,P|328:24|352:24,1,40
448,152,219650,2,0,P|424:160|400:160,1,40
264,304,219961,6,0,P|320:336|352:344,1,80
504,336,220375,2,0,P|448:304|416:296,1,80
96,184,220788,6,0,P|152:216|184:224,1,80,2|0,0:0|0:0,0:0:0:0:
336,216,221202,2,0,P|280:184|248:176,1,80
16,56,221616,6,0,P|72:88|104:96,1,80,2|0,0:0|0:0,0:0:0:0:
16,280,222030,6,0,P|72:312|104:320,1,80,2|0,0:0|0:0,0:0:0:0:
200,56,222444,6,0,P|256:88|288:96,1,80,2|0,0:0|0:0,0:0:0:0:
192,280,222857,6,0,P|248:312|280:320,1,80,2|0,0:0|0:0,0:0:0:0:
352,64,223271,5,0,0:0:0:0:
360,40,223375,2,0,P|416:32|472:56,1,80
456,40,223685,2,0,P|448:104|440:144,1,80
440,136,223995,1,0,0:0:0:0:
368,160,224099,2,0,P|376:224|384:264,1,80,2|0,0:0|0:0,0:0:0:0:
480,328,224513,2,0,P|472:264|464:224,1,80
256,112,224926,5,0,0:0:0:0:
42,249,225133,2,0,P|40:264|32:328,1,80,4|0,0:0|0:0,0:0:0:0:
128,224,225547,1,0,0:0:0:0:
128,224,225650,1,0,0:0:0:0:
128,224,225754,2,0,L|136:120,1,80,2|0,0:0|0:0,0:0:0:0:
176,336,226168,2,0,P|248:360|344:328,1,160
408,104,226788,6,0,L|464:88,4,40
320,144,227409,1,2,0:0:0:0:
288,288,227616,1,0,0:0:0:0:
448,360,227823,2,0,P|480:304|464:200,1,160
240,80,228444,6,0,L|232:32,2,40
168,144,228857,2,0,L|200:304,1,160
104,328,229478,2,0,P|43:284|27:204,1,160
27,204,229995,1,0,0:0:0:0:
27,204,230099,1,0,0:0:0:0:
272,216,230306,5,0,0:0:0:0:
280,240,230409,1,0,0:0:0:0:
288,264,230513,1,0,0:0:0:0:
296,288,230616,1,0,0:0:0:0:
304,312,230720,1,2,0:0:0:0:
432,264,230926,1,0,0:0:0:0:
304,312,231133,1,0,0:0:0:0:
248,136,231651,2,0,L|264:72,2,40
240,160,231961,5,0,0:0:0:0:
232,184,232064,1,0,0:0:0:0:
224,208,232168,1,0,0:0:0:0:
216,232,232271,1,0,0:0:0:0:
208,256,232375,1,2,0:0:0:0:
32,192,232582,1,0,0:0:0:0:
208,256,232789,1,0,0:0:0:0:
248,72,233306,2,0,L|232:8,2,40
256,96,233616,5,0,0:0:0:0:
264,120,233720,1,0,0:0:0:0:
272,144,233823,1,0,0:0:0:0:
280,168,233927,1,0,0:0:0:0:
288,192,234030,1,2,0:0:0:0:
512,112,234237,1,0,0:0:0:0:
288,192,234444,1,0,0:0:0:0:
472,240,234961,2,0,L|488:176,2,40
464,264,235271,5,0,0:0:0:0:
456,288,235375,1,0,0:0:0:0:
448,312,235478,1,0,0:0:0:0:
440,336,235582,1,0,0:0:0:0:
432,360,235685,1,6,0:0:0:0:
16,208,235892,1,4,0:0:0:0:
432,360,236099,1,4,0:0:0:0:
232,288,236513,1,4,0:0:0:0:
56,160,243961,5,0,0:0:0:0:
152,160,244168,1,0,0:0:0:0:
152,160,244582,2,0,P|184:240|320:224,1,240,2|0,0:0|0:0,0:0:0:0:
317,226,245616,1,0,0:0:0:0:
416,224,245823,1,0,0:0:0:0:
416,224,246237,2,0,P|384:304|248:288,1,240,2|0,0:0|0:0,0:0:0:0:
136,80,248927,5,0,0:0:0:0:
376,80,249134,1,0,0:0:0:0:
256,304,249548,1,4,0:0:0:0:
160,288,251823,5,0,0:0:0:0:
104,208,252030,1,0,0:0:0:0:
176,144,252237,2,0,B|248:128|264:176|336:144,1,160,2|0,0:0|0:0,0:0:0:0:
368,336,253065,2,0,P|296:336|264:232,1,160,2|0,0:0|0:0,0:0:0:0:
344,232,253686,1,0,0:0:0:0:
432,200,253892,2,0,P|440:144|432:96,1,80,2|0,0:0|0:0,0:0:0:0:
200,40,254306,1,0,0:0:0:0:
200,40,254513,2,0,P|184:128|192:208,1,160,2|0,0:0|0:0,0:0:0:0:
344,112,255134,6,0,P|352:56|344:8,1,80,2|0,0:0|0:0,0:0:0:0:
96,152,255548,2,0,P|80:240|88:320,1,160,0|2,0:0|0:0,0:0:0:0:
256,360,256168,1,0,0:0:0:0:
426,309,256375,2,0,P|432:240|416:152,1,160,0|2,0:0|0:0,0:0:0:0:
224,224,256996,2,0,P|296:288|360:232,1,160
256,112,257617,1,2,0:0:0:0:
144,152,257824,1,0,0:0:0:0:
120,256,258030,6,0,P|208:368|384:344,1,320
440,232,260513,1,0,0:0:0:0:
368,168,260927,1,0,0:0:0:0:
280,136,261341,2,0,B|192:96|120:152|48:88,1,240
176,208,262996,2,0,B|246:270|318:214|406:254,1,240
472,64,264651,5,2,0:0:0:0:
472,64,265479,1,2,0:0:0:0:
40,128,265893,1,2,0:0:0:0:
472,192,266306,1,2,0:0:0:0:
40,256,266720,1,2,0:0:0:0:
472,320,267134,1,2,0:0:0:0:
40,384,267548,5,0,0:0:0:0:
344,312,267755,1,0,0:0:0:0:
112,184,267962,2,0,P|232:56|264:336,1,640,4|4,0:0|0:0,0:0:0:0:
424,88,281659,5,0,0:0:0:0:
512,208,282072,1,0,0:0:0:0:
408,344,282486,1,2,0:0:0:0:
336,312,282693,2,0,P|328:264|328:248,1,40
184,40,283003,2,0,P|176:88|176:104,1,40
104,112,283314,5,0,0:0:0:0:
264,80,283727,1,0,0:0:0:0:
408,112,284141,1,2,0:0:0:0:
344,64,284348,2,0,P|352:16|352:0,1,40
496,152,284659,2,0,P|488:200|488:216,1,40
88,296,284969,5,4,0:0:0:0:
0,176,285383,1,0,0:0:0:0:
104,40,285796,1,2,0:0:0:0:
176,72,286003,2,0,P|184:120|184:136,1,40
328,344,286314,2,0,P|336:296|336:280,1,40
408,272,286624,5,0,0:0:0:0:
248,304,287038,1,0,0:0:0:0:
104,272,287452,1,2,0:0:0:0:
168,320,287659,2,0,P|160:368|160:384,1,40
16,232,287969,2,0,P|24:184|24:168,1,40
40,112,288279,5,0,0:0:0:0:
44,92,288383,2,0,P|120:88|160:96,1,80
248,216,288693,2,0,P|172:220|132:212,1,80
152,208,289003,1,0,0:0:0:0:
192,144,289107,1,2,0:0:0:0:
304,304,289314,1,0,0:0:0:0:
408,136,289521,2,0,P|448:192|472:288,1,160
416,336,290038,5,0,0:0:0:0:
401,322,290141,1,0,0:0:0:0:
391,304,290245,1,0,0:0:0:0:
386,284,290348,1,0,0:0:0:0:
386,263,290452,2,0,P|364:216|332:185,1,80
280,157,290762,1,2,0:0:0:0:
168,317,290969,1,0,0:0:0:0:
64,149,291176,2,0,P|24:205|0:301,1,160
53,346,291693,6,0,L|98:355,2,40
88,266,292003,2,0,L|133:275,2,40
228,355,292417,1,2,0:0:0:0:
340,195,292624,1,0,0:0:0:0:
444,363,292831,2,0,P|484:307|508:211,1,160
224,113,293452,5,4,0:0:0:0:
483,39,293659,1,0,0:0:0:0:
455,52,293762,2,0,P|427:93|417:144,1,80
411,196,294072,1,2,0:0:0:0:
288,349,294279,1,0,0:0:0:0:
162,189,294486,2,0,P|99:199|17:256,1,160
20,252,295003,1,0,0:0:0:0:
20,252,295107,1,0,0:0:0:0:
144,353,295314,5,0,0:0:0:0:
258,241,295521,1,0,0:0:0:0:
276,234,295624,1,0,0:0:0:0:
293,224,295727,1,2,0:0:0:0:
485,368,295934,1,0,0:0:0:0:
497,128,296141,1,4,0:0:0:0:
491,252,296762,5,0,0:0:0:0:
368,353,296969,1,0,0:0:0:0:
254,241,297176,1,0,0:0:0:0:
236,234,297279,1,0,0:0:0:0:
219,224,297383,1,2,0:0:0:0:
27,368,297590,1,0,0:0:0:0:
15,128,297796,1,4,0:0:0:0:
327,194,298210,5,0,0:0:0:0:
256,337,298417,1,0,0:0:0:0:
114,261,298624,1,0,0:0:0:0:
114,261,298727,1,0,0:0:0:0:
183,117,298934,1,0,0:0:0:0:
183,117,299038,2,0,L|293:108,1,80,2|0,0:0|0:0,0:0:0:0:
427,41,299452,2,0,L|317:50,1,80
98,80,299865,5,0,0:0:0:0:
98,80,299969,1,0,0:0:0:0:
392,173,300176,1,0,0:0:0:0:
392,173,300279,1,0,0:0:0:0:
421,330,300486,2,0,P|339:351|259:328,1,160
133,243,301107,5,0,0:0:0:0:
14,350,301314,1,0,0:0:0:0:
14,189,301521,1,2,0:0:0:0:
458,134,301934,1,0,0:0:0:0:
77,72,302348,1,0,0:0:0:0:
256,192,303176,12,0,304417,0:0:0:0:
104,328,304831,5,0,0:0:0:0:
264,328,305245,1,0,0:0:0:0:
424,328,305659,1,2,0:0:0:0:
512,192,306072,1,0,0:0:0:0:
360,256,306486,5,0,0:0:0:0:
288,224,306693,1,0,0:0:0:0:
256,152,306900,1,0,0:0:0:0:
96,128,307314,1,2,0:0:0:0:
168,160,307521,1,0,0:0:0:0:
200,232,307727,2,0,L|208:272,2,40
280,224,308141,6,0,L|448:224,1,160
344,352,308969,2,0,L|176:352,1,160,2|0,0:0|0:0,0:0:0:0:
104,352,309590,1,0,0:0:0:0:
40,304,309796,5,0,0:0:0:0:
192,248,310210,1,0,0:0:0:0:
48,184,310624,1,2,0:0:0:0:
200,128,311038,1,0,0:0:0:0:
56,48,311452,6,0,L|64:152,1,80
168,232,311865,2,0,L|160:128,1,80
161,152,312486,1,0,0:0:0:0:
24,224,312693,2,0,L|32:328,1,80
40,384,313107,1,0,0:0:0:0:
40,384,313934,6,2,L|448:336,1,400
40,384,316417,6,2,L|328:352,1,280
40,384,318072,6,2,L|328:352,1,280
318,353,319727,6,2,L|40:384,1,280
16,312,321383,5,0,0:0:0:0:
144,296,321796,1,0,0:0:0:0:
272,280,322210,1,0,0:0:0:0:
400,264,322624,1,0,0:0:0:0:
472,160,323038,1,0,0:0:0:0:
440,40,323452,1,0,0:0:0:0:
312,24,323865,1,0,0:0:0:0:
376,136,324279,1,0,0:0:0:0:
376,136,325107,6,0,P|456:184|384:288,1,240,4|0,0:0|0:0,0:0:0:0:
136,136,326762,6,0,P|56:184|128:288,1,240,4|0,0:0|0:0,0:0:0:0:
376,136,328417,6,0,P|456:184|384:288,1,240,4|0,0:0|0:0,0:0:0:0:
272,320,330072,1,0,0:0:0:0:
152,272,330486,1,2,0:0:0:0:
24,304,330900,1,0,0:0:0:0:
24,304,331314,6,0,L|8:176,1,120
9,184,332141,1,2,0:0:0:0:
112,112,332555,1,0,0:0:0:0:
232,160,332969,5,0,0:0:0:0:
272,264,333383,1,0,0:0:0:0:
376,344,333796,1,2,0:0:0:0:
496,296,334210,1,0,0:0:0:0:
496,296,336279,5,4,0:0:0:0:
496,296,336693,2,0,L|496:136,1,160
332,352,352600,5,0,0:0:0:0:
88,304,352806,1,0,0:0:0:0:
298,271,353220,2,0,P|212:290|140:240,1,180.000006866455,0|2,0:0|0:0,0:0:0:0:
140,240,354255,5,0,0:0:0:0:
384,192,354462,1,0,0:0:0:0:
174,159,354875,2,0,P|259:178|331:128,1,180.000006866455,0|2,0:0|0:0,0:0:0:0:
332,127,355910,5,0,0:0:0:0:
88,79,356117,1,0,0:0:0:0:
298,46,356531,2,0,P|212:65|140:15,1,180.000006866455,0|2,0:0|0:0,0:0:0:0:
240,336,357565,5,0,0:0:0:0:
484,288,357772,1,0,0:0:0:0:
304,208,358186,6,0,P|256:232|192:200,3,120,2|2|2|2,0:0|0:0|0:0|0:0,0:0:0:0:
200,120,359324,6,0,P|248:72|280:56,1,80
288,56,359634,2,0,L|296:8,2,40
344,120,360048,1,0,0:0:0:0:
384,360,360255,1,0,0:0:0:0:
464,144,360462,1,2,0:0:0:0:
464,144,360875,6,0,P|408:184|392:216,1,80
320,296,361289,2,0,P|328:256|328:216,1,80
168,120,361703,1,0,0:0:0:0:
128,360,361910,1,0,0:0:0:0:
48,144,362117,1,2,0:0:0:0:
48,144,362531,6,0,P|104:184|128:232,1,120
126,228,362944,1,0,0:0:0:0:
216,216,363151,2,0,P|264:280|416:136,1,360.000013732911,0|2,0:0|0:0,0:0:0:0:
48,144,364186,6,0,P|104:184|128:232,1,120
126,228,364600,1,0,0:0:0:0:
216,216,364806,2,0,P|264:280|416:136,1,360.000013732911,0|2,0:0|0:0,0:0:0:0:
136,344,365841,5,0,0:0:0:0:
256,296,366048,1,0,0:0:0:0:
376,344,366255,1,0,0:0:0:0:
376,344,366358,1,0,0:0:0:0:
376,344,366462,2,0,L|392:200,1,120.000004577637
416,24,367082,5,0,0:0:0:0:
112,128,367289,1,0,0:0:0:0:
480,176,367496,2,0,L|456:376,1,180.000006866455
458,354,368324,1,0,0:0:0:0:
296,272,368531,2,0,L|290:322,1,30.0000011444092
152,304,368841,2,0,L|146:354,1,30.0000011444092
32,224,369151,1,0,0:0:0:0:
32,224,369255,5,0,0:0:0:0:
32,224,369358,1,0,0:0:0:0:
272,64,369565,1,0,0:0:0:0:
272,64,369668,1,0,0:0:0:0:
272,64,369772,1,0,0:0:0:0:
8,40,369979,1,0,0:0:0:0:
272,184,370186,1,0,0:0:0:0:
80,152,370393,1,2,0:0:0:0:
80,152,370806,5,0,0:0:0:0:
400,128,371013,1,0,0:0:0:0:
176,232,371220,1,0,0:0:0:0:
440,256,371427,1,0,0:0:0:0:
168,120,371634,1,0,0:0:0:0:
408,40,371841,1,0,0:0:0:0:
120,312,372048,1,2,0:0:0:0:
56,248,372565,6,0,L|32:216,6,30.0000011444092
56,248,373289,1,0,0:0:0:0:
360,272,373496,1,0,0:0:0:0:
104,144,373703,1,2,0:0:0:0:
480,352,374117,6,0,L|504:288,1,60.0000022888184
472,224,374427,1,0,0:0:0:0:
472,224,374531,2,0,L|504:144,1,60.0000022888184
464,88,374944,1,0,0:0:0:0:
256,360,375151,1,0,0:0:0:0:
48,88,375358,1,2,0:0:0:0:
48,88,375772,6,0,L|40:184,1,90.0000034332277
120,248,376186,2,0,L|128:152,1,90.0000034332277
216,96,376600,2,0,L|208:216,1,120.000004577637,0|2,0:0|0:0,0:0:0:0:
208,215,377220,1,0,0:0:0:0:
88,320,377427,5,0,0:0:0:0:
456,200,377634,1,0,0:0:0:0:
64,152,377841,1,0,0:0:0:0:
384,336,378048,1,0,0:0:0:0:
112,240,378255,1,0,0:0:0:0:
112,240,379082,5,0,0:0:0:0:
112,240,379186,2,0,P|176:256|192:264,1,60.0000022888184
240,232,379496,2,0,L|256:176,1,30.0000011444092
328,184,379703,2,0,L|344:128,1,30.0000011444092
392,96,379910,2,0,P|448:120|512:112,1,120.000004577637
376,352,380737,5,0,0:0:0:0:
376,352,380841,2,0,P|368:304|352:272,1,60.0000022888184
288,328,381151,2,0,L|240:352,3,30.0000011444092
464,184,381772,1,0,0:0:0:0:
328,256,381979,2,0,L|336:16,1,240
40,64,386531,5,0,0:0:0:0:
40,64,386944,2,0,P|104:80|128:96,1,80
40,64,387565,2,0,P|128:96|184:240,1,240,0|2,0:0|0:0,0:0:0:0:
472,64,388393,5,0,0:0:0:0:
456,176,388600,2,0,P|392:192|368:208,1,80
456,176,389220,2,0,P|368:208|312:352,1,240,0|2,0:0|0:0,0:0:0:0:
310,334,390255,5,0,0:0:0:0:
64,280,390462,1,0,0:0:0:0:
304,248,390875,2,0,P|240:272|104:176,1,240,0|2,0:0|0:0,0:0:0:0:
106,185,391703,5,0,0:0:0:0:
320,160,391910,2,0,P|384:144|408:128,1,80
320,160,392531,2,0,P|408:128|464:-16,1,240,0|2,0:0|0:0,0:0:0:0:
200,120,393565,5,0,0:0:0:0:
240,352,393772,1,0,0:0:0:0:
296,128,394186,2,0,P|272:192|368:328,1,240,0|2,0:0|0:0,0:0:0:0:
416,256,395013,5,0,0:0:0:0:
160,216,395220,2,0,P|96:200|72:184,1,80
160,216,395841,2,0,P|72:184|40:0,1,300.000011444092,0|4,0:0|0:0,0:0:0:0:
368,64,397082,5,0,0:0:0:0:
112,96,397496,2,0,L|296:136,1,180.000006866455,0|2,0:0|0:0,0:0:0:0:
287,134,398531,5,0,0:0:0:0:
352,360,398737,1,0,0:0:0:0:
392,144,399151,2,0,L|424:336,1,180.000006866455,0|2,0:0|0:0,0:0:0:0:
80,352,400186,6,0,L|88:224,1,120.000004577637,0|2,0:0|0:0,0:0:0:0:
80,352,401013,2,0,L|88:224,1,120.000004577637,0|2,0:0|0:0,0:0:0:0:
80,352,401841,6,0,L|88:224,1,120.000004577637,0|2,0:0|0:0,0:0:0:0:
80,352,402255,2,0,L|88:224,1,120.000004577637,0|2,0:0|0:0,0:0:0:0:
80,352,402668,2,0,L|88:224,1,120.000004577637,0|2,0:0|0:0,0:0:0:0:
80,352,403082,2,0,L|88:224,1,120.000004577637,0|2,0:0|0:0,0:0:0:0:
432,352,403496,6,0,L|424:224,1,120.000004577637,0|2,0:0|0:0,0:0:0:0:
432,352,404117,2,0,L|424:224,1,120.000004577637,0|2,0:0|0:0,0:0:0:0:
80,32,404737,6,0,L|88:160,1,120.000004577637,0|0,0:0|0:0,0:0:0:0:
432,32,405151,6,0,L|424:160,1,120.000004577637,0|2,0:0|0:0,0:0:0:0:
432,32,405772,2,0,L|424:160,1,120.000004577637,0|2,0:0|0:0,0:0:0:0:
416,368,406393,6,0,L|288:360,1,120.000004577637
96,368,406806,6,0,L|224:360,1,120.000004577637,0|2,0:0|0:0,0:0:0:0:
96,368,407427,2,0,L|224:360,1,120.000004577637,0|2,0:0|0:0,0:0:0:0:
416,16,408048,6,0,L|288:24,1,120.000004577637
96,16,408462,6,0,L|224:24,1,120.000004577637,0|2,0:0|0:0,0:0:0:0:
96,16,409082,2,0,L|224:24,1,120.000004577637,0|2,0:0|0:0,0:0:0:0:
400,112,409703,6,0,P|448:192|464:280,1,160
328,168,410324,2,0,P|256:176|168:224,1,160,2|0,0:0|0:0,0:0:0:0:
8,120,410944,1,0,0:0:0:0:
8,120,411151,2,0,L|24:176,1,40
88,80,411462,2,0,L|104:136,1,40
160,352,411772,5,0,0:0:0:0:
24,256,411979,1,2,0:0:0:0:
312,160,412393,2,0,P|400:176|440:320,1,240
168,344,413427,5,0,0:0:0:0:
192,240,413841,5,0,0:0:0:0:
168,344,414255,5,0,0:0:0:0:
192,240,414668,5,0,0:0:0:0:
168,344,415082,5,4,0:0:0:0:
88,56,421375,5,0,0:0:0:0:
88,56,421478,1,0,0:0:0:0:
88,56,421581,1,0,0:0:0:0:
88,56,421994,2,0,P|37:53|50:153,1,160,0|2,0:0|0:0,0:0:0:0:
96,56,422614,2,0,P|146:53|133:153,1,160
40,272,423441,5,0,0:0:0:0:
256,304,423854,1,0,0:0:0:0:
472,272,424267,1,0,0:0:0:0:
472,272,424680,1,0,0:0:0:0:
344,48,425507,5,0,0:0:0:0:
344,48,425610,1,0,0:0:0:0:
344,48,425713,1,0,0:0:0:0:
344,48,426127,2,0,P|293:45|306:145,1,160,0|2,0:0|0:0,0:0:0:0:
352,48,426746,2,0,P|402:45|389:145,1,160
411,135,427263,1,0,0:0:0:0:
411,135,427366,1,0,0:0:0:0:
408,136,427779,6,0,P|458:133|445:233,1,160,0|2,0:0|0:0,0:0:0:0:
400,136,428399,2,0,P|349:133|362:233,1,160
340,223,428916,1,0,0:0:0:0:
340,223,429019,1,0,0:0:0:0:
336,223,429432,6,0,P|285:220|298:320,1,160,4|2,0:0|0:0,0:0:0:0:
344,223,430052,2,0,P|394:220|381:320,1,160
56,248,430879,1,0,0:0:0:0:
432,64,431292,1,0,0:0:0:0:
280,352,431705,6,0,B|312:288|376:312|408:224,1,160
432,160,432325,1,2,0:0:0:0:
152,336,432945,6,2,B|120:272|56:296|24:208,1,160
352,320,434598,5,0,0:0:0:0:
360,344,434701,2,0,P|416:352|472:328,1,80
456,344,435011,2,0,P|448:280|440:240,1,80
440,248,435321,1,0,0:0:0:0:
368,224,435424,2,0,L|376:160,2,40
280,248,435837,2,0,P|272:312|264:352,1,80,2|0,0:0|0:0,0:0:0:0:
192,368,436251,5,0,0:0:0:0:
42,135,436457,2,0,P|40:120|32:56,1,80,4|0,0:0|0:0,0:0:0:0:
128,184,436870,2,0,P|130:199|138:263,1,80
138,263,437180,1,0,0:0:0:0:
138,263,437284,1,0,0:0:0:0:
56,296,437490,1,2,0:0:0:0:
56,296,437903,5,0,0:0:0:0:
376,176,438110,1,0,0:0:0:0:
128,352,438523,2,0,P|224:352|288:224,1,240,0|2,0:0|0:0,0:0:0:0:
216,184,439350,1,0,0:0:0:0:
216,184,439453,1,0,0:0:0:0:
216,184,439556,6,0,P|280:152|320:144,1,80
240,320,440176,2,0,P|144:360|72:152,1,360.000013732911,0|2,0:0|0:0,0:0:0:0:
200,16,441209,1,0,0:0:0:0:
176,232,441622,1,0,0:0:0:0:
376,304,442036,1,0,0:0:0:0:
512,136,442449,1,2,0:0:0:0:
512,136,442862,6,0,L|504:232,1,80
416,280,443275,2,0,L|424:184,1,80
328,320,443689,6,0,L|320:388,2,40
296,240,444102,1,2,0:0:0:0:
112,104,444722,1,0,0:0:0:0:
400,104,444928,1,4,0:0:0:0:
8,288,446994,5,0,0:0:0:0:
296,208,447201,1,4,0:0:0:0:
376,56,447614,2,0,L|368:184,1,120,0|2,0:0|0:0,0:0:0:0:
32,144,451127,5,0,0:0:0:0:
32,144,451230,1,0,0:0:0:0:
32,144,451333,1,0,0:0:0:0:
32,144,451746,2,0,L|24:320,1,160
424,248,452366,5,4,0:0:0:0:
480,144,452779,5,0,0:0:0:0:
480,144,452883,1,0,0:0:0:0:
480,144,452986,1,0,0:0:0:0:
480,144,453399,2,0,L|488:320,1,160
64,280,454019,6,0,B|72:304|72:304|64:328|64:328|80:312|96:312|104:320|120:320,1,80,4|0,0:0|0:0,0:0:0:0:
104,40,454432,5,0,0:0:0:0:
104,40,454536,1,0,0:0:0:0:
104,40,454639,1,0,0:0:0:0:
104,40,455052,2,0,L|96:216,1,160
336,136,455672,5,4,0:0:0:0:
152,288,455879,1,0,0:0:0:0:
408,40,456085,5,0,0:0:0:0:
408,40,456189,1,0,0:0:0:0:
408,40,456292,1,0,0:0:0:0:
408,40,456705,2,0,L|416:216,1,160
32,112,457325,5,4,0:0:0:0:
64,328,457738,6,0,P|160:336|192:256,1,160
448,328,458565,2,0,P|352:336|320:256,1,160
48,192,459804,5,0,0:0:0:0:
48,192,460217,2,0,L|0:200,11,40
48,192,461457,2,0,P|72:248|80:304,1,80,0|4,0:0|0:0,0:0:0:0:
312,336,464350,6,0,B|296:272|304:224|304:224|352:256|416:232|456:200,1,240
456,112,465176,2,0,B|376:152|336:128|336:128|336:80|264:16,1,240
208,88,466003,6,0,B|224:160|192:192|192:192|152:152|96:144|64:144,1,240
48,248,466829,2,0,B|120:248|152:304|152:304|184:352|272:304,1,240
264,232,467655,6,0,B|344:232|368:280|360:328|360:328|416:336|448:336,1,240
472,256,468482,2,0,P|472:184|480:136,4,120
360,240,469928,6,0,P|360:312|352:360,4,120
0,144,471374,1,4,0:0:0:0:
304,128,471788,5,0,0:0:0:0:
304,128,471891,1,0,0:0:0:0:
304,128,471994,2,0,P|368:152|448:96,1,160,0|4,0:0|0:0,0:0:0:0:
104,344,474267,5,0,0:0:0:0:
104,344,474680,1,0,0:0:0:0:
104,344,475094,1,2,0:0:0:0:
104,344,475507,1,0,0:0:0:0:
408,344,475920,5,0,0:0:0:0:
408,344,476333,1,0,0:0:0:0:
408,344,476746,1,2,0:0:0:0:
408,344,477160,1,0,0:0:0:0:
32,136,477986,1,0,0:0:0:0:
432,256,478399,1,0,0:0:0:0:
432,256,478503,1,0,0:0:0:0:
432,256,478606,1,0,0:0:0:0:
216,120,478813,2,0,P|256:32|280:128,1,240.000009155274,0|4,0:0|0:0,0:0:0:0:
88,88,493794,5,0,0:0:0:0:
0,208,494207,1,0,0:0:0:0:
104,344,494621,1,2,0:0:0:0:
176,312,494828,2,0,P|184:264|184:248,1,40
328,40,495138,2,0,P|336:88|336:104,1,40
408,112,495449,5,0,0:0:0:0:
248,80,495862,1,0,0:0:0:0:
104,112,496276,1,2,0:0:0:0:
168,64,496483,2,0,P|160:16|160:0,1,40
16,152,496794,2,0,P|24:200|24:216,1,40
48,280,497104,6,0,L|136:288,1,80
192,232,497518,2,0,L|280:240,1,80
352,248,497931,1,2,0:0:0:0:
496,184,498138,2,0,P|488:232|488:248,1,40
240,360,498449,2,0,P|248:312|248:296,1,40
448,120,498759,6,0,L|360:128,1,80
304,72,499173,2,0,L|216:80,1,80
144,88,499586,1,2,0:0:0:0:
0,24,499793,2,0,P|8:72|8:88,1,40
256,200,500104,2,0,P|248:152|248:136,1,40
16,208,500414,6,0,L|32:296,1,80
136,360,500828,2,0,L|120:272,1,80
168,216,501242,1,2,0:0:0:0:
280,288,501449,2,0,L|336:296,1,40
512,264,501759,2,0,L|456:256,1,40
480,80,502069,2,0,L|464:168,1,80
344,224,502483,2,0,L|360:136,1,80
376,64,502897,5,2,0:0:0:0:
264,136,503104,2,0,L|208:144,1,40
32,112,503414,2,0,L|88:104,1,40
32,304,503725,2,0,L|48:216,1,80
168,160,504139,2,0,L|152:248,1,80
136,320,504553,5,2,0:0:0:0:
248,248,504760,2,0,L|304:240,1,40
480,272,505070,2,0,L|424:280,1,40
376,120,505380,2,0,P|344:80|312:64,1,80
136,120,505794,2,0,P|168:80|200:64,1,80
256,112,506207,5,2,0:0:0:0:
304,176,506414,2,0,L|312:224,1,40
208,176,506725,2,0,L|200:224,1,40
80,344,507035,2,0,P|48:312|48:256,1,80
64,200,507449,1,0,0:0:0:0:
64,200,507552,1,0,0:0:0:0:
64,200,507656,1,0,0:0:0:0:
392,104,507862,5,2,0:0:0:0:
136,64,508069,1,0,0:0:0:0:
160,272,508276,2,0,L|184:368,1,80
200,168,508690,1,0,0:0:0:0:
200,168,508794,1,0,0:0:0:0:
200,168,508897,1,0,0:0:0:0:
232,240,509104,1,0,0:0:0:0:
232,240,509207,1,0,0:0:0:0:
232,240,509311,1,0,0:0:0:0:
256,320,509518,5,2,0:0:0:0:
488,64,509725,1,0,0:0:0:0:
256,320,509931,1,0,0:0:0:0:
312,168,510345,1,0,0:0:0:0:
312,168,510552,1,0,0:0:0:0:
280,240,510759,1,0,0:0:0:0:
256,320,510966,1,0,0:0:0:0:
256,320,511069,1,0,0:0:0:0:
256,320,511173,5,2,0:0:0:0:
24,64,511380,1,0,0:0:0:0:
256,320,511586,1,0,0:0:0:0:
464,64,512000,1,0,0:0:0:0:
448,224,512207,1,0,0:0:0:0:
344,104,512414,1,0,0:0:0:0:
312,264,512621,1,0,0:0:0:0:
216,136,512828,1,2,0:0:0:0:
176,288,513035,1,0,0:0:0:0:
48,64,513242,1,0,0:0:0:0:
48,64,513656,6,0,L|32:160,1,80
24,216,513966,1,0,0:0:0:0:
24,216,514069,2,0,P|56:240|80:288,1,80
96,344,514380,1,0,0:0:0:0:
96,344,514483,2,0,L|200:368,1,80
448,288,514897,1,2,0:0:0:0:
448,288,515207,5,0,0:0:0:0:
448,288,515311,2,0,L|456:216,3,40
368,320,515725,2,0,L|360:392,2,40
296,280,516138,1,0,0:0:0:0:
32,144,516345,1,0,0:0:0:0:
472,96,516552,1,2,0:0:0:0:
64,288,516966,6,0,L|56:216,3,40
144,320,517380,2,0,L|152:392,2,40
216,280,517793,1,0,0:0:0:0:
480,144,518000,1,0,0:0:0:0:
40,96,518207,1,2,0:0:0:0:
440,328,518621,5,0,0:0:0:0:
440,328,518725,2,0,P|400:360|320:344,1,120
424,240,519242,1,0,0:0:0:0:
424,240,519345,1,0,0:0:0:0:
424,240,519449,1,0,0:0:0:0:
112,144,519656,1,0,0:0:0:0:
112,144,520069,2,0,L|280:112,1,160
344,96,521104,5,0,0:0:0:0:
344,96,521518,2,0,P|360:144|360:176,1,80
168,288,521931,2,0,P|152:240|152:208,1,80,2|0,0:0|0:0,0:0:0:0:
448,176,522345,2,0,P|464:224|464:256,1,80,0|0,0:0|0:0,0:0:0:0:
272,368,522759,2,0,P|256:320|256:288,1,80
368,200,523173,6,0,L|280:216,1,80
24,176,523587,2,0,L|112:192,1,80,2|0,0:0|0:0,0:0:0:0:
48,272,524000,2,0,L|136:288,1,80
304,104,524414,6,0,L|216:120,1,80,2|0,0:0|0:0,0:0:0:0:
400,296,524828,2,0,L|488:280,1,80
304,200,525242,2,0,L|288:288,1,80,2|0,0:0|0:0,0:0:0:0:
112,360,525656,2,0,L|128:272,1,80
64,64,526069,2,0,L|48:152,1,80
32,224,526483,1,0,0:0:0:0:
32,224,526897,6,0,P|72:264|144:256,1,120.000004577637
208,96,527518,2,0,P|304:64|336:264,1,360.000013732911,0|2,0:0|0:0,0:0:0:0:
32,224,528552,6,0,P|72:264|144:256,1,120.000004577637
208,96,529173,2,0,P|304:64|336:264,1,360.000013732911,0|2,0:0|0:0,0:0:0:0:
160,320,530207,6,0,L|8:368,1,120.000004577637
160,320,530621,2,0,L|8:368,1,120.000004577637
160,320,531035,2,0,L|8:368,1,120.000004577637
160,320,531449,2,0,L|8:368,1,120.000004577637
160,320,531862,6,0,L|39:360,1,80
160,320,532069,2,0,L|39:360,1,80
160,320,532276,2,0,L|39:360,1,80
160,320,532483,2,0,L|39:360,1,80
160,320,532690,6,0,L|39:361,1,120.000004577637
328,296,533311,2,0,P|432:288|360:80,1,360.000013732911,0|2,0:0|0:0,0:0:0:0:
320,280,534345,2,0,P|256:208|104:176,1,240.000009155274
432,48,535173,6,0,L|448:144,1,80
400,248,535587,6,0,L|389:187,2,40
416,336,536000,1,0,0:0:0:0:
40,216,536207,1,0,0:0:0:0:
240,96,536414,1,2,0:0:0:0:
280,248,536828,2,0,L|232:264,2,40
360,224,537138,2,0,P|378:290|376:352,1,120
464,320,537656,1,0,0:0:0:0:
168,216,537862,1,0,0:0:0:0:
480,136,538069,1,2,0:0:0:0:
200,360,538483,6,0,L|192:312,3,40
120,336,538897,2,0,L|112:288,3,40
360,288,541794,5,0,0:0:0:0:
472,168,542207,1,0,0:0:0:0:
368,48,542621,1,2,0:0:0:0:
272,176,543035,1,0,0:0:0:0:
272,176,543449,2,0,B|200:160|176:192|88:176,1,160
40,144,544069,5,0,0:0:0:0:
40,144,544173,1,0,0:0:0:0:
40,144,544276,1,2,0:0:0:0:
256,296,544483,1,0,0:0:0:0:
472,144,544690,1,0,0:0:0:0:
144,64,545104,2,0,P|256:32|368:72,1,240
384,152,545931,5,2,0:0:0:0:
256,376,546138,1,0,0:0:0:0:
128,152,546345,1,0,0:0:0:0:
256,376,546552,1,0,0:0:0:0:
384,152,546759,2,0,L|392:328,1,160
391,311,547276,1,0,0:0:0:0:
464,280,547483,5,0,0:0:0:0:
464,280,547587,1,2,0:0:0:0:
256,192,547794,1,0,0:0:0:0:
48,280,548000,1,0,0:0:0:0:
48,280,548414,2,0,L|104:352,1,80
48,104,548828,2,0,L|104:32,1,80
176,56,549242,5,2,0:0:0:0:
400,192,549449,1,0,0:0:0:0:
176,328,549656,1,0,0:0:0:0:
176,328,550069,1,0,0:0:0:0:
72,208,550276,1,0,0:0:0:0:
184,96,550483,1,0,0:0:0:0:
320,184,550690,1,0,0:0:0:0:
392,328,550897,5,2,0:0:0:0:
480,192,551104,1,0,0:0:0:0:
384,64,551311,1,0,0:0:0:0:
384,64,551725,1,0,0:0:0:0:
232,112,551931,1,0,0:0:0:0:
248,272,552138,1,0,0:0:0:0:
112,352,552345,1,0,0:0:0:0:
40,208,552552,5,2,0:0:0:0:
136,80,552759,1,0,0:0:0:0:
280,144,552966,1,0,0:0:0:0:
280,144,553380,1,0,0:0:0:0:
352,288,553587,1,0,0:0:0:0:
472,184,553794,1,0,0:0:0:0:
400,40,554000,1,0,0:0:0:0:
352,192,554207,5,2,0:0:0:0:
192,184,554414,1,0,0:0:0:0:
128,328,554621,1,0,0:0:0:0:
128,328,555035,1,4,0:0:0:0:
496,56,566024,5,0,0:0:0:0:
400,80,566230,2,0,P|376:144|368:216,1,120.000004577637,0|2,0:0|0:0,0:0:0:0:
336,288,566644,5,0,0:0:0:0:
240,264,566851,2,0,P|216:200|208:128,1,120.000004577637
200,56,567265,5,2,0:0:0:0:
104,80,567472,2,0,P|80:144|72:216,1,120.000004577637
336,152,567886,2,0,P|360:88|368:16,1,120.000004577637,0|2,0:0|0:0,0:0:0:0:
256,48,568506,5,0,0:0:0:0:
256,192,568713,1,0,0:0:0:0:
256,336,568920,1,0,0:0:0:0:
24,120,569334,6,0,P|48:184|56:256,1,120.000004577637,0|2,0:0|0:0,0:0:0:0:
72,328,569748,5,0,0:0:0:0:
232,248,569954,2,0,P|256:184|264:112,1,120.000004577637
208,56,570368,5,2,0:0:0:0:
408,80,570575,2,0,P|432:144|440:216,1,120.000004577637
304,344,570989,2,0,P|280:280|272:208,1,120.000004577637,0|2,0:0|0:0,0:0:0:0:
272,229,571403,1,0,0:0:0:0:
96,192,571817,5,0,0:0:0:0:
256,136,572024,1,0,0:0:0:0:
416,192,572230,1,0,0:0:0:0:
88,352,575955,6,0,B|32:296|32:296|144:320|256:296|376:224|424:176,1,480.000018310548
48,152,579265,6,0,L|56:216,1,40
72,264,579472,2,0,L|160:280,1,80
256,352,579886,1,0,0:0:0:0:
440,264,580092,2,0,L|352:280,1,80,2|0,0:0|0:0,0:0:0:0:
144,184,580506,2,0,P|136:128|224:40,1,160
256,104,581127,6,0,L|256:192,1,80
368,184,581541,1,0,0:0:0:0:
368,184,581644,1,0,0:0:0:0:
368,184,581748,2,0,P|376:128|288:40,1,160,2|0,0:0|0:0,0:0:0:0:
152,304,582575,1,0,0:0:0:0:
256,352,582782,1,0,0:0:0:0:
256,352,582886,1,0,0:0:0:0:
256,352,582989,1,0,0:0:0:0:
360,304,583196,1,0,0:0:0:0:
360,304,583403,1,0,0:0:0:0:
392,40,584230,6,0,P|440:128|408:216,1,180.000006866455
40,312,585058,1,4,0:0:0:0:
96,80,585886,6,0,P|160:112|224:80,1,120.000004577637
280,40,586299,1,0,0:0:0:0:
376,24,586506,2,0,P|464:72|416:312,1,360.000013732911,0|2,0:0|0:0,0:0:0:0:
336,280,587334,1,0,0:0:0:0:
96,80,587541,6,0,P|160:112|224:80,1,120.000004577637,4|0,0:0|0:0,0:0:0:0:
280,40,587954,1,0,0:0:0:0:
376,24,588161,2,0,P|464:72|416:312,1,360.000013732911,0|2,0:0|0:0,0:0:0:0:
320,248,589196,6,0,B|200:272|232:352|104:352,1,240.000009155274
320,248,590024,2,0,B|200:272|232:352|104:352,1,240.000009155274
320,248,590851,6,0,B|200:272|232:352|104:352,1,240.000009155274,0|2,0:0|0:0,0:0:0:0:
328,112,594161,6,0,L|368:176,1,60.0000022888184
184,112,594575,2,0,L|144:176,1,60.0000022888184
432,168,594989,2,0,L|440:240,1,60.0000022888184,2|0,0:0|0:0,0:0:0:0:
73,227,595403,2,0,L|80:168,1,60.0000022888184
336,312,595817,2,0,P|256:352|176:320,1,180.000006866455,0|2,0:0|0:0,0:0:0:0:
176,320,597472,1,0,0:0:0:0:
256,256,598299,6,0,B|376:280|344:360|472:360,1,240.000009155274,0|2,0:0|0:0,0:0:0:0:
424,128,600782,5,0,0:0:0:0:
424,128,600886,2,0,P|440:200|440:232,1,80
400,272,601196,2,0,L|352:288,2,40
400,272,601817,1,0,0:0:0:0:
448,336,602024,5,0,0:0:0:0:
256,368,602230,1,0,0:0:0:0:
64,336,602437,1,2,0:0:0:0:
400,24,604092,6,0,B|424:80|400:120|440:184,1,160
480,264,604920,1,0,0:0:0:0:
392,344,605127,1,0,0:0:0:0:
40,224,605541,1,2,0:0:0:0:
424,352,610506,6,0,B|480:296|480:296|368:320|256:296|136:224|88:176,1,480.000018310548,4|0,0:0|0:0,0:0:0:0:
424,112,614024,5,0,0:0:0:0:
424,112,614127,2,0,P|448:168|448:248,1,120
392,328,614644,1,0,0:0:0:0:
392,328,614748,1,0,0:0:0:0:
392,328,614851,2,0,L|312:312,1,80,2|0,0:0|0:0,0:0:0:0:
32,320,615265,2,0,L|112:336,1,80,4|0,0:0|0:0,0:0:0:0:
64,176,615782,5,0,0:0:0:0:
64,176,615885,2,0,P|40:120|112:32,1,160
160,72,616506,1,0,0:0:0:0:
272,200,616713,1,0,0:0:0:0:
264,368,616920,1,2,0:0:0:0:
264,368,617334,5,0,0:0:0:0:
264,368,617437,2,0,P|344:344|392:336,1,120
456,328,617851,2,0,P|464:264|480:224,1,80
496,176,618161,1,0,0:0:0:0:
256,280,618368,1,0,0:0:0:0:
16,176,618575,1,2,0:0:0:0:
16,176,618989,6,0,L|24:232,1,40
96,224,619196,2,0,L|104:272,1,40
120,336,619403,1,0,0:0:0:0:
120,336,619506,1,0,0:0:0:0:
120,336,619610,1,0,0:0:0:0:
40,320,619817,5,0,0:0:0:0:
256,144,620024,1,0,0:0:0:0:
472,320,620230,1,2,0:0:0:0:
472,320,621058,6,0,P|504:248|480:152,1,160
120,96,621679,1,4,0:0:0:0:
392,40,622092,1,0,0:0:0:0:
264,192,622299,2,0,B|240:256|272:288|248:360,1,160,4|0,0:0|0:0,0:0:0:0:
